  0
SECTION
  2
HEADER
  9
$ACADVER
  1
AC1018
  9
$ACADMAINTVER
 70
   104
  9
$DWGCODEPAGE
  3
ANSI_1250
  9
$AUTHOR
  1
tmrtka
  9
$LASTSAVEDBY
  1
pfic
  9
$REVISIONNUMBER
  1
000
  9
$CUSTOMPROPERTYTAG
  1
Vedoucí
  9
$CUSTOMPROPERTY
  1

  9
$CUSTOMPROPERTYTAG
  1
Společnost
  9
$CUSTOMPROPERTY
  1

  9
$CUSTOMPROPERTYTAG
  1
Kategorie
  9
$CUSTOMPROPERTY
  1

  9
$CUSTOMPROPERTYTAG
  1
Číslo součásti
  9
$CUSTOMPROPERTY
  1
408228
  9
$CUSTOMPROPERTYTAG
  1
Popis
  9
$CUSTOMPROPERTY
  1

  9
$CUSTOMPROPERTYTAG
  1
Projekt
  9
$CUSTOMPROPERTY
  1

  9
$CUSTOMPROPERTYTAG
  1
Kreslil
  9
$CUSTOMPROPERTY
  1
tmrtka
  9
$CUSTOMPROPERTYTAG
  1
Schválil
  9
$CUSTOMPROPERTY
  1

  9
$CUSTOMPROPERTYTAG
  1
Zodpovídá
  9
$CUSTOMPROPERTY
  1

  9
$CUSTOMPROPERTYTAG
  1
Nákladové středisko
  9
$CUSTOMPROPERTY
  1

  9
$CUSTOMPROPERTYTAG
  1
Dodavatel
  9
$CUSTOMPROPERTY
  1

  9
$CUSTOMPROPERTYTAG
  1
Uživatelský stav
  9
$CUSTOMPROPERTY
  1

  9
$CUSTOMPROPERTYTAG
  1
Stav návrhu
  9
$CUSTOMPROPERTY
  1
Rozpracováno
  9
$CUSTOMPROPERTYTAG
  1
Zkontroloval
  9
$CUSTOMPROPERTY
  1

  9
$CUSTOMPROPERTYTAG
  1
Techn. kontr. schválil
  9
$CUSTOMPROPERTY
  1

  9
$CUSTOMPROPERTYTAG
  1
Výrobu schválil
  9
$CUSTOMPROPERTY
  1

  9
$CUSTOMPROPERTYTAG
  1
VS_First
  9
$CUSTOMPROPERTY
  1

  9
$CUSTOMPROPERTYTAG
  1
VS_All
  9
$CUSTOMPROPERTY
  1
1:1,
  9
$CUSTOMPROPERTYTAG
  1
Model_Mass_Value
  9
$CUSTOMPROPERTY
  1
,0
  9
$CUSTOMPROPERTYTAG
  1
Model_Mass_Units
  9
$CUSTOMPROPERTY
  1
kg
  9
$CUSTOMPROPERTYTAG
  1
Model_Area_Value
  9
$CUSTOMPROPERTY
  1
2694,0
  9
$CUSTOMPROPERTYTAG
  1
Model_Area_Units
  9
$CUSTOMPROPERTY
  1
mm˛
  9
$CUSTOMPROPERTYTAG
  1
Model_Volume_Value
  9
$CUSTOMPROPERTY
  1
5471,0
  9
$CUSTOMPROPERTYTAG
  1
Model_Volume_Units
  9
$CUSTOMPROPERTY
  1
mmł
  9
$CUSTOMPROPERTYTAG
  1
Model_CogX_Value
  9
$CUSTOMPROPERTY
  1
,0
  9
$CUSTOMPROPERTYTAG
  1
Model_CogY_Value
  9
$CUSTOMPROPERTY
  1
,0
  9
$CUSTOMPROPERTYTAG
  1
Model_CogZ_Value
  9
$CUSTOMPROPERTY
  1
,0
  9
$CUSTOMPROPERTYTAG
  1
Model_Cog_Units
  9
$CUSTOMPROPERTY
  1
mm
  9
$CUSTOMPROPERTYTAG
  1
Model_Ixx_Value
  9
$CUSTOMPROPERTY
  1
,0
  9
$CUSTOMPROPERTYTAG
  1
Model_Iyy_Value
  9
$CUSTOMPROPERTY
  1
,0
  9
$CUSTOMPROPERTYTAG
  1
Model_Izz_Value
  9
$CUSTOMPROPERTY
  1
,0
  9
$CUSTOMPROPERTYTAG
  1
Model_Ixy_Value
  9
$CUSTOMPROPERTY
  1
,0
  9
$CUSTOMPROPERTYTAG
  1
Model_Iyz_Value
  9
$CUSTOMPROPERTY
  1
,0
  9
$CUSTOMPROPERTYTAG
  1
Model_Ixz_Value
  9
$CUSTOMPROPERTY
  1
,0
  9
$CUSTOMPROPERTYTAG
  1
Model_MassMom_Units
  9
$CUSTOMPROPERTY
  1
kg mm˛
  9
$CUSTOMPROPERTYTAG
  1
FirstViewScale
  9
$CUSTOMPROPERTY
  1

  9
$CUSTOMPROPERTYTAG
  1
AllViewScales
  9
$CUSTOMPROPERTY
  1

  9
$CUSTOMPROPERTYTAG
  1
SaveDate
  9
$CUSTOMPROPERTY
  1
09/12/2007
  9
$CUSTOMPROPERTYTAG
  1
SaveTime
  9
$CUSTOMPROPERTY
  1
10:32
  9
$CUSTOMPROPERTYTAG
  1
PaperSize
  9
$CUSTOMPROPERTY
  1
A3
  9
$CUSTOMPROPERTYTAG
  1
DateSaved
  9
$CUSTOMPROPERTY
  1
12.09.2007
  9
$CUSTOMPROPERTYTAG
  1
TimeSaved
  9
$CUSTOMPROPERTY
  1
10:32 dop.
  9
$INSBASE
 10
0.0
 20
0.0
 30
0.0
  9
$EXTMIN
 10
68.2205225436719
 20
59.62795437386716
 30
-0.0015258207003583
  9
$EXTMAX
 10
441.046144313931
 20
676.0176102939499
 30
0.0000000349246037
  9
$LIMMIN
 10
0.0
 20
0.0
  9
$LIMMAX
 10
1050.0
 20
742.4999999999999
  9
$ORTHOMODE
 70
     0
  9
$REGENMODE
 70
     1
  9
$FILLMODE
 70
     1
  9
$QTEXTMODE
 70
     0
  9
$MIRRTEXT
 70
     0
  9
$LTSCALE
 40
2.5
  9
$ATTMODE
 70
     1
  9
$TEXTSIZE
 40
0.2
  9
$TRACEWID
 40
0.05
  9
$TEXTSTYLE
  7
Standard
  9
$CLAYER
  8
0
  9
$CELTYPE
  6
ByLayer
  9
$CECOLOR
 62
   256
  9
$CELTSCALE
 40
1.0
  9
$DISPSILH
 70
     0
  9
$DIMSCALE
 40
1.0
  9
$DIMASZ
 40
1.799999999999999
  9
$DIMEXO
 40
0.0625
  9
$DIMDLI
 40
0.38
  9
$DIMRND
 40
0.0
  9
$DIMDLE
 40
0.0
  9
$DIMEXE
 40
0.18
  9
$DIMTP
 40
0.0
  9
$DIMTM
 40
0.0
  9
$DIMTXT
 40
0.3499999940395355
  9
$DIMCEN
 40
0.09
  9
$DIMTSZ
 40
0.0
  9
$DIMTOL
 70
     0
  9
$DIMLIM
 70
     0
  9
$DIMTIH
 70
     1
  9
$DIMTOH
 70
     1
  9
$DIMSE1
 70
     0
  9
$DIMSE2
 70
     0
  9
$DIMTAD
 70
     0
  9
$DIMZIN
 70
     0
  9
$DIMBLK
  1

  9
$DIMASO
 70
     1
  9
$DIMSHO
 70
     1
  9
$DIMPOST
  1

  9
$DIMAPOST
  1

  9
$DIMALT
 70
     0
  9
$DIMALTD
 70
     2
  9
$DIMALTF
 40
25.4
  9
$DIMLFAC
 40
1.0
  9
$DIMTOFL
 70
     0
  9
$DIMTVP
 40
0.0
  9
$DIMTIX
 70
     0
  9
$DIMSOXD
 70
     0
  9
$DIMSAH
 70
     0
  9
$DIMBLK1
  1

  9
$DIMBLK2
  1

  9
$DIMSTYLE
  2
Standard
  9
$DIMCLRD
 70
     0
  9
$DIMCLRE
 70
     0
  9
$DIMCLRT
 70
     0
  9
$DIMTFAC
 40
1.0
  9
$DIMGAP
 40
0.09
  9
$DIMJUST
 70
     0
  9
$DIMSD1
 70
     0
  9
$DIMSD2
 70
     0
  9
$DIMTOLJ
 70
     1
  9
$DIMTZIN
 70
     0
  9
$DIMALTZ
 70
     0
  9
$DIMALTTZ
 70
     0
  9
$DIMUPT
 70
     0
  9
$DIMDEC
 70
     4
  9
$DIMTDEC
 70
     4
  9
$DIMALTU
 70
     2
  9
$DIMALTTD
 70
     2
  9
$DIMTXSTY
  7
Standard
  9
$DIMAUNIT
 70
     0
  9
$DIMADEC
 70
     0
  9
$DIMALTRND
 40
0.0
  9
$DIMAZIN
 70
     0
  9
$DIMDSEP
 70
    46
  9
$DIMATFIT
 70
     3
  9
$DIMFRAC
 70
     0
  9
$DIMLDRBLK
  1

  9
$DIMLUNIT
 70
     2
  9
$DIMLWD
 70
    -2
  9
$DIMLWE
 70
    -2
  9
$DIMTMOVE
 70
     0
  9
$LUNITS
 70
     2
  9
$LUPREC
 70
     4
  9
$SKETCHINC
 40
0.1
  9
$FILLETRAD
 40
0.0
  9
$AUNITS
 70
     0
  9
$AUPREC
 70
     0
  9
$MENU
  1
.
  9
$ELEVATION
 40
0.0
  9
$PELEVATION
 40
0.0
  9
$THICKNESS
 40
0.0
  9
$LIMCHECK
 70
     0
  9
$CHAMFERA
 40
0.0
  9
$CHAMFERB
 40
0.0
  9
$CHAMFERC
 40
0.0
  9
$CHAMFERD
 40
0.0
  9
$SKPOLY
 70
     0
  9
$TDCREATE
 40
2455804.377028426
  9
$TDUCREATE
 40
2455804.293695093
  9
$TDUPDATE
 40
2456553.477991447
  9
$TDUUPDATE
 40
2456553.394658114
  9
$TDINDWG
 40
0.0035883449
  9
$TDUSRTIMER
 40
0.0035883449
  9
$USRTIMER
 70
     1
  9
$ANGBASE
 50
0.0
  9
$ANGDIR
 70
     0
  9
$PDMODE
 70
     0
  9
$PDSIZE
 40
0.0
  9
$PLINEWID
 40
0.0
  9
$SPLFRAME
 70
     0
  9
$SPLINETYPE
 70
     6
  9
$SPLINESEGS
 70
     8
  9
$HANDSEED
  5
1E07
  9
$SURFTAB1
 70
     6
  9
$SURFTAB2
 70
     6
  9
$SURFTYPE
 70
     6
  9
$SURFU
 70
     6
  9
$SURFV
 70
     6
  9
$UCSBASE
  2

  9
$UCSNAME
  2

  9
$UCSORG
 10
0.0
 20
0.0
 30
0.0
  9
$UCSXDIR
 10
1.0
 20
0.0
 30
0.0
  9
$UCSYDIR
 10
0.0
 20
1.0
 30
0.0
  9
$UCSORTHOREF
  2

  9
$UCSORTHOVIEW
 70
     0
  9
$UCSORGTOP
 10
0.0
 20
0.0
 30
0.0
  9
$UCSORGBOTTOM
 10
0.0
 20
0.0
 30
0.0
  9
$UCSORGLEFT
 10
0.0
 20
0.0
 30
0.0
  9
$UCSORGRIGHT
 10
0.0
 20
0.0
 30
0.0
  9
$UCSORGFRONT
 10
0.0
 20
0.0
 30
0.0
  9
$UCSORGBACK
 10
0.0
 20
0.0
 30
0.0
  9
$PUCSBASE
  2

  9
$PUCSNAME
  2

  9
$PUCSORG
 10
0.0
 20
0.0
 30
0.0
  9
$PUCSXDIR
 10
1.0
 20
0.0
 30
0.0
  9
$PUCSYDIR
 10
0.0
 20
1.0
 30
0.0
  9
$PUCSORTHOREF
  2

  9
$PUCSORTHOVIEW
 70
     0
  9
$PUCSORGTOP
 10
0.0
 20
0.0
 30
0.0
  9
$PUCSORGBOTTOM
 10
0.0
 20
0.0
 30
0.0
  9
$PUCSORGLEFT
 10
0.0
 20
0.0
 30
0.0
  9
$PUCSORGRIGHT
 10
0.0
 20
0.0
 30
0.0
  9
$PUCSORGFRONT
 10
0.0
 20
0.0
 30
0.0
  9
$PUCSORGBACK
 10
0.0
 20
0.0
 30
0.0
  9
$USERI1
 70
     0
  9
$USERI2
 70
     0
  9
$USERI3
 70
     0
  9
$USERI4
 70
     0
  9
$USERI5
 70
     0
  9
$USERR1
 40
0.0
  9
$USERR2
 40
0.0
  9
$USERR3
 40
0.0
  9
$USERR4
 40
0.0
  9
$USERR5
 40
0.0
  9
$WORLDVIEW
 70
     1
  9
$SHADEDGE
 70
     3
  9
$SHADEDIF
 70
    70
  9
$TILEMODE
 70
     1
  9
$MAXACTVP
 70
    64
  9
$PINSBASE
 10
0.0
 20
0.0
 30
0.0
  9
$PLIMCHECK
 70
     0
  9
$PEXTMIN
 10
0.0
 20
0.0
 30
0.0
  9
$PEXTMAX
 10
1050.0
 20
742.4999999999999
 30
0.0
  9
$PLIMMIN
 10
0.0
 20
0.0
  9
$PLIMMAX
 10
1050.0
 20
742.4999999999999
  9
$UNITMODE
 70
     0
  9
$VISRETAIN
 70
     1
  9
$PLINEGEN
 70
     0
  9
$PSLTSCALE
 70
     1
  9
$TREEDEPTH
 70
  3020
  9
$CMLSTYLE
  2
Standard
  9
$CMLJUST
 70
     0
  9
$CMLSCALE
 40
1.0
  9
$PROXYGRAPHICS
 70
     1
  9
$MEASUREMENT
 70
     1
  9
$CELWEIGHT
370
    -1
  9
$ENDCAPS
280
     0
  9
$JOINSTYLE
280
     0
  9
$LWDISPLAY
290
     0
  9
$INSUNITS
 70
     4
  9
$HYPERLINKBASE
  1

  9
$STYLESHEET
  1

  9
$XEDIT
290
     1
  9
$CEPSNTYPE
380
     0
  9
$PSTYLEMODE
290
     1
  9
$FINGERPRINTGUID
  2
{7E4C27A2-7BB6-4D9A-A397-C1BF79E055C7}
  9
$VERSIONGUID
  2
{E6437589-DAD2-4917-B953-E227BCEE5611}
  9
$EXTNAMES
290
     1
  9
$PSVPSCALE
 40
0.0
  9
$OLESTARTUP
290
     0
  9
$SORTENTS
280
   127
  9
$INDEXCTL
280
     0
  9
$HIDETEXT
280
     1
  9
$XCLIPFRAME
290
     0
  9
$HALOGAP
280
     0
  9
$OBSCOLOR
 70
   257
  9
$OBSLTYPE
280
     0
  9
$INTERSECTIONDISPLAY
280
     0
  9
$INTERSECTIONCOLOR
 70
   257
  9
$DIMASSOC
280
     1
  9
$PROJECTNAME
  1

  0
ENDSEC
  0
SECTION
  2
CLASSES
  0
CLASS
  1
ACDBDICTIONARYWDFLT
  2
AcDbDictionaryWithDefault
  3
ObjectDBX Classes
 90
        0
 91
        1
280
     0
281
     0
  0
CLASS
  1
MATERIAL
  2
AcDbMaterial
  3
ObjectDBX Classes
 90
     1153
 91
        3
280
     0
281
     0
  0
CLASS
  1
VISUALSTYLE
  2
AcDbVisualStyle
  3
ObjectDBX Classes
 90
     4095
 91
       26
280
     0
281
     0
  0
CLASS
  1
SCALE
  2
AcDbScale
  3
ObjectDBX Classes
 90
     1153
 91
       17
280
     0
281
     0
  0
CLASS
  1
TABLESTYLE
  2
AcDbTableStyle
  3
ObjectDBX Classes
 90
     4095
 91
        1
280
     0
281
     0
  0
CLASS
  1
MLEADERSTYLE
  2
AcDbMLeaderStyle
  3
ACDB_MLEADERSTYLE_CLASS
 90
     4095
 91
        1
280
     0
281
     0
  0
CLASS
  1
CELLSTYLEMAP
  2
AcDbCellStyleMap
  3
ObjectDBX Classes
 90
     1152
 91
        2
280
     0
281
     0
  0
CLASS
  1
DICTIONARYVAR
  2
AcDbDictionaryVar
  3
ObjectDBX Classes
 90
        0
 91
        9
280
     0
281
     0
  0
CLASS
  1
ACME_DOCUMENT
  2
AcMeDbDoc
  3
AcMeServices
 90
     1024
 91
        2
280
     0
281
     0
  0
CLASS
  1
AMGSETTINGSOBJ
  2
AmgSettingsObj
  3
"AcadM|Product Description: AutoCAD Mechanical|Company: Autodesk, Inc."
 90
     1024
 91
        2
280
     0
281
     0
  0
CLASS
  1
ACMESCOPE
  2
AcMeScope
  3
AcMeServices
 90
     1024
 91
        1
280
     0
281
     0
  0
CLASS
  1
ACMECOMMANDHISTORY
  2
AcMeCommandHistory
  3
AcMeServices
 90
     1024
 91
        1
280
     0
281
     0
  0
CLASS
  1
ACIMSYSVARMAN
  2
AcImSysVarManager
  3
AcMeServices
 90
     1024
 91
        5
280
     0
281
     0
  0
CLASS
  1
ACIMINTSYSVAR
  2
AcImIntSysVar
  3
AcMeServices
 90
     1024
 91
       27
280
     0
281
     0
  0
CLASS
  1
ACMEDRAWINGMAN
  2
AcMeDrawingMan
  3
AcMeServices
 90
     1024
 91
        1
280
     0
281
     0
  0
CLASS
  1
ACMEVIEW
  2
AcMeView
  3
AcMeServices
 90
     1024
 91
        1
280
     0
281
     0
  0
CLASS
  1
ACDBENTITYCACHE
  2
AcMeEntityCache
  3
AcMeServices
 90
     1024
 91
        1
280
     0
281
     0
  0
CLASS
  1
ACMESTATEMGR
  2
AcMeStateMgr
  3
AcMeServices
 90
     1024
 91
        1
280
     0
281
     0
  0
CLASS
  1
ACGREFMASTER
  2
AcGrefMaster
  3
AcAttribServices
 90
     1024
 91
        1
280
     0
281
     0
  0
CLASS
  1
AM_DRAWING_MGR
  2
AcDmDwgMgr
  3
AcMechDwgViewMgmt
 90
     1024
 91
        1
280
     0
281
     0
  0
CLASS
  1
AM_DWG_DOCUMENT
  2
AcDmDwgDocument
  3
AcMechDwgViewMgmt
 90
     1024
 91
        1
280
     0
281
     0
  0
CLASS
  1
AM_DWG_SHEET
  2
AcDmSheet
  3
AcMechDwgViewMgmt
 90
     1024
 91
        2
280
     0
281
     0
  0
CLASS
  1
AM_VIEWDIMPARMAP
  2
AcDmViewDimParMap
  3
AcMechDwgViewMgmt
 90
     1024
 91
        2
280
     0
281
     0
  0
CLASS
  1
AMDTINTERNALREACTOR
  2
AmdtInternalReactor
  3
AcMeServices
 90
     1024
 91
        1
280
     0
281
     0
  0
CLASS
  1
ACIMREALSYSVAR
  2
AcImRealSysVar
  3
AcMeServices
 90
     1024
 91
        1
280
     0
281
     0
  0
CLASS
  1
AM_DWGMGR_NAME
  2
AcDmDwgMgrName
  3
AcMechDwgViewMgmt
 90
     1024
 91
        1
280
     0
281
     0
  0
CLASS
  1
ACME_DATABASE
  2
AcMeDbDatabase
  3
AcMeServices
 90
     1024
 91
        2
280
     0
281
     0
  0
CLASS
  1
ACRFINSADJUSTERMGR
  2
AcRfInsAdjusterMgr
  3
AcMeServices
 90
     1024
 91
        1
280
     0
281
     0
  0
CLASS
  1
ACGREFACADMASTER
  2
AcGrefacadMaster
  3
AcGrefServices
 90
     1024
 91
        1
280
     0
281
     0
  0
CLASS
  1
AMDTMENUSTATEMGR
  2
AmdtMenuStateMgr
  3
McadcomServices
 90
     1024
 91
        1
280
     0
281
     0
  0
CLASS
  1
AMDTMCOMMENUSTATE
  2
AmdtMcomMenuState
  3
McadcomServices
 90
     1024
 91
        1
280
     0
281
     0
  0
CLASS
  1
AMIMASTER
  2
AmiMaster
  3
AmiServices
 90
     1024
 91
        1
280
     0
281
     0
  0
CLASS
  1
MAPIAMMOUDLE
  2
MApiAmModule
  3
MApiAmServices
 90
     1024
 91
        1
280
     0
281
     0
  0
CLASS
  1
ACIMSTRSYSVAR
  2
AcImStrSysVar
  3
AcMeServices
 90
     1024
 91
        5
280
     0
281
     0
  0
CLASS
  1
AMDTADMENUSTATE
  2
AmdtAdMenuState
  3
DesignerServices
 90
     1024
 91
        1
280
     0
281
     0
  0
CLASS
  1
ADAPPL
  2
AcAdAppl
  3
DesignerServices
 90
     1024
 91
        1
280
     0
281
     0
  0
CLASS
  1
DEPMGR
  2
AcAdDepMgr
  3
DesignerServices
 90
     1024
 91
        1
280
     0
281
     0
  0
CLASS
  1
PARAMMGR
  2
AcAdParamMgr
  3
DesignerServices
 90
     1024
 91
        1
280
     0
281
     0
  0
CLASS
  1
PARAMSCOPE
  2
AcAdParamScope
  3
DesignerServices
 90
     1024
 91
        1
280
     0
281
     0
  0
CLASS
  1
NAMEDAPPL
  2
AcAdNamedAppl
  3
DesignerServices
 90
     1024
 91
        1
280
     0
281
     0
  0
CLASS
  1
AMDTDMMENUSTATE
  2
AmdtDmMenuState
  3
AcMechDwgViewMgmt
 90
     1024
 91
        1
280
     0
281
     0
  0
CLASS
  1
AMDTAMMENUSTATE
  2
AmdtAmMenuState
  3
DesignerAssemblies
 90
     1024
 91
        1
280
     0
281
     0
  0
CLASS
  1
ACAMPROJECT
  2
AcAmProject
  3
DesignerAssemblies
 90
     1024
 91
        1
280
     0
281
     0
  0
CLASS
  1
ACAMGRCOMPDEF
  2
AcAmGrCompDef
  3
DesignerAssemblies
 90
     1024
 91
        1
280
     0
281
     0
  0
CLASS
  1
ACAMCOMPDEF
  2
AcAmCompDef
  3
DesignerAssemblies
 90
     1024
 91
        1
280
     0
281
     0
  0
CLASS
  1
ACAMCOMPDEFMGR
  2
AcAmCompDefMgr
  3
DesignerAssemblies
 90
     1024
 91
        1
280
     0
281
     0
  0
CLASS
  1
AMCONTEXTMGR
  2
AcAmContextMgr
  3
DesignerAssemblies
 90
     1024
 91
        1
280
     0
281
     0
  0
CLASS
  1
ACAMCONTEXTMODELER
  2
AcAmContextModeler
  3
DesignerAssemblies
 90
     1024
 91
        1
280
     0
281
     0
  0
CLASS
  1
ACMDATADICTIONARY
  2
AcmDataDictionary
  3
"AcmSymBB|Product Description: AutoCAD Mechanical|Company: Autodesk, Inc."
 90
     1024
 91
        1
280
     0
281
     0
  0
CLASS
  1
CATALOGSTATE
  2
AcAmCatalogState
  3
DesignerAssemblies
 90
     1024
 91
        1
280
     0
281
     0
  0
CLASS
  1
ACAMGRCOMPDEFSET
  2
AcAmGrCompDefSet
  3
DesignerAssemblies
 90
     1024
 91
        1
280
     0
281
     0
  0
CLASS
  1
AMDTBROWSERDBTAB
  2
AmdtBrowserDbTab
  3
McadcomServices
 90
     1024
 91
        1
280
     0
281
     0
  0
CLASS
  1
CBROWSERAPPOBJECT
  2
CBrowserAppObject
  3
McadcomServices
 90
     1024
 91
        2
280
     0
281
     0
  0
CLASS
  1
DM_PLACEHOLDER
  2
AcDmSelsetPlaceholder
  3
AcMechDwgViewMgmt
 90
     1024
 91
        1
280
     0
281
     0
  0
CLASS
  1
ACMSTANDARDISO
  2
AcmStandardISO
  3
"Amdt_StdImp|Product Description: AutoCAD Mechanical|Company: Autodesk, Inc."
 90
     1024
 91
        1
280
     0
281
     0
  0
CLASS
  1
AMDTEDGESTANDARDISO13715
  2
AmdtEdgeStdISO13715
  3
"Amdt_StdImp|Product Description: AutoCAD Mechanical|Company: Autodesk, Inc."
 90
     1024
 91
        1
280
     0
281
     0
  0
CLASS
  1
ACMSURFSTANDARDISO2002
  2
AcmSurfTextStdISO2002
  3
"Amdt_StdImp|Product Description: AutoCAD Mechanical|Company: Autodesk, Inc."
 90
     1024
 91
        1
280
     0
281
     0
  0
CLASS
  1
ACMFCFSTANDARDISO
  2
AcmFCFStdISO
  3
"Amdt_StdImp|Product Description: AutoCAD Mechanical|Company: Autodesk, Inc."
 90
     1024
 91
        1
280
     0
281
     0
  0
CLASS
  1
ACMWELDSTANDARDISO
  2
AcmWeldingStdISO
  3
"Amdt_StdImp|Product Description: AutoCAD Mechanical|Company: Autodesk, Inc."
 90
     1024
 91
        1
280
     0
281
     0
  0
CLASS
  1
ACMIDSTANDARDISO
  2
AcmIdStdISO
  3
"Amdt_StdImp|Product Description: AutoCAD Mechanical|Company: Autodesk, Inc."
 90
     1024
 91
        1
280
     0
281
     0
  0
CLASS
  1
ACMDATUMSTANDARDISO
  2
AcmDatumStdISO
  3
"Amdt_StdImp|Product Description: AutoCAD Mechanical|Company: Autodesk, Inc."
 90
     1024
 91
        1
280
     0
281
     0
  0
CLASS
  1
ACMBOMSTANDARDISO
  2
AcmBOMStdISO
  3
"Amdt_StdImp|Product Description: AutoCAD Mechanical|Company: Autodesk, Inc."
 90
     1024
 91
        1
280
     0
281
     0
  0
CLASS
  1
ACMDETAILSTANDARDISO
  2
AmdtDetailSymStdISO
  3
"Amdt_StdImp|Product Description: AutoCAD Mechanical|Company: Autodesk, Inc."
 90
     1024
 91
        1
280
     0
281
     0
  0
CLASS
  1
ACMSECTIONSTANDARDISO2001
  2
AmdtSectionSymStdISO2001
  3
"Amdt_StdImp|Product Description: AutoCAD Mechanical|Company: Autodesk, Inc."
 90
     1024
 91
        1
280
     0
281
     0
  0
CLASS
  1
ACMCENTERLINESTANDARDISO
  2
AmdtCenterLineStdISO
  3
"Amdt_StdImp|Product Description: AutoCAD Mechanical|Company: Autodesk, Inc."
 90
     1024
 91
        1
280
     0
281
     0
  0
CLASS
  1
ACMTHREADLINESTANDARDISO
  2
AmdtThreadLineStdISO
  3
"Amdt_StdImp|Product Description: AutoCAD Mechanical|Company: Autodesk, Inc."
 90
     1024
 91
        1
280
     0
281
     0
  0
CLASS
  1
ACMNOTESTANDARDISO
  2
AmdtNoteStdISO
  3
"Amdt_StdImp|Product Description: AutoCAD Mechanical|Company: Autodesk, Inc."
 90
     1024
 91
        1
280
     0
281
     0
  0
CLASS
  1
ACMTAPERSTANDARDISO
  2
AcmTaperStdISO
  3
"Amdt_StdImp|Product Description: AutoCAD Mechanical|Company: Autodesk, Inc."
 90
     1024
 91
        1
280
     0
281
     0
  0
CLASS
  1
ACMANOOTATIONVIEWSTANDARDISO
  2
AmdtAnViewStdISO
  3
"Amdt_StdImp|Product Description: AutoCAD Mechanical|Company: Autodesk, Inc."
 90
     1024
 91
        1
280
     0
281
     0
  0
CLASS
  1
ACAMGLAYSTD
  2
AcAmgLayStd
  3
"AmgLay|Product Description: AutoCAD Mechanical|Company: Autodesk, Inc."
 90
     1024
 91
        1
280
     0
281
     0
  0
CLASS
  1
ACAMGDIMSTD
  2
AcAmgDimStd
  3
"AmgDim|Product Description: AutoCAD Mechanical|Company: Autodesk, Inc."
 90
     1024
 91
        1
280
     0
281
     0
  0
CLASS
  1
AMGOBJPROPCFG
  2
AmgObjPropCfg
  3
"AmgLay|Product Description: AutoCAD Mechanical|Company: Autodesk, Inc."
 90
     1025
 91
        1
280
     0
281
     0
  0
CLASS
  1
ACAMGHOLECHARTSTDISO
  2
AcAmgHoleChartStdISO
  3
AmgDim|Product Description: AutoCAD Mechanical|Company: Autodesk, Inc.
 90
     1024
 91
        1
280
     0
281
     0
  0
CLASS
  1
ACAMGTITLESTD
  2
AcAmgTitleStd
  3
"AmgTitle|Product Description: AutoCAD Mechanical|Company: Autodesk, Inc."
 90
     4095
 91
        1
280
     0
281
     0
  0
CLASS
  1
AMDTNOTETEMPLATEDB
  2
AmdtNoteTemplateDB
  3
AcmSymBB|Product Description: AutoCAD Mechanical|Company: Autodesk, Inc.
 90
     1024
 91
        6
280
     0
281
     0
  0
CLASS
  1
ACAMGFILTERDAT
  2
AcAmgFilterDat
  3
"AcadM|Product Description: AutoCAD Mechanical|Company: Autodesk, Inc."
 90
     1024
 91
        6
280
     0
281
     0
  0
CLASS
  1
AEC_REFEDIT_STATUS_TRACKER
  2
AecDbRefEditStatusTracker
  3
AecArchBase60|Product Desc: Autodesk Architectural Desktop 2007 |Company: Autodesk,Inc. |WEB Address: www.autodesk.com
 90
      129
 91
        1
280
     0
281
     0
  0
CLASS
  1
NPOCOLLECTION
  2
AcDbImpNonPersistentObjectsCollection
  3
ObjectDBX Classes
 90
     1153
 91
        1
280
     0
281
     0
  0
ENDSEC
  0
SECTION
  2
TABLES
  0
TABLE
  2
VPORT
  5
8
102
{ACAD_XDICTIONARY
360
1A11
102
}
330
0
100
AcDbSymbolTable
 70
     1
  0
VPORT
  5
57
330
8
100
AcDbSymbolTableRecord
100
AcDbViewportTableRecord
  2
*Active
 70
     0
 10
0.0
 20
0.0
 11
1.0
 21
1.0
 12
254.6333334288016
 22
367.8227823339085
 13
0.0
 23
0.0
 14
1.0
 24
1.0
 15
0.0
 25
0.0
 16
0.0
 26
0.0
 36
1.0
 17
0.0
 27
0.0
 37
0.0
 40
620.0226008469201
 41
1.810226155358898
 42
50.0
 43
0.0
 44
0.0
 50
0.0
 51
0.0
 71
     0
 72
   100
 73
     1
 74
     1
 75
     0
 76
     0
 77
     0
 78
     0
281
     0
 65
     1
110
0.0
120
0.0
130
0.0
111
1.0
121
0.0
131
0.0
112
0.0
122
1.0
132
0.0
 79
     0
146
0.0
  0
ENDTAB
  0
TABLE
  2
LTYPE
  5
5
330
0
100
AcDbSymbolTable
 70
    15
  0
LTYPE
  5
5B
330
5
100
AcDbSymbolTableRecord
100
AcDbLinetypeTableRecord
  2
ByBlock
 70
     0
  3

 72
    65
 73
     0
 40
0.0
  0
LTYPE
  5
5C
330
5
100
AcDbSymbolTableRecord
100
AcDbLinetypeTableRecord
  2
ByLayer
 70
     0
  3

 72
    65
 73
     0
 40
0.0
  0
LTYPE
  5
5D
330
5
100
AcDbSymbolTableRecord
100
AcDbLinetypeTableRecord
  2
Continuous
 70
     0
  3
Solid line
 72
    65
 73
     0
 40
0.0
  0
LTYPE
  5
1AB6
330
5
100
AcDbSymbolTableRecord
100
AcDbLinetypeTableRecord
  2
HIDDEN
 70
     0
  3
Skrytá __ __ __ __ __ __ __ __ __ __ __ __ __ __
 72
    65
 73
     2
 40
9.525
 49
6.349999999999999
 74
     0
 49
-3.174999999999999
 74
     0
  0
LTYPE
  5
1AB7
330
5
100
AcDbSymbolTableRecord
100
AcDbLinetypeTableRecord
  2
PHANTOM2
 70
     0
  3
Sdružená (.5x) ___ _ _ ___ _ _ ___ _ _ ___ _ _
 72
    65
 73
     6
 40
31.75
 49
15.875
 74
     0
 49
-3.174999999999999
 74
     0
 49
3.174999999999999
 74
     0
 49
-3.174999999999999
 74
     0
 49
3.174999999999999
 74
     0
 49
-3.174999999999999
 74
     0
  0
LTYPE
  5
1AB8
330
5
100
AcDbSymbolTableRecord
100
AcDbLinetypeTableRecord
  2
CENTER
 70
     0
  3
Středová ____ _ ____ _ ____ _ ____ _ ____ _ ____
 72
    65
 73
     4
 40
50.8
 49
31.75
 74
     0
 49
-6.349999999999999
 74
     0
 49
6.349999999999999
 74
     0
 49
-6.349999999999999
 74
     0
  0
LTYPE
  5
1AFE
330
5
100
AcDbSymbolTableRecord
100
AcDbLinetypeTableRecord
  2
AM_ISO02W050
 70
     0
  3
__ __ __ __ __ __ __ __ __ __ __ __ __ __ __
 72
    65
 73
     2
 40
7.5
 49
6.0
 74
     0
 49
-1.5
 74
     0
  0
LTYPE
  5
1AFF
330
5
100
AcDbSymbolTableRecord
100
AcDbLinetypeTableRecord
  2
AM_ISO08W050
 70
     0
  3
____ . ____ . ____ . ____ . ____ . ____ . ____
 72
    65
 73
     4
 40
18.0
 49
12.0
 74
     0
 49
-1.5
 74
     0
 49
3.0
 74
     0
 49
-1.5
 74
     0
  0
LTYPE
  5
1B00
330
5
100
AcDbSymbolTableRecord
100
AcDbLinetypeTableRecord
  2
AM_ISO09W050
 70
     0
  3
_____ . . _____ . . _____ . . ____ .. ____
 72
    65
 73
     6
 40
22.5
 49
12.0
 74
     0
 49
-1.5
 74
     0
 49
3.0
 74
     0
 49
-1.5
 74
     0
 49
3.0
 74
     0
 49
-1.5
 74
     0
  0
LTYPE
  5
1B01
330
5
100
AcDbSymbolTableRecord
100
AcDbLinetypeTableRecord
  2
Amconstr
 70
     0
  3
_______________________
 72
    65
 73
     2
 40
9999.0
 49
9999.0
 74
     0
 49
0.0
 74
     0
  0
LTYPE
  5
1B02
330
5
100
AcDbSymbolTableRecord
100
AcDbLinetypeTableRecord
  2
AM_ISO08W050x2
 70
     0
  3
__ . __ . __ . __ . __ . __
 72
    65
 73
     4
 40
9.0
 49
6.0
 74
     0
 49
-0.75
 74
     0
 49
1.5
 74
     0
 49
-0.75
 74
     0
  0
LTYPE
  5
1B03
330
5
100
AcDbSymbolTableRecord
100
AcDbLinetypeTableRecord
  2
AM_ISO02W050x2
 70
     0
  3
 _ _ _ _ _ _ _ _ _ _ _ _
 72
    65
 73
     2
 40
3.75
 49
3.0
 74
     0
 49
-0.75
 74
     0
  0
LTYPE
  5
1B06
330
5
100
AcDbSymbolTableRecord
100
AcDbLinetypeTableRecord
  2
Amzigzag
 70
     0
  3
/\/-/\/-/\/-/\/-/\/-/\/
 72
    65
 73
     2
 40
11.0001
 49
0.0001
 74
     4
 75
   136
340
1B05
 46
0.04
 50
0.0
 44
0.0
 45
0.0
 49
-11.0
 74
     0
  0
LTYPE
  5
1B15
330
5
100
AcDbSymbolTableRecord
100
AcDbLinetypeTableRecord
  2
ACISOWELD
 70
     0
  3
_ _ _ _ _
 72
    65
 73
     2
 40
2.0
 49
2.0
 74
     0
 49
-1.0
 74
     0
  0
LTYPE
  5
1B16
330
5
100
AcDbSymbolTableRecord
100
AcDbLinetypeTableRecord
  2
ACISOTGB
 70
     0
  3
__ . . __ . .
 72
    65
 73
     6
 40
9.0
 49
4.0
 74
     0
 49
-1.0
 74
     0
 49
1.0
 74
     0
 49
-1.0
 74
     0
 49
1.0
 74
     0
 49
-1.0
 74
     0
  0
LTYPE
  5
1B17
330
5
100
AcDbSymbolTableRecord
100
AcDbLinetypeTableRecord
  2
ACISOTGL
 70
     0
  3
_ _ _ _ _
 72
    65
 73
     2
 40
3.0
 49
2.0
 74
     0
 49
-1.0
 74
     0
  0
ENDTAB
  0
TABLE
  2
LAYER
  5
2
330
0
100
AcDbSymbolTable
 70
    17
  0
LAYER
  5
54
330
2
100
AcDbSymbolTableRecord
100
AcDbLayerTableRecord
  2
0
 70
     0
 62
     7
  6
Continuous
370
    -3
390
F
  0
LAYER
  5
76
330
2
100
AcDbSymbolTableRecord
100
AcDbLayerTableRecord
  2
Čára řezu (ISO)
 70
     0
 62
     3
420
    65280
  6
Continuous
370
    18
390
F
  0
LAYER
  5
78
330
2
100
AcDbSymbolTableRecord
100
AcDbLayerTableRecord
  2
Geometrie náčrtu (ISO)
 70
     0
 62
     7
  6
Continuous
370
     9
390
F
  0
LAYER
  5
79
330
2
100
AcDbSymbolTableRecord
100
AcDbLayerTableRecord
  2
KOPF
 70
     0
 62
     8
420
  8421504
  6
Continuous
370
     9
390
F
  0
LAYER
  5
7A
330
2
100
AcDbSymbolTableRecord
100
AcDbLayerTableRecord
  2
Kóta (ISO)
 70
     0
 62
     5
420
      255
  6
Continuous
370
     9
390
F
  0
LAYER
  5
7B
330
2
100
AcDbSymbolTableRecord
100
AcDbLayerTableRecord
  2
Nadpis (ISO)
 70
     0
 62
     7
  6
Continuous
370
    18
390
F
  0
LAYER
  5
7D
330
2
100
AcDbSymbolTableRecord
100
AcDbLayerTableRecord
  2
Osa (ISO)
 70
     0
 62
     1
420
 16711680
  6
Continuous
370
     9
390
F
  0
LAYER
  5
85
330
2
100
AcDbSymbolTableRecord
100
AcDbLayerTableRecord
  2
Rámeček (ISO)
 70
     0
 62
     7
  6
Continuous
370
    35
390
F
  0
LAYER
  5
88
330
2
100
AcDbSymbolTableRecord
100
AcDbLayerTableRecord
  2
Skrytá (ISO)
 70
     0
 62
   142
420
    32960
  6
Continuous
370
     9
390
F
  0
LAYER
  5
89
330
2
100
AcDbSymbolTableRecord
100
AcDbLayerTableRecord
  2
Středová značka (ISO)
 70
     0
 62
     1
420
 16711680
  6
Continuous
370
     9
390
F
  0
LAYER
  5
8A
330
2
100
AcDbSymbolTableRecord
100
AcDbLayerTableRecord
  2
Šrafy (ISO)
 70
     0
 62
     6
420
 16711935
  6
Continuous
370
     9
390
F
  0
LAYER
  5
8B
330
2
100
AcDbSymbolTableRecord
100
AcDbLayerTableRecord
  2
TEXT35
 70
     0
 62
    12
420
 13369344
  6
Continuous
370
    20
390
F
  0
LAYER
  5
8C
330
2
100
AcDbSymbolTableRecord
100
AcDbLayerTableRecord
  2
TEXT50
 70
     0
 62
     7
  6
Continuous
370
    20
390
F
  0
LAYER
  5
8D
330
2
100
AcDbSymbolTableRecord
100
AcDbLayerTableRecord
  2
Viditelná (ISO)
 70
     0
 62
     7
  6
Continuous
370
    35
390
F
  0
LAYER
  5
8E
330
2
100
AcDbSymbolTableRecord
100
AcDbLayerTableRecord
  2
Viditelná tenká (ISO)
 70
     0
 62
     7
  6
Continuous
370
     9
390
F
  0
LAYER
  5
8F
330
2
100
AcDbSymbolTableRecord
100
AcDbLayerTableRecord
  2
Značka (ISO)
 70
     0
 62
     5
420
      255
  6
Continuous
370
     9
390
F
  0
LAYER
  5
1399
330
2
100
AcDbSymbolTableRecord
100
AcDbLayerTableRecord
  2
Defpoints
 70
     0
 62
     7
  6
Continuous
290
     0
370
    -3
390
F
  0
ENDTAB
  0
TABLE
  2
STYLE
  5
3
330
0
100
AcDbSymbolTable
 70
    21
  0
STYLE
  5
55
330
3
100
AcDbSymbolTableRecord
100
AcDbTextStyleTableRecord
  2
Standard
 70
     0
 40
0.0
 41
1.0
 50
0.0
 71
     0
 42
0.2
  3
TAHOMA.TTF
  4

1001
ACAD
1000
Tahoma
1071
      256
  0
STYLE
  5
5A
330
3
100
AcDbSymbolTableRecord
100
AcDbTextStyleTableRecord
  2
Annotative
 70
     0
 40
0.0
 41
1.0
 50
0.0
 71
     0
 42
0.2
  3
txt
  4

1001
AcadAnnotative
1000
AnnotativeData
1002
{
1070
     1
1070
     1
1002
}
  0
STYLE
  5
90
330
3
100
AcDbSymbolTableRecord
100
AcDbTextStyleTableRecord
  2
ITALICC8_57
 70
     0
 40
0.0
 41
1.0
 50
0.0
 71
     0
 42
0.2
  3
TAHOMA.TTF
  4

1001
ACAD
1000
Tahoma
1071
      256
  0
STYLE
  5
91
330
3
100
AcDbSymbolTableRecord
100
AcDbTextStyleTableRecord
  2
kusovnik
 70
     0
 40
0.0
 41
1.0
 50
0.0
 71
     0
 42
0.2
  3
ARIAL.TTF
  4

1001
ACAD
1000
Arial
1071
      256
  0
STYLE
  5
92
330
3
100
AcDbSymbolTableRecord
100
AcDbTextStyleTableRecord
  2
ROMANS8_69
 70
     0
 40
0.0
 41
1.0
 50
0.0
 71
     0
 42
0.2
  3
TAHOMA.TTF
  4

1001
ACAD
1000
Tahoma
1071
      256
  0
STYLE
  5
93
330
3
100
AcDbSymbolTableRecord
100
AcDbTextStyleTableRecord
  2
Text popisu (ISO)
 70
     0
 40
0.0
 41
1.0
 50
0.0
 71
     0
 42
0.2
  3
TAHOMA.TTF
  4

1001
ACAD
1000
Tahoma
1071
      256
  0
STYLE
  5
94
330
3
100
AcDbSymbolTableRecord
100
AcDbTextStyleTableRecord
  2
Text poznámky (DIN)
 70
     0
 40
0.0
 41
1.0
 50
0.0
 71
     0
 42
0.2
  3
isocpeur.ttf
  4

1001
ACAD
1000
ISOCPEUR
1071
      256
  0
STYLE
  5
95
330
3
100
AcDbSymbolTableRecord
100
AcDbTextStyleTableRecord
  2
Text poznámky (ISO)
 70
     0
 40
0.0
 41
1.0
 50
0.0
 71
     0
 42
0.2
  3
TAHOMA.TTF
  4

1001
ACAD
1000
Tahoma
1071
      256
  0
STYLE
  5
96
330
3
100
AcDbSymbolTableRecord
100
AcDbTextStyleTableRecord
  2
TEXT20_41
 70
     0
 40
0.0
 41
1.0
 50
0.0
 71
     0
 42
0.2
  3
TAHOMA.TTF
  4

1001
ACAD
1000
Tahoma
1071
      256
  0
STYLE
  5
97
330
3
100
AcDbSymbolTableRecord
100
AcDbTextStyleTableRecord
  2
TEXT20_59
 70
     0
 40
0.0
 41
1.0
 50
0.0
 71
     0
 42
0.2
  3
TAHOMA.TTF
  4

1001
ACAD
1000
Tahoma
1071
      256
  0
STYLE
  5
1B1
330
3
100
AcDbSymbolTableRecord
100
AcDbTextStyleTableRecord
  2
Styl textu62
 70
     0
 40
0.0
 41
0.8000000119209289
 50
0.0
 71
     0
 42
0.2
  3
TAHOMA.TTF
  4

1001
ACAD
1000
Tahoma
1071
      256
  0
STYLE
  5
1B8
330
3
100
AcDbSymbolTableRecord
100
AcDbTextStyleTableRecord
  2
Styl textu58
 70
     0
 40
0.0
 41
0.8000000119209289
 50
0.0
 71
     0
 42
0.2
  3
TAHOMA.TTF
  4

1001
ACAD
1000
Tahoma
1071
      256
  0
STYLE
  5
1BA
330
3
100
AcDbSymbolTableRecord
100
AcDbTextStyleTableRecord
  2
Styl textu63
 70
     0
 40
0.0
 41
0.75
 50
0.0
 71
     0
 42
0.2
  3
TAHOMA.TTF
  4

1001
ACAD
1000
Tahoma
1071
      256
  0
STYLE
  5
1BD
330
3
100
AcDbSymbolTableRecord
100
AcDbTextStyleTableRecord
  2
Styl textu72
 70
     0
 40
0.0
 41
0.6999999880790711
 50
0.0
 71
     0
 42
0.2
  3
TAHOMA.TTF
  4

1001
ACAD
1000
Tahoma
1071
      256
  0
STYLE
  5
1C0
330
3
100
AcDbSymbolTableRecord
100
AcDbTextStyleTableRecord
  2
Styl textu75
 70
     0
 40
0.0
 41
0.8000000119209289
 50
0.0
 71
     0
 42
0.2
  3
TAHOMA.TTF
  4

1001
ACAD
1000
Tahoma
1071
      256
  0
STYLE
  5
1D7
330
3
100
AcDbSymbolTableRecord
100
AcDbTextStyleTableRecord
  2
Styl textu9
 70
     0
 40
0.0
 41
1.0
 50
0.0
 71
     0
 42
0.2
  3
ARIAL.TTF
  4

1001
ACAD
1000
Arial
1071
      256
  0
STYLE
  5
1DB
330
3
100
AcDbSymbolTableRecord
100
AcDbTextStyleTableRecord
  2
Styl textu40
 70
     0
 40
0.0
 41
1.0
 50
0.0
 71
     0
 42
0.2
  3
ARIAL.TTF
  4

1001
ACAD
1000
Arial
1071
      256
  0
STYLE
  5
1E0
330
3
100
AcDbSymbolTableRecord
100
AcDbTextStyleTableRecord
  2
Styl textu94
 70
     0
 40
0.0
 41
1.0
 50
0.0
 71
     0
 42
0.2
  3
TAHOMA.TTF
  4

1001
ACAD
1000
Tahoma
1071
      256
  0
STYLE
  5
1B05
330
3
100
AcDbSymbolTableRecord
100
AcDbTextStyleTableRecord
  2

 70
     1
 40
0.0
 41
1.0
 50
0.0
 71
     0
 42
0.2
  3
genltshp.shx
  4

  0
STYLE
  5
1B13
330
3
100
AcDbSymbolTableRecord
100
AcDbTextStyleTableRecord
  2
ACISOTS
 70
     0
 40
1.0
 41
1.0
 50
0.0
 71
     0
 42
0.2
  3
isocp.shx
  4

  0
STYLE
  5
1B14
330
3
100
AcDbSymbolTableRecord
100
AcDbTextStyleTableRecord
  2
ACISOGDT
 70
     0
 40
0.0
 41
1.0
 50
0.0
 71
     0
 42
0.2
  3
amgdt.shx
  4

  0
ENDTAB
  0
TABLE
  2
VIEW
  5
6
330
0
100
AcDbSymbolTable
 70
     0
  0
ENDTAB
  0
TABLE
  2
UCS
  5
7
330
0
100
AcDbSymbolTable
 70
     0
  0
ENDTAB
  0
TABLE
  2
APPID
  5
9
330
0
100
AcDbSymbolTable
 70
    20
  0
APPID
  5
56
330
9
100
AcDbSymbolTableRecord
100
AcDbRegAppTableRecord
  2
ACAD
 70
     0
  0
APPID
  5
5E
330
9
100
AcDbSymbolTableRecord
100
AcDbRegAppTableRecord
  2
AcadAnnotative
 70
     0
  0
APPID
  5
1DA
330
9
100
AcDbSymbolTableRecord
100
AcDbRegAppTableRecord
  2
AcadAnnoPO
 70
     0
  0
APPID
  5
1A47
330
9
100
AcDbSymbolTableRecord
100
AcDbRegAppTableRecord
  2
ACAD_MLEADERVER
 70
     0
  0
APPID
  5
1A89
330
9
100
AcDbSymbolTableRecord
100
AcDbRegAppTableRecord
  2
MCAD_NO_VIS
 70
     0
  0
APPID
  5
1A8A
330
9
100
AcDbSymbolTableRecord
100
AcDbRegAppTableRecord
  2
ACAD_TEMP_GRAPHIC
 70
     0
  0
APPID
  5
1ABA
330
9
100
AcDbSymbolTableRecord
100
AcDbRegAppTableRecord
  2
AD_DRAW
 70
     0
  0
APPID
  5
1ABD
330
9
100
AcDbSymbolTableRecord
100
AcDbRegAppTableRecord
  2
ACATTRIBSERVICES
 70
     0
  0
APPID
  5
1ADD
330
9
100
AcDbSymbolTableRecord
100
AcDbRegAppTableRecord
  2
DESIGNERASSEMBLIES
 70
     0
  0
APPID
  5
1AE3
330
9
100
AcDbSymbolTableRecord
100
AcDbRegAppTableRecord
  2
ACADM_DIM_EDIT
 70
     0
  0
APPID
  5
1AE4
330
9
100
AcDbSymbolTableRecord
100
AcDbRegAppTableRecord
  2
AMDT_DM_ADJ
 70
     0
  0
APPID
  5
1AFB
330
9
100
AcDbSymbolTableRecord
100
AcDbRegAppTableRecord
  2
ACAD_DSTYLE_DIMJAG
 70
     0
  0
APPID
  5
1AFC
330
9
100
AcDbSymbolTableRecord
100
AcDbRegAppTableRecord
  2
ACAD_DSTYLE_DIMBREAK
 70
     0
  0
APPID
  5
1D96
330
9
100
AcDbSymbolTableRecord
100
AcDbRegAppTableRecord
  2
ACAD_EXEMPT_FROM_CAD_STANDARDS
 70
     0
  0
APPID
  5
1D9E
330
9
100
AcDbSymbolTableRecord
100
AcDbRegAppTableRecord
  2
GENIUS_GENDTOL_13
 70
     0
  0
APPID
  5
1D9F
330
9
100
AcDbSymbolTableRecord
100
AcDbRegAppTableRecord
  2
ACAD_DSTYLE_DIMINSPECT
 70
     0
  0
APPID
  5
1E03
330
9
100
AcDbSymbolTableRecord
100
AcDbRegAppTableRecord
  2
ACAD_DSTYLE_DIMARC_LENGTH_SYMBOL
 70
     0
  0
APPID
  5
1E04
330
9
100
AcDbSymbolTableRecord
100
AcDbRegAppTableRecord
  2
ACAD_DSTYLE_DIM_LINETYPE
 70
     0
  0
APPID
  5
1E05
330
9
100
AcDbSymbolTableRecord
100
AcDbRegAppTableRecord
  2
ACAD_DSTYLE_DIM_EXT1_LINETYPE
 70
     0
  0
APPID
  5
1E06
330
9
100
AcDbSymbolTableRecord
100
AcDbRegAppTableRecord
  2
ACAD_DSTYLE_DIM_EXT2_LINETYPE
 70
     0
  0
ENDTAB
  0
TABLE
  2
DIMSTYLE
  5
A
330
0
100
AcDbSymbolTable
 70
    24
100
AcDbDimStyleTable
 71
     2
340
58
340
B0
  0
DIMSTYLE
105
58
330
A
100
AcDbSymbolTableRecord
100
AcDbDimStyleTableRecord
  2
Standard
 70
     0
340
55
  0
DIMSTYLE
105
59
330
A
100
AcDbSymbolTableRecord
100
AcDbDimStyleTableRecord
  2
Annotative
 70
     0
340
55
1001
AcadAnnotative
1000
AnnotativeData
1002
{
1070
     1
1070
     1
1002
}
  0
DIMSTYLE
105
A6
330
A
100
AcDbSymbolTableRecord
100
AcDbDimStyleTableRecord
  2
Různé objekty (ISO)
 70
     0
 40
2.5
 41
2.5
 42
0.0
 43
5.999999999999999
 44
1.0
 45
0.00000001
 46
10.0
 73
     0
 74
     0
 77
     1
 78
     8
 79
     2
140
5.25
143
0.03937
146
0.6676571709769112
147
0.762
171
     3
172
     1
176
   256
177
   256
178
   256
179
     2
271
     2
272
     2
274
     3
278
    44
284
     8
340
93
341
98
371
    -1
372
    -1
  0
DIMSTYLE
105
A7
330
A
100
AcDbSymbolTableRecord
100
AcDbDimStyleTableRecord
  2
Různé objekty (ISO)$7
 70
     0
 40
2.5
 41
5.0
 42
0.0
 43
5.999999999999999
 44
1.0
 45
0.00000001
 46
10.0
 73
     0
 74
     0
 77
     1
 78
     8
 79
     2
140
5.25
143
0.03937
146
0.6676571709769112
147
0.762
171
     3
172
     1
176
   256
177
   256
178
   256
179
     2
271
     2
272
     2
274
     3
278
    44
284
     8
340
93
341
98
371
    25
372
    -1
  0
DIMSTYLE
105
A8
330
A
100
AcDbSymbolTableRecord
100
AcDbDimStyleTableRecord
  2
Výchozí - Metoda 1b (ISO)
 70
     0
 40
2.5
 41
2.5
 42
0.0
 43
5.999999999999999
 44
1.0
 45
0.00000001
 46
10.0
 73
     0
 77
     1
 78
     8
 79
     2
140
3.5
143
0.03937
147
0.762
171
     3
172
     1
176
   256
177
   256
178
   256
179
     2
271
     2
272
     2
274
     3
278
    44
284
     8
286
     8
340
95
371
    -1
372
    -1
  0
DIMSTYLE
105
A9
330
A
100
AcDbSymbolTableRecord
100
AcDbDimStyleTableRecord
  2
Výchozí - Metoda 1b (ISO)$7
 70
     0
 40
2.5
 41
2.5
 42
0.0
 43
5.999999999999999
 44
1.0
 45
0.00000001
 46
10.0
 73
     0
 77
     1
 78
     8
 79
     2
140
3.5
143
0.03937
147
0.762
171
     3
172
     1
176
   256
177
   256
178
   256
179
     2
271
     2
272
     2
274
     3
278
    44
284
     8
286
     8
340
95
371
    -1
372
    -1
  0
DIMSTYLE
105
AA
330
A
100
AcDbSymbolTableRecord
100
AcDbDimStyleTableRecord
  2
Výchozí - Metoda 2a (ISO)
 70
     0
 40
2.5
 41
2.5
 42
0.0
 43
5.999999999999999
 44
1.0
 45
0.00000001
 46
10.0
 77
     1
 78
     8
 79
     2
140
3.5
143
0.03937
147
0.762
171
     3
172
     1
176
   256
177
   256
178
   256
179
     2
271
     2
272
     2
274
     3
278
    44
284
     8
286
     8
340
95
371
    -1
372
    -1
  0
DIMSTYLE
105
AB
330
A
100
AcDbSymbolTableRecord
100
AcDbDimStyleTableRecord
  2
Výchozí - Metoda 2a (ISO)$7
 70
     0
 40
2.5
 41
2.5
 42
0.0
 43
5.999999999999999
 44
1.0
 45
0.00000001
 46
10.0
 77
     1
 78
     8
 79
     2
140
3.5
143
0.03937
147
0.762
171
     3
172
     1
176
   256
177
   256
178
   256
179
     2
271
     2
272
     2
274
     3
278
    44
284
     8
286
     8
340
95
371
    -1
372
    -1
  0
DIMSTYLE
105
AC
330
A
100
AcDbSymbolTableRecord
100
AcDbDimStyleTableRecord
  2
Výchozí - Metoda 2b (ISO)
 70
     0
 40
2.5
 41
2.5
 42
0.0
 43
5.999999999999999
 44
1.0
 45
0.00000001
 46
10.0
 77
     1
 78
     8
 79
     2
140
3.5
143
0.03937
147
0.762
171
     3
172
     1
176
   256
177
   256
178
   256
179
     2
271
     2
272
     2
274
     3
278
    44
284
     8
286
     8
340
95
371
    -1
372
    -1
  0
DIMSTYLE
105
AD
330
A
100
AcDbSymbolTableRecord
100
AcDbDimStyleTableRecord
  2
Výchozí - Metoda 2b (ISO)$7
 70
     0
 40
2.5
 41
2.5
 42
0.0
 43
5.999999999999999
 44
1.0
 45
0.00000001
 46
10.0
 77
     1
 78
     8
 79
     2
140
3.5
143
0.03937
147
0.762
171
     3
172
     1
176
   256
177
   256
178
   256
179
     2
271
     2
272
     2
274
     3
278
    44
284
     8
286
     8
340
95
371
    -1
372
    -1
  0
DIMSTYLE
105
AE
330
A
100
AcDbSymbolTableRecord
100
AcDbDimStyleTableRecord
  2
Výchozí - mm [palce] (ISO)
 70
     0
  4
 in
 40
2.5
 41
2.5
 42
0.0
 43
5.999999999999999
 44
3.174999999999999
 45
0.00000001
 46
10.0
 73
     0
 74
     0
 77
     1
 78
     8
 79
     2
140
3.5
143
0.03937
147
0.762
170
     1
171
     3
172
     1
176
   256
177
   256
178
   256
179
     3
271
     3
272
     2
274
     3
275
     1
278
    44
284
     8
285
     8
286
     8
340
95
371
    -1
372
    -1
  0
DIMSTYLE
105
AF
330
A
100
AcDbSymbolTableRecord
100
AcDbDimStyleTableRecord
  2
Výchozí - mm [palce] (ISO)$7
 70
     0
  4
 in
 40
2.5
 41
2.5
 42
0.0
 43
5.999999999999999
 44
3.174999999999999
 45
0.00000001
 46
10.0
 73
     0
 74
     0
 77
     1
 78
     8
 79
     2
140
3.5
143
0.03937
147
0.762
170
     1
171
     3
172
     1
176
   256
177
   256
178
   256
179
     3
271
     3
272
     2
274
     3
275
     1
278
    44
284
     8
285
     8
286
     8
340
95
371
    -1
372
    -1
  0
DIMSTYLE
105
B0
102
{ACAD_REACTORS
330
1398
330
147B
330
155D
330
1895
102
}
330
A
100
AcDbSymbolTableRecord
100
AcDbDimStyleTableRecord
  2
Výchozí (ISO)
 70
     0
 40
2.5
 41
2.5
 42
0.0
 43
5.999999999999999
 44
1.0
 45
0.00000001
 46
10.0
 73
     0
 74
     0
 77
     1
 78
     8
 79
     2
140
3.5
143
0.03937
146
1.001485756465366
147
0.762
171
     3
172
     1
176
   256
177
   256
178
   256
179
     2
271
     2
272
     2
274
     3
278
    44
284
     8
340
95
371
    -1
372
    -1
  0
DIMSTYLE
105
B1
330
A
100
AcDbSymbolTableRecord
100
AcDbDimStyleTableRecord
  2
Výchozí (ISO)$7
 70
     0
 40
2.5
 41
2.5
 42
0.0
 43
5.999999999999999
 44
1.0
 45
0.00000001
 46
10.0
 73
     0
 74
     0
 77
     1
 78
     8
 79
     2
140
3.5
143
0.03937
146
1.001485756465366
147
0.762
171
     3
172
     1
176
   256
177
   256
178
   256
179
     2
271
     2
272
     2
274
     3
278
    44
284
     8
340
95
371
    -1
372
    -1
  0
DIMSTYLE
105
B2
330
A
100
AcDbSymbolTableRecord
100
AcDbDimStyleTableRecord
  2
Alternativní (ISO)
 70
     0
 40
2.5
 41
2.5
340
55
342
B3
  0
DIMSTYLE
105
C4
330
A
100
AcDbSymbolTableRecord
100
AcDbDimStyleTableRecord
  2
Základny (ISO)
 70
     0
 40
2.5
 41
2.5
340
55
342
B3
  0
DIMSTYLE
105
1AFA
102
{ACAD_REACTORS
330
1AE9
102
}
330
A
100
AcDbSymbolTableRecord
100
AcDbDimStyleTableRecord
  2
AM_ISO
 70
     0
  4
"
 41
3.5
 42
1.0
 43
10.0
 44
1.0
 47
0.1
 48
0.1
 73
     0
 74
     0
 77
     1
 78
     8
 79
     2
140
3.5
141
0.0
143
0.0393701
146
0.71
147
1.5
172
     1
176
   256
177
   256
178
     2
271
     2
272
     3
274
     4
283
     0
284
     8
340
55
371
    -1
372
    -1
1001
ACAD_DSTYLE_DIMJAG
1070
   388
1040
1.5
1001
ACAD_DSTYLE_DIMBREAK
1070
   391
1040
3.75
1001
ACAD_DSTYLE_DIMARC_LENGTH_SYMBOL
1070
   379
1070
     1
1001
ACAD_DSTYLE_DIM_LINETYPE
1070
   380
1005
5B
1001
ACAD_DSTYLE_DIM_EXT1_LINETYPE
1070
   381
1005
5B
1001
ACAD_DSTYLE_DIM_EXT2_LINETYPE
1070
   382
1005
5B
  0
DIMSTYLE
105
1B07
330
A
100
AcDbSymbolTableRecord
100
AcDbDimStyleTableRecord
  2
AM_ISO$3
 70
     0
  4
"
 41
3.5
 42
1.0
 43
10.0
 44
1.0
 47
0.1
 48
0.1
 73
     0
 77
     1
 78
     8
 79
     2
140
3.5
141
0.0
143
0.0393701
146
0.71
147
1.5
176
   256
177
   256
178
     2
271
     2
272
     3
274
     4
283
     0
284
     8
288
     1
289
     0
340
55
371
    -1
372
    -1
1001
ACAD_DSTYLE_DIMBREAK
1070
   391
1040
3.75
1001
ACAD_DSTYLE_DIMJAG
1070
   388
1040
1.5
1001
ACAD_DSTYLE_DIMARC_LENGTH_SYMBOL
1070
   379
1070
     1
1001
ACAD_DSTYLE_DIM_LINETYPE
1070
   380
1005
5B
1001
ACAD_DSTYLE_DIM_EXT1_LINETYPE
1070
   381
1005
5B
1001
ACAD_DSTYLE_DIM_EXT2_LINETYPE
1070
   382
1005
5B
  0
DIMSTYLE
105
1B08
330
A
100
AcDbSymbolTableRecord
100
AcDbDimStyleTableRecord
  2
AM_ISO$4
 70
     0
  4
"
 41
3.5
 42
1.0
 43
10.0
 44
1.0
 47
0.1
 48
0.1
 73
     0
 77
     1
 78
     8
 79
     2
140
3.5
141
0.0
143
0.0393701
146
0.71
147
1.5
176
   256
177
   256
178
     2
271
     2
272
     3
274
     4
283
     0
284
     8
288
     1
289
     0
340
55
371
    -1
372
    -1
1001
ACAD_DSTYLE_DIMBREAK
1070
   391
1040
3.75
1001
ACAD_DSTYLE_DIMJAG
1070
   388
1040
1.5
1001
ACAD_DSTYLE_DIMARC_LENGTH_SYMBOL
1070
   379
1070
     1
1001
ACAD_DSTYLE_DIM_LINETYPE
1070
   380
1005
5B
1001
ACAD_DSTYLE_DIM_EXT1_LINETYPE
1070
   381
1005
5B
1001
ACAD_DSTYLE_DIM_EXT2_LINETYPE
1070
   382
1005
5B
  0
DIMSTYLE
105
1B09
330
A
100
AcDbSymbolTableRecord
100
AcDbDimStyleTableRecord
  2
AM_ISO$6
 70
     0
  4
"
 41
3.5
 42
1.0
 43
10.0
 44
1.0
 47
0.1
 48
0.1
 73
     0
 74
     0
 78
     8
 79
     2
140
3.5
141
0.0
143
0.0393701
146
0.71
147
1.5
172
     1
176
   256
177
   256
178
     2
271
     2
272
     3
274
     4
283
     0
284
     8
340
55
371
    -1
372
    -1
1001
ACAD_DSTYLE_DIMBREAK
1070
   391
1040
3.75
1001
ACAD_DSTYLE_DIMJAG
1070
   388
1040
1.5
1001
ACAD_DSTYLE_DIMARC_LENGTH_SYMBOL
1070
   379
1070
     1
1001
ACAD_DSTYLE_DIM_LINETYPE
1070
   380
1005
5B
1001
ACAD_DSTYLE_DIM_EXT1_LINETYPE
1070
   381
1005
5B
1001
ACAD_DSTYLE_DIM_EXT2_LINETYPE
1070
   382
1005
5B
  0
DIMSTYLE
105
1B0A
330
A
100
AcDbSymbolTableRecord
100
AcDbDimStyleTableRecord
  2
AM_ISO$7
 70
     0
  4
"
 41
3.5
 42
1.0
 43
10.0
 44
1.0
 47
0.1
 48
0.1
 73
     0
 74
     0
 77
     1
 78
     8
 79
     2
140
3.5
141
0.0
143
0.0393701
146
0.71
147
1.5
172
     1
176
   256
177
   256
178
     2
271
     2
272
     3
274
     4
283
     0
284
     8
340
55
371
    -1
372
    -1
1001
ACAD_DSTYLE_DIMBREAK
1070
   391
1040
3.75
1001
ACAD_DSTYLE_DIMJAG
1070
   388
1040
1.5
1001
ACAD_DSTYLE_DIMARC_LENGTH_SYMBOL
1070
   379
1070
     1
1001
ACAD_DSTYLE_DIM_LINETYPE
1070
   380
1005
5B
1001
ACAD_DSTYLE_DIM_EXT1_LINETYPE
1070
   381
1005
5B
1001
ACAD_DSTYLE_DIM_EXT2_LINETYPE
1070
   382
1005
5B
  0
DIMSTYLE
105
1B0B
330
A
100
AcDbSymbolTableRecord
100
AcDbDimStyleTableRecord
  2
AM_ISO$SF
 70
     0
  4
"
 41
3.5
 42
1.0
 43
10.0
 44
1.0
 47
0.1
 48
0.1
 73
     0
 74
     0
 75
     1
 76
     1
 77
     1
 78
     8
 79
     2
140
3.5
141
0.0
143
0.0393701
146
0.71
147
1.5
172
     1
176
   256
177
   256
178
     2
271
     2
272
     3
274
     4
283
     0
284
     8
340
55
371
    -1
372
    -1
1001
ACAD_DSTYLE_DIMBREAK
1070
   391
1040
3.75
1001
ACAD_DSTYLE_DIMJAG
1070
   388
1040
1.5
1001
ACAD_DSTYLE_DIMARC_LENGTH_SYMBOL
1070
   379
1070
     1
1001
ACAD_DSTYLE_DIM_LINETYPE
1070
   380
1005
5B
1001
ACAD_DSTYLE_DIM_EXT1_LINETYPE
1070
   381
1005
5B
1001
ACAD_DSTYLE_DIM_EXT2_LINETYPE
1070
   382
1005
5B
  0
DIMSTYLE
105
1B10
330
A
100
AcDbSymbolTableRecord
100
AcDbDimStyleTableRecord
  2
AM_ISO$SH
 70
     0
  4
"
 41
3.5
 42
1.0
 43
10.0
 44
1.0
 47
0.1
 48
0.1
 73
     0
 74
     0
 75
     1
 76
     1
 77
     1
 78
     8
 79
     2
140
3.5
141
0.0
143
0.0393701
144
2.0
146
0.71
147
1.5
172
     1
173
     1
176
   256
177
   256
178
     2
271
     2
272
     3
274
     4
283
     0
284
     8
340
55
343
1B0C
371
    -1
372
    -1
1001
ACAD_DSTYLE_DIMBREAK
1070
   391
1040
3.75
1001
ACAD_DSTYLE_DIMJAG
1070
   388
1040
1.5
1001
ACAD_DSTYLE_DIMARC_LENGTH_SYMBOL
1070
   379
1070
     1
1001
ACAD_DSTYLE_DIM_LINETYPE
1070
   380
1005
5B
1001
ACAD_DSTYLE_DIM_EXT1_LINETYPE
1070
   381
1005
5B
1001
ACAD_DSTYLE_DIM_EXT2_LINETYPE
1070
   382
1005
5B
  0
ENDTAB
  0
TABLE
  2
BLOCK_RECORD
  5
1
330
0
100
AcDbSymbolTable
 70
    37
  0
BLOCK_RECORD
  5
6C
330
1
100
AcDbSymbolTableRecord
100
AcDbBlockTableRecord
  2
*Model_Space
340
6F
  0
BLOCK_RECORD
  5
68
330
1
100
AcDbSymbolTableRecord
100
AcDbBlockTableRecord
  2
*Paper_Space
340
6B
  0
BLOCK_RECORD
  5
70
330
1
100
AcDbSymbolTableRecord
100
AcDbBlockTableRecord
  2
*Paper_Space0
340
73
  0
BLOCK_RECORD
  5
98
330
1
100
AcDbSymbolTableRecord
100
AcDbBlockTableRecord
  2
Filled-1
340
0
  0
BLOCK_RECORD
  5
B3
330
1
100
AcDbSymbolTableRecord
100
AcDbBlockTableRecord
  2
_Closed
340
0
  0
BLOCK_RECORD
  5
BA
330
1
100
AcDbSymbolTableRecord
100
AcDbBlockTableRecord
  2
DatumFilled45
340
0
  0
BLOCK_RECORD
  5
C5
330
1
100
AcDbSymbolTableRecord
100
AcDbBlockTableRecord
  2
WIG-svarovani
340
0
  0
BLOCK_RECORD
  5
CA
330
1
100
AcDbSymbolTableRecord
100
AcDbBlockTableRecord
  2
Popis kotvy_srouby
340
0
  0
BLOCK_RECORD
  5
CE
330
1
100
AcDbSymbolTableRecord
100
AcDbBlockTableRecord
  2
Mater. provedeni Art.
340
0
  0
BLOCK_RECORD
  5
F0
330
1
100
AcDbSymbolTableRecord
100
AcDbBlockTableRecord
  2
Art. s popisy
340
0
  0
BLOCK_RECORD
  5
112
330
1
100
AcDbSymbolTableRecord
100
AcDbBlockTableRecord
  2
Tryskat
340
0
  0
BLOCK_RECORD
  5
116
330
1
100
AcDbSymbolTableRecord
100
AcDbBlockTableRecord
  2
Morit
340
0
  0
BLOCK_RECORD
  5
11A
330
1
100
AcDbSymbolTableRecord
100
AcDbBlockTableRecord
  2
zinkovat
340
0
  0
BLOCK_RECORD
  5
11E
330
1
100
AcDbSymbolTableRecord
100
AcDbBlockTableRecord
  2
Nater
340
0
  0
BLOCK_RECORD
  5
122
330
1
100
AcDbSymbolTableRecord
100
AcDbBlockTableRecord
  2
Brus
340
0
  0
BLOCK_RECORD
  5
126
330
1
100
AcDbSymbolTableRecord
100
AcDbBlockTableRecord
  2
Elektroliticky lestit
340
0
  0
BLOCK_RECORD
  5
12B
330
1
100
AcDbSymbolTableRecord
100
AcDbBlockTableRecord
  2
Rámečky Default Border
340
0
  0
BLOCK_RECORD
  5
172
330
1
100
AcDbSymbolTableRecord
100
AcDbBlockTableRecord
  2
Rohová razítka ACO-razitko
340
0
  0
BLOCK_RECORD
  5
1319
330
1
100
AcDbSymbolTableRecord
100
AcDbBlockTableRecord
  2
KUSOVNÍK
340
0
  0
BLOCK_RECORD
  5
1386
330
1
100
AcDbSymbolTableRecord
100
AcDbBlockTableRecord
  2
Pozice1
340
0
  0
BLOCK_RECORD
  5
139A
330
1
100
AcDbSymbolTableRecord
100
AcDbBlockTableRecord
  2
*D18
340
0
  0
BLOCK_RECORD
  5
147C
330
1
100
AcDbSymbolTableRecord
100
AcDbBlockTableRecord
  2
*D19
340
0
  0
BLOCK_RECORD
  5
155E
330
1
100
AcDbSymbolTableRecord
100
AcDbBlockTableRecord
  2
*D20
340
0
  0
BLOCK_RECORD
  5
164A
330
1
100
AcDbSymbolTableRecord
100
AcDbBlockTableRecord
  2
Pozice2
340
0
  0
BLOCK_RECORD
  5
165C
330
1
100
AcDbSymbolTableRecord
100
AcDbBlockTableRecord
  2
Pozice3
340
0
  0
BLOCK_RECORD
  5
166F
330
1
100
AcDbSymbolTableRecord
100
AcDbBlockTableRecord
  2
Pozice4
340
0
  0
BLOCK_RECORD
  5
1682
330
1
100
AcDbSymbolTableRecord
100
AcDbBlockTableRecord
  2
Identifikátor značky svaru1
340
0
  0
BLOCK_RECORD
  5
1698
330
1
100
AcDbSymbolTableRecord
100
AcDbBlockTableRecord
  2
2dPrevedenyRez0
340
0
  0
BLOCK_RECORD
  5
185B
330
1
100
AcDbSymbolTableRecord
100
AcDbBlockTableRecord
  2
Pozice5
340
0
  0
BLOCK_RECORD
  5
1896
330
1
100
AcDbSymbolTableRecord
100
AcDbBlockTableRecord
  2
*D27
340
0
  0
BLOCK_RECORD
  5
1979
330
1
100
AcDbSymbolTableRecord
100
AcDbBlockTableRecord
  2
Pozice6
340
0
  0
BLOCK_RECORD
  5
1B0C
330
1
100
AcDbSymbolTableRecord
100
AcDbBlockTableRecord
  2
GENAXEH
340
0
  0
BLOCK_RECORD
  5
1B1F
330
1
100
AcDbSymbolTableRecord
100
AcDbBlockTableRecord
  2
*D31
340
0
  0
BLOCK_RECORD
  5
1B2B
330
1
100
AcDbSymbolTableRecord
100
AcDbBlockTableRecord
  2
*D32
340
0
  0
BLOCK_RECORD
  5
1D59
330
1
100
AcDbSymbolTableRecord
100
AcDbBlockTableRecord
  2
*D34
340
0
  0
BLOCK_RECORD
  5
1D65
330
1
100
AcDbSymbolTableRecord
100
AcDbBlockTableRecord
  2
*D35
340
0
  0
ENDTAB
  0
ENDSEC
  0
SECTION
  2
BLOCKS
  0
BLOCK
  5
6D
330
6C
100
AcDbEntity
  8
0
100
AcDbBlockBegin
  2
*Model_Space
 70
     0
 10
0.0
 20
0.0
 30
0.0
  3
*Model_Space
  1

  0
ENDBLK
  5
6E
330
6C
100
AcDbEntity
  8
0
100
AcDbBlockEnd
  0
BLOCK
  5
69
330
68
100
AcDbEntity
 67
     1
  8
0
100
AcDbBlockBegin
  2
*Paper_Space
 70
     0
 10
0.0
 20
0.0
 30
0.0
  3
*Paper_Space
  1

  0
ENDBLK
  5
6A
330
68
100
AcDbEntity
 67
     1
  8
0
100
AcDbBlockEnd
  0
BLOCK
  5
71
330
70
100
AcDbEntity
 67
     1
  8
0
100
AcDbBlockBegin
  2
*Paper_Space0
 70
     0
 10
0.0
 20
0.0
 30
0.0
  3
*Paper_Space0
  1

  0
ENDBLK
  5
72
330
70
100
AcDbEntity
 67
     1
  8
0
100
AcDbBlockEnd
  0
BLOCK
  5
99
330
98
100
AcDbEntity
  8
0
100
AcDbBlockBegin
  2
Filled-1
 70
     0
 10
0.0
 20
0.0
 30
0.0
  3
Filled-1
  1

  0
LINE
  5
9B
330
98
100
AcDbEntity
  8
0
 62
     0
100
AcDbLine
 10
-1.0
 20
0.0
 30
0.0
 11
0.0
 21
0.0
 31
0.0
  0
POLYLINE
  5
9C
330
98
100
AcDbEntity
  8
0
 62
     0
100
AcDb2dPolyline
 66
     1
 10
0.0
 20
0.0
 30
0.0
 70
   128
  0
VERTEX
  5
9D
330
9C
100
AcDbEntity
  8
0
 62
     0
100
AcDbVertex
100
AcDb2dVertex
 10
-1.0
 20
-0.1
 30
0.0
  0
VERTEX
  5
9E
330
9C
100
AcDbEntity
  8
0
 62
     0
100
AcDbVertex
100
AcDb2dVertex
 10
0.0
 20
0.0
 30
0.0
  0
VERTEX
  5
A0
330
9C
100
AcDbEntity
  8
0
 62
     0
100
AcDbVertex
100
AcDb2dVertex
 10
-1.0
 20
0.1
 30
0.0
  0
VERTEX
  5
A1
330
9C
100
AcDbEntity
  8
0
 62
     0
100
AcDbVertex
100
AcDb2dVertex
 10
-1.0
 20
-0.1
 30
0.0
  0
SEQEND
  5
9F
330
9C
100
AcDbEntity
  8
0
 62
     0
  0
SOLID
  5
A2
330
98
100
AcDbEntity
  8
0
 62
     0
100
AcDbTrace
 10
-1.0
 20
-0.1
 30
0.0
 11
0.0
 21
0.0
 31
0.0
 12
-1.0
 22
0.1
 32
0.0
 13
-1.0
 23
-0.1
 33
0.0
  0
LINE
  5
A3
330
98
100
AcDbEntity
  8
0
 62
     0
100
AcDbLine
 10
-1.0
 20
-0.1
 30
0.0
 11
0.0
 21
0.0
 31
0.0
  0
LINE
  5
A4
330
98
100
AcDbEntity
  8
0
 62
     0
100
AcDbLine
 10
0.0
 20
0.0
 30
0.0
 11
-1.0
 21
0.1
 31
0.0
  0
LINE
  5
A5
330
98
100
AcDbEntity
  8
0
 62
     0
100
AcDbLine
 10
-1.0
 20
0.1
 30
0.0
 11
-1.0
 21
-0.1
 31
0.0
  0
ENDBLK
  5
9A
330
98
100
AcDbEntity
  8
0
100
AcDbBlockEnd
  0
BLOCK
  5
B8
330
B3
100
AcDbEntity
  8
0
100
AcDbBlockBegin
  2
_Closed
 70
     0
 10
0.0
 20
0.0
 30
0.0
  3
_Closed
  1

  0
LINE
  5
B4
330
B3
100
AcDbEntity
  8
0
  6
ByBlock
 62
     0
370
    -2
100
AcDbLine
 10
-1.0
 20
0.1666666666666666
 30
0.0
 11
0.0
 21
0.0
 31
0.0
  0
LINE
  5
B5
330
B3
100
AcDbEntity
  8
0
  6
ByBlock
 62
     0
370
    -2
100
AcDbLine
 10
0.0
 20
0.0
 30
0.0
 11
-1.0
 21
-0.1666666666666666
 31
0.0
  0
LINE
  5
B6
330
B3
100
AcDbEntity
  8
0
  6
ByBlock
 62
     0
370
    -2
100
AcDbLine
 10
-1.0
 20
0.1666666666666666
 30
0.0
 11
-1.0
 21
-0.1666666666666666
 31
0.0
  0
LINE
  5
B7
330
B3
100
AcDbEntity
  8
0
  6
ByBlock
 62
     0
370
    -2
100
AcDbLine
 10
0.0
 20
0.0
 30
0.0
 11
-1.0
 21
0.0
 31
0.0
  0
ENDBLK
  5
B9
330
B3
100
AcDbEntity
  8
0
100
AcDbBlockEnd
  0
BLOCK
  5
BB
330
BA
100
AcDbEntity
  8
0
100
AcDbBlockBegin
  2
DatumFilled45
 70
     0
 10
0.0
 20
0.0
 30
0.0
  3
DatumFilled45
  1

  0
POLYLINE
  5
BD
330
BA
100
AcDbEntity
  8
0
 62
     0
100
AcDb2dPolyline
 66
     1
 10
0.0
 20
0.0
 30
0.0
 70
   128
  0
VERTEX
  5
BE
330
BD
100
AcDbEntity
  8
0
 62
     0
100
AcDbVertex
100
AcDb2dVertex
 10
0.0
 20
1.0
 30
0.0
  0
VERTEX
  5
BF
330
BD
100
AcDbEntity
  8
0
 62
     0
100
AcDbVertex
100
AcDb2dVertex
 10
0.0
 20
-1.0
 30
0.0
  0
VERTEX
  5
C1
330
BD
100
AcDbEntity
  8
0
 62
     0
100
AcDbVertex
100
AcDb2dVertex
 10
-1.0
 20
0.0
 30
0.0
  0
VERTEX
  5
C2
330
BD
100
AcDbEntity
  8
0
 62
     0
100
AcDbVertex
100
AcDb2dVertex
 10
0.0
 20
1.0
 30
0.0
  0
SEQEND
  5
C0
330
BD
100
AcDbEntity
  8
0
 62
     0
  0
SOLID
  5
C3
330
BA
100
AcDbEntity
  8
0
 62
     0
100
AcDbTrace
 10
0.0
 20
1.0
 30
0.0
 11
0.0
 21
-1.0
 31
0.0
 12
-1.0
 22
0.0
 32
0.0
 13
0.0
 23
1.0
 33
0.0
  0
ENDBLK
  5
BC
330
BA
100
AcDbEntity
  8
0
100
AcDbBlockEnd
  0
BLOCK
  5
C6
330
C5
100
AcDbEntity
  8
0
100
AcDbBlockBegin
  2
WIG-svarovani
 70
     0
 10
0.0
 20
0.0
 30
0.0
  3
WIG-svarovani
  1

  0
MTEXT
  5
C8
102
{ACAD_XDICTIONARY
360
1DC6
102
}
330
C5
100
AcDbEntity
  8
Značka (ISO)
100
AcDbMText
 10
-57.87338256835937
 20
16.31795931607484
 30
0.0
 40
3.499999940395355
 41
115.7467651367187
 71
     1
 72
     1
  1
WIG Schweisung, Nahte sauber geschliffen und poliert\PSichtstege geschliffen mit 240 Korn und abgeklebt.\P{\H0.85714x; \P\H1.1667x;WIG svarovani- svary dle potreby zabrousit.\PPohledove plochy brousit (vel. brusnych zrn 240)\Pa polepit paskou}
  7
Text poznámky (ISO)
 73
     1
 44
0.959658920764923
  0
ENDBLK
  5
C7
330
C5
100
AcDbEntity
  8
0
100
AcDbBlockEnd
  0
BLOCK
  5
CB
330
CA
100
AcDbEntity
  8
0
100
AcDbBlockBegin
  2
Popis kotvy_srouby
 70
     0
 10
0.0
 20
0.0
 30
0.0
  3
Popis kotvy_srouby
  1

  0
MTEXT
  5
CD
330
CA
100
AcDbEntity
  8
Značka (ISO)
100
AcDbMText
 10
-39.79761123657226
 20
21.84130281209946
 30
0.0
 40
3.499999940395355
 41
0.0
 71
     1
 72
     1
  1
Vzdalenost nivel. sroubu ca. 1500\PVzdalenost kotev ca. 400\PVzdalenost dist. koliku ca. 250\P\PAbstand der Nivellieschraben ca.1500\PAbstand der Maueranker ca.400\PAbstand der Distanzstege ca.250\P
  7
Text poznámky (ISO)
 73
     2
 44
0.9878841638565063
  0
ENDBLK
  5
CC
330
CA
100
AcDbEntity
  8
0
100
AcDbBlockEnd
  0
BLOCK
  5
CF
330
CE
100
AcDbEntity
  8
0
100
AcDbBlockBegin
  2
Mater. provedeni Art.
 70
     0
 10
0.0
 20
0.0
 30
0.0
  3
Mater. provedeni Art.
  1

  0
LINE
  5
D1
330
CE
100
AcDbEntity
  8
Geometrie náčrtu (ISO)
100
AcDbLine
 10
-35.0
 20
-22.5
 30
0.0
 11
35.0
 21
-22.5
 31
0.0
  0
LINE
  5
D2
330
CE
100
AcDbEntity
  8
Geometrie náčrtu (ISO)
100
AcDbLine
 10
35.0
 20
-22.5
 30
0.0
 11
34.99999999999996
 21
-13.49999999999998
 31
0.0
  0
LINE
  5
D3
330
CE
100
AcDbEntity
  8
Geometrie náčrtu (ISO)
100
AcDbLine
 10
34.99999999999996
 20
-13.49999999999998
 30
0.0
 11
-35.00000000000003
 21
-13.49999999999998
 31
0.0
  0
LINE
  5
D4
330
CE
100
AcDbEntity
  8
Geometrie náčrtu (ISO)
100
AcDbLine
 10
-35.00000000000003
 20
-13.49999999999998
 30
0.0
 11
-35.0
 21
-22.5
 31
0.0
  0
LINE
  5
D5
330
CE
100
AcDbEntity
  8
Geometrie náčrtu (ISO)
100
AcDbLine
 10
-35.00000000000003
 20
-13.49999999999998
 30
0.0
 11
34.99999999999996
 21
-13.49999999999998
 31
0.0
  0
LINE
  5
D6
330
CE
100
AcDbEntity
  8
Geometrie náčrtu (ISO)
100
AcDbLine
 10
34.99999999999996
 20
-13.49999999999998
 30
0.0
 11
34.99999999999996
 21
-4.499999999999992
 31
0.0
  0
LINE
  5
D7
330
CE
100
AcDbEntity
  8
Geometrie náčrtu (ISO)
100
AcDbLine
 10
34.99999999999996
 20
-4.499999999999992
 30
0.0
 11
-35.00000000000003
 21
-4.499999999999992
 31
0.0
  0
LINE
  5
D8
330
CE
100
AcDbEntity
  8
Geometrie náčrtu (ISO)
100
AcDbLine
 10
-35.00000000000003
 20
-4.499999999999992
 30
0.0
 11
-35.00000000000003
 21
-13.49999999999998
 31
0.0
  0
LINE
  5
D9
330
CE
100
AcDbEntity
  8
Geometrie náčrtu (ISO)
100
AcDbLine
 10
-35.00000000000003
 20
-4.499999999999992
 30
0.0
 11
34.99999999999996
 21
-4.499999999999992
 31
0.0
  0
LINE
  5
DA
330
CE
100
AcDbEntity
  8
Geometrie náčrtu (ISO)
100
AcDbLine
 10
34.99999999999996
 20
-4.499999999999992
 30
0.0
 11
34.99999999999996
 21
4.499999999999992
 31
0.0
  0
LINE
  5
DB
330
CE
100
AcDbEntity
  8
Geometrie náčrtu (ISO)
100
AcDbLine
 10
34.99999999999996
 20
4.499999999999992
 30
0.0
 11
-35.00000000000003
 21
4.499999999999992
 31
0.0
  0
LINE
  5
DC
330
CE
100
AcDbEntity
  8
Geometrie náčrtu (ISO)
100
AcDbLine
 10
-35.00000000000003
 20
4.499999999999992
 30
0.0
 11
-35.00000000000003
 21
-4.499999999999992
 31
0.0
  0
LINE
  5
DD
330
CE
100
AcDbEntity
  8
Geometrie náčrtu (ISO)
100
AcDbLine
 10
-35.00000000000003
 20
4.499999999999992
 30
0.0
 11
34.99999999999996
 21
4.499999999999992
 31
0.0
  0
LINE
  5
DE
330
CE
100
AcDbEntity
  8
Geometrie náčrtu (ISO)
100
AcDbLine
 10
34.99999999999996
 20
4.499999999999992
 30
0.0
 11
34.99999999999996
 21
13.50000000000001
 31
0.0
  0
LINE
  5
DF
330
CE
100
AcDbEntity
  8
Geometrie náčrtu (ISO)
100
AcDbLine
 10
34.99999999999996
 20
13.50000000000001
 30
0.0
 11
-35.00000000000003
 21
13.50000000000001
 31
0.0
  0
LINE
  5
E0
330
CE
100
AcDbEntity
  8
Geometrie náčrtu (ISO)
100
AcDbLine
 10
-35.00000000000003
 20
13.50000000000001
 30
0.0
 11
-35.00000000000003
 21
4.499999999999992
 31
0.0
  0
LINE
  5
E1
330
CE
100
AcDbEntity
  8
Geometrie náčrtu (ISO)
100
AcDbLine
 10
-35.00000000000003
 20
13.50000000000001
 30
0.0
 11
34.99999999999996
 21
13.50000000000001
 31
0.0
  0
LINE
  5
E2
330
CE
100
AcDbEntity
  8
Geometrie náčrtu (ISO)
100
AcDbLine
 10
34.99999999999996
 20
13.50000000000001
 30
0.0
 11
34.99999999999996
 21
22.5
 31
0.0
  0
LINE
  5
E3
330
CE
100
AcDbEntity
  8
Geometrie náčrtu (ISO)
100
AcDbLine
 10
34.99999999999996
 20
22.5
 30
0.0
 11
-35.00000000000003
 21
22.5
 31
0.0
  0
LINE
  5
E4
330
CE
100
AcDbEntity
  8
Geometrie náčrtu (ISO)
100
AcDbLine
 10
-35.00000000000003
 20
22.5
 30
0.0
 11
-35.00000000000003
 21
13.50000000000001
 31
0.0
  0
LINE
  5
E5
330
CE
100
AcDbEntity
  8
Geometrie náčrtu (ISO)
100
AcDbLine
 10
-6.999999999999992
 20
22.5
 30
0.0
 11
-6.999999999999992
 21
-22.5
 31
0.0
  0
MTEXT
  5
E6
330
CE
100
AcDbEntity
  8
Značka (ISO)
100
AcDbMText
 10
-5.126613448311374
 20
11.7684641726084
 30
0.0
 40
5.0
 41
0.0
 71
     1
 72
     1
  1
\fTahoma|b0|i0;\H5.0000;xxxxxxxxxxx
  7
Text poznámky (ISO)
 73
     1
 44
1.0
  0
MTEXT
  5
E7
330
CE
100
AcDbEntity
  8
Značka (ISO)
100
AcDbMText
 10
-33.0130165251342
 20
11.7684641726084
 30
0.0
 40
5.0
 41
20.42139291763306
 71
     1
 72
     1
  1
\fTahoma|b0|i0;\H5.0000;xxxxxx
  7
Text poznámky (ISO)
 73
     1
 44
1.0
  0
MTEXT
  5
E8
330
CE
100
AcDbEntity
  8
Značka (ISO)
100
AcDbMText
 10
-32.07756235018873
 20
20.30710993714994
 30
0.0
 40
5.0
 41
13.92583036716939
 71
     1
 72
     1
  1
\fTahoma|b0|i0;\H5.0000;Art.
  7
Text poznámky (ISO)
 73
     1
 44
1.0
  0
MTEXT
  5
E9
330
CE
100
AcDbEntity
  8
Značka (ISO)
100
AcDbMText
 10
4.291672002492319
 20
20.30710993714994
 30
0.0
 40
5.0
 41
0.0
 71
     1
 72
     1
  1
\fTahoma|b0|i0;\H5.0000;Mat.
  7
Text poznámky (ISO)
 73
     1
 44
1.0
  0
MTEXT
  5
EA
330
CE
100
AcDbEntity
  8
Značka (ISO)
100
AcDbMText
 10
-33.0130165251342
 20
2.473781856899819
 30
0.0
 40
5.0
 41
20.42139291763306
 71
     1
 72
     1
  1
\fTahoma|b0|i0;\H5.0000;xxxxxx
  7
Text poznámky (ISO)
 73
     1
 44
1.0
  0
MTEXT
  5
EB
330
CE
100
AcDbEntity
  8
Značka (ISO)
100
AcDbMText
 10
-5.126613448311374
 20
2.473781856899819
 30
0.0
 40
5.0
 41
0.0
 71
     1
 72
     1
  1
\fTahoma|b0|i0;\H5.0000;xxxxxxxxxxx
  7
Text poznámky (ISO)
 73
     1
 44
1.0
  0
MTEXT
  5
EC
330
CE
100
AcDbEntity
  8
Značka (ISO)
100
AcDbMText
 10
-33.0130165251342
 20
-6.862452441171491
 30
0.0
 40
5.0
 41
20.42139291763306
 71
     1
 72
     1
  1
\fTahoma|b0|i0;\H5.0000;xxxxxx
  7
Text poznámky (ISO)
 73
     1
 44
1.0
  0
MTEXT
  5
ED
330
CE
100
AcDbEntity
  8
Značka (ISO)
100
AcDbMText
 10
-5.126613448311374
 20
-6.862452441171491
 30
0.0
 40
5.0
 41
0.0
 71
     1
 72
     1
  1
\fTahoma|b0|i0;\H5.0000;xxxxxxxxxxx
  7
Text poznámky (ISO)
 73
     1
 44
1.0
  0
MTEXT
  5
EE
330
CE
100
AcDbEntity
  8
Značka (ISO)
100
AcDbMText
 10
-33.0130165251342
 20
-15.52177565039578
 30
0.0
 40
5.0
 41
20.42139291763306
 71
     1
 72
     1
  1
\fTahoma|b0|i0;\H5.0000;xxxxxx
  7
Text poznámky (ISO)
 73
     1
 44
1.0
  0
MTEXT
  5
EF
330
CE
100
AcDbEntity
  8
Značka (ISO)
100
AcDbMText
 10
-5.126613448311374
 20
-15.52177565039578
 30
0.0
 40
5.0
 41
0.0
 71
     1
 72
     1
  1
\fTahoma|b0|i0;\H5.0000;xxxxxxxxxxx
  7
Text poznámky (ISO)
 73
     1
 44
1.0
  0
ENDBLK
  5
D0
330
CE
100
AcDbEntity
  8
0
100
AcDbBlockEnd
  0
BLOCK
  5
F1
330
F0
100
AcDbEntity
  8
0
100
AcDbBlockBegin
  2
Art. s popisy
 70
     0
 10
0.0
 20
0.0
 30
0.0
  3
Art. s popisy
  1

  0
LINE
  5
F3
330
F0
100
AcDbEntity
  8
Geometrie náčrtu (ISO)
100
AcDbLine
 10
-60.00000000000081
 20
-22.5
 30
0.0
 11
59.99999999999911
 21
-22.5
 31
0.0
  0
LINE
  5
F4
330
F0
100
AcDbEntity
  8
Geometrie náčrtu (ISO)
100
AcDbLine
 10
59.99999999999911
 20
-22.5
 30
0.0
 11
60.00000000000081
 21
-13.50000000000001
 31
0.0
  0
LINE
  5
F5
330
F0
100
AcDbEntity
  8
Geometrie náčrtu (ISO)
100
AcDbLine
 10
60.00000000000081
 20
-13.50000000000001
 30
0.0
 11
-60.00000000000081
 21
-13.49999999999998
 31
0.0
  0
LINE
  5
F6
330
F0
100
AcDbEntity
  8
Geometrie náčrtu (ISO)
100
AcDbLine
 10
-60.00000000000081
 20
-13.49999999999998
 30
0.0
 11
-60.00000000000081
 21
-22.5
 31
0.0
  0
LINE
  5
F7
330
F0
100
AcDbEntity
  8
Geometrie náčrtu (ISO)
100
AcDbLine
 10
-60.00000000000081
 20
-13.49999999999998
 30
0.0
 11
60.00000000000081
 21
-13.50000000000001
 31
0.0
  0
LINE
  5
F8
330
F0
100
AcDbEntity
  8
Geometrie náčrtu (ISO)
100
AcDbLine
 10
60.00000000000081
 20
-13.50000000000001
 30
0.0
 11
59.99999999999911
 21
-4.500000000000028
 31
0.0
  0
LINE
  5
F9
330
F0
100
AcDbEntity
  8
Geometrie náčrtu (ISO)
100
AcDbLine
 10
59.99999999999911
 20
-4.500000000000028
 30
0.0
 11
-60.00000000000081
 21
-4.499999999999992
 31
0.0
  0
LINE
  5
FA
330
F0
100
AcDbEntity
  8
Geometrie náčrtu (ISO)
100
AcDbLine
 10
-60.00000000000081
 20
-4.499999999999992
 30
0.0
 11
-60.00000000000081
 21
-13.49999999999998
 31
0.0
  0
LINE
  5
FB
330
F0
100
AcDbEntity
  8
Geometrie náčrtu (ISO)
100
AcDbLine
 10
-60.00000000000081
 20
-4.499999999999992
 30
0.0
 11
59.99999999999911
 21
-4.500000000000028
 31
0.0
  0
LINE
  5
FC
330
F0
100
AcDbEntity
  8
Geometrie náčrtu (ISO)
100
AcDbLine
 10
59.99999999999911
 20
-4.500000000000028
 30
0.0
 11
59.99999999999911
 21
4.499999999999957
 31
0.0
  0
LINE
  5
FD
330
F0
100
AcDbEntity
  8
Geometrie náčrtu (ISO)
100
AcDbLine
 10
59.99999999999911
 20
4.499999999999957
 30
0.0
 11
-60.00000000000081
 21
4.499999999999992
 31
0.0
  0
LINE
  5
FE
330
F0
100
AcDbEntity
  8
Geometrie náčrtu (ISO)
100
AcDbLine
 10
-60.00000000000081
 20
4.499999999999992
 30
0.0
 11
-60.00000000000081
 21
-4.499999999999992
 31
0.0
  0
LINE
  5
FF
330
F0
100
AcDbEntity
  8
Geometrie náčrtu (ISO)
100
AcDbLine
 10
-60.00000000000081
 20
4.499999999999992
 30
0.0
 11
59.99999999999911
 21
4.499999999999957
 31
0.0
  0
LINE
  5
100
330
F0
100
AcDbEntity
  8
Geometrie náčrtu (ISO)
100
AcDbLine
 10
59.99999999999911
 20
4.499999999999957
 30
0.0
 11
59.99999999999911
 21
13.49999999999998
 31
0.0
  0
LINE
  5
101
330
F0
100
AcDbEntity
  8
Geometrie náčrtu (ISO)
100
AcDbLine
 10
59.99999999999911
 20
13.49999999999998
 30
0.0
 11
-60.00000000000081
 21
13.50000000000001
 31
0.0
  0
LINE
  5
102
330
F0
100
AcDbEntity
  8
Geometrie náčrtu (ISO)
100
AcDbLine
 10
-60.00000000000081
 20
13.50000000000001
 30
0.0
 11
-60.00000000000081
 21
4.499999999999992
 31
0.0
  0
LINE
  5
103
330
F0
100
AcDbEntity
  8
Geometrie náčrtu (ISO)
100
AcDbLine
 10
-60.00000000000081
 20
13.50000000000001
 30
0.0
 11
59.99999999999911
 21
13.49999999999998
 31
0.0
  0
LINE
  5
104
330
F0
100
AcDbEntity
  8
Geometrie náčrtu (ISO)
100
AcDbLine
 10
59.99999999999911
 20
13.49999999999998
 30
0.0
 11
59.99999999999911
 21
22.49999999999996
 31
0.0
  0
LINE
  5
105
330
F0
100
AcDbEntity
  8
Geometrie náčrtu (ISO)
100
AcDbLine
 10
59.99999999999911
 20
22.49999999999996
 30
0.0
 11
-60.00000000000081
 21
22.5
 31
0.0
  0
LINE
  5
106
330
F0
100
AcDbEntity
  8
Geometrie náčrtu (ISO)
100
AcDbLine
 10
-60.00000000000081
 20
22.5
 30
0.0
 11
-60.00000000000081
 21
13.50000000000001
 31
0.0
  0
LINE
  5
107
330
F0
100
AcDbEntity
  8
Geometrie náčrtu (ISO)
100
AcDbLine
 10
-32.00000000000081
 20
22.5
 30
0.0
 11
-32.00000000000081
 21
-22.5
 31
0.0
  0
MTEXT
  5
108
330
F0
100
AcDbEntity
  8
Značka (ISO)
100
AcDbMText
 10
-27.63552601875791
 20
11.7684641726084
 30
0.0
 40
5.0
 41
0.0
 71
     1
 72
     1
  1
\fTahoma|b0|i0;\H5.0000;xxxxxxxxxxx
  7
Text poznámky (ISO)
 73
     1
 44
1.0
  0
MTEXT
  5
109
330
F0
100
AcDbEntity
  8
Značka (ISO)
100
AcDbMText
 10
-55.52192909558073
 20
11.7684641726084
 30
0.0
 40
5.0
 41
20.42139291763306
 71
     1
 72
     1
  1
\fTahoma|b0|i0;\H5.0000;xxxxxx
  7
Text poznámky (ISO)
 73
     1
 44
1.0
  0
MTEXT
  5
10A
330
F0
100
AcDbEntity
  8
Značka (ISO)
100
AcDbMText
 10
-54.58647492063526
 20
20.30710993714994
 30
0.0
 40
5.0
 41
13.92583036716939
 71
     1
 72
     1
  1
\fTahoma|b0|i0;\H5.0000;Art.
  7
Text poznámky (ISO)
 73
     1
 44
1.0
  0
MTEXT
  5
10B
330
F0
100
AcDbEntity
  8
Značka (ISO)
100
AcDbMText
 10
-18.21724056795421
 20
20.30710993714994
 30
0.0
 40
5.0
 41
0.0
 71
     1
 72
     1
  1
\fTahoma|b0|i0;\H5.0000;Popis.
  7
Text poznámky (ISO)
 73
     1
 44
1.0
  0
MTEXT
  5
10C
330
F0
100
AcDbEntity
  8
Značka (ISO)
100
AcDbMText
 10
-55.52192909558073
 20
2.473781856899819
 30
0.0
 40
5.0
 41
20.42139291763306
 71
     1
 72
     1
  1
\fTahoma|b0|i0;\H5.0000;xxxxxx
  7
Text poznámky (ISO)
 73
     1
 44
1.0
  0
MTEXT
  5
10D
330
F0
100
AcDbEntity
  8
Značka (ISO)
100
AcDbMText
 10
-27.63552601875791
 20
2.473781856899819
 30
0.0
 40
5.0
 41
0.0
 71
     1
 72
     1
  1
\fTahoma|b0|i0;\H5.0000;xxxxxxxxxxx
  7
Text poznámky (ISO)
 73
     1
 44
1.0
  0
MTEXT
  5
10E
330
F0
100
AcDbEntity
  8
Značka (ISO)
100
AcDbMText
 10
-55.52192909558073
 20
-6.862452441171491
 30
0.0
 40
5.0
 41
20.42139291763306
 71
     1
 72
     1
  1
\fTahoma|b0|i0;\H5.0000;xxxxxx
  7
Text poznámky (ISO)
 73
     1
 44
1.0
  0
MTEXT
  5
10F
330
F0
100
AcDbEntity
  8
Značka (ISO)
100
AcDbMText
 10
-27.63552601875791
 20
-6.862452441171491
 30
0.0
 40
5.0
 41
0.0
 71
     1
 72
     1
  1
\fTahoma|b0|i0;\H5.0000;xxxxxxxxxxx
  7
Text poznámky (ISO)
 73
     1
 44
1.0
  0
MTEXT
  5
110
330
F0
100
AcDbEntity
  8
Značka (ISO)
100
AcDbMText
 10
-55.52192909558073
 20
-15.52177565039578
 30
0.0
 40
5.0
 41
20.42139291763306
 71
     1
 72
     1
  1
\fTahoma|b0|i0;\H5.0000;xxxxxx
  7
Text poznámky (ISO)
 73
     1
 44
1.0
  0
MTEXT
  5
111
330
F0
100
AcDbEntity
  8
Značka (ISO)
100
AcDbMText
 10
-27.63552601875791
 20
-15.52177565039578
 30
0.0
 40
5.0
 41
0.0
 71
     1
 72
     1
  1
\fTahoma|b0|i0;\H5.0000;xxxxxxxxxxx
  7
Text poznámky (ISO)
 73
     1
 44
1.0
  0
ENDBLK
  5
F2
330
F0
100
AcDbEntity
  8
0
100
AcDbBlockEnd
  0
BLOCK
  5
113
330
112
100
AcDbEntity
  8
0
100
AcDbBlockBegin
  2
Tryskat
 70
     0
 10
0.0
 20
0.0
 30
0.0
  3
Tryskat
  1

  0
MTEXT
  5
115
330
112
100
AcDbEntity
  8
Značka (ISO)
100
AcDbMText
 10
-30.20239114761352
 20
5.036920197308063
 30
0.0
 40
3.499999940395355
 41
0.0
 71
     1
 72
     1
  1
Tryskat \P( Blasted , Glasperlstrahken)
  7
Text poznámky (ISO)
 73
     2
 44
0.9878841638565063
  0
ENDBLK
  5
114
330
112
100
AcDbEntity
  8
0
100
AcDbBlockEnd
  0
BLOCK
  5
117
330
116
100
AcDbEntity
  8
0
100
AcDbBlockBegin
  2
Morit
 70
     0
 10
0.0
 20
0.0
 30
0.0
  3
Morit
  1

  0
MTEXT
  5
119
330
116
100
AcDbEntity
  8
Značka (ISO)
100
AcDbMText
 10
-19.08124089241028
 20
5.11633675545454
 30
0.0
 40
3.499999940395355
 41
0.0
 71
     1
 72
     1
  1
Morit a pasivovat\P(Pickled, gebeitzt)
  7
Text poznámky (ISO)
 73
     2
 44
0.9878841638565063
  0
ENDBLK
  5
118
330
116
100
AcDbEntity
  8
0
100
AcDbBlockEnd
  0
BLOCK
  5
11B
330
11A
100
AcDbEntity
  8
0
100
AcDbBlockBegin
  2
zinkovat
 70
     0
 10
0.0
 20
0.0
 30
0.0
  3
zinkovat
  1

  0
MTEXT
  5
11D
330
11A
100
AcDbEntity
  8
Značka (ISO)
100
AcDbMText
 10
-27.74189710617065
 20
5.049683563411235
 30
0.0
 40
3.499999940395355
 41
0.0
 71
     1
 72
     1
  1
Zarove zinkovat\P(hot galvanized, verzinkt )
  7
Text poznámky (ISO)
 73
     2
 44
0.9878841638565063
  0
ENDBLK
  5
11C
330
11A
100
AcDbEntity
  8
0
100
AcDbBlockEnd
  0
BLOCK
  5
11F
330
11E
100
AcDbEntity
  8
0
100
AcDbBlockBegin
  2
Nater
 70
     0
 10
0.0
 20
0.0
 30
0.0
  3
Nater
  1

  0
MTEXT
  5
121
330
11E
100
AcDbEntity
  8
Značka (ISO)
100
AcDbMText
 10
-25.88411808013916
 20
1.864870421122759
 30
0.0
 40
3.499999940395355
 41
0.0
 71
     1
 72
     1
  1
Lackiert Farbe RAL 5002
  7
Text poznámky (ISO)
 73
     1
 44
1.0
  0
ENDBLK
  5
120
330
11E
100
AcDbEntity
  8
0
100
AcDbBlockEnd
  0
BLOCK
  5
123
330
122
100
AcDbEntity
  8
0
100
AcDbBlockBegin
  2
Brus
 70
     0
 10
0.0
 20
0.0
 30
0.0
  3
Brus
  1

  0
MTEXT
  5
125
330
122
100
AcDbEntity
  8
Značka (ISO)
100
AcDbMText
 10
-23.46616744995117
 20
5.11633675545454
 30
0.0
 40
3.499999940395355
 41
0.0
 71
     1
 72
     1
  1
Brousit\P(geburstet , brushed )
  7
Text poznámky (ISO)
 73
     2
 44
0.9878841638565063
  0
ENDBLK
  5
124
330
122
100
AcDbEntity
  8
0
100
AcDbBlockEnd
  0
BLOCK
  5
127
330
126
100
AcDbEntity
  8
0
100
AcDbBlockBegin
  2
Elektroliticky lestit
 70
     0
 10
0.0
 20
0.0
 30
0.0
  3
Elektroliticky lestit
  1

  0
MTEXT
  5
129
330
126
100
AcDbEntity
  8
Značka (ISO)
100
AcDbMText
 10
-18.68841171264648
 20
5.036920197308063
 30
0.0
 40
3.499999940395355
 41
0.0
 71
     1
 72
     1
  1
Elektrolit. lestit\P(Elektropolished )
  7
Text poznámky (ISO)
 73
     2
 44
0.9878841638565063
  0
ENDBLK
  5
128
330
126
100
AcDbEntity
  8
0
100
AcDbBlockEnd
  0
BLOCK
  5
12C
330
12B
100
AcDbEntity
  8
0
100
AcDbBlockBegin
  2
Rámečky Default Border
 70
     0
 10
0.0
 20
0.0
 30
0.0
  3
Rámečky Default Border
  1

  0
POLYLINE
  5
12E
330
12B
100
AcDbEntity
  8
Rámeček (ISO)
100
AcDb2dPolyline
 66
     1
 10
0.0
 20
0.0
 30
0.0
 70
   128
  0
VERTEX
  5
12F
330
12E
100
AcDbEntity
  8
Rámeček (ISO)
100
AcDbVertex
100
AcDb2dVertex
 10
10.0
 20
10.0
 30
0.0
  0
VERTEX
  5
130
330
12E
100
AcDbEntity
  8
Rámeček (ISO)
100
AcDbVertex
100
AcDb2dVertex
 10
10.0
 20
287.0000076293946
 30
0.0
  0
VERTEX
  5
132
330
12E
100
AcDbEntity
  8
Rámeček (ISO)
100
AcDbVertex
100
AcDb2dVertex
 10
410.0
 20
287.0000076293946
 30
0.0
  0
VERTEX
  5
133
330
12E
100
AcDbEntity
  8
Rámeček (ISO)
100
AcDbVertex
100
AcDb2dVertex
 10
410.0
 20
10.0
 30
0.0
  0
VERTEX
  5
134
330
12E
100
AcDbEntity
  8
Rámeček (ISO)
100
AcDbVertex
100
AcDb2dVertex
 10
10.0
 20
10.0
 30
0.0
  0
SEQEND
  5
131
330
12E
100
AcDbEntity
  8
Rámeček (ISO)
  0
POLYLINE
  5
135
330
12B
100
AcDbEntity
  8
Rámeček (ISO)
100
AcDb2dPolyline
 66
     1
 10
0.0
 20
0.0
 30
0.0
 70
   128
  0
VERTEX
  5
136
330
135
100
AcDbEntity
  8
Rámeček (ISO)
100
AcDbVertex
100
AcDb2dVertex
 10
210.0
 20
0.0
 30
0.0
  0
VERTEX
  5
137
330
135
100
AcDbEntity
  8
Rámeček (ISO)
100
AcDbVertex
100
AcDb2dVertex
 10
210.0
 20
10.0
 30
0.0
  0
VERTEX
  5
139
330
135
100
AcDbEntity
  8
Rámeček (ISO)
100
AcDbVertex
100
AcDb2dVertex
 10
207.1132469177246
 20
5.0
 30
0.0
  0
VERTEX
  5
13A
330
135
100
AcDbEntity
  8
Rámeček (ISO)
100
AcDbVertex
100
AcDb2dVertex
 10
212.8867530822754
 20
5.0
 30
0.0
  0
VERTEX
  5
13B
330
135
100
AcDbEntity
  8
Rámeček (ISO)
100
AcDbVertex
100
AcDb2dVertex
 10
210.0
 20
10.0
 30
0.0
  0
SEQEND
  5
138
330
135
100
AcDbEntity
  8
Rámeček (ISO)
  0
POLYLINE
  5
13C
330
12B
100
AcDbEntity
  8
Rámeček (ISO)
100
AcDb2dPolyline
 66
     1
 10
0.0
 20
0.0
 30
0.0
 70
   128
  0
VERTEX
  5
13D
330
13C
100
AcDbEntity
  8
Rámeček (ISO)
100
AcDbVertex
100
AcDb2dVertex
 10
210.0
 20
297.0000076293946
 30
0.0
  0
VERTEX
  5
13E
330
13C
100
AcDbEntity
  8
Rámeček (ISO)
100
AcDbVertex
100
AcDb2dVertex
 10
210.0
 20
287.0000076293946
 30
0.0
  0
VERTEX
  5
140
330
13C
100
AcDbEntity
  8
Rámeček (ISO)
100
AcDbVertex
100
AcDb2dVertex
 10
207.1132469177246
 20
292.0000076293945
 30
0.0
  0
VERTEX
  5
141
330
13C
100
AcDbEntity
  8
Rámeček (ISO)
100
AcDbVertex
100
AcDb2dVertex
 10
212.8867530822754
 20
292.0000076293945
 30
0.0
  0
VERTEX
  5
142
330
13C
100
AcDbEntity
  8
Rámeček (ISO)
100
AcDbVertex
100
AcDb2dVertex
 10
210.0
 20
287.0000076293946
 30
0.0
  0
SEQEND
  5
13F
330
13C
100
AcDbEntity
  8
Rámeček (ISO)
  0
POLYLINE
  5
143
330
12B
100
AcDbEntity
  8
Rámeček (ISO)
100
AcDb2dPolyline
 66
     1
 10
0.0
 20
0.0
 30
0.0
 70
   128
  0
VERTEX
  5
144
330
143
100
AcDbEntity
  8
Rámeček (ISO)
100
AcDbVertex
100
AcDb2dVertex
 10
0.0
 20
148.5000038146973
 30
0.0
  0
VERTEX
  5
145
330
143
100
AcDbEntity
  8
Rámeček (ISO)
100
AcDbVertex
100
AcDb2dVertex
 10
10.0
 20
148.5000038146973
 30
0.0
  0
VERTEX
  5
147
330
143
100
AcDbEntity
  8
Rámeček (ISO)
100
AcDbVertex
100
AcDb2dVertex
 10
5.0
 20
151.3867473602295
 30
0.0
  0
VERTEX
  5
148
330
143
100
AcDbEntity
  8
Rámeček (ISO)
100
AcDbVertex
100
AcDb2dVertex
 10
5.0
 20
145.6132507324219
 30
0.0
  0
VERTEX
  5
149
330
143
100
AcDbEntity
  8
Rámeček (ISO)
100
AcDbVertex
100
AcDb2dVertex
 10
10.0
 20
148.5000038146973
 30
0.0
  0
SEQEND
  5
146
330
143
100
AcDbEntity
  8
Rámeček (ISO)
  0
POLYLINE
  5
14A
330
12B
100
AcDbEntity
  8
Rámeček (ISO)
100
AcDb2dPolyline
 66
     1
 10
0.0
 20
0.0
 30
0.0
 70
   128
  0
VERTEX
  5
14B
330
14A
100
AcDbEntity
  8
Rámeček (ISO)
100
AcDbVertex
100
AcDb2dVertex
 10
420.0
 20
148.5000038146973
 30
0.0
  0
VERTEX
  5
14C
330
14A
100
AcDbEntity
  8
Rámeček (ISO)
100
AcDbVertex
100
AcDb2dVertex
 10
410.0
 20
148.5000038146973
 30
0.0
  0
VERTEX
  5
14E
330
14A
100
AcDbEntity
  8
Rámeček (ISO)
100
AcDbVertex
100
AcDb2dVertex
 10
415.0
 20
151.3867473602295
 30
0.0
  0
VERTEX
  5
14F
330
14A
100
AcDbEntity
  8
Rámeček (ISO)
100
AcDbVertex
100
AcDb2dVertex
 10
415.0
 20
145.6132507324219
 30
0.0
  0
VERTEX
  5
150
330
14A
100
AcDbEntity
  8
Rámeček (ISO)
100
AcDbVertex
100
AcDb2dVertex
 10
410.0
 20
148.5000038146973
 30
0.0
  0
SEQEND
  5
14D
330
14A
100
AcDbEntity
  8
Rámeček (ISO)
  0
LINE
  5
151
330
12B
100
AcDbEntity
  8
Rámeček (ISO)
100
AcDbLine
 10
70.0
 20
10.0
 30
0.0
 11
70.0
 21
6.100000143051147
 31
0.0
  0
LINE
  5
152
330
12B
100
AcDbEntity
  8
Rámeček (ISO)
100
AcDbLine
 10
70.0
 20
287.0000076293946
 30
0.0
 11
70.0
 21
290.9000015258789
 31
0.0
  0
LINE
  5
153
330
12B
100
AcDbEntity
  8
Rámeček (ISO)
100
AcDbLine
 10
140.0
 20
10.0
 30
0.0
 11
140.0
 21
6.100000143051147
 31
0.0
  0
LINE
  5
154
330
12B
100
AcDbEntity
  8
Rámeček (ISO)
100
AcDbLine
 10
140.0
 20
287.0000076293946
 30
0.0
 11
140.0
 21
290.9000015258789
 31
0.0
  0
LINE
  5
155
330
12B
100
AcDbEntity
  8
Rámeček (ISO)
100
AcDbLine
 10
280.0
 20
10.0
 30
0.0
 11
280.0
 21
6.100000143051147
 31
0.0
  0
LINE
  5
156
330
12B
100
AcDbEntity
  8
Rámeček (ISO)
100
AcDbLine
 10
280.0
 20
287.0000076293946
 30
0.0
 11
280.0
 21
290.9000015258789
 31
0.0
  0
LINE
  5
157
330
12B
100
AcDbEntity
  8
Rámeček (ISO)
100
AcDbLine
 10
350.0
 20
10.0
 30
0.0
 11
350.0
 21
6.100000143051147
 31
0.0
  0
LINE
  5
158
330
12B
100
AcDbEntity
  8
Rámeček (ISO)
100
AcDbLine
 10
350.0
 20
287.0000076293946
 30
0.0
 11
350.0
 21
290.9000015258789
 31
0.0
  0
MTEXT
  5
159
330
12B
100
AcDbEntity
  8
Rámeček (ISO)
100
AcDbMText
 10
384.2103922448459
 20
287.4
 30
0.0
 40
3.499999940395355
 41
0.0
 71
     7
 72
     1
  1
1
  7
Text poznámky (ISO)
 73
     1
 44
1.0
  0
MTEXT
  5
15A
330
12B
100
AcDbEntity
  8
Rámeček (ISO)
100
AcDbMText
 10
384.2103922448459
 20
6.100000059604644
 30
0.0
 40
3.499999940395355
 41
0.0
 71
     7
 72
     1
  1
1
  7
Text poznámky (ISO)
 73
     1
 44
1.0
  0
MTEXT
  5
15B
330
12B
100
AcDbEntity
  8
Rámeček (ISO)
100
AcDbMText
 10
313.9387915541735
 20
287.4
 30
0.0
 40
3.499999940395355
 41
0.0
 71
     7
 72
     1
  1
2
  7
Text poznámky (ISO)
 73
     1
 44
1.0
  0
MTEXT
  5
15C
330
12B
100
AcDbEntity
  8
Rámeček (ISO)
100
AcDbMText
 10
313.9387915541735
 20
6.100000059604644
 30
0.0
 40
3.499999940395355
 41
0.0
 71
     7
 72
     1
  1
2
  7
Text poznámky (ISO)
 73
     1
 44
1.0
  0
MTEXT
  5
15D
330
12B
100
AcDbEntity
  8
Rámeček (ISO)
100
AcDbMText
 10
243.9107914829702
 20
287.3262560764327
 30
0.0
 40
3.499999940395355
 41
0.0
 71
     7
 72
     1
  1
3
  7
Text poznámky (ISO)
 73
     1
 44
1.0
  0
MTEXT
  5
15E
330
12B
100
AcDbEntity
  8
Rámeček (ISO)
100
AcDbMText
 10
243.9107914829702
 20
6.026256136037408
 30
0.0
 40
3.499999940395355
 41
0.0
 71
     7
 72
     1
  1
3
  7
Text poznámky (ISO)
 73
     1
 44
1.0
  0
MTEXT
  5
15F
330
12B
100
AcDbEntity
  8
Rámeček (ISO)
100
AcDbMText
 10
173.7791911483144
 20
287.4
 30
0.0
 40
3.499999940395355
 41
0.0
 71
     7
 72
     1
  1
4
  7
Text poznámky (ISO)
 73
     1
 44
1.0
  0
MTEXT
  5
160
330
12B
100
AcDbEntity
  8
Rámeček (ISO)
100
AcDbMText
 10
173.7791911483144
 20
6.100000059604644
 30
0.0
 40
3.499999940395355
 41
0.0
 71
     7
 72
     1
  1
4
  7
Text poznámky (ISO)
 73
     1
 44
1.0
  0
MTEXT
  5
161
330
12B
100
AcDbEntity
  8
Rámeček (ISO)
100
AcDbMText
 10
103.9751916467378
 20
287.3262560764327
 30
0.0
 40
3.499999940395355
 41
0.0
 71
     7
 72
     1
  1
5
  7
Text poznámky (ISO)
 73
     1
 44
1.0
  0
MTEXT
  5
162
330
12B
100
AcDbEntity
  8
Rámeček (ISO)
100
AcDbMText
 10
103.9751916467378
 20
6.026256136037408
 30
0.0
 40
3.499999940395355
 41
0.0
 71
     7
 72
     1
  1
5
  7
Text poznámky (ISO)
 73
     1
 44
1.0
  0
MTEXT
  5
163
330
12B
100
AcDbEntity
  8
Rámeček (ISO)
100
AcDbMText
 10
33.88279141176685
 20
287.3262560764327
 30
0.0
 40
3.499999940395355
 41
0.0
 71
     7
 72
     1
  1
6
  7
Text poznámky (ISO)
 73
     1
 44
1.0
  0
MTEXT
  5
164
330
12B
100
AcDbEntity
  8
Rámeček (ISO)
100
AcDbMText
 10
33.88279141176685
 20
6.026256136037408
 30
0.0
 40
3.499999940395355
 41
0.0
 71
     7
 72
     1
  1
6
  7
Text poznámky (ISO)
 73
     1
 44
1.0
  0
LINE
  5
165
330
12B
100
AcDbEntity
  8
Rámeček (ISO)
100
AcDbLine
 10
10.0
 20
74.25000190734863
 30
0.0
 11
6.100000143051147
 21
74.25000190734863
 31
0.0
  0
LINE
  5
166
330
12B
100
AcDbEntity
  8
Rámeček (ISO)
100
AcDbLine
 10
410.0
 20
74.25000190734863
 30
0.0
 11
413.8999938964843
 21
74.25000190734863
 31
0.0
  0
LINE
  5
167
330
12B
100
AcDbEntity
  8
Rámeček (ISO)
100
AcDbLine
 10
10.0
 20
222.7499961853027
 30
0.0
 11
6.100000143051147
 21
222.7499961853027
 31
0.0
  0
LINE
  5
168
330
12B
100
AcDbEntity
  8
Rámeček (ISO)
100
AcDbLine
 10
410.0
 20
222.7499961853027
 30
0.0
 11
413.8999938964843
 21
222.7499961853027
 31
0.0
  0
MTEXT
  5
169
330
12B
100
AcDbEntity
  8
Rámeček (ISO)
100
AcDbMText
 10
6.361230343933396
 20
35.37500002980233
 30
0.0
 40
3.499999940395355
 41
0.0
 71
     7
 72
     1
  1
A
  7
Text poznámky (ISO)
 73
     1
 44
1.0
  0
MTEXT
  5
16A
330
12B
100
AcDbEntity
  8
Rámeček (ISO)
100
AcDbMText
 10
410.6612302843287
 20
35.37500002980233
 30
0.0
 40
3.499999940395355
 41
0.0
 71
     7
 72
     1
  1
A
  7
Text poznámky (ISO)
 73
     1
 44
1.0
  0
MTEXT
  5
16B
330
12B
100
AcDbEntity
  8
Rámeček (ISO)
100
AcDbMText
 10
6.781848468328938
 20
109.6250000298023
 30
0.0
 40
3.499999940395355
 41
0.0
 71
     7
 72
     1
  1
B
  7
Text poznámky (ISO)
 73
     1
 44
1.0
  0
MTEXT
  5
16C
330
12B
100
AcDbEntity
  8
Rámeček (ISO)
100
AcDbMText
 10
411.0818484087242
 20
109.6250000298023
 30
0.0
 40
3.499999940395355
 41
0.0
 71
     7
 72
     1
  1
B
  7
Text poznámky (ISO)
 73
     1
 44
1.0
  0
MTEXT
  5
16D
330
12B
100
AcDbEntity
  8
Rámeček (ISO)
100
AcDbMText
 10
6.558903094188359
 20
183.8126013241708
 30
0.0
 40
3.499999940395355
 41
0.0
 71
     7
 72
     1
  1
C
  7
Text poznámky (ISO)
 73
     1
 44
1.0
  0
MTEXT
  5
16E
330
12B
100
AcDbEntity
  8
Rámeček (ISO)
100
AcDbMText
 10
410.8589030345837
 20
183.8126013241708
 30
0.0
 40
3.499999940395355
 41
0.0
 71
     7
 72
     1
  1
C
  7
Text poznámky (ISO)
 73
     1
 44
1.0
  0
MTEXT
  5
16F
330
12B
100
AcDbEntity
  8
Rámeček (ISO)
100
AcDbMText
 10
6.56770745709084
 20
258.1250000298023
 30
0.0
 40
3.499999940395355
 41
0.0
 71
     7
 72
     1
  1
D
  7
Text poznámky (ISO)
 73
     1
 44
1.0
  0
MTEXT
  5
170
330
12B
100
AcDbEntity
  8
Rámeček (ISO)
100
AcDbMText
 10
410.8677073974861
 20
258.1250000298023
 30
0.0
 40
3.499999940395355
 41
0.0
 71
     7
 72
     1
  1
D
  7
Text poznámky (ISO)
 73
     1
 44
1.0
  0
ENDBLK
  5
12D
330
12B
100
AcDbEntity
  8
0
100
AcDbBlockEnd
  0
BLOCK
  5
173
330
172
100
AcDbEntity
  8
0
100
AcDbBlockBegin
  2
Rohová razítka ACO-razitko
 70
     2
 10
0.0
 20
0.0
 30
0.0
  3
Rohová razítka ACO-razitko
  1

  0
LINE
  5
175
330
172
100
AcDbEntity
  8
KOPF
  6
Continuous
370
    25
100
AcDbLine
 10
264.0
 20
94.01203200000001
 30
0.0
 11
264.0
 21
74.00000000000003
 31
0.0
  0
LINE
  5
176
330
172
100
AcDbEntity
  8
KOPF
  6
Continuous
370
    25
100
AcDbLine
 10
264.0
 20
94.01203200000001
 30
0.0
 11
264.0
 21
74.00000000000003
 31
0.0
  0
CIRCLE
  5
177
330
172
100
AcDbEntity
  8
TEXT50
  6
Continuous
370
    25
100
AcDbCircle
 10
247.5054493575618
 20
83.04852954632861
 30
0.0
 40
1.979948192651899
  0
LINE
  5
178
330
172
100
AcDbEntity
  8
TEXT50
  6
Continuous
370
    25
100
AcDbLine
 10
262.4910595621649
 20
85.02847773898061
 30
0.0
 11
262.4910595621649
 21
81.06858135367653
 31
0.0
  0
LINE
  5
179
330
172
100
AcDbEntity
  8
TEXT50
  6
Continuous
370
    25
100
AcDbLine
 10
253.9413433929653
 20
87.07146289795376
 30
0.0
 11
253.9413433929653
 21
79.02559619470344
 31
0.0
  0
LINE
  5
17A
330
172
100
AcDbEntity
  8
TEXT50
  6
Continuous
370
    25
100
AcDbLine
 10
262.4910595621649
 20
85.02847773898061
 30
0.0
 11
253.9413433929653
 21
87.07146289795376
 31
0.0
  0
CIRCLE
  5
17B
330
172
100
AcDbEntity
  8
TEXT50
  6
Continuous
370
    25
100
AcDbCircle
 10
247.5054493575618
 20
83.04852954632861
 30
0.0
 40
4.022933351625178
  0
LINE
  5
17C
330
172
100
AcDbEntity
  8
TEXT50
  6
Continuous
370
    25
100
AcDbLine
 10
253.9413433929653
 20
79.02559619470344
 30
0.0
 11
262.4910595621649
 21
81.06858135367653
 31
0.0
  0
CIRCLE
  5
17D
330
172
100
AcDbEntity
  8
TEXT35
  6
Continuous
370
    25
100
AcDbCircle
 10
221.0936673107637
 20
101.9131972309053
 30
0.0
 40
2.281499999999998
  0
CIRCLE
  5
17E
330
172
100
AcDbEntity
  8
TEXT35
  6
Continuous
370
    25
100
AcDbCircle
 10
221.0936673107637
 20
101.9131972309053
 30
0.0
 40
1.579499999999999
  0
ARC
  5
17F
330
172
100
AcDbEntity
  8
TEXT35
  6
Continuous
370
    25
100
AcDbCircle
 10
214.6291610736662
 20
101.9131972309054
 30
0.0
 40
1.579500000000072
100
AcDbArc
 50
31.05580049908738
 51
329.9999999999987
  0
LINE
  5
180
330
172
100
AcDbEntity
  8
TEXT35
  6
Continuous
370
    25
100
AcDbLine
 10
215.9822639109751
 20
102.7280180465864
 30
0.0
 11
216.5902852082589
 21
103.0790593062462
 31
0.0
  0
ARC
  5
181
330
172
100
AcDbEntity
  8
TEXT35
  6
Continuous
370
    25
100
AcDbCircle
 10
214.6291610736662
 20
101.9131972309052
 30
0.0
 40
2.281500000000015
100
AcDbArc
 50
30.73091726592628
 51
330.0000000000016
  0
LINE
  5
182
330
172
100
AcDbEntity
  8
TEXT35
  6
Continuous
370
    25
100
AcDbLine
 10
216.6049980324005
 20
100.7724472309053
 30
0.0
 11
215.9970481989438
 21
101.1234472309053
 31
0.0
  0
LINE
  5
183
330
172
100
AcDbEntity
  8
TEXT35
  6
Continuous
370
    25
100
AcDbLine
 10
211.8347763192409
 20
111.6789659312995
 30
0.0
 11
211.8347763192409
 21
98.44416361029551
 31
0.0
  0
LINE
  5
184
330
172
100
AcDbEntity
  8
TEXT35
  6
Continuous
370
    25
100
AcDbLine
 10
211.8347763192409
 20
98.44416361029551
 30
0.0
 11
217.4235458280916
 21
98.44416361029551
 31
0.0
  0
LINE
  5
185
330
172
100
AcDbEntity
  8
TEXT35
  6
Continuous
370
    25
100
AcDbLine
 10
217.4235458280916
 20
98.44416361029551
 30
0.0
 11
217.4235458280916
 21
111.6789659312995
 31
0.0
  0
LINE
  5
186
330
172
100
AcDbEntity
  8
TEXT35
  6
Continuous
370
    25
100
AcDbLine
 10
217.4235458280916
 20
111.6789659312995
 30
0.0
 11
211.8347763192409
 21
111.6789659312995
 31
0.0
  0
LINE
  5
187
330
172
100
AcDbEntity
  8
TEXT35
  6
Continuous
370
    25
100
AcDbLine
 10
223.888052065189
 20
111.6789659312995
 30
0.0
 11
223.888052065189
 21
98.44416361029551
 31
0.0
  0
LINE
  5
188
330
172
100
AcDbEntity
  8
TEXT35
  6
Continuous
370
    25
100
AcDbLine
 10
223.888052065189
 20
98.44416361029551
 30
0.0
 11
218.2992825563384
 21
98.44416361029551
 31
0.0
  0
LINE
  5
189
330
172
100
AcDbEntity
  8
TEXT35
  6
Continuous
370
    25
100
AcDbLine
 10
218.2992825563384
 20
98.44416361029551
 30
0.0
 11
218.2992825563384
 21
111.6789659312995
 31
0.0
  0
LINE
  5
18A
330
172
100
AcDbEntity
  8
TEXT35
  6
Continuous
370
    25
100
AcDbLine
 10
218.2992825563384
 20
111.6789659312995
 30
0.0
 11
223.888052065189
 21
111.6789659312995
 31
0.0
  0
ARC
  5
18B
330
172
100
AcDbEntity
  8
TEXT35
  6
Continuous
370
    25
100
AcDbCircle
 10
211.499154836569
 20
99.57623034270236
 30
0.0
 40
4.914000000000251
100
AcDbArc
 50
172.305837035409
 51
179.7113029220757
  0
LINE
  5
18C
330
172
100
AcDbEntity
  8
TEXT35
  6
Continuous
370
    25
100
AcDbLine
 10
206.6293963427935
 20
100.2341423522474
 30
0.0
 11
209.6999133303443
 21
100.2341423522474
 31
0.0
  0
ARC
  5
18D
330
172
100
AcDbEntity
  8
TEXT35
  6
Continuous
370
    25
100
AcDbCircle
 10
204.8301548365688
 20
99.57623034270325
 30
0.0
 40
4.914000000000133
100
AcDbArc
 50
0.2886970779141535
 51
7.694162964580896
  0
LINE
  5
18E
330
172
100
AcDbEntity
  8
TEXT35
  6
Continuous
370
    25
100
AcDbLine
 10
209.7440924568018
 20
99.600990481233
 30
0.0
 11
210.4461002543538
 21
99.600990481233
 31
0.0
  0
ARC
  5
18F
330
172
100
AcDbEntity
  8
TEXT35
  6
Continuous
370
    25
100
AcDbCircle
 10
204.8301548365688
 20
99.5762303427033
 30
0.0
 40
5.616000000000016
100
AcDbArc
 50
0.2526096926473688
 51
53.57642635766914
  0
ARC
  5
190
330
172
100
AcDbEntity
  8
TEXT35
  6
Continuous
370
    25
100
AcDbCircle
 10
211.4991548365688
 20
99.57623034270325
 30
0.0
 40
5.616000000000024
100
AcDbArc
 50
126.4235736423304
 51
179.7473903073512
  0
LINE
  5
191
330
172
100
AcDbEntity
  8
TEXT35
  6
Continuous
370
    25
100
AcDbLine
 10
205.8832094187838
 20
99.600990481233
 30
0.0
 11
206.5852172163358
 21
99.600990481233
 31
0.0
  0
LINE
  5
192
330
172
100
AcDbEntity
  8
TEXT35
  6
Continuous
370
    25
100
AcDbLine
 10
205.3702700821435
 20
111.6789659312995
 30
0.0
 11
205.3702700821435
 21
98.44416361029551
 31
0.0
  0
LINE
  5
193
330
172
100
AcDbEntity
  8
TEXT35
  6
Continuous
370
    25
100
AcDbLine
 10
205.3702700821435
 20
98.44416361029551
 30
0.0
 11
210.9590395909941
 21
98.44416361029551
 31
0.0
  0
LINE
  5
194
330
172
100
AcDbEntity
  8
TEXT35
  6
Continuous
370
    25
100
AcDbLine
 10
210.9590395909941
 20
98.44416361029551
 30
0.0
 11
210.9590395909941
 21
111.6789659312995
 31
0.0
  0
LINE
  5
195
330
172
100
AcDbEntity
  8
TEXT35
  6
Continuous
370
    25
100
AcDbLine
 10
210.9590395909941
 20
111.6789659312995
 30
0.0
 11
205.3702700821435
 21
111.6789659312995
 31
0.0
  0
ARC
  5
196
330
172
100
AcDbEntity
  8
TEXT35
  6
Continuous
370
    25
100
AcDbCircle
 10
204.830154836569
 20
99.57623034270341
 30
0.0
 40
4.913999999999818
100
AcDbArc
 50
16.0658750272321
 51
47.26788995739759
  0
LINE
  5
197
330
172
100
AcDbEntity
  8
TEXT35
  6
Continuous
370
    25
100
AcDbLine
 10
209.5522343918387
 20
100.9361423522474
 30
0.0
 11
206.7770752812989
 21
100.9361423522474
 31
0.0
  0
ARC
  5
198
330
172
100
AcDbEntity
  8
TEXT35
  6
Continuous
370
    25
100
AcDbCircle
 10
211.4991548365683
 20
99.57623034270339
 30
0.0
 40
4.913999999999566
100
AcDbArc
 50
132.7321100425983
 51
163.9341249727667
  0
LINE
  5
199
330
172
100
AcDbEntity
  8
Nadpis (ISO)
100
AcDbLine
 10
299.0
 20
114.0
 30
0.0
 11
299.0
 21
45.0
 31
0.0
  0
LINE
  5
19A
330
172
100
AcDbEntity
  8
Nadpis (ISO)
100
AcDbLine
 10
299.0
 20
45.0
 30
0.0
 11
117.0
 21
44.99999999999999
 31
0.0
  0
LINE
  5
19B
330
172
100
AcDbEntity
  8
Nadpis (ISO)
100
AcDbLine
 10
117.0
 20
44.99999999999999
 30
0.0
 11
117.0
 21
114.0
 31
0.0
  0
LINE
  5
19C
330
172
100
AcDbEntity
  8
Nadpis (ISO)
100
AcDbLine
 10
117.0
 20
114.0
 30
0.0
 11
299.0
 21
114.0
 31
0.0
  0
LINE
  5
19D
330
172
100
AcDbEntity
  8
Nadpis (ISO)
100
AcDbLine
 10
199.0
 20
114.0
 30
0.0
 11
199.0
 21
93.99999999999998
 31
0.0
  0
LINE
  5
19E
330
172
100
AcDbEntity
  8
KOPF
100
AcDbLine
 10
199.0
 20
104.0
 30
0.0
 11
117.0
 21
104.0
 31
0.0
  0
LINE
  5
19F
330
172
100
AcDbEntity
  8
Nadpis (ISO)
100
AcDbLine
 10
199.0
 20
93.99999999999998
 30
0.0
 11
117.0
 21
93.99999999999996
 31
0.0
  0
LINE
  5
1A0
330
172
100
AcDbEntity
  8
KOPF
100
AcDbLine
 10
158.0
 20
93.99999999999998
 30
0.0
 11
158.0
 21
114.0
 31
0.0
  0
LINE
  5
1A1
330
172
100
AcDbEntity
  8
Nadpis (ISO)
100
AcDbLine
 10
199.0
 20
93.99999999999998
 30
0.0
 11
299.0
 21
93.99999999999998
 31
0.0
  0
LINE
  5
1A2
330
172
100
AcDbEntity
  8
Nadpis (ISO)
100
AcDbLine
 10
216.0
 20
94.00000000000003
 30
0.0
 11
216.0
 21
44.99999999999999
 31
0.0
  0
LINE
  5
1A3
330
172
100
AcDbEntity
  8
Nadpis (ISO)
100
AcDbLine
 10
299.0
 20
74.00000000000004
 30
0.0
 11
117.0
 21
73.99999999999998
 31
0.0
  0
LINE
  5
1A4
330
172
100
AcDbEntity
  8
Nadpis (ISO)
100
AcDbLine
 10
186.0
 20
94.0
 30
0.0
 11
186.0
 21
74.00000000000002
 31
0.0
  0
LINE
  5
1A5
330
172
100
AcDbEntity
  8
KOPF
100
AcDbLine
 10
137.0
 20
93.99999999999998
 30
0.0
 11
137.0
 21
74.0
 31
0.0
  0
LINE
  5
1A6
330
172
100
AcDbEntity
  8
KOPF
100
AcDbLine
 10
162.0
 20
93.99999999999998
 30
0.0
 11
162.0
 21
74.0
 31
0.0
  0
LINE
  5
1A7
330
172
100
AcDbEntity
  8
KOPF
100
AcDbLine
 10
186.0
 20
84.0
 30
0.0
 11
117.0
 21
83.99999999999996
 31
0.0
  0
LINE
  5
1A8
330
172
100
AcDbEntity
  8
KOPF
100
AcDbLine
 10
186.0
 20
79.0
 30
0.0
 11
117.0
 21
78.99999999999997
 31
0.0
  0
LINE
  5
1A9
330
172
100
AcDbEntity
  8
KOPF
100
AcDbLine
 10
186.0
 20
89.0
 30
0.0
 11
117.0
 21
88.99999999999996
 31
0.0
  0
LINE
  5
1AA
330
172
100
AcDbEntity
  8
KOPF
100
AcDbLine
 10
216.0
 20
50.0
 30
0.0
 11
299.0
 21
50.0
 31
0.0
  0
LINE
  5
1AB
330
172
100
AcDbEntity
  8
Nadpis (ISO)
100
AcDbLine
 10
216.0
 20
55.0
 30
0.0
 11
299.0
 21
55.0
 31
0.0
  0
LINE
  5
1AC
330
172
100
AcDbEntity
  8
KOPF
100
AcDbLine
 10
238.0000000000001
 20
93.99999999999998
 30
0.0
 11
238.0000000000001
 21
74.00000000000003
 31
0.0
  0
LINE
  5
1AD
330
172
100
AcDbEntity
  8
KOPF
100
AcDbLine
 10
238.0000000000001
 20
84.00000000000003
 30
0.0
 11
216.0
 21
84.00000000000003
 31
0.0
  0
LINE
  5
1AE
330
172
100
AcDbEntity
  8
Nadpis (ISO)
100
AcDbLine
 10
287.0
 20
74.00000000000004
 30
0.0
 11
287.0
 21
55.0
 31
0.0
  0
LINE
  5
1AF
330
172
100
AcDbEntity
  8
KOPF
100
AcDbLine
 10
289.0
 20
50.0
 30
0.0
 11
289.0
 21
45.0
 31
0.0
  0
LINE
  5
1B0
330
172
100
AcDbEntity
  8
Nadpis (ISO)
100
AcDbLine
 10
260.9160465310349
 20
50.0
 30
0.0
 11
260.9160465310349
 21
45.0
 31
0.0
  0
TEXT
  5
1B2
330
172
100
AcDbEntity
  8
Viditelná tenká (ISO)
100
AcDbText
 10
266.0
 20
84.97994933403729
 30
0.0
 40
1.539999991655349
  1
zum Zweck anderweitiger Benutzung
 41
0.7999999523162842
  7
Styl textu62
100
AcDbText
  0
TEXT
  5
1B4
330
172
100
AcDbEntity
  8
Viditelná tenká (ISO)
100
AcDbText
 10
266.0
 20
82.63814072439632
 30
0.0
 40
1.539999991655349
  1
mitgeteilt werden und bleibt unser
 41
0.7999999523162842
  7
Styl textu62
100
AcDbText
  0
TEXT
  5
1B5
330
172
100
AcDbEntity
  8
Viditelná tenká (ISO)
100
AcDbText
 10
266.0
 20
87.26106040199921
 30
0.0
 40
1.539999991655349
  1
noch dritten Personen, insbesondere
 41
0.7999999523162842
  7
Styl textu62
100
AcDbText
  0
TEXT
  5
1B6
330
172
100
AcDbEntity
  8
Viditelná tenká (ISO)
100
AcDbText
 10
266.0
 20
89.6282322587214
 30
0.0
 40
1.539999991655349
  1
Diese Zeichnung darf weder kopiert
 41
0.7999999523162842
  7
Styl textu62
100
AcDbText
  0
TEXT
  5
1B7
330
172
100
AcDbEntity
  8
Viditelná tenká (ISO)
100
AcDbText
 10
266.0
 20
80.37532604459599
 30
0.0
 40
1.539999991655349
  1
Eigentum.
 41
0.7999999523162842
  7
Styl textu62
100
AcDbText
  0
TEXT
  5
1B9
330
172
100
AcDbEntity
  8
Viditelná tenká (ISO)
100
AcDbText
 10
241.877559521167
 20
90.82431699999998
 30
0.0
 40
2.000000029802322
  1
Projektion: ISO-E
 41
0.7999999523162842
  7
Styl textu58
100
AcDbText
  0
TEXT
  5
1BB
330
172
100
AcDbEntity
  8
Viditelná tenká (ISO)
100
AcDbText
 10
266.0
 20
77.30982488917627
 30
0.0
 40
1.539999991655349
  1
Schutzvermerk nach DIN 34 beachten
 41
0.75
  7
Styl textu63
100
AcDbText
  0
TEXT
  5
1BC
330
172
100
AcDbEntity
  8
Viditelná tenká (ISO)
100
AcDbText
 10
236.2487793316645
 20
99.38243367792949
 30
0.0
 40
2.000000029802322
  1
582 22 Přibyslav
 41
0.7999999523162842
  7
Styl textu58
100
AcDbText
  0
TEXT
  5
1BE
330
172
100
AcDbEntity
  8
Viditelná tenká (ISO)
100
AcDbText
 10
261.6984261202779
 20
99.57784645000474
 30
0.0
 40
2.09999993443489
  1
Fax: 0451 / 482529
 41
0.7000000476837159
  7
Styl textu72
100
AcDbText
  0
TEXT
  5
1BF
330
172
100
AcDbEntity
  8
Viditelná tenká (ISO)
100
AcDbText
 10
236.5351154208068
 20
103.0087314099309
 30
0.0
 40
2.000000029802322
  1
Havličkova 260
 41
0.7999999523162842
  7
Styl textu58
100
AcDbText
  0
TEXT
  5
1C1
330
172
100
AcDbEntity
  8
TEXT35
100
AcDbText
 10
235.9801354774567
 20
108.2018007493417
 30
0.0
 40
3.000000119209289
  1
ACO Stavebni prvky k.s
 41
0.7999999523162842
  7
Styl textu75
100
AcDbText
  0
TEXT
  5
1C2
330
172
100
AcDbEntity
  8
Viditelná tenká (ISO)
100
AcDbText
 10
261.6456899832647
 20
102.9064533471121
 30
0.0
 40
2.09999993443489
  1
Tel.: 0451 / 491660
 41
0.7000000476837159
  7
Styl textu72
100
AcDbText
  0
MTEXT
  5
1C3
330
172
100
AcDbEntity
  8
Viditelná tenká (ISO)
100
AcDbMText
 10
217.3570092483237
 20
73.27889989032858
 30
0.0
 40
2.000000029802322
 41
0.0
 71
     1
 72
     1
  1
\fArial|b0|i0;\H2.0000;Zeichnung Nr.
  7
Text poznámky (ISO)
 73
     1
 44
1.0
  0
MTEXT
  5
1C4
330
172
100
AcDbEntity
  8
Viditelná tenká (ISO)
100
AcDbMText
 10
287.9433731401013
 20
72.84063462326733
 30
0.0
 40
2.000000029802322
 41
0.0
 71
     1
 72
     1
  1
\fArial|b0|i0;\H2.0000;Index
  7
Text poznámky (ISO)
 73
     1
 44
1.0
  0
MTEXT
  5
1C5
330
172
100
AcDbEntity
  8
Viditelná tenká (ISO)
100
AcDbMText
 10
217.1230582952341
 20
52.63510416823109
 30
0.0
 40
2.000000029802322
 41
0.0
 71
     1
 72
     1
  1
\fArial|b0|i0;\H2.0000;Ersatz fur\PErsatz durch
  7
Text poznámky (ISO)
 73
     2
 44
0.9442214369773864
  0
MTEXT
  5
1C6
330
172
100
AcDbEntity
  8
Viditelná tenká (ISO)
100
AcDbMText
 10
188.916108134284
 20
93.0
 30
0.0
 40
2.000000029802322
 41
0.0
 71
     1
 72
     1
  1
\fArial|b0|i0;\H2.0000;Massstab
  7
Text poznámky (ISO)
 73
     1
 44
1.0
  0
MTEXT
  5
1C7
330
172
100
AcDbEntity
  8
Viditelná tenká (ISO)
100
AcDbMText
 10
217.0
 20
93.0
 30
0.0
 40
2.000000029802322
 41
0.0
 71
     1
 72
     1
  1
\fArial|b0|i0;\H2.0000;Masseinheit
  7
Text poznámky (ISO)
 73
     1
 44
1.0
  0
MTEXT
  5
1C8
330
172
100
AcDbEntity
  8
Viditelná tenká (ISO)
100
AcDbMText
 10
118.0
 20
113.0
 30
0.0
 40
2.000000029802322
 41
0.0
 71
     1
 72
     1
  1
\fArial|b0|i0;\H2.0000;Werkstoff.
  7
Text poznámky (ISO)
 73
     1
 44
1.0
  0
MTEXT
  5
1C9
330
172
100
AcDbEntity
  8
Viditelná tenká (ISO)
100
AcDbMText
 10
159.0
 20
113.0
 30
0.0
 40
2.000000029802322
 41
0.0
 71
     1
 72
     1
  1
\fArial|b0|i0;\H2.0000;Hmotnost
  7
Text poznámky (ISO)
 73
     1
 44
1.0
  0
MTEXT
  5
1CA
330
172
100
AcDbEntity
  8
Viditelná tenká (ISO)
100
AcDbMText
 10
118.0
 20
103.0
 30
0.0
 40
2.000000029802322
 41
0.0
 71
     1
 72
     1
  1
\fArial|b0|i0;\H2.0000;zul.Abweich.
  7
Text poznámky (ISO)
 73
     1
 44
1.0
  0
MTEXT
  5
1CB
330
172
100
AcDbEntity
  8
Viditelná tenká (ISO)
100
AcDbMText
 10
159.0
 20
103.0
 30
0.0
 40
2.000000029802322
 41
0.0
 71
     1
 72
     1
  1
\fArial|b0|i0;\H2.0000;Oberflache
  7
Text poznámky (ISO)
 73
     1
 44
1.0
  0
MTEXT
  5
1CC
330
172
100
AcDbEntity
  8
Viditelná tenká (ISO)
100
AcDbMText
 10
118.2064366962235
 20
87.52498463872976
 30
0.0
 40
2.000000029802322
 41
0.0
 71
     1
 72
     1
  1
\fArial|b0|i0;\H2.0000;Gezeichnet
  7
Text poznámky (ISO)
 73
     1
 44
1.0
  0
MTEXT
  5
1CD
330
172
100
AcDbEntity
  8
Viditelná tenká (ISO)
100
AcDbMText
 10
118.2064366962235
 20
82.79398756785594
 30
0.0
 40
2.000000029802322
 41
0.0
 71
     1
 72
     1
  1
\fArial|b0|i0;\H2.0000;Gepruft
  7
Text poznámky (ISO)
 73
     1
 44
1.0
  0
MTEXT
  5
1CE
330
172
100
AcDbEntity
  8
Viditelná tenká (ISO)
100
AcDbMText
 10
118.2064366962235
 20
77.59713566222233
 30
0.0
 40
2.000000029802322
 41
0.0
 71
     1
 72
     1
  1
\fArial|b0|i0;\H2.0000;Update
  7
Text poznámky (ISO)
 73
     1
 44
1.0
  0
MTEXT
  5
1CF
330
172
100
AcDbEntity
  8
Viditelná tenká (ISO)
100
AcDbMText
 10
143.0
 20
93.0
 30
0.0
 40
2.000000029802322
 41
0.0
 71
     1
 72
     1
  1
\fArial|b0|i0;\H2.0000;Datum
  7
Text poznámky (ISO)
 73
     1
 44
1.0
  0
MTEXT
  5
1D0
330
172
100
AcDbEntity
  8
Viditelná tenká (ISO)
100
AcDbMText
 10
170.0
 20
93.0
 30
0.0
 40
2.000000029802322
 41
0.0
 71
     1
 72
     1
  1
\fArial|b0|i0;\H2.0000;Name
  7
Text poznámky (ISO)
 73
     1
 44
1.0
  0
MTEXT
  5
1D1
102
{ACAD_XDICTIONARY
360
1DDF
102
}
330
172
100
AcDbEntity
  8
Nadpis (ISO)
100
AcDbMText
 10
118.0
 20
71.0
 30
0.0
 40
3.499999940395355
 41
0.0
 71
     1
 72
     1
  1
Effidrain rostova nastavba 300x300x30 n\U+00EDzk\U+00E1 AISI 304
  7
Text poznámky (ISO)
 73
     1
 44
1.0
  0
MTEXT
  5
1D2
330
172
100
AcDbEntity
  8
Nadpis (ISO)
100
AcDbMText
 10
138.6542642016321
 20
87.78242706242743
 30
0.0
 40
2.000000029802322
 41
0.0
 71
     1
 72
     1
  1
\fTahoma|b0|i0;\H2.0000;11.8.2009
  7
Text poznámky (ISO)
 73
     1
 44
1.0
  0
MTEXT
  5
1D3
330
172
100
AcDbEntity
  8
Nadpis (ISO)
100
AcDbMText
 10
118.9147684950603
 20
98.79632878646518
 30
0.0
 40
3.499999940395355
 41
0.0
 71
     1
 72
     1
  1
ISO 2768-m
  7
Text poznámky (ISO)
 73
     1
 44
1.0
  0
MTEXT
  5
1D4
330
172
100
AcDbEntity
  8
Nadpis (ISO)
100
AcDbMText
 10
162.5831033854
 20
99.20167780246005
 30
0.0
 40
3.499999940395355
 41
0.0
 71
     1
 72
     1
  1
DIN ISO 1302
  7
Text poznámky (ISO)
 73
     1
 44
1.0
  0
MTEXT
  5
1D5
330
172
100
AcDbEntity
  8
Nadpis (ISO)
100
AcDbMText
 10
262.4743825961981
 20
49.17778241269704
 30
0.0
 40
3.499999940395355
 41
0.0
 71
     1
 72
     1
  1
\fArial|b0|i0;\H3.5000;List:\fArial|b0|i0;\H3.5000;1 \fArial|b0|i0;\H3.5000;/\fArial|b0|i0;\H3.5000;1 
  7
Text poznámky (ISO)
 73
     1
 44
1.0
  0
MTEXT
  5
1D6
330
172
100
AcDbEntity
  8
Nadpis (ISO)
100
AcDbMText
 10
159.4396788094336
 20
109.6756657996811
 30
0.0
 40
3.499999940395355
 41
29.10098367733216
 71
     1
 72
     1
  1
1,66 kg
  7
Text poznámky (ISO)
 73
     1
 44
1.0
  0
ATTDEF
  5
1D8
102
{ACAD_XDICTIONARY
360
19DA
102
}
330
172
100
AcDbEntity
  8
Nadpis (ISO)
100
AcDbText
 10
287.4393862219839
 20
62.4856753668063
 30
0.0
 40
3.499999940395355
  1
000
  7
Styl textu9
100
AcDbAttributeDefinition
  3
ČÍSLO REVIZE
  2
ČÍSLO_REVIZE_001
 70
     0
  0
ATTDEF
  5
1DC
102
{ACAD_XDICTIONARY
360
19DD
102
}
330
172
100
AcDbEntity
  8
Nadpis (ISO)
100
AcDbText
 10
289.7753402652471
 20
46.32882590415591
 30
0.0
 40
2.000000029802322
  1
A3
  7
Styl textu40
100
AcDbAttributeDefinition
  3
Sheet Size
  2
Sheet_Size_001
 70
     0
  0
ATTDEF
  5
1DD
102
{ACAD_XDICTIONARY
360
19E0
102
}
330
172
100
AcDbEntity
  8
Nadpis (ISO)
100
AcDbText
 10
230.1305737493188
 20
51.10091360311345
 30
0.0
 40
2.000000029802322
  1
C:\Inventor_DATA\Projekty\Guly\Effidrain\Effidrain sestava rostova nastavba\408228.iam
  7
Styl textu40
100
AcDbAttributeDefinition
  3
FILENAME AND PATH
  2
FILENAME_AND_PATH_001
 70
     0
  0
ATTDEF
  5
1DE
102
{ACAD_XDICTIONARY
360
19E3
102
}
330
172
100
AcDbEntity
  8
Nadpis (ISO)
100
AcDbText
 10
217.9059771674843
 20
62.42008065196634
 30
0.0
 40
3.499999940395355
  1
408228
  7
Text poznámky (ISO)
100
AcDbAttributeDefinition
  3
PART NUMBER
  2
PART_NUMBER_001
 70
     0
  0
ATTDEF
  5
1DF
102
{ACAD_XDICTIONARY
360
19E6
102
}
330
172
100
AcDbEntity
  8
Nadpis (ISO)
100
AcDbText
 10
118.0
 20
56.50000005960464
 30
0.0
 40
3.499999940395355
  1

  7
Text poznámky (ISO)
 11
118.0
 21
60.0
 31
0.0
100
AcDbAttributeDefinition
  3
PROJECT
  2
PROJECT
 70
     0
 74
     3
  0
ATTDEF
  5
1E1
102
{ACAD_XDICTIONARY
360
19E9
102
}
330
172
100
AcDbEntity
  8
Nadpis (ISO)
100
AcDbText
 10
117.8119543349687
 20
47.73407435882506
 30
0.0
 40
6.99999988079071
  1
408228
  7
Styl textu94
100
AcDbAttributeDefinition
  3
SKLADOVÉ ČÍSLO
  2
SKLADOVÉ_ČÍSLO_001
 70
     0
  0
ATTDEF
  5
1E2
102
{ACAD_XDICTIONARY
360
19EC
102
}
330
172
100
AcDbEntity
  8
Nadpis (ISO)
100
AcDbText
 10
117.5939056808251
 20
105.1756658592858
 30
0.0
 40
3.499999940395355
  1

  7
Text poznámky (ISO)
 11
117.5939056808251
 21
108.6756657996811
 31
0.0
100
AcDbAttributeDefinition
  3
MATERIAL
  2
MATERIAL
 70
     0
 74
     3
  0
ATTDEF
  5
1E3
102
{ACAD_XDICTIONARY
360
19EF
102
}
330
172
100
AcDbEntity
  8
Nadpis (ISO)
100
AcDbText
 10
165.0470513532835
 20
85.7824270326251
 30
0.0
 40
2.000000029802322
  1
pmacoun
  7
Styl textu40
100
AcDbAttributeDefinition
  3
AUTHOR
  2
AUTHOR_001
 70
     0
  0
ATTDEF
  5
1E4
102
{ACAD_XDICTIONARY
360
19F2
102
}
330
172
100
AcDbEntity
  8
Nadpis (ISO)
100
AcDbText
 10
189.1855699863978
 20
82.50038826992806
 30
0.0
 40
3.499999940395355
  1

  7
Text poznámky (ISO)
 11
189.1855699863978
 21
86.00038821032342
 31
0.0
100
AcDbAttributeDefinition
  3
VS_First
  2
VS_First
 70
     0
 74
     3
  0
ENDBLK
  5
174
330
172
100
AcDbEntity
  8
0
100
AcDbBlockEnd
  0
BLOCK
  5
131A
330
1319
100
AcDbEntity
  8
0
100
AcDbBlockBegin
  2
KUSOVNÍK
 70
     0
 10
0.0
 20
0.0
 30
0.0
  3
KUSOVNÍK
  1

  0
LINE
  5
131C
330
1319
100
AcDbEntity
  8
Značka (ISO)
100
AcDbLine
 10
410.0
 20
199.62532274127
 30
0.0
 11
228.3432029800816
 21
199.62532274127
 31
0.0
  0
LINE
  5
131D
330
1319
100
AcDbEntity
  8
Značka (ISO)
100
AcDbLine
 10
410.0
 20
199.62532274127
 30
0.0
 11
410.0
 21
193.2766215443611
 31
0.0
  0
LINE
  5
131E
330
1319
100
AcDbEntity
  8
Značka (ISO)
100
AcDbLine
 10
228.3432029800816
 20
199.62532274127
 30
0.0
 11
228.3432029800816
 21
193.2766215443611
 31
0.0
  0
MTEXT
  5
131F
102
{ACAD_XDICTIONARY
360
1DE1
102
}
330
1319
100
AcDbEntity
  8
Značka (ISO)
100
AcDbMText
 10
308.6282230785102
 20
194.0012967914343
 30
0.0
 40
3.499999940395355
 41
0.0
 71
     7
 72
     1
  1
KUSOVN\U+00CDK
  7
Text poznámky (DIN)
 73
     1
 44
1.0
  0
LINE
  5
1321
330
1319
100
AcDbEntity
  8
Značka (ISO)
100
AcDbLine
 10
410.0
 20
193.2766215443611
 30
0.0
 11
228.3432029800816
 21
193.2766215443611
 31
0.0
  0
LINE
  5
1322
330
1319
100
AcDbEntity
  8
Značka (ISO)
100
AcDbLine
 10
410.0
 20
193.2766215443611
 30
0.0
 11
410.0
 21
186.9279203474522
 31
0.0
  0
MTEXT
  5
1323
102
{ACAD_XDICTIONARY
360
1DE3
102
}
330
1319
100
AcDbEntity
  8
Značka (ISO)
100
AcDbMText
 10
387.1072709453114
 20
187.6525955945253
 30
0.0
 40
3.499999940395355
 41
0.0
 71
     7
 72
     1
  1
MATERI\U+00C1L
  7
Text poznámky (DIN)
 73
     1
 44
1.0
  0
LINE
  5
1324
330
1319
100
AcDbEntity
  8
Značka (ISO)
100
AcDbLine
 10
384.6
 20
193.2766215443611
 30
0.0
 11
384.6
 21
186.9279203474522
 31
0.0
  0
MTEXT
  5
1325
330
1319
100
AcDbEntity
  8
Značka (ISO)
100
AcDbMText
 10
360.83227118373
 20
188.3522709757089
 30
0.0
 40
3.499999940395355
 41
0.0
 71
     7
 72
     1
  1
HMOTNOST
  7
Text poznámky (DIN)
 73
     1
 44
1.0
  0
LINE
  5
1326
330
1319
100
AcDbEntity
  8
Značka (ISO)
100
AcDbLine
 10
359.2
 20
193.2766215443611
 30
0.0
 11
359.2
 21
186.9279203474522
 31
0.0
  0
MTEXT
  5
1327
102
{ACAD_XDICTIONARY
360
1DE5
102
}
330
1319
100
AcDbEntity
  8
Značka (ISO)
100
AcDbMText
 10
335.6075958621511
 20
187.6525955945253
 30
0.0
 40
3.499999940395355
 41
0.0
 71
     7
 72
     1
  1
SKLADOV\U+00C9
  7
Text poznámky (DIN)
 73
     1
 44
1.0
  0
LINE
  5
1328
330
1319
100
AcDbEntity
  8
Značka (ISO)
100
AcDbLine
 10
333.8
 20
193.2766215443611
 30
0.0
 11
333.8
 21
186.9279203474522
 31
0.0
  0
MTEXT
  5
1329
330
1319
100
AcDbEntity
  8
Značka (ISO)
100
AcDbMText
 10
287.0214048912734
 20
188.3522709757089
 30
0.0
 40
3.499999940395355
 41
0.0
 71
     7
 72
     1
  1
POPIS
  7
Text poznámky (DIN)
 73
     1
 44
1.0
  0
LINE
  5
132A
330
1319
100
AcDbEntity
  8
Značka (ISO)
100
AcDbLine
 10
251.8815139608785
 20
193.2766215443611
 30
0.0
 11
251.8815139608785
 21
186.9279203474522
 31
0.0
  0
MTEXT
  5
132B
330
1319
100
AcDbEntity
  8
Značka (ISO)
100
AcDbMText
 10
245.686512276452
 20
188.3522709757089
 30
0.0
 40
3.499999940395355
 41
0.0
 71
     7
 72
     1
  1
KS
  7
Text poznámky (DIN)
 73
     1
 44
1.0
  0
LINE
  5
132C
330
1319
100
AcDbEntity
  8
Značka (ISO)
100
AcDbLine
 10
244.4841115074559
 20
193.2766215443611
 30
0.0
 11
244.4841115074559
 21
186.9279203474522
 31
0.0
  0
MTEXT
  5
132D
330
1319
100
AcDbEntity
  8
Značka (ISO)
100
AcDbMText
 10
229.5456037490777
 20
188.3522709757089
 30
0.0
 40
3.499999940395355
 41
0.0
 71
     7
 72
     1
  1
POZICE
  7
Text poznámky (DIN)
 73
     1
 44
1.0
  0
LINE
  5
132E
330
1319
100
AcDbEntity
  8
Značka (ISO)
100
AcDbLine
 10
228.3432029800816
 20
193.2766215443611
 30
0.0
 11
228.3432029800816
 21
186.9279203474522
 31
0.0
  0
MTEXT
  5
132F
330
1319
100
AcDbEntity
  8
Značka (ISO)
100
AcDbMText
 10
385.8024007689961
 20
182.0035697788
 30
0.0
 40
3.499999940395355
 41
0.0
 71
     7
 72
     1
  1
AISI 304
  7
Text poznámky (DIN)
 73
     1
 44
1.0
  0
MTEXT
  5
1330
330
1319
100
AcDbEntity
  8
Značka (ISO)
100
AcDbMText
 10
360.3996007618758
 20
180.9548685222864
 30
0.0
 40
3.499999940395355
 41
0.0
 71
     7
 72
     1
  1
1,67 kg
  7
Text poznámky (DIN)
 73
     1
 44
1.0
  0
MTEXT
  5
1331
330
1319
100
AcDbEntity
  8
Značka (ISO)
100
AcDbMText
 10
335.0024007689961
 20
182.0035697788
 30
0.0
 40
3.499999940395355
 41
0.0
 71
     7
 72
     1
  1
E53943
  7
Text poznámky (DIN)
 73
     1
 44
1.0
  0
MTEXT
  5
1332
102
{ACAD_XDICTIONARY
360
1DE7
102
}
330
1319
100
AcDbEntity
  8
Značka (ISO)
100
AcDbMText
 10
253.0839147298745
 20
180.7811671763658
 30
0.0
 40
3.499999940395355
 41
0.0
 71
     7
 72
     1
  1
Sva\U+0159enec ro\U+0161tov\U+00E9 n\U+00E1stavby 408228
  7
Text poznámky (DIN)
 73
     1
 44
1.0
  0
MTEXT
  5
1333
330
1319
100
AcDbEntity
  8
Značka (ISO)
100
AcDbMText
 10
247.1324880706473
 20
182.0035697788
 30
0.0
 40
3.499999940395355
 41
0.0
 71
     7
 72
     1
  1
 
  7
Text poznámky (DIN)
 73
     1
 44
1.0
  0
MTEXT
  5
1334
330
1319
100
AcDbEntity
  8
Značka (ISO)
100
AcDbMText
 10
235.8382580205457
 20
182.0035697788
 30
0.0
 40
3.499999940395355
 41
0.0
 71
     7
 72
     1
  1
1
  7
Text poznámky (DIN)
 73
     1
 44
1.0
  0
LINE
  5
1335
330
1319
100
AcDbEntity
  8
Značka (ISO)
100
AcDbLine
 10
410.0
 20
186.9279203474522
 30
0.0
 11
228.3432029800816
 21
186.9279203474522
 31
0.0
  0
MTEXT
  5
1336
330
1319
100
AcDbEntity
  8
Značka (ISO)
100
AcDbMText
 10
385.8024007689961
 20
175.654868581891
 30
0.0
 40
3.499999940395355
 41
0.0
 71
     7
 72
     1
  1
AISI 304
  7
Text poznámky (DIN)
 73
     1
 44
1.0
  0
MTEXT
  5
1337
330
1319
100
AcDbEntity
  8
Značka (ISO)
100
AcDbMText
 10
360.4024007689961
 20
174.6061673253775
 30
0.0
 40
3.499999940395355
 41
0.0
 71
     7
 72
     1
  1
0,497 kg
  7
Text poznámky (DIN)
 73
     1
 44
1.0
  0
MTEXT
  5
1338
330
1319
100
AcDbEntity
  8
Značka (ISO)
100
AcDbMText
 10
335.0024007689961
 20
175.654868581891
 30
0.0
 40
3.499999940395355
 41
0.0
 71
     7
 72
     1
  1
E54455
  7
Text poznámky (DIN)
 73
     1
 44
1.0
  0
MTEXT
  5
1339
102
{ACAD_XDICTIONARY
360
1DE9
102
}
330
1319
100
AcDbEntity
  8
Značka (ISO)
100
AcDbMText
 10
253.0839147298745
 20
174.4324659794569
 30
0.0
 40
3.499999940395355
 41
0.0
 71
     7
 72
     1
  1
Vypust pro \U+017Elab D218/200 snizena 
  7
Text poznámky (DIN)
 73
     1
 44
1.0
  0
MTEXT
  5
133A
330
1319
100
AcDbEntity
  8
Značka (ISO)
100
AcDbMText
 10
253.0839147298745
 20
169.1324661165476
 30
0.0
 40
3.499999940395355
 41
0.0
 71
     7
 72
     1
  1
AISI 304
  7
Text poznámky (DIN)
 73
     1
 44
1.0
  0
MTEXT
  5
133B
330
1319
100
AcDbEntity
  8
Značka (ISO)
100
AcDbMText
 10
247.6074135109441
 20
175.654868581891
 30
0.0
 40
3.499999940395355
 41
0.0
 71
     7
 72
     1
  1
1
  7
Text poznámky (DIN)
 73
     1
 44
1.0
  0
MTEXT
  5
133C
330
1319
100
AcDbEntity
  8
Značka (ISO)
100
AcDbMText
 10
234.4389073326843
 20
175.654868581891
 30
0.0
 40
3.499999940395355
 41
0.0
 71
     7
 72
     1
  1
1.1
  7
Text poznámky (DIN)
 73
     1
 44
1.0
  0
LINE
  5
133D
330
1319
100
AcDbEntity
  8
Značka (ISO)
100
AcDbLine
 10
410.0
 20
180.5792191505432
 30
0.0
 11
228.3432029800816
 21
180.5792191505432
 31
0.0
  0
MTEXT
  5
133E
330
1319
100
AcDbEntity
  8
Značka (ISO)
100
AcDbMText
 10
385.8024007689961
 20
162.9574661880731
 30
0.0
 40
3.499999940395355
 41
0.0
 71
     7
 72
     1
  1
AISI 304
  7
Text poznámky (DIN)
 73
     1
 44
1.0
  0
MTEXT
  5
133F
330
1319
100
AcDbEntity
  8
Značka (ISO)
100
AcDbMText
 10
360.4024007689961
 20
161.9087649315595
 30
0.0
 40
3.499999940395355
 41
0.0
 71
     7
 72
     1
  1
0,980 kg
  7
Text poznámky (DIN)
 73
     1
 44
1.0
  0
MTEXT
  5
1340
330
1319
100
AcDbEntity
  8
Značka (ISO)
100
AcDbMText
 10
335.0024007689961
 20
162.9574661880731
 30
0.0
 40
3.499999940395355
 41
0.0
 71
     7
 72
     1
  1
E23313
  7
Text poznámky (DIN)
 73
     1
 44
1.0
  0
MTEXT
  5
1341
330
1319
100
AcDbEntity
  8
Značka (ISO)
100
AcDbMText
 10
253.0839147298745
 20
162.9574661880731
 30
0.0
 40
3.499999940395355
 41
0.0
 71
     7
 72
     1
  1
Effidrain rost.nast 300x300x30 AISI 
  7
Text poznámky (DIN)
 73
     1
 44
1.0
  0
MTEXT
  5
1342
330
1319
100
AcDbEntity
  8
Značka (ISO)
100
AcDbMText
 10
253.0839147298745
 20
156.6087650686502
 30
0.0
 40
3.499999940395355
 41
0.0
 71
     7
 72
     1
  1
304
  7
Text poznámky (DIN)
 73
     1
 44
1.0
  0
MTEXT
  5
1343
330
1319
100
AcDbEntity
  8
Značka (ISO)
100
AcDbMText
 10
247.6074135109441
 20
162.9574661880731
 30
0.0
 40
3.499999940395355
 41
0.0
 71
     7
 72
     1
  1
1
  7
Text poznámky (DIN)
 73
     1
 44
1.0
  0
MTEXT
  5
1344
330
1319
100
AcDbEntity
  8
Značka (ISO)
100
AcDbMText
 10
234.0898814573543
 20
162.9574661880731
 30
0.0
 40
3.499999940395355
 41
0.0
 71
     7
 72
     1
  1
1.2
  7
Text poznámky (DIN)
 73
     1
 44
1.0
  0
LINE
  5
1345
330
1319
100
AcDbEntity
  8
Značka (ISO)
100
AcDbLine
 10
410.0
 20
167.8818167567253
 30
0.0
 11
228.3432029800816
 21
167.8818167567253
 31
0.0
  0
MTEXT
  5
1346
330
1319
100
AcDbEntity
  8
Značka (ISO)
100
AcDbMText
 10
385.8024007689961
 20
150.2600637942552
 30
0.0
 40
3.499999940395355
 41
0.0
 71
     7
 72
     1
  1
AISI 304
  7
Text poznámky (DIN)
 73
     1
 44
1.0
  0
MTEXT
  5
1347
330
1319
100
AcDbEntity
  8
Značka (ISO)
100
AcDbMText
 10
360.4024007689961
 20
149.2113625377417
 30
0.0
 40
3.499999940395355
 41
0.0
 71
     7
 72
     1
  1
0,025 kg
  7
Text poznámky (DIN)
 73
     1
 44
1.0
  0
MTEXT
  5
1348
330
1319
100
AcDbEntity
  8
Značka (ISO)
100
AcDbMText
 10
335.0024007689961
 20
150.2600637942552
 30
0.0
 40
3.499999940395355
 41
0.0
 71
     7
 72
     1
  1
05598
  7
Text poznámky (DIN)
 73
     1
 44
1.0
  0
MTEXT
  5
1349
330
1319
100
AcDbEntity
  8
Značka (ISO)
100
AcDbMText
 10
253.0839147298745
 20
150.2600637942552
 30
0.0
 40
3.499999940395355
 41
0.0
 71
     7
 72
     1
  1
Kotva 
  7
Text poznámky (DIN)
 73
     1
 44
1.0
  0
MTEXT
  5
134A
330
1319
100
AcDbEntity
  8
Značka (ISO)
100
AcDbMText
 10
247.2611875682287
 20
150.2600637942552
 30
0.0
 40
3.499999940395355
 41
0.0
 71
     7
 72
     1
  1
3
  7
Text poznámky (DIN)
 73
     1
 44
1.0
  0
MTEXT
  5
134B
330
1319
100
AcDbEntity
  8
Značka (ISO)
100
AcDbMText
 10
234.0898814573543
 20
150.2600637942552
 30
0.0
 40
3.499999940395355
 41
0.0
 71
     7
 72
     1
  1
1.3
  7
Text poznámky (DIN)
 73
     1
 44
1.0
  0
LINE
  5
134C
330
1319
100
AcDbEntity
  8
Značka (ISO)
100
AcDbLine
 10
410.0
 20
155.1844143629074
 30
0.0
 11
228.3432029800816
 21
155.1844143629074
 31
0.0
  0
MTEXT
  5
134D
330
1319
100
AcDbEntity
  8
Značka (ISO)
100
AcDbMText
 10
385.8024007689961
 20
143.9113625973463
 30
0.0
 40
3.499999940395355
 41
0.0
 71
     7
 72
     1
  1
AISI 304
  7
Text poznámky (DIN)
 73
     1
 44
1.0
  0
MTEXT
  5
134E
330
1319
100
AcDbEntity
  8
Značka (ISO)
100
AcDbMText
 10
360.4024007689961
 20
142.8626613408327
 30
0.0
 40
3.499999940395355
 41
0.0
 71
     7
 72
     1
  1
0,007 kg
  7
Text poznámky (DIN)
 73
     1
 44
1.0
  0
MTEXT
  5
134F
330
1319
100
AcDbEntity
  8
Značka (ISO)
100
AcDbMText
 10
335.0024007689961
 20
143.9113625973463
 30
0.0
 40
3.499999940395355
 41
0.0
 71
     7
 72
     1
  1
90507
  7
Text poznámky (DIN)
 73
     1
 44
1.0
  0
MTEXT
  5
1350
102
{ACAD_XDICTIONARY
360
1DEB
102
}
330
1319
100
AcDbEntity
  8
Značka (ISO)
100
AcDbMText
 10
253.0839147298745
 20
143.2116872161627
 30
0.0
 40
3.499999940395355
 41
0.0
 71
     7
 72
     1
  1
\U+0160roub nava\U+0159ovac\U+00ED nerez M8x20 A2 
  7
Text poznámky (DIN)
 73
     1
 44
1.0
  0
MTEXT
  5
1351
330
1319
100
AcDbEntity
  8
Značka (ISO)
100
AcDbMText
 10
253.0839147298745
 20
136.8629860967398
 30
0.0
 40
3.499999940395355
 41
0.0
 71
     7
 72
     1
  1
DIN 32501
  7
Text poznámky (DIN)
 73
     1
 44
1.0
  0
MTEXT
  5
1352
330
1319
100
AcDbEntity
  8
Značka (ISO)
100
AcDbMText
 10
247.6074135109441
 20
143.9113625973463
 30
0.0
 40
3.499999940395355
 41
0.0
 71
     7
 72
     1
  1
1
  7
Text poznámky (DIN)
 73
     1
 44
1.0
  0
MTEXT
  5
1353
330
1319
100
AcDbEntity
  8
Značka (ISO)
100
AcDbMText
 10
233.9145567789333
 20
143.9113625973463
 30
0.0
 40
3.499999940395355
 41
0.0
 71
     7
 72
     1
  1
1.4
  7
Text poznámky (DIN)
 73
     1
 44
1.0
  0
LINE
  5
1354
330
1319
100
AcDbEntity
  8
Značka (ISO)
100
AcDbLine
 10
410.0
 20
148.8357131659984
 30
0.0
 11
228.3432029800816
 21
148.8357131659984
 31
0.0
  0
MTEXT
  5
1355
102
{ACAD_XDICTIONARY
360
1DED
102
}
330
1319
100
AcDbEntity
  8
Značka (ISO)
100
AcDbMText
 10
385.8024007689961
 20
129.9915576010943
 30
0.0
 40
3.499999940395355
 41
0.0
 71
     7
 72
     1
  1
Pry\U+017E SBR
  7
Text poznámky (DIN)
 73
     1
 44
1.0
  0
MTEXT
  5
1356
330
1319
100
AcDbEntity
  8
Značka (ISO)
100
AcDbMText
 10
360.3996007618758
 20
130.5126614898443
 30
0.0
 40
3.499999940395355
 41
0.0
 71
     7
 72
     1
  1
1,3 m 
  7
Text poznámky (DIN)
 73
     1
 44
1.0
  0
MTEXT
  5
1357
330
1319
100
AcDbEntity
  8
Značka (ISO)
100
AcDbMText
 10
335.0024007689961
 20
131.2139602035284
 30
0.0
 40
3.499999940395355
 41
0.0
 71
     7
 72
     1
  1
90903
  7
Text poznámky (DIN)
 73
     1
 44
1.0
  0
MTEXT
  5
1358
102
{ACAD_XDICTIONARY
360
1DEF
102
}
330
1319
100
AcDbEntity
  8
Značka (ISO)
100
AcDbMText
 10
253.0839147298745
 20
129.9915576010943
 30
0.0
 40
3.499999940395355
 41
0.0
 71
     7
 72
     1
  1
Profil gumov\U+00FD 12,3 x 8 (v\U+00FDztuha do 
  7
Text poznámky (DIN)
 73
     1
 44
1.0
  0
MTEXT
  5
1359
102
{ACAD_XDICTIONARY
360
1DF1
102
}
330
1319
100
AcDbEntity
  8
Značka (ISO)
100
AcDbMText
 10
253.0839147298745
 20
124.3409083813429
 30
0.0
 40
3.499999940395355
 41
0.0
 71
     7
 72
     1
  1
\U+017Elabu)
  7
Text poznámky (DIN)
 73
     1
 44
1.0
  0
MTEXT
  5
135A
330
1319
100
AcDbEntity
  8
Značka (ISO)
100
AcDbMText
 10
247.6074135109441
 20
131.2139602035284
 30
0.0
 40
3.499999940395355
 41
0.0
 71
     7
 72
     1
  1
1
  7
Text poznámky (DIN)
 73
     1
 44
1.0
  0
MTEXT
  5
135B
330
1319
100
AcDbEntity
  8
Značka (ISO)
100
AcDbMText
 10
235.4920320778302
 20
131.2139602035284
 30
0.0
 40
3.499999940395355
 41
0.0
 71
     7
 72
     1
  1
5
  7
Text poznámky (DIN)
 73
     1
 44
1.0
  0
LINE
  5
135C
330
1319
100
AcDbEntity
  8
Značka (ISO)
100
AcDbLine
 10
410.0
 20
136.1383107721806
 30
0.0
 11
228.3432029800816
 21
136.1383107721806
 31
0.0
  0
MTEXT
  5
135D
330
1319
100
AcDbEntity
  8
Značka (ISO)
100
AcDbMText
 10
385.8024007689961
 20
118.5165578097105
 30
0.0
 40
3.499999940395355
 41
0.0
 71
     7
 72
     1
  1
Mosaz
  7
Text poznámky (DIN)
 73
     1
 44
1.0
  0
MTEXT
  5
135E
330
1319
100
AcDbEntity
  8
Značka (ISO)
100
AcDbMText
 10
360.4024007689961
 20
117.4678565531969
 30
0.0
 40
3.499999940395355
 41
0.0
 71
     7
 72
     1
  1
0,005 kg
  7
Text poznámky (DIN)
 73
     1
 44
1.0
  0
MTEXT
  5
135F
330
1319
100
AcDbEntity
  8
Značka (ISO)
100
AcDbMText
 10
335.0024007689961
 20
118.5165578097105
 30
0.0
 40
3.499999940395355
 41
0.0
 71
     7
 72
     1
  1
90678
  7
Text poznámky (DIN)
 73
     1
 44
1.0
  0
MTEXT
  5
1360
330
1319
100
AcDbEntity
  8
Značka (ISO)
100
AcDbMText
 10
253.0839147298745
 20
118.5165578097105
 30
0.0
 40
3.499999940395355
 41
0.0
 71
     7
 72
     1
  1
Matice M8 mosaz DIN 934
  7
Text poznámky (DIN)
 73
     1
 44
1.0
  0
MTEXT
  5
1361
330
1319
100
AcDbEntity
  8
Značka (ISO)
100
AcDbMText
 10
247.6074135109441
 20
118.5165578097105
 30
0.0
 40
3.499999940395355
 41
0.0
 71
     7
 72
     1
  1
1
  7
Text poznámky (DIN)
 73
     1
 44
1.0
  0
MTEXT
  5
1362
330
1319
100
AcDbEntity
  8
Značka (ISO)
100
AcDbMText
 10
235.4920320778302
 20
118.5165578097105
 30
0.0
 40
3.499999940395355
 41
0.0
 71
     7
 72
     1
  1
6
  7
Text poznámky (DIN)
 73
     1
 44
1.0
  0
LINE
  5
1363
330
1319
100
AcDbEntity
  8
Značka (ISO)
100
AcDbLine
 10
410.0
 20
123.4409083783627
 30
0.0
 11
228.3432029800816
 21
123.4409083783627
 31
0.0
  0
MTEXT
  5
1364
330
1319
100
AcDbEntity
  8
Značka (ISO)
100
AcDbMText
 10
385.8024007689961
 20
112.1678566128016
 30
0.0
 40
3.499999940395355
 41
0.0
 71
     7
 72
     1
  1
Plast ABS
  7
Text poznámky (DIN)
 73
     1
 44
1.0
  0
MTEXT
  5
1365
330
1319
100
AcDbEntity
  8
Značka (ISO)
100
AcDbMText
 10
360.4024007689961
 20
111.119155356288
 30
0.0
 40
3.499999940395355
 41
0.0
 71
     7
 72
     1
  1
0,002 kg
  7
Text poznámky (DIN)
 73
     1
 44
1.0
  0
MTEXT
  5
1366
330
1319
100
AcDbEntity
  8
Značka (ISO)
100
AcDbMText
 10
335.0024007689961
 20
112.1678566128016
 30
0.0
 40
3.499999940395355
 41
0.0
 71
     7
 72
     1
  1
91024
  7
Text poznámky (DIN)
 73
     1
 44
1.0
  0
MTEXT
  5
1367
330
1319
100
AcDbEntity
  8
Značka (ISO)
100
AcDbMText
 10
253.0839147298745
 20
111.119155356288
 30
0.0
 40
3.499999940395355
 41
0.0
 71
     7
 72
     1
  1
Krytka  matic 130-034-148 
  7
Text poznámky (DIN)
 73
     1
 44
1.0
  0
MTEXT
  5
1368
102
{ACAD_XDICTIONARY
360
1DF3
102
}
330
1319
100
AcDbEntity
  8
Značka (ISO)
100
AcDbMText
 10
253.0839147298745
 20
105.1178567796946
 30
0.0
 40
3.499999940395355
 41
0.0
 71
     7
 72
     1
  1
\U+0161estihrann\U+00E1, \U+010Dern\U+00E1
  7
Text poznámky (DIN)
 73
     1
 44
1.0
  0
MTEXT
  5
1369
330
1319
100
AcDbEntity
  8
Značka (ISO)
100
AcDbMText
 10
247.6074135109441
 20
112.1678566128016
 30
0.0
 40
3.499999940395355
 41
0.0
 71
     7
 72
     1
  1
1
  7
Text poznámky (DIN)
 73
     1
 44
1.0
  0
MTEXT
  5
136A
330
1319
100
AcDbEntity
  8
Značka (ISO)
100
AcDbMText
 10
235.4892320707099
 20
112.1678566128016
 30
0.0
 40
3.499999940395355
 41
0.0
 71
     7
 72
     1
  1
7
  7
Text poznámky (DIN)
 73
     1
 44
1.0
  0
LINE
  5
136B
330
1319
100
AcDbEntity
  8
Značka (ISO)
100
AcDbLine
 10
410.0
 20
117.0922071814537
 30
0.0
 11
228.3432029800816
 21
117.0922071814537
 31
0.0
  0
MTEXT
  5
136C
330
1319
100
AcDbEntity
  8
Značka (ISO)
100
AcDbMText
 10
385.8024007689961
 20
98.4217529624701
 30
0.0
 40
3.499999940395355
 41
0.0
 71
     7
 72
     1
  1
Polykarbon
  7
Text poznámky (DIN)
 73
     1
 44
1.0
  0
MTEXT
  5
136D
102
{ACAD_XDICTIONARY
360
1DF5
102
}
330
1319
100
AcDbEntity
  8
Značka (ISO)
100
AcDbMText
 10
385.8024007689961
 20
93.12175309956078
 30
0.0
 40
3.499999940395355
 41
0.0
 71
     7
 72
     1
  1
\U+00E1t kou\U+0159.
  7
Text poznámky (DIN)
 73
     1
 44
1.0
  0
MTEXT
  5
136E
330
1319
100
AcDbEntity
  8
Značka (ISO)
100
AcDbMText
 10
360.4024007689961
 20
98.4217529624701
 30
0.0
 40
3.499999940395355
 41
0.0
 71
     7
 72
     1
  1
0,079 kg
  7
Text poznámky (DIN)
 73
     1
 44
1.0
  0
MTEXT
  5
136F
330
1319
100
AcDbEntity
  8
Značka (ISO)
100
AcDbMText
 10
335.0024007689961
 20
99.47045421898369
 30
0.0
 40
3.499999940395355
 41
0.0
 71
     7
 72
     1
  1
E53834
  7
Text poznámky (DIN)
 73
     1
 44
1.0
  0
MTEXT
  5
1370
102
{ACAD_XDICTIONARY
360
1DF7
102
}
330
1319
100
AcDbEntity
  8
Značka (ISO)
100
AcDbMText
 10
253.0839147298745
 20
98.24805161654953
 30
0.0
 40
3.499999940395355
 41
0.0
 71
     7
 72
     1
  1
Effidrain kryt plastov\U+00FD pro balen\U+00ED 
  7
Text poznámky (DIN)
 73
     1
 44
1.0
  0
MTEXT
  5
1371
330
1319
100
AcDbEntity
  8
Značka (ISO)
100
AcDbMText
 10
253.0839147298745
 20
92.94805175364022
 30
0.0
 40
3.499999940395355
 41
0.0
 71
     7
 72
     1
  1
PP kruh 300x300
  7
Text poznámky (DIN)
 73
     1
 44
1.0
  0
MTEXT
  5
1372
330
1319
100
AcDbEntity
  8
Značka (ISO)
100
AcDbMText
 10
247.6074135109441
 20
99.47045421898369
 30
0.0
 40
3.499999940395355
 41
0.0
 71
     7
 72
     1
  1
1
  7
Text poznámky (DIN)
 73
     1
 44
1.0
  0
MTEXT
  5
1373
330
1319
100
AcDbEntity
  8
Značka (ISO)
100
AcDbMText
 10
235.4920320778302
 20
99.47045421898369
 30
0.0
 40
3.499999940395355
 41
0.0
 71
     7
 72
     1
  1
8
  7
Text poznámky (DIN)
 73
     1
 44
1.0
  0
LINE
  5
1374
330
1319
100
AcDbEntity
  8
Značka (ISO)
100
AcDbLine
 10
410.0
 20
104.3948047876358
 30
0.0
 11
228.3432029800816
 21
104.3948047876358
 31
0.0
  0
MTEXT
  5
1375
102
{ACAD_XDICTIONARY
360
1DF9
102
}
330
1319
100
AcDbEntity
  8
Značka (ISO)
100
AcDbMText
 10
385.8024007689961
 20
85.55064922273164
 30
0.0
 40
3.499999940395355
 41
0.0
 71
     7
 72
     1
  1
Pap\U+00EDr
  7
Text poznámky (DIN)
 73
     1
 44
1.0
  0
MTEXT
  5
1376
330
1319
100
AcDbEntity
  8
Značka (ISO)
100
AcDbMText
 10
360.4024007689961
 20
86.07175311148171
 30
0.0
 40
3.499999940395355
 41
0.0
 71
     7
 72
     1
  1
0,001
  7
Text poznámky (DIN)
 73
     1
 44
1.0
  0
MTEXT
  5
1377
330
1319
100
AcDbEntity
  8
Značka (ISO)
100
AcDbMText
 10
335.0024007689961
 20
86.7730518251658
 30
0.0
 40
3.499999940395355
 41
0.0
 71
     7
 72
     1
  1
91018
  7
Text poznámky (DIN)
 73
     1
 44
1.0
  0
MTEXT
  5
1378
102
{ACAD_XDICTIONARY
360
1DFB
102
}
330
1319
100
AcDbEntity
  8
Značka (ISO)
100
AcDbMText
 10
253.0839147298745
 20
85.55064922273164
 30
0.0
 40
3.499999940395355
 41
0.0
 71
     7
 72
     1
  1
Etiketa samolep\U+00EDc\U+00ED 80 x 17 
  7
Text poznámky (DIN)
 73
     1
 44
1.0
  0
MTEXT
  5
1379
102
{ACAD_XDICTIONARY
360
1DFD
102
}
330
1319
100
AcDbEntity
  8
Značka (ISO)
100
AcDbMText
 10
253.0839147298745
 20
80.25064935982232
 30
0.0
 40
3.499999940395355
 41
0.0
 71
     7
 72
     1
  1
st\U+0159\U+00EDbrn\U+00E1/\U+010Derven\U+00E1 P1765C
  7
Text poznámky (DIN)
 73
     1
 44
1.0
  0
MTEXT
  5
137A
330
1319
100
AcDbEntity
  8
Značka (ISO)
100
AcDbMText
 10
247.1324880706473
 20
86.7730518251658
 30
0.0
 40
3.499999940395355
 41
0.0
 71
     7
 72
     1
  1
 
  7
Text poznámky (DIN)
 73
     1
 44
1.0
  0
MTEXT
  5
137B
330
1319
100
AcDbEntity
  8
Značka (ISO)
100
AcDbMText
 10
235.4920320778302
 20
86.7730518251658
 30
0.0
 40
3.499999940395355
 41
0.0
 71
     7
 72
     1
  1
9
  7
Text poznámky (DIN)
 73
     1
 44
1.0
  0
LINE
  5
137C
330
1319
100
AcDbEntity
  8
Značka (ISO)
100
AcDbLine
 10
410.0
 20
91.69740239381795
 30
0.0
 11
228.3432029800816
 21
91.69740239381795
 31
0.0
  0
LINE
  5
137D
330
1319
100
AcDbEntity
  8
Značka (ISO)
100
AcDbLine
 10
410.0
 20
79.00000000000005
 30
0.0
 11
228.3432029800816
 21
79.00000000000005
 31
0.0
  0
LINE
  5
137E
330
1319
100
AcDbEntity
  8
Značka (ISO)
100
AcDbLine
 10
410.0
 20
186.9279203474522
 30
0.0
 11
410.0
 21
79.00000000000005
 31
0.0
  0
LINE
  5
137F
330
1319
100
AcDbEntity
  8
Značka (ISO)
100
AcDbLine
 10
384.6
 20
186.9279203474522
 30
0.0
 11
384.6
 21
79.00000000000005
 31
0.0
  0
LINE
  5
1380
330
1319
100
AcDbEntity
  8
Značka (ISO)
100
AcDbLine
 10
359.2
 20
186.9279203474522
 30
0.0
 11
359.2
 21
79.00000000000005
 31
0.0
  0
LINE
  5
1381
330
1319
100
AcDbEntity
  8
Značka (ISO)
100
AcDbLine
 10
333.8
 20
186.9279203474522
 30
0.0
 11
333.8
 21
79.00000000000005
 31
0.0
  0
LINE
  5
1382
330
1319
100
AcDbEntity
  8
Značka (ISO)
100
AcDbLine
 10
251.8815139608785
 20
186.9279203474522
 30
0.0
 11
251.8815139608785
 21
79.00000000000005
 31
0.0
  0
LINE
  5
1383
330
1319
100
AcDbEntity
  8
Značka (ISO)
100
AcDbLine
 10
244.4841115074559
 20
186.9279203474522
 30
0.0
 11
244.4841115074559
 21
79.00000000000005
 31
0.0
  0
LINE
  5
1384
330
1319
100
AcDbEntity
  8
Značka (ISO)
100
AcDbLine
 10
228.3432029800816
 20
186.9279203474522
 30
0.0
 11
228.3432029800816
 21
79.00000000000005
 31
0.0
  0
ENDBLK
  5
131B
330
1319
100
AcDbEntity
  8
0
100
AcDbBlockEnd
  0
BLOCK
  5
1387
330
1386
100
AcDbEntity
  8
0
100
AcDbBlockBegin
  2
Pozice1
 70
     0
 10
0.0
 20
0.0
 30
0.0
  3
Pozice1
  1

  0
LINE
  5
1389
330
1386
100
AcDbEntity
  8
Značka (ISO)
100
AcDbLine
 10
83.13645693202666
 20
267.9153823297469
 30
0.0
 11
84.38645693202708
 21
265.7503188202861
 31
0.0
  0
POLYLINE
  5
138A
330
1386
100
AcDbEntity
  8
Značka (ISO)
100
AcDb2dPolyline
 66
     1
 10
0.0
 20
0.0
 30
0.0
 70
   128
  0
VERTEX
  5
138B
330
138A
100
AcDbEntity
  8
Značka (ISO)
100
AcDbVertex
100
AcDb2dVertex
 10
82.70344734191894
 20
267.6653861999512
 30
0.0
  0
VERTEX
  5
138C
330
138A
100
AcDbEntity
  8
Značka (ISO)
100
AcDbVertex
100
AcDb2dVertex
 10
84.38645362854003
 20
265.7503128051758
 30
0.0
  0
VERTEX
  5
138E
330
138A
100
AcDbEntity
  8
Značka (ISO)
100
AcDbVertex
100
AcDb2dVertex
 10
83.56946945190429
 20
268.1653785705567
 30
0.0
  0
VERTEX
  5
138F
330
138A
100
AcDbEntity
  8
Značka (ISO)
100
AcDbVertex
100
AcDb2dVertex
 10
82.70344734191894
 20
267.6653861999512
 30
0.0
  0
SEQEND
  5
138D
330
138A
100
AcDbEntity
  8
Značka (ISO)
  0
SOLID
  5
1390
330
1386
100
AcDbEntity
  8
Značka (ISO)
100
AcDbTrace
 10
82.70344734191894
 20
267.6653861999512
 30
0.0
 11
84.38645362854003
 21
265.7503128051758
 31
0.0
 12
83.56946945190429
 22
268.1653785705567
 32
0.0
 13
82.70344734191894
 23
267.6653861999512
 33
0.0
  0
LINE
  5
1391
330
1386
100
AcDbEntity
  8
Značka (ISO)
100
AcDbLine
 10
82.70344423013449
 20
267.6653823297469
 30
0.0
 11
84.38645693202708
 21
265.7503188202861
 31
0.0
  0
LINE
  5
1392
330
1386
100
AcDbEntity
  8
Značka (ISO)
100
AcDbLine
 10
84.38645693202708
 20
265.7503188202861
 30
0.0
 11
83.56946963391882
 21
268.165382329747
 31
0.0
  0
LINE
  5
1393
330
1386
100
AcDbEntity
  8
Značka (ISO)
100
AcDbLine
 10
83.56946963391882
 20
268.165382329747
 30
0.0
 11
82.70344423013449
 21
267.6653823297469
 31
0.0
  0
LINE
  5
1394
330
1386
100
AcDbEntity
  8
Značka (ISO)
100
AcDbLine
 10
83.13645693202666
 20
267.9153823297469
 30
0.0
 11
78.22375394729352
 21
276.4244335017961
 31
0.0
  0
MTEXT
  5
1395
330
1386
100
AcDbEntity
  8
Značka (ISO)
100
AcDbMText
 10
70.34875430492139
 20
283.1528570143369
 30
0.0
 40
5.24999976158142
 41
0.0
 71
     5
 72
     1
  1
5
  7
Text popisu (ISO)
 73
     1
 44
1.0
  0
LINE
  5
1396
330
1386
100
AcDbEntity
  8
Značka (ISO)
100
AcDbLine
 10
78.22375394729352
 20
276.4244335017961
 30
0.0
 11
62.47375466254926
 21
276.4244335017961
 31
0.0
  0
ENDBLK
  5
1388
330
1386
100
AcDbEntity
  8
0
100
AcDbBlockEnd
  0
BLOCK
  5
139B
330
139A
100
AcDbEntity
  8
0
100
AcDbBlockBegin
  2
*D18
 70
     1
 10
0.0
 20
0.0
 30
0.0
  3
*D18
  1

  0
LINE
  5
1472
330
139A
100
AcDbEntity
  8
Kóta (ISO)
440
 16777216
100
AcDbLine
 10
104.9936595330007
 20
93.48974346079996
 30
0.0
 11
104.9936595330007
 21
59.65689872200105
 31
0.0
  0
LINE
  5
1473
330
139A
100
AcDbEntity
  8
Kóta (ISO)
440
 16777216
100
AcDbLine
 10
404.9936595330007
 20
93.48974346079995
 30
0.0
 11
404.9936595330007
 21
59.65689872200105
 31
0.0
  0
LINE
  5
1474
330
139A
100
AcDbEntity
  8
Kóta (ISO)
440
 16777216
100
AcDbLine
 10
111.2436595330007
 20
62.15689872200105
 30
0.0
 11
398.7436595330007
 21
62.15689872200105
 31
0.0
  0
SOLID
  5
1475
330
139A
100
AcDbEntity
  8
Kóta (ISO)
440
 16777216
100
AcDbTrace
 10
111.2436595330007
 20
63.19856538866772
 30
0.0
 11
111.2436595330007
 21
61.11523205533439
 31
0.0
 12
104.9936595330007
 22
62.15689872200105
 32
0.0
 13
104.9936595330007
 23
62.15689872200105
 33
0.0
  0
SOLID
  5
1476
330
139A
100
AcDbEntity
  8
Kóta (ISO)
440
 16777216
100
AcDbTrace
 10
398.7436595330007
 20
63.19856538866772
 30
0.0
 11
398.7436595330007
 21
61.11523205533439
 31
0.0
 12
404.9936595330007
 22
62.15689872200105
 32
0.0
 13
404.9936595330007
 23
62.15689872200105
 33
0.0
  0
MTEXT
  5
1477
330
139A
100
AcDbEntity
  8
Kóta (ISO)
440
 16777216
100
AcDbMText
 10
245.6677696740349
 20
73.17623720420387
 30
0.0
 40
8.75
 41
0.0
 71
     1
 72
     1
  1
\A1;300
  7
Text poznámky (ISO)
 73
     1
 44
1.0
  0
POINT
  5
1478
330
139A
100
AcDbEntity
  8
Defpoints
 62
     0
440
 16777216
100
AcDbPoint
 10
104.9936595330007
 20
93.48974346079996
 30
0.0
  0
POINT
  5
1479
330
139A
100
AcDbEntity
  8
Defpoints
 62
     0
440
 16777216
100
AcDbPoint
 10
404.9936595330007
 20
93.48974346079995
 30
0.0
  0
POINT
  5
147A
330
139A
100
AcDbEntity
  8
Defpoints
 62
     0
440
 16777216
100
AcDbPoint
 10
404.9936595330007
 20
62.15689872200105
 30
0.0
  0
ENDBLK
  5
139C
330
139A
100
AcDbEntity
  8
0
100
AcDbBlockEnd
  0
BLOCK
  5
147D
330
147C
100
AcDbEntity
  8
0
100
AcDbBlockBegin
  2
*D19
 70
     1
 10
0.0
 20
0.0
 30
0.0
  3
*D19
  1

  0
LINE
  5
1554
330
147C
100
AcDbEntity
  8
Kóta (ISO)
440
 16777216
100
AcDbLine
 10
403.5436595330007
 20
392.0397434608
 30
0.0
 11
441.0333034330805
 21
392.0397434608
 31
0.0
  0
LINE
  5
1555
330
147C
100
AcDbEntity
  8
Kóta (ISO)
440
 16777216
100
AcDbLine
 10
403.5436595330007
 20
92.03974346079995
 30
0.0
 11
441.0333034330803
 21
92.03974346079993
 31
0.0
  0
LINE
  5
1556
330
147C
100
AcDbEntity
  8
Kóta (ISO)
440
 16777216
100
AcDbLine
 10
438.5333034330805
 20
385.7897434608
 30
0.0
 11
438.5333034330804
 21
98.28974346079995
 31
0.0
  0
SOLID
  5
1557
330
147C
100
AcDbEntity
  8
Kóta (ISO)
440
 16777216
100
AcDbTrace
 10
437.4916367664138
 20
385.7897434608
 30
0.0
 11
439.5749700997471
 21
385.7897434608
 31
0.0
 12
438.5333034330805
 22
392.0397434608
 32
0.0
 13
438.5333034330805
 23
392.0397434608
 33
0.0
  0
SOLID
  5
1558
330
147C
100
AcDbEntity
  8
Kóta (ISO)
440
 16777216
100
AcDbTrace
 10
437.4916367664137
 20
98.28974346079995
 30
0.0
 11
439.5749700997471
 21
98.28974346079995
 31
0.0
 12
438.5333034330804
 22
92.03974346079993
 32
0.0
 13
438.5333034330804
 23
92.03974346079993
 33
0.0
  0
MTEXT
  5
1559
330
147C
100
AcDbEntity
  8
Kóta (ISO)
440
 16777216
100
AcDbMText
 10
427.5139649508775
 20
232.7138536018342
 30
0.0
 40
8.75
 41
0.0
 71
     1
 72
     1
  1
\A1;300
  7
Text poznámky (ISO)
 11
0.0000000000000001
 21
1.0
 31
0.0
 73
     1
 44
1.0
  0
POINT
  5
155A
330
147C
100
AcDbEntity
  8
Defpoints
 62
     0
440
 16777216
100
AcDbPoint
 10
403.5436595330007
 20
392.0397434608
 30
0.0
  0
POINT
  5
155B
330
147C
100
AcDbEntity
  8
Defpoints
 62
     0
440
 16777216
100
AcDbPoint
 10
403.5436595330007
 20
92.03974346079995
 30
0.0
  0
POINT
  5
155C
330
147C
100
AcDbEntity
  8
Defpoints
 62
     0
440
 16777216
100
AcDbPoint
 10
438.5333034330804
 20
92.03974346079993
 30
0.0
  0
ENDBLK
  5
147E
330
147C
100
AcDbEntity
  8
0
100
AcDbBlockEnd
  0
BLOCK
  5
155F
330
155E
100
AcDbEntity
  8
0
100
AcDbBlockBegin
  2
*D20
 70
     1
 10
0.0
 20
0.0
 30
0.0
  3
*D20
  1

  0
LINE
  5
1DB2
330
155E
100
AcDbEntity
  8
Kóta (ISO)
100
AcDbLine
 10
155.4936595333339
 20
573.0228129382029
 30
0.0
 11
81.98182509729404
 21
573.0228129382029
 31
0.0
  0
LINE
  5
1DB3
330
155E
100
AcDbEntity
  8
Kóta (ISO)
100
AcDbLine
 10
106.9936595333339
 20
675.494800824804
 30
0.0
 11
81.98182509729406
 21
675.494800824804
 31
0.0
  0
LINE
  5
1DB4
330
155E
100
AcDbEntity
  8
Kóta (ISO)
100
AcDbLine
 10
84.48182509729404
 20
579.2728129382029
 30
0.0
 11
84.48182509729404
 21
669.244800824804
 31
0.0
  0
SOLID
  5
1DB5
330
155E
100
AcDbEntity
  8
Kóta (ISO)
100
AcDbTrace
 10
83.44015843062736
 20
579.2728129382029
 30
0.0
 11
85.5234917639607
 21
579.2728129382029
 31
0.0
 12
84.48182509729404
 22
573.0228129382029
 32
0.0
 13
84.48182509729404
 23
573.0228129382029
 33
0.0
  0
SOLID
  5
1DB6
330
155E
100
AcDbEntity
  8
Kóta (ISO)
100
AcDbTrace
 10
83.44015843062738
 20
669.244800824804
 30
0.0
 11
85.52349176396072
 21
669.244800824804
 31
0.0
 12
84.48182509729406
 22
675.494800824804
 32
0.0
 13
84.48182509729406
 23
675.494800824804
 33
0.0
  0
MTEXT
  5
1DB7
330
155E
100
AcDbEntity
  8
Kóta (ISO)
100
AcDbMText
 10
71.47037781724022
 20
610.2758485201872
 30
0.0
 40
8.75
 41
0.0
 71
     1
 72
     1
  1
\A1;102,5
  7
Text poznámky (ISO)
 11
0.0000000000000001
 21
1.0
 31
0.0
 73
     1
 44
1.0
  0
POINT
  5
1DB8
330
155E
100
AcDbEntity
  8
Defpoints
 62
     0
100
AcDbPoint
 10
155.4936595333339
 20
573.0228129382029
 30
0.0
  0
POINT
  5
1DB9
330
155E
100
AcDbEntity
  8
Defpoints
 62
     0
100
AcDbPoint
 10
106.9936595333339
 20
675.494800824804
 30
0.0
  0
POINT
  5
1DBA
330
155E
100
AcDbEntity
  8
Defpoints
 62
     0
100
AcDbPoint
 10
84.48182509729406
 20
675.494800824804
 30
0.0
  0
ENDBLK
  5
1560
330
155E
100
AcDbEntity
  8
0
100
AcDbBlockEnd
  0
BLOCK
  5
164B
330
164A
100
AcDbEntity
  8
0
100
AcDbBlockBegin
  2
Pozice2
 70
     0
 10
0.0
 20
0.0
 30
0.0
  3
Pozice2
  1

  0
LINE
  5
164D
330
164A
100
AcDbEntity
  8
Značka (ISO)
100
AcDbLine
 10
151.0174834712445
 20
271.6479203299213
 30
0.0
 11
153.1825469807058
 21
270.3979203299216
 31
0.0
  0
POLYLINE
  5
164E
330
164A
100
AcDbEntity
  8
Značka (ISO)
100
AcDb2dPolyline
 66
     1
 10
0.0
 20
0.0
 30
0.0
 70
   128
  0
VERTEX
  5
164F
330
164E
100
AcDbEntity
  8
Značka (ISO)
100
AcDbVertex
100
AcDb2dVertex
 10
150.7674789428711
 20
271.2149047851562
 30
0.0
  0
VERTEX
  5
1650
330
164E
100
AcDbEntity
  8
Značka (ISO)
100
AcDbVertex
100
AcDb2dVertex
 10
153.1825447082519
 20
270.3979110717773
 30
0.0
  0
VERTEX
  5
1652
330
164E
100
AcDbEntity
  8
Značka (ISO)
100
AcDbVertex
100
AcDb2dVertex
 10
151.2674808502197
 20
272.0809364318848
 30
0.0
  0
VERTEX
  5
1653
330
164E
100
AcDbEntity
  8
Značka (ISO)
100
AcDbVertex
100
AcDb2dVertex
 10
150.7674789428711
 20
271.2149047851562
 30
0.0
  0
SEQEND
  5
1651
330
164E
100
AcDbEntity
  8
Značka (ISO)
  0
SOLID
  5
1654
330
164A
100
AcDbEntity
  8
Značka (ISO)
100
AcDbTrace
 10
150.7674789428711
 20
271.2149047851562
 30
0.0
 11
153.1825447082519
 21
270.3979110717773
 31
0.0
 12
151.2674808502197
 22
272.0809364318848
 32
0.0
 13
150.7674789428711
 23
271.2149047851562
 33
0.0
  0
LINE
  5
1655
330
164A
100
AcDbEntity
  8
Značka (ISO)
100
AcDbLine
 10
150.7674834712446
 20
271.2149076280292
 30
0.0
 11
153.1825469807058
 21
270.3979203299216
 31
0.0
  0
LINE
  5
1656
330
164A
100
AcDbEntity
  8
Značka (ISO)
100
AcDbLine
 10
153.1825469807058
 20
270.3979203299216
 30
0.0
 11
151.2674834712445
 21
272.0809330318136
 31
0.0
  0
LINE
  5
1657
330
164A
100
AcDbEntity
  8
Značka (ISO)
100
AcDbLine
 10
151.2674834712445
 20
272.0809330318136
 30
0.0
 11
150.7674834712446
 21
271.2149076280292
 31
0.0
  0
LINE
  5
1658
330
164A
100
AcDbEntity
  8
Značka (ISO)
100
AcDbLine
 10
151.0174834712445
 20
271.6479203299213
 30
0.0
 11
143.8515785796416
 21
275.7851574480747
 31
0.0
  0
MTEXT
  5
1659
330
164A
100
AcDbEntity
  8
Značka (ISO)
100
AcDbMText
 10
135.9765789372694
 20
282.5859066615095
 30
0.0
 40
5.24999976158142
 41
0.0
 71
     5
 72
     1
  1
8
  7
Text popisu (ISO)
 73
     1
 44
1.0
  0
LINE
  5
165A
330
164A
100
AcDbEntity
  8
Značka (ISO)
100
AcDbLine
 10
143.8515785796416
 20
275.7851574480747
 30
0.0
 11
128.1015792948973
 21
275.7851574480747
 31
0.0
  0
ENDBLK
  5
164C
330
164A
100
AcDbEntity
  8
0
100
AcDbBlockEnd
  0
BLOCK
  5
165D
330
165C
100
AcDbEntity
  8
0
100
AcDbBlockBegin
  2
Pozice3
 70
     0
 10
0.0
 20
0.0
 30
0.0
  3
Pozice3
  1

  0
LINE
  5
165F
330
165C
100
AcDbEntity
  8
Značka (ISO)
100
AcDbLine
 10
56.71829986578355
 20
254.7437581874704
 30
0.0
 11
57.74870214139
 21
257.021535865477
 31
0.0
  0
POLYLINE
  5
1660
330
165C
100
AcDbEntity
  8
Značka (ISO)
100
AcDb2dPolyline
 66
     1
 10
0.0
 20
0.0
 30
0.0
 70
   128
  0
VERTEX
  5
1661
330
1660
100
AcDbEntity
  8
Značka (ISO)
100
AcDbVertex
100
AcDb2dVertex
 10
57.1738576889038
 20
254.5376777648926
 30
0.0
  0
VERTEX
  5
1662
330
1660
100
AcDbEntity
  8
Značka (ISO)
100
AcDbVertex
100
AcDb2dVertex
 10
57.748703956604
 20
257.021541595459
 30
0.0
  0
VERTEX
  5
1664
330
1660
100
AcDbEntity
  8
Značka (ISO)
100
AcDbVertex
100
AcDb2dVertex
 10
56.26274585723876
 20
254.9498367309571
 30
0.0
  0
VERTEX
  5
1665
330
1660
100
AcDbEntity
  8
Značka (ISO)
100
AcDbVertex
100
AcDb2dVertex
 10
57.1738576889038
 20
254.5376777648926
 30
0.0
  0
SEQEND
  5
1663
330
1660
100
AcDbEntity
  8
Značka (ISO)
  0
SOLID
  5
1666
330
165C
100
AcDbEntity
  8
Značka (ISO)
100
AcDbTrace
 10
57.1738576889038
 20
254.5376777648926
 30
0.0
 11
57.748703956604
 21
257.021541595459
 31
0.0
 12
56.26274585723876
 22
254.9498367309571
 32
0.0
 13
57.1738576889038
 23
254.5376777648926
 33
0.0
  0
LINE
  5
1667
330
165C
100
AcDbEntity
  8
Značka (ISO)
100
AcDbLine
 10
57.17385540138486
 20
254.5376777323491
 30
0.0
 11
57.74870214139
 21
257.021535865477
 31
0.0
  0
LINE
  5
1668
330
165C
100
AcDbEntity
  8
Značka (ISO)
100
AcDbLine
 10
57.74870214139
 20
257.021535865477
 30
0.0
 11
56.26274433018224
 21
254.9498386425916
 31
0.0
  0
LINE
  5
1669
330
165C
100
AcDbEntity
  8
Značka (ISO)
100
AcDbLine
 10
56.26274433018224
 20
254.9498386425916
 30
0.0
 11
57.17385540138486
 21
254.5376777323491
 31
0.0
  0
LINE
  5
166A
330
165C
100
AcDbEntity
  8
Značka (ISO)
100
AcDbLine
 10
56.71829986578355
 20
254.7437581874704
 30
0.0
 11
37.46001873658899
 21
212.1719550079435
 31
0.0
  0
LINE
  5
166B
330
165C
100
AcDbEntity
  8
Značka (ISO)
100
AcDbLine
 10
36.95973335717537
 20
211.0660385160659
 30
0.0
 11
36.92450497482149
 21
210.9881636657694
 31
0.0
  0
MTEXT
  5
166C
330
165C
100
AcDbEntity
  8
Značka (ISO)
100
AcDbMText
 10
28.74148295257418
 20
217.6059711136797
 30
0.0
 40
5.24999976158142
 41
0.0
 71
     5
 72
     1
  1
1.2
  7
Text popisu (ISO)
 73
     1
 44
1.0
  0
LINE
  5
166D
330
165C
100
AcDbEntity
  8
Značka (ISO)
100
AcDbLine
 10
36.92450497482149
 20
210.9881636657694
 30
0.0
 11
20.55846093032686
 21
210.9881636657694
 31
0.0
  0
ENDBLK
  5
165E
330
165C
100
AcDbEntity
  8
0
100
AcDbBlockEnd
  0
BLOCK
  5
1670
330
166F
100
AcDbEntity
  8
0
100
AcDbBlockBegin
  2
Pozice4
 70
     0
 10
0.0
 20
0.0
 30
0.0
  3
Pozice4
  1

  0
LINE
  5
1672
330
166F
100
AcDbEntity
  8
Značka (ISO)
100
AcDbLine
 10
157.1453700353024
 20
245.8924946154163
 30
0.0
 11
154.9803065258412
 21
244.6424946154165
 31
0.0
  0
POLYLINE
  5
1673
330
166F
100
AcDbEntity
  8
Značka (ISO)
100
AcDb2dPolyline
 66
     1
 10
0.0
 20
0.0
 30
0.0
 70
   128
  0
VERTEX
  5
1674
330
1673
100
AcDbEntity
  8
Značka (ISO)
100
AcDbVertex
100
AcDb2dVertex
 10
156.8953704833984
 20
246.3255119323731
 30
0.0
  0
VERTEX
  5
1675
330
1673
100
AcDbEntity
  8
Značka (ISO)
100
AcDbVertex
100
AcDb2dVertex
 10
154.9803066253662
 20
244.6424865722656
 30
0.0
  0
VERTEX
  5
1677
330
1673
100
AcDbEntity
  8
Značka (ISO)
100
AcDbVertex
100
AcDb2dVertex
 10
157.3953723907471
 20
245.4594802856445
 30
0.0
  0
VERTEX
  5
1678
330
1673
100
AcDbEntity
  8
Značka (ISO)
100
AcDbVertex
100
AcDb2dVertex
 10
156.8953704833984
 20
246.3255119323731
 30
0.0
  0
SEQEND
  5
1676
330
1673
100
AcDbEntity
  8
Značka (ISO)
  0
SOLID
  5
1679
330
166F
100
AcDbEntity
  8
Značka (ISO)
100
AcDbTrace
 10
156.8953704833984
 20
246.3255119323731
 30
0.0
 11
154.9803066253662
 21
244.6424865722656
 31
0.0
 12
157.3953723907471
 22
245.4594802856445
 32
0.0
 13
156.8953704833984
 23
246.3255119323731
 33
0.0
  0
LINE
  5
167A
330
166F
100
AcDbEntity
  8
Značka (ISO)
100
AcDbLine
 10
156.8953700353025
 20
246.3255073173086
 30
0.0
 11
154.9803065258412
 21
244.6424946154165
 31
0.0
  0
LINE
  5
167B
330
166F
100
AcDbEntity
  8
Značka (ISO)
100
AcDbLine
 10
154.9803065258412
 20
244.6424946154165
 30
0.0
 11
157.3953700353024
 21
245.4594819135241
 31
0.0
  0
LINE
  5
167C
330
166F
100
AcDbEntity
  8
Značka (ISO)
100
AcDbLine
 10
157.3953700353024
 20
245.4594819135241
 30
0.0
 11
156.8953700353025
 21
246.3255073173086
 31
0.0
  0
LINE
  5
167D
330
166F
100
AcDbEntity
  8
Značka (ISO)
100
AcDbLine
 10
157.1453700353024
 20
245.8924946154163
 30
0.0
 11
164.49772360173
 21
250.1373779261696
 31
0.0
  0
MTEXT
  5
167E
330
166F
100
AcDbEntity
  8
Značka (ISO)
100
AcDbMText
 10
172.6807456239774
 20
256.9211091846439
 30
0.0
 40
5.24999976158142
 41
0.0
 71
     5
 72
     1
  1
1.3
  7
Text popisu (ISO)
 73
     1
 44
1.0
  0
LINE
  5
167F
330
166F
100
AcDbEntity
  8
Značka (ISO)
100
AcDbLine
 10
164.49772360173
 20
250.1373779261696
 30
0.0
 11
180.8637676462247
 21
250.1373779261696
 31
0.0
  0
ENDBLK
  5
1671
330
166F
100
AcDbEntity
  8
0
100
AcDbBlockEnd
  0
BLOCK
  5
1683
330
1682
100
AcDbEntity
  8
0
100
AcDbBlockBegin
  2
Identifikátor značky svaru1
 70
     0
 10
0.0
 20
0.0
 30
0.0
  3
Identifikátor značky svaru1
  1

  0
LINE
  5
1685
330
1682
100
AcDbEntity
  8
Značka (ISO)
100
AcDbLine
 10
46.69340746412814
 20
257.3307504189613
 30
0.0
 11
47.4974638133005
 21
259.6979203299216
 31
0.0
  0
POLYLINE
  5
1686
330
1682
100
AcDbEntity
  8
Značka (ISO)
100
AcDb2dPolyline
 66
     1
 10
0.0
 20
0.0
 30
0.0
 70
   128
  0
VERTEX
  5
1687
330
1686
100
AcDbEntity
  8
Značka (ISO)
100
AcDbVertex
100
AcDb2dVertex
 10
47.16684341430664
 20
257.1699333190918
 30
0.0
  0
VERTEX
  5
1688
330
1686
100
AcDbEntity
  8
Značka (ISO)
100
AcDbVertex
100
AcDb2dVertex
 10
47.49746322631835
 20
259.6979141235352
 30
0.0
  0
VERTEX
  5
168A
330
1686
100
AcDbEntity
  8
Značka (ISO)
100
AcDbVertex
100
AcDb2dVertex
 10
46.21997356414794
 20
257.491569519043
 30
0.0
  0
VERTEX
  5
168B
330
1686
100
AcDbEntity
  8
Značka (ISO)
100
AcDbVertex
100
AcDb2dVertex
 10
47.16684341430664
 20
257.1699333190918
 30
0.0
  0
SEQEND
  5
1689
330
1686
100
AcDbEntity
  8
Značka (ISO)
  0
SOLID
  5
168C
330
1682
100
AcDbEntity
  8
Značka (ISO)
100
AcDbTrace
 10
47.16684341430664
 20
257.1699333190918
 30
0.0
 11
47.49746322631835
 21
259.6979141235352
 31
0.0
 12
46.21997356414794
 22
257.491569519043
 32
0.0
 13
47.16684341430664
 23
257.1699333190918
 33
0.0
  0
LINE
  5
168D
330
1682
100
AcDbEntity
  8
Značka (ISO)
100
AcDbLine
 10
47.1668414463202
 20
257.1699391491269
 30
0.0
 11
47.4974638133005
 21
259.6979203299216
 31
0.0
  0
LINE
  5
168E
330
1682
100
AcDbEntity
  8
Značka (ISO)
100
AcDbLine
 10
47.4974638133005
 20
259.6979203299216
 30
0.0
 11
46.21997348193609
 21
257.4915616887958
 31
0.0
  0
LINE
  5
168F
330
1682
100
AcDbEntity
  8
Značka (ISO)
100
AcDbLine
 10
46.21997348193609
 20
257.4915616887958
 30
0.0
 11
47.1668414463202
 21
257.1699391491269
 31
0.0
  0
LINE
  5
1690
330
1682
100
AcDbEntity
  8
Značka (ISO)
100
AcDbLine
 10
46.69340746412814
 20
257.3307504189613
 30
0.0
 11
41.87740444298569
 21
243.1522697011896
 31
0.0
  0
LINE
  5
1691
330
1682
100
AcDbEntity
  8
Značka (ISO)
100
AcDbLine
 10
24.99051331485301
 20
243.1522697011896
 30
0.0
 11
30.99051355327159
 21
243.1522697011896
 31
0.0
  0
LINE
  5
1692
330
1682
100
AcDbEntity
  8
Značka (ISO)
100
AcDbLine
 10
30.99051355327159
 20
243.1522697011896
 30
0.0
 11
24.99051331485301
 21
249.1522699396082
 31
0.0
  0
LINE
  5
1693
330
1682
100
AcDbEntity
  8
Značka (ISO)
100
AcDbLine
 10
24.99051331485301
 20
249.1522699396082
 30
0.0
 11
24.99051331485301
 21
243.1522697011896
 31
0.0
  0
MTEXT
  5
1694
330
1682
100
AcDbEntity
  8
Značka (ISO)
 62
     7
100
AcDbMText
 10
32.01771391972169
 20
244.0522697369524
 30
0.0
 40
3.000000119209289
 41
0.0
 71
     7
 72
     1
  1
2x10
  7
kusovnik
 73
     1
 44
1.0
  0
LINE
  5
1695
330
1682
100
AcDbEntity
  8
Značka (ISO)
  6
Continuous
100
AcDbLine
 10
41.87740444298569
 20
242.1022697011896
 30
0.0
 11
18.990513314853
 21
242.1022697011896
 31
0.0
  0
LINE
  5
1696
330
1682
100
AcDbEntity
  8
Značka (ISO)
100
AcDbLine
 10
41.87740444148569
 20
243.1522697011896
 30
0.0
 11
18.990513314853
 21
243.1522697011896
 31
0.0
  0
ENDBLK
  5
1684
330
1682
100
AcDbEntity
  8
0
100
AcDbBlockEnd
  0
BLOCK
  5
1699
330
1698
100
AcDbEntity
  8
0
100
AcDbBlockBegin
  2
2dPrevedenyRez0
 70
     0
 10
0.0
 20
0.0
 30
0.0
  3
2dPrevedenyRez0
  1

  0
LINE
  5
169B
330
1698
100
AcDbEntity
  8
Čára řezu (ISO)
  6
Continuous
100
AcDbLine
 10
101.9974638133335
 20
282.0882392197286
 30
0.0
 11
101.9974638133335
 21
208.7539515894226
 31
0.0
  0
LINE
  5
169C
330
1698
100
AcDbEntity
  8
Čára řezu (ISO)
  6
Continuous
370
    35
100
AcDbLine
 10
101.9974638133335
 20
282.0882392197286
 30
0.0
 11
101.9974638133335
 21
279.3741121291561
 31
0.0
  0
LINE
  5
169D
330
1698
100
AcDbEntity
  8
Čára řezu (ISO)
  6
Continuous
370
    35
100
AcDbLine
 10
101.9974638133335
 20
211.4680786799952
 30
0.0
 11
101.9974638133335
 21
208.7539515894226
 31
0.0
  0
LINE
  5
169E
330
1698
100
AcDbEntity
  8
Čára řezu (ISO)
  6
Continuous
100
AcDbLine
 10
99.49746381333357
 20
280.7311756744423
 30
0.0
 11
101.9974638133335
 21
280.7311756744423
 31
0.0
  0
POLYLINE
  5
169F
330
1698
100
AcDbEntity
  8
Čára řezu (ISO)
  6
Continuous
100
AcDb2dPolyline
 66
     1
 10
0.0
 20
0.0
 30
0.0
 70
   128
  0
VERTEX
  5
16A0
330
169F
100
AcDbEntity
  8
Čára řezu (ISO)
  6
Continuous
100
AcDbVertex
100
AcDb2dVertex
 10
99.49746381336664
 20
280.2311753348044
 30
0.0
  0
VERTEX
  5
16A1
330
169F
100
AcDbEntity
  8
Čára řezu (ISO)
  6
Continuous
100
AcDbVertex
100
AcDb2dVertex
 10
101.9974638133335
 20
280.7311753348045
 30
0.0
  0
VERTEX
  5
16A3
330
169F
100
AcDbEntity
  8
Čára řezu (ISO)
  6
Continuous
100
AcDbVertex
100
AcDb2dVertex
 10
99.49746381336664
 20
281.2311753348044
 30
0.0
  0
VERTEX
  5
16A4
330
169F
100
AcDbEntity
  8
Čára řezu (ISO)
  6
Continuous
100
AcDbVertex
100
AcDb2dVertex
 10
99.49746381336664
 20
280.2311753348044
 30
0.0
  0
SEQEND
  5
16A2
330
169F
100
AcDbEntity
  8
Čára řezu (ISO)
  6
Continuous
  0
SOLID
  5
16A5
330
1698
100
AcDbEntity
  8
Čára řezu (ISO)
100
AcDbTrace
 10
99.49746381336664
 20
280.2311753348044
 30
0.0
 11
101.9974638133335
 21
280.7311753348045
 31
0.0
 12
99.49746381336664
 22
281.2311753348044
 32
0.0
 13
99.49746381336664
 23
280.2311753348044
 33
0.0
  0
LINE
  5
16A6
330
1698
100
AcDbEntity
  8
Čára řezu (ISO)
  6
Continuous
100
AcDbLine
 10
99.49746381333357
 20
280.2311756744424
 30
0.0
 11
101.9974638133335
 21
280.7311756744423
 31
0.0
  0
LINE
  5
16A7
330
1698
100
AcDbEntity
  8
Čára řezu (ISO)
  6
Continuous
100
AcDbLine
 10
101.9974638133335
 20
280.7311756744423
 30
0.0
 11
99.49746381333357
 21
281.2311756744423
 31
0.0
  0
LINE
  5
16A8
330
1698
100
AcDbEntity
  8
Čára řezu (ISO)
  6
Continuous
100
AcDbLine
 10
99.49746381333357
 20
281.2311756744423
 30
0.0
 11
99.49746381333357
 21
280.2311756744424
 31
0.0
  0
LINE
  5
16A9
330
1698
100
AcDbEntity
  8
Čára řezu (ISO)
  6
Continuous
100
AcDbLine
 10
96.8165737869052
 20
280.7311756744423
 30
0.0
 11
99.49746381333357
 21
280.7311756744423
 31
0.0
  0
LINE
  5
16AA
330
1698
100
AcDbEntity
  8
Čára řezu (ISO)
  6
Continuous
100
AcDbLine
 10
99.49746381333357
 20
210.1110151347089
 30
0.0
 11
101.9974638133335
 21
210.1110151347089
 31
0.0
  0
POLYLINE
  5
16AB
330
1698
100
AcDbEntity
  8
Čára řezu (ISO)
  6
Continuous
100
AcDb2dPolyline
 66
     1
 10
0.0
 20
0.0
 30
0.0
 70
   128
  0
VERTEX
  5
16AC
330
16AB
100
AcDbEntity
  8
Čára řezu (ISO)
  6
Continuous
100
AcDbVertex
100
AcDb2dVertex
 10
99.49746381336664
 20
209.6110161856345
 30
0.0
  0
VERTEX
  5
16AD
330
16AB
100
AcDbEntity
  8
Čára řezu (ISO)
  6
Continuous
100
AcDbVertex
100
AcDb2dVertex
 10
101.9974638133335
 20
210.1110142782858
 30
0.0
  0
VERTEX
  5
16AF
330
16AB
100
AcDbEntity
  8
Čára řezu (ISO)
  6
Continuous
100
AcDbVertex
100
AcDb2dVertex
 10
99.49746381336664
 20
210.6110142782859
 30
0.0
  0
VERTEX
  5
16B0
330
16AB
100
AcDbEntity
  8
Čára řezu (ISO)
  6
Continuous
100
AcDbVertex
100
AcDb2dVertex
 10
99.49746381336664
 20
209.6110161856345
 30
0.0
  0
SEQEND
  5
16AE
330
16AB
100
AcDbEntity
  8
Čára řezu (ISO)
  6
Continuous
  0
SOLID
  5
16B1
330
1698
100
AcDbEntity
  8
Čára řezu (ISO)
100
AcDbTrace
 10
99.49746381336664
 20
209.6110161856345
 30
0.0
 11
101.9974638133335
 21
210.1110142782858
 31
0.0
 12
99.49746381336664
 22
210.6110142782859
 32
0.0
 13
99.49746381336664
 23
209.6110161856345
 33
0.0
  0
LINE
  5
16B2
330
1698
100
AcDbEntity
  8
Čára řezu (ISO)
  6
Continuous
100
AcDbLine
 10
99.49746381333357
 20
209.6110151347089
 30
0.0
 11
101.9974638133335
 21
210.1110151347089
 31
0.0
  0
LINE
  5
16B3
330
1698
100
AcDbEntity
  8
Čára řezu (ISO)
  6
Continuous
100
AcDbLine
 10
101.9974638133335
 20
210.1110151347089
 30
0.0
 11
99.49746381333357
 21
210.6110151347089
 31
0.0
  0
LINE
  5
16B4
330
1698
100
AcDbEntity
  8
Čára řezu (ISO)
  6
Continuous
100
AcDbLine
 10
99.49746381333357
 20
210.6110151347089
 30
0.0
 11
99.49746381333357
 21
209.6110151347089
 31
0.0
  0
LINE
  5
16B5
330
1698
100
AcDbEntity
  8
Čára řezu (ISO)
  6
Continuous
100
AcDbLine
 10
96.8165737869052
 20
210.1110151347089
 30
0.0
 11
99.49746381333357
 21
210.1110151347089
 31
0.0
  0
MTEXT
  5
16B6
330
1698
100
AcDbEntity
  8
Čára řezu (ISO)
100
AcDbMText
 10
89.06475543817093
 20
278.1061757936516
 30
0.0
 40
5.24999976158142
 41
0.0
 71
     7
 72
     1
  1
A
  7
Text popisu (ISO)
 73
     1
 44
1.0
  0
MTEXT
  5
16B7
330
1698
100
AcDbEntity
  8
Čára řezu (ISO)
100
AcDbMText
 10
89.06475543817094
 20
207.4860152539182
 30
0.0
 40
5.24999976158142
 41
0.0
 71
     7
 72
     1
  1
A
  7
Text popisu (ISO)
 73
     1
 44
1.0
  0
ENDBLK
  5
169A
330
1698
100
AcDbEntity
  8
0
100
AcDbBlockEnd
  0
BLOCK
  5
185C
330
185B
100
AcDbEntity
  8
0
100
AcDbBlockBegin
  2
Pozice5
 70
     0
 10
0.0
 20
0.0
 30
0.0
  3
Pozice5
  1

  0
LINE
  5
185E
330
185B
100
AcDbEntity
  8
Značka (ISO)
100
AcDbLine
 10
280.4991083542832
 20
261.1423524624899
 30
0.0
 11
278.0842937885604
 21
261.7894000752461
 31
0.0
  0
POLYLINE
  5
185F
330
185B
100
AcDbEntity
  8
Značka (ISO)
100
AcDb2dPolyline
 66
     1
 10
0.0
 20
0.0
 30
0.0
 70
   128
  0
VERTEX
  5
1860
330
185F
100
AcDbEntity
  8
Značka (ISO)
100
AcDbVertex
100
AcDb2dVertex
 10
280.6285095214844
 20
261.6253089904785
 30
0.0
  0
VERTEX
  5
1861
330
185F
100
AcDbEntity
  8
Značka (ISO)
100
AcDbVertex
100
AcDb2dVertex
 10
278.0842971801758
 20
261.7893981933594
 30
0.0
  0
VERTEX
  5
1863
330
185F
100
AcDbEntity
  8
Značka (ISO)
100
AcDbVertex
100
AcDb2dVertex
 10
280.369701385498
 20
260.6593894958496
 30
0.0
  0
VERTEX
  5
1864
330
185F
100
AcDbEntity
  8
Značka (ISO)
100
AcDbVertex
100
AcDb2dVertex
 10
280.6285095214844
 20
261.6253089904785
 30
0.0
  0
SEQEND
  5
1862
330
185F
100
AcDbEntity
  8
Značka (ISO)
  0
SOLID
  5
1865
330
185B
100
AcDbEntity
  8
Značka (ISO)
100
AcDbTrace
 10
280.6285095214844
 20
261.6253089904785
 30
0.0
 11
278.0842971801758
 21
261.7893981933594
 31
0.0
 12
280.369701385498
 22
260.6593894958496
 32
0.0
 13
280.6285095214844
 23
261.6253089904785
 33
0.0
  0
LINE
  5
1866
330
185B
100
AcDbEntity
  8
Značka (ISO)
100
AcDbLine
 10
280.6285178768344
 20
261.6253153756344
 30
0.0
 11
278.0842937885604
 21
261.7894000752461
 31
0.0
  0
LINE
  5
1867
330
185B
100
AcDbEntity
  8
Značka (ISO)
100
AcDbLine
 10
278.0842937885604
 20
261.7894000752461
 30
0.0
 11
280.3696988317319
 21
260.6593895493453
 31
0.0
  0
LINE
  5
1868
330
185B
100
AcDbEntity
  8
Značka (ISO)
100
AcDbLine
 10
280.3696988317319
 20
260.6593895493453
 30
0.0
 11
280.6285178768344
 21
261.6253153756344
 31
0.0
  0
LINE
  5
1869
330
185B
100
AcDbEntity
  8
Značka (ISO)
100
AcDbLine
 10
280.4991083542832
 20
261.1423524624899
 30
0.0
 11
296.3053496927055
 21
256.907082860489
 31
0.0
  0
MTEXT
  5
186A
330
185B
100
AcDbEntity
  8
Značka (ISO)
100
AcDbMText
 10
304.4883717149528
 20
263.4780914235307
 30
0.0
 40
5.24999976158142
 41
0.0
 71
     5
 72
     1
  1
1.4
  7
Text popisu (ISO)
 73
     1
 44
1.0
  0
LINE
  5
186B
330
185B
100
AcDbEntity
  8
Značka (ISO)
100
AcDbLine
 10
296.3053496927055
 20
256.907082860489
 30
0.0
 11
312.6713937372001
 21
256.907082860489
 31
0.0
  0
MTEXT
  5
186C
330
185B
100
AcDbEntity
  8
Značka (ISO)
100
AcDbMText
 10
304.1803493350776
 20
247.9344332629262
 30
0.0
 40
5.24999976158142
 41
0.0
 71
     5
 72
     1
  1
6
  7
Text popisu (ISO)
 73
     1
 44
1.0
  0
LINE
  5
186D
330
185B
100
AcDbEntity
  8
Značka (ISO)
100
AcDbLine
 10
296.3053496927055
 20
241.1570835757448
 30
0.0
 11
296.3053496927055
 21
256.907082860489
 31
0.0
  0
LINE
  5
186E
330
185B
100
AcDbEntity
  8
Značka (ISO)
100
AcDbLine
 10
296.3053496927055
 20
241.1570835757448
 30
0.0
 11
312.0553489774497
 21
241.1570835757448
 31
0.0
  0
MTEXT
  5
186F
330
185B
100
AcDbEntity
  8
Značka (ISO)
100
AcDbMText
 10
304.1803493350776
 20
231.9695839929773
 30
0.0
 40
5.24999976158142
 41
0.0
 71
     5
 72
     1
  1
7
  7
Text popisu (ISO)
 73
     1
 44
1.0
  0
LINE
  5
1870
330
185B
100
AcDbEntity
  8
Značka (ISO)
100
AcDbLine
 10
296.3053496927055
 20
225.4070842910005
 30
0.0
 11
296.3053496927055
 21
241.1570835757448
 31
0.0
  0
LINE
  5
1871
330
185B
100
AcDbEntity
  8
Značka (ISO)
100
AcDbLine
 10
296.3053496927055
 20
225.4070842910005
 30
0.0
 11
312.0553489774497
 21
225.4070842910005
 31
0.0
  0
ENDBLK
  5
185D
330
185B
100
AcDbEntity
  8
0
100
AcDbBlockEnd
  0
BLOCK
  5
1897
330
1896
100
AcDbEntity
  8
0
100
AcDbBlockBegin
  2
*D27
 70
     1
 10
0.0
 20
0.0
 30
0.0
  3
*D27
  1

  0
LINE
  5
1DBB
330
1896
100
AcDbEntity
  8
Kóta (ISO)
100
AcDbLine
 10
154.9936595333339
 20
583.0228129382041
 30
0.0
 11
154.9936595333339
 21
500.5638708707591
 31
0.0
  0
LINE
  5
1DBC
330
1896
100
AcDbEntity
  8
Kóta (ISO)
100
AcDbLine
 10
354.9936595333339
 20
583.3975788557157
 30
0.0
 11
354.9936595333339
 21
500.5638708707591
 31
0.0
  0
LINE
  5
1DBD
330
1896
100
AcDbEntity
  8
Kóta (ISO)
100
AcDbLine
 10
161.2436595333339
 20
503.0638708707591
 30
0.0
 11
348.7436595333339
 21
503.0638708707591
 31
0.0
  0
SOLID
  5
1DBE
330
1896
100
AcDbEntity
  8
Kóta (ISO)
100
AcDbTrace
 10
161.2436595333339
 20
504.1055375374258
 30
0.0
 11
161.2436595333339
 21
502.0222042040924
 31
0.0
 12
154.9936595333339
 22
503.0638708707591
 32
0.0
 13
154.9936595333339
 23
503.0638708707591
 33
0.0
  0
SOLID
  5
1DBF
330
1896
100
AcDbEntity
  8
Kóta (ISO)
100
AcDbTrace
 10
348.7436595333339
 20
504.1055375374258
 30
0.0
 11
348.7436595333339
 21
502.0222042040924
 31
0.0
 12
354.9936595333339
 22
503.0638708707591
 32
0.0
 13
354.9936595333339
 23
503.0638708707591
 33
0.0
  0
MTEXT
  5
1DC0
330
1896
100
AcDbEntity
  8
Kóta (ISO)
100
AcDbMText
 10
239.3312269990921
 20
518.1341139719418
 30
0.0
 40
8.75
 41
0.0
 71
     1
 72
     1
  1
\A1;{\fAIGDT|b0|i0;\H8.7500;\ln\fTahoma|b0|i0;\H8.7500;}200
  7
Text poznámky (ISO)
 73
     1
 44
1.0
  0
POINT
  5
1DC1
330
1896
100
AcDbEntity
  8
Defpoints
 62
     0
100
AcDbPoint
 10
154.9936595333339
 20
583.0228129382041
 30
0.0
  0
POINT
  5
1DC2
330
1896
100
AcDbEntity
  8
Defpoints
 62
     0
100
AcDbPoint
 10
354.9936595333339
 20
583.3975788557157
 30
0.0
  0
POINT
  5
1DC3
330
1896
100
AcDbEntity
  8
Defpoints
 62
     0
100
AcDbPoint
 10
354.9936595333339
 20
503.0638708707591
 30
0.0
  0
ENDBLK
  5
1898
330
1896
100
AcDbEntity
  8
0
100
AcDbBlockEnd
  0
BLOCK
  5
197A
330
1979
100
AcDbEntity
  8
0
100
AcDbBlockBegin
  2
Pozice6
 70
     0
 10
0.0
 20
0.0
 30
0.0
  3
Pozice6
  1

  0
POLYLINE
  5
197C
330
1979
100
AcDbEntity
  8
Značka (ISO)
100
AcDb2dPolyline
 66
     1
 10
0.0
 20
0.0
 30
0.0
 70
   128
  0
VERTEX
  5
197D
330
197C
100
AcDbEntity
  8
Značka (ISO)
100
AcDbVertex
100
AcDb2dVertex
 10
61.83337688446044
 20
232.3930168151855
 30
0.0
  0
VERTEX
  5
197E
330
197C
100
AcDbEntity
  8
Značka (ISO)
100
AcDbVertex
100
AcDb2dVertex
 10
61.9974660873413
 20
234.9372291564941
 30
0.0
  0
VERTEX
  5
1980
330
197C
100
AcDbEntity
  8
Značka (ISO)
100
AcDbVertex
100
AcDb2dVertex
 10
60.86745262145996
 20
232.6518249511719
 30
0.0
  0
VERTEX
  5
1981
330
197C
100
AcDbEntity
  8
Značka (ISO)
100
AcDbVertex
100
AcDb2dVertex
 10
61.83337688446044
 20
232.3930168151855
 30
0.0
  0
SEQEND
  5
197F
330
197C
100
AcDbEntity
  8
Značka (ISO)
  0
SOLID
  5
1982
330
1979
100
AcDbEntity
  8
Značka (ISO)
100
AcDbTrace
 10
61.83337688446044
 20
232.3930168151855
 30
0.0
 11
61.9974660873413
 21
234.9372291564941
 31
0.0
 12
60.86745262145996
 22
232.6518249511719
 32
0.0
 13
61.83337688446044
 23
232.3930168151855
 33
0.0
  0
LINE
  5
1983
330
1979
100
AcDbEntity
  8
Značka (ISO)
100
AcDbLine
 10
60.86745328743217
 20
232.6518301584383
 30
0.0
 11
61.83337911372117
 21
232.3930111133356
 31
0.0
  0
LINE
  5
1984
330
1979
100
AcDbEntity
  8
Značka (ISO)
100
AcDbLine
 10
61.35041620057667
 20
232.5224206358869
 30
0.0
 11
53.32567740167001
 21
202.5736877209276
 31
0.0
  0
LINE
  5
1985
330
1979
100
AcDbEntity
  8
Značka (ISO)
100
AcDbLine
 10
61.35041620057667
 20
232.5224206358869
 30
0.0
 11
61.84138560631565
 21
234.3547434030648
 31
0.0
  0
LINE
  5
1986
330
1979
100
AcDbEntity
  8
Značka (ISO)
100
AcDbLine
 10
61.9523899312458
 20
234.7690171835637
 30
0.0
 11
61.99746381333357
 21
234.9372352016094
 31
0.0
  0
LINE
  5
1987
330
1979
100
AcDbEntity
  8
Značka (ISO)
100
AcDbLine
 10
61.83337911372117
 20
232.3930111133356
 30
0.0
 11
61.94389232349493
 21
234.1065795998736
 31
0.0
  0
LINE
  5
1988
330
1979
100
AcDbEntity
  8
Značka (ISO)
100
AcDbLine
 10
61.98755161590312
 20
234.7835410940549
 30
0.0
 11
61.99746381333357
 21
234.9372352016094
 31
0.0
  0
LINE
  5
1989
330
1979
100
AcDbEntity
  8
Značka (ISO)
100
AcDbLine
 10
61.99746381333357
 20
234.9372352016094
 30
0.0
 11
61.90451022251806
 21
234.7492399569977
 31
0.0
  0
LINE
  5
198A
330
1979
100
AcDbEntity
  8
Značka (ISO)
100
AcDbLine
 10
61.78133510137472
 20
234.500122770386
 30
0.0
 11
60.86745328743217
 21
232.6518301584383
 31
0.0
  0
MTEXT
  5
198B
330
1979
100
AcDbEntity
  8
Značka (ISO)
100
AcDbMText
 10
45.14265537942271
 20
209.1446962839693
 30
0.0
 40
5.24999976158142
 41
0.0
 71
     5
 72
     1
  1
1.1
  7
Text popisu (ISO)
 73
     1
 44
1.0
  0
LINE
  5
198C
330
1979
100
AcDbEntity
  8
Značka (ISO)
100
AcDbLine
 10
53.32567740167001
 20
202.5736877209276
 30
0.0
 11
36.95963335717538
 21
202.5736877209276
 31
0.0
  0
ENDBLK
  5
197B
330
1979
100
AcDbEntity
  8
0
100
AcDbBlockEnd
  0
BLOCK
  5
1B0E
330
1B0C
100
AcDbEntity
  8
0
100
AcDbBlockBegin
  2
GENAXEH
 70
     0
 10
0.0
 20
0.0
 30
0.0
  3
GENAXEH
  1

  0
LINE
  5
1B0D
330
1B0C
100
AcDbEntity
  8
0
100
AcDbLine
 10
-1.0
 20
0.0
 30
0.0
 11
1.0
 21
0.0
 31
0.0
  0
ENDBLK
  5
1B0F
330
1B0C
100
AcDbEntity
  8
0
100
AcDbBlockEnd
  0
BLOCK
  5
1B20
330
1B1F
100
AcDbEntity
  8
0
100
AcDbBlockBegin
  2
*D31
 70
     1
 10
0.0
 20
0.0
 30
0.0
  3
*D31
  1

  0
LINE
  5
1B21
330
1B1F
100
AcDbEntity
  8
Kóta (ISO)
440
 16777216
100
AcDbLine
 10
411.4283888851661
 20
498.3714139280025
 30
0.0
 11
411.4283888851661
 21
448.9018772797557
 31
0.0
  0
LINE
  5
1B22
330
1B1F
100
AcDbEntity
  8
Kóta (ISO)
440
 16777216
100
AcDbLine
 10
211.4283888851662
 20
498.3714139280025
 30
0.0
 11
211.4283888851662
 21
448.9018772797557
 31
0.0
  0
LINE
  5
1B23
330
1B1F
100
AcDbEntity
  8
Kóta (ISO)
440
 16777216
100
AcDbLine
 10
407.2617222184995
 20
450.5685439464223
 30
0.0
 11
215.5950555518328
 21
450.5685439464223
 31
0.0
  0
SOLID
  5
1B24
330
1B1F
100
AcDbEntity
  8
Kóta (ISO)
440
 16777216
100
AcDbTrace
 10
407.2617222184995
 20
451.2629883908668
 30
0.0
 11
407.2617222184995
 21
449.8740995019779
 31
0.0
 12
411.4283888851661
 22
450.5685439464223
 32
0.0
 13
411.4283888851661
 23
450.5685439464223
 33
0.0
  0
SOLID
  5
1B25
330
1B1F
100
AcDbEntity
  8
Kóta (ISO)
440
 16777216
100
AcDbTrace
 10
215.5950555518328
 20
451.2629883908668
 30
0.0
 11
215.5950555518328
 21
449.8740995019779
 31
0.0
 12
211.4283888851662
 22
450.5685439464223
 32
0.0
 13
211.4283888851662
 23
450.5685439464223
 33
0.0
  0
MTEXT
  5
1B26
330
1B1F
100
AcDbEntity
  8
Kóta (ISO)
440
 16777216
100
AcDbMText
 10
301.870682583383
 20
460.6153225272371
 30
0.0
 40
5.833333333333333
 41
0.0
 71
     1
 72
     1
  1
\A1;{\fAIGDT|b0|i0;\H5.8333;\ln\fTahoma|b0|i0;\H5.8333;}200
  7
Text poznámky (ISO)
 73
     1
 44
1.0
  0
POINT
  5
1B27
330
1B1F
100
AcDbEntity
  8
Defpoints
 62
     0
440
 16777216
100
AcDbPoint
 10
411.4283888851661
 20
498.3714139280025
 30
0.0
  0
POINT
  5
1B28
330
1B1F
100
AcDbEntity
  8
Defpoints
 62
     0
440
 16777216
100
AcDbPoint
 10
211.4283888851662
 20
498.3714139280025
 30
0.0
  0
POINT
  5
1B29
330
1B1F
100
AcDbEntity
  8
Defpoints
 62
     0
440
 16777216
100
AcDbPoint
 10
211.4283888851662
 20
450.5685439464223
 30
0.0
  0
ENDBLK
  5
1B2A
330
1B1F
100
AcDbEntity
  8
0
100
AcDbBlockEnd
  0
BLOCK
  5
1B2C
330
1B2B
100
AcDbEntity
  8
0
100
AcDbBlockBegin
  2
*D32
 70
     1
 10
0.0
 20
0.0
 30
0.0
  3
*D32
  1

  0
LINE
  5
1B2D
330
1B2B
100
AcDbEntity
  8
Kóta (ISO)
440
 16777216
100
AcDbLine
 10
211.4283888851662
 20
498.3714139280025
 30
0.0
 11
115.5300137748725
 21
498.3714139280026
 31
0.0
  0
LINE
  5
1B2E
330
1B2B
100
AcDbEntity
  8
Kóta (ISO)
440
 16777216
100
AcDbLine
 10
136.4783888851665
 20
602.1714139280025
 30
0.0
 11
115.5300137748725
 21
602.1714139280025
 31
0.0
  0
LINE
  5
1B2F
330
1B2B
100
AcDbEntity
  8
Kóta (ISO)
440
 16777216
100
AcDbLine
 10
117.1966804415392
 20
502.5380805946693
 30
0.0
 11
117.1966804415392
 21
598.0047472613359
 31
0.0
  0
SOLID
  5
1B30
330
1B2B
100
AcDbEntity
  8
Kóta (ISO)
440
 16777216
100
AcDbTrace
 10
116.5022359970947
 20
502.5380805946693
 30
0.0
 11
117.8911248859836
 21
502.5380805946693
 31
0.0
 12
117.1966804415392
 22
498.3714139280026
 32
0.0
 13
117.1966804415392
 23
498.3714139280026
 33
0.0
  0
SOLID
  5
1B31
330
1B2B
100
AcDbEntity
  8
Kóta (ISO)
440
 16777216
100
AcDbTrace
 10
116.5022359970948
 20
598.0047472613359
 30
0.0
 11
117.8911248859837
 21
598.0047472613359
 31
0.0
 12
117.1966804415392
 22
602.1714139280025
 32
0.0
 13
117.1966804415392
 23
602.1714139280025
 33
0.0
  0
MTEXT
  5
1B32
330
1B2B
100
AcDbEntity
  8
Kóta (ISO)
440
 16777216
100
AcDbMText
 10
108.510629400572
 20
540.8848009886697
 30
0.0
 40
5.833333333333333
 41
0.0
 71
     1
 72
     1
  1
\A1;103,8
  7
Text poznámky (ISO)
 11
0.0000000000000001
 21
1.0
 31
0.0
 73
     1
 44
1.0
  0
POINT
  5
1B33
330
1B2B
100
AcDbEntity
  8
Defpoints
 62
     0
440
 16777216
100
AcDbPoint
 10
211.4283888851662
 20
498.3714139280025
 30
0.0
  0
POINT
  5
1B34
330
1B2B
100
AcDbEntity
  8
Defpoints
 62
     0
440
 16777216
100
AcDbPoint
 10
136.4783888851665
 20
602.1714139280025
 30
0.0
  0
POINT
  5
1B35
330
1B2B
100
AcDbEntity
  8
Defpoints
 62
     0
440
 16777216
100
AcDbPoint
 10
117.1966804415392
 20
602.1714139280025
 30
0.0
  0
ENDBLK
  5
1B36
330
1B2B
100
AcDbEntity
  8
0
100
AcDbBlockEnd
  0
BLOCK
  5
1D5A
330
1D59
100
AcDbEntity
  8
0
100
AcDbBlockBegin
  2
*D34
 70
     1
 10
0.0
 20
0.0
 30
0.0
  3
*D34
  1

  0
LINE
  5
1D83
330
1D59
100
AcDbEntity
  8
Kóta (ISO)
100
AcDbLine
 10
876.8982903424797
 20
562.7564010692506
 30
0.0
 11
876.8982903424797
 21
512.4535310876703
 31
0.0
  0
LINE
  5
1D84
330
1D59
100
AcDbEntity
  8
Kóta (ISO)
100
AcDbLine
 10
676.8982903424796
 20
562.7564010692506
 30
0.0
 11
676.8982903424796
 21
512.4535310876703
 31
0.0
  0
LINE
  5
1D85
330
1D59
100
AcDbEntity
  8
Kóta (ISO)
100
AcDbLine
 10
870.6482903424797
 20
514.9535310876704
 30
0.0
 11
683.1482903424796
 21
514.9535310876704
 31
0.0
  0
SOLID
  5
1D86
330
1D59
100
AcDbEntity
  8
Kóta (ISO)
100
AcDbTrace
 10
870.6482903424797
 20
515.995197754337
 30
0.0
 11
870.6482903424797
 21
513.9118644210038
 31
0.0
 12
876.8982903424797
 22
514.9535310876704
 32
0.0
 13
876.8982903424797
 23
514.9535310876704
 33
0.0
  0
SOLID
  5
1D87
330
1D59
100
AcDbEntity
  8
Kóta (ISO)
100
AcDbTrace
 10
683.1482903424796
 20
515.995197754337
 30
0.0
 11
683.1482903424796
 21
513.9118644210038
 31
0.0
 12
676.8982903424796
 22
514.9535310876704
 32
0.0
 13
676.8982903424796
 23
514.9535310876704
 33
0.0
  0
MTEXT
  5
1D88
330
1D59
100
AcDbEntity
  8
Kóta (ISO)
100
AcDbMText
 10
764.1369518490689
 20
527.293100854396
 30
0.0
 40
8.75
 41
0.0
 71
     1
 72
     1
  1
\A1;{\fAIGDT|b0|i0;\H5.8333;\ln\fTahoma|b0|i0;\H5.8333;}200
  7
Text poznámky (ISO)
 73
     1
 44
1.0
  0
POINT
  5
1D89
330
1D59
100
AcDbEntity
  8
Defpoints
 62
     0
100
AcDbPoint
 10
876.8982903424797
 20
562.7564010692506
 30
0.0
  0
POINT
  5
1D8A
330
1D59
100
AcDbEntity
  8
Defpoints
 62
     0
100
AcDbPoint
 10
676.8982903424796
 20
562.7564010692506
 30
0.0
  0
POINT
  5
1D8B
330
1D59
100
AcDbEntity
  8
Defpoints
 62
     0
100
AcDbPoint
 10
676.8982903424796
 20
514.9535310876704
 30
0.0
  0
ENDBLK
  5
1D5B
330
1D59
100
AcDbEntity
  8
0
100
AcDbBlockEnd
  0
BLOCK
  5
1D66
330
1D65
100
AcDbEntity
  8
0
100
AcDbBlockBegin
  2
*D35
 70
     1
 10
0.0
 20
0.0
 30
0.0
  3
*D35
  1

  0
LINE
  5
1D8C
330
1D65
100
AcDbEntity
  8
Kóta (ISO)
100
AcDbLine
 10
676.8982903424796
 20
562.7564010692506
 30
0.0
 11
580.1665818988527
 21
562.7564010692506
 31
0.0
  0
LINE
  5
1D8D
330
1D65
100
AcDbEntity
  8
Kóta (ISO)
100
AcDbLine
 10
601.94829034248
 20
666.5564010692508
 30
0.0
 11
580.1665818988527
 21
666.5564010692508
 31
0.0
  0
LINE
  5
1D8E
330
1D65
100
AcDbEntity
  8
Kóta (ISO)
100
AcDbLine
 10
582.6665818988527
 20
569.0064010692506
 30
0.0
 11
582.6665818988527
 21
660.3064010692508
 31
0.0
  0
SOLID
  5
1D8F
330
1D65
100
AcDbEntity
  8
Kóta (ISO)
100
AcDbTrace
 10
581.6249152321861
 20
569.0064010692506
 30
0.0
 11
583.7082485655193
 21
569.0064010692506
 31
0.0
 12
582.6665818988527
 22
562.7564010692506
 32
0.0
 13
582.6665818988527
 23
562.7564010692506
 33
0.0
  0
SOLID
  5
1D90
330
1D65
100
AcDbEntity
  8
Kóta (ISO)
100
AcDbTrace
 10
581.6249152321861
 20
660.3064010692508
 30
0.0
 11
583.7082485655193
 21
660.3064010692508
 31
0.0
 12
582.6665818988527
 22
666.5564010692508
 32
0.0
 13
582.6665818988527
 23
666.5564010692508
 33
0.0
  0
MTEXT
  5
1D91
330
1D65
100
AcDbEntity
  8
Kóta (ISO)
100
AcDbMText
 10
569.6375053374019
 20
600.5764816602513
 30
0.0
 40
8.75
 41
0.0
 71
     1
 72
     1
  1
\A1;103,8
  7
Text poznámky (ISO)
 11
0.0000000000000001
 21
1.0
 31
0.0
 73
     1
 44
1.0
  0
POINT
  5
1D92
330
1D65
100
AcDbEntity
  8
Defpoints
 62
     0
100
AcDbPoint
 10
676.8982903424796
 20
562.7564010692506
 30
0.0
  0
POINT
  5
1D93
330
1D65
100
AcDbEntity
  8
Defpoints
 62
     0
100
AcDbPoint
 10
601.94829034248
 20
666.5564010692508
 30
0.0
  0
POINT
  5
1D94
330
1D65
100
AcDbEntity
  8
Defpoints
 62
     0
100
AcDbPoint
 10
582.6665818988527
 20
666.5564010692508
 30
0.0
  0
ENDBLK
  5
1D67
330
1D65
100
AcDbEntity
  8
0
100
AcDbBlockEnd
  0
ENDSEC
  0
SECTION
  2
ENTITIES
  0
LINE
  5
1F1
330
6C
100
AcDbEntity
  8
Viditelná (ISO)
100
AcDbLine
 10
104.9936595333339
 20
673.4948007950016
 30
0.0
 11
105.9936633480311
 21
673.4948007950016
 31
0.0
  0
ARC
  5
1F2
330
6C
100
AcDbEntity
  8
Viditelná (ISO)
100
AcDbCircle
 10
106.9936595333338
 20
673.494800824804
 30
0.0
 40
2.0
100
AcDbArc
 50
131.4096221092794
 51
180.0
  0
LINE
  5
1F4
330
6C
100
AcDbEntity
  8
Viditelná (ISO)
100
AcDbLine
 10
105.9936595333338
 20
673.494800824804
 30
0.0
 11
106.4436595333339
 21
673.494800824804
 31
0.0
  0
LINE
  5
1F5
330
6C
100
AcDbEntity
  8
Viditelná (ISO)
100
AcDbLine
 10
106.4436595333339
 20
673.494800824804
 30
0.0
 11
106.4436595333339
 21
665.4948008248041
 31
0.0
  0
LINE
  5
1F6
330
6C
100
AcDbEntity
  8
Viditelná (ISO)
100
AcDbLine
 10
106.2436595333339
 20
673.494800824804
 30
0.0
 11
106.2436595333339
 21
665.4948008248041
 31
0.0
  0
LINE
  5
1F7
330
6C
100
AcDbEntity
  8
Viditelná (ISO)
100
AcDbLine
 10
104.9936595333339
 20
665.4948008248041
 30
0.0
 11
104.9936595333339
 21
673.494800824804
 31
0.0
  0
LINE
  5
1F8
330
6C
100
AcDbEntity
  8
Viditelná (ISO)
100
AcDbLine
 10
106.2436595333339
 20
665.4948008248041
 30
0.0
 11
104.9936595333339
 21
665.4948008248041
 31
0.0
  0
LINE
  5
1F9
330
6C
100
AcDbEntity
  8
Viditelná (ISO)
100
AcDbLine
 10
403.5436595333338
 20
673.494800824804
 30
0.0
 11
403.9936595333338
 21
673.494800824804
 31
0.0
  0
LINE
  5
1FA
330
6C
100
AcDbEntity
  8
Viditelná (ISO)
100
AcDbLine
 10
403.5436595333338
 20
665.4948008248041
 30
0.0
 11
403.5436595333338
 21
673.494800824804
 31
0.0
  0
LINE
  5
1FB
330
6C
100
AcDbEntity
  8
Viditelná (ISO)
100
AcDbLine
 10
403.7436595333338
 20
665.4948008248041
 30
0.0
 11
403.7436595333338
 21
673.494800824804
 31
0.0
  0
LINE
  5
1FC
330
6C
100
AcDbEntity
  8
Viditelná (ISO)
100
AcDbLine
 10
404.9936595333338
 20
665.4948008248041
 30
0.0
 11
403.7436595333338
 21
665.4948008248041
 31
0.0
  0
LINE
  5
1FD
330
6C
100
AcDbEntity
  8
Viditelná (ISO)
100
AcDbLine
 10
404.9936595333338
 20
673.494800824804
 30
0.0
 11
404.9936595333338
 21
665.4948008248041
 31
0.0
  0
LINE
  5
1FE
330
6C
100
AcDbEntity
  8
Viditelná (ISO)
100
AcDbLine
 10
106.4436595333339
 20
665.4948008248041
 30
0.0
 11
403.5436595333338
 21
665.4948008248041
 31
0.0
  0
LINE
  5
1FF
330
6C
100
AcDbEntity
  8
Viditelná (ISO)
100
AcDbLine
 10
403.9936557186366
 20
673.4948007950016
 30
0.0
 11
404.9936595333338
 21
673.4948007950016
 31
0.0
  0
ARC
  5
200
330
6C
100
AcDbEntity
  8
Viditelná (ISO)
100
AcDbCircle
 10
402.9936595333339
 20
673.494800824804
 30
0.0
 40
2.0
100
AcDbArc
 50
0.0
 51
48.59037789070122
  0
LINE
  5
204
330
6C
100
AcDbEntity
  8
Viditelná (ISO)
100
AcDbLine
 10
391.2436595334166
 20
648.5413157256284
 30
0.0
 11
391.2436595334166
 21
665.4948008248041
 31
0.0
  0
LINE
  5
205
330
6C
100
AcDbEntity
  8
Viditelná (ISO)
100
AcDbLine
 10
118.7436595332512
 20
665.4948008248041
 30
0.0
 11
118.7436595332512
 21
648.5413157256284
 31
0.0
  0
LINE
  5
208
330
6C
100
AcDbEntity
  8
Viditelná (ISO)
100
AcDbLine
 10
118.7436595333339
 20
648.5413158127495
 30
0.0
 11
118.7436595333339
 21
648.5281861015984
 31
0.0
  0
LINE
  5
209
330
6C
100
AcDbEntity
  8
Viditelná (ISO)
100
AcDbLine
 10
391.2436595333339
 20
648.5281884857843
 30
0.0
 11
391.2436595333339
 21
648.5413158127495
 31
0.0
  0
ARC
  5
20A
330
6C
100
AcDbEntity
  8
Viditelná (ISO)
100
AcDbCircle
 10
386.9936595334165
 20
648.3843056932562
 30
0.0
 40
4.25
100
AcDbArc
 50
274.1976683571481
 51
0.0
  0
ARC
  5
20B
330
6C
100
AcDbEntity
  8
Viditelná (ISO)
100
AcDbCircle
 10
122.9936595332512
 20
648.3843056932562
 30
0.0
 40
4.25
100
AcDbArc
 50
180.0
 51
265.8023316428516
  0
LINE
  5
2D6
330
6C
100
AcDbEntity
  8
Viditelná (ISO)
100
AcDbLine
 10
246.0603128666654
 20
632.7948008248039
 30
0.0
 11
145.9936595333339
 21
632.7948008248039
 31
0.0
  0
LINE
  5
2D7
330
6C
100
AcDbEntity
  8
Viditelná (ISO)
100
AcDbLine
 10
363.9936595333339
 20
632.7948008248039
 30
0.0
 11
263.9270062000026
 21
632.7948008248039
 31
0.0
  0
LINE
  5
2D8
330
6C
100
AcDbEntity
  8
Viditelná (ISO)
100
AcDbLine
 10
363.9936595333339
 20
640.8085341142649
 30
0.0
 11
363.9936595333339
 21
632.7948008248039
 31
0.0
  0
LINE
  5
2D9
330
6C
100
AcDbEntity
  8
Viditelná (ISO)
100
AcDbLine
 10
145.9936595333339
 20
640.8085341142649
 30
0.0
 11
145.9936595333339
 21
632.7948008248039
 31
0.0
  0
ARC
  5
2DB
330
6C
100
AcDbEntity
  8
Viditelná (ISO)
100
AcDbCircle
 10
365.7436595333339
 20
640.8085341142649
 30
0.0
 40
1.75
100
AcDbArc
 50
94.19766835714918
 51
180.0
  0
ARC
  5
2DC
330
6C
100
AcDbEntity
  8
Viditelná (ISO)
100
AcDbCircle
 10
144.2436595333339
 20
640.8085341142649
 30
0.0
 40
1.75
100
AcDbArc
 50
0.0
 51
85.80233164285228
  0
LINE
  5
2DD
330
6C
100
AcDbEntity
  8
Viditelná (ISO)
100
AcDbLine
 10
387.3047493823305
 20
644.1457065017893
 30
0.0
 11
365.6155637131928
 21
642.5538396636923
 31
0.0
  0
LINE
  5
2DE
330
6C
100
AcDbEntity
  8
Viditelná (ISO)
100
AcDbLine
 10
144.371755353475
 20
642.5538396636923
 30
0.0
 11
122.6825696843371
 21
644.1457065017893
 31
0.0
  0
ARC
  5
2E1
330
6C
100
AcDbEntity
  8
Viditelná (ISO)
100
AcDbCircle
 10
254.9936595333339
 20
632.7948008248039
 30
0.0
 40
8.999999999999992
100
AcDbArc
 50
189.5572168132347
 51
350.4427831867648
  0
CIRCLE
  5
2E2
330
6C
100
AcDbEntity
  8
Viditelná (ISO)
100
AcDbCircle
 10
254.9936595333339
 20
632.7948008248039
 30
0.0
 40
8.500000000000001
  0
CIRCLE
  5
2E3
330
6C
100
AcDbEntity
  8
Viditelná (ISO)
100
AcDbCircle
 10
254.9936595333339
 20
632.7948008248039
 30
0.0
 40
7.500000000000002
  0
LINE
  5
316
330
6C
100
AcDbEntity
  8
Viditelná (ISO)
100
AcDbLine
 10
208.9936595333342
 20
665.4948008248034
 30
0.0
 11
208.9936595333342
 21
664.3757970507152
 31
0.0
  0
LINE
  5
317
330
6C
100
AcDbEntity
  8
Viditelná (ISO)
100
AcDbLine
 10
308.9936595333341
 20
664.3757970507152
 30
0.0
 11
208.9936595333342
 21
664.3757970507152
 31
0.0
  0
LINE
  5
318
330
6C
100
AcDbEntity
  8
Viditelná (ISO)
100
AcDbLine
 10
308.9936595333341
 20
664.3757970507152
 30
0.0
 11
308.9936595333341
 21
665.4948008248034
 31
0.0
  0
LINE
  5
31B
330
6C
100
AcDbEntity
  8
Viditelná (ISO)
100
AcDbLine
 10
392.2436595334165
 20
637.244800824804
 30
0.0
 11
391.2436595334166
 21
637.244800824804
 31
0.0
  0
LINE
  5
31C
330
6C
100
AcDbEntity
  8
Viditelná (ISO)
100
AcDbLine
 10
392.2436595334165
 20
649.244800824804
 30
0.0
 11
392.2436595334165
 21
637.244800824804
 31
0.0
  0
LINE
  5
31D
330
6C
100
AcDbEntity
  8
Viditelná (ISO)
100
AcDbLine
 10
391.2436595334166
 20
649.244800824804
 30
0.0
 11
392.2436595334165
 21
649.244800824804
 31
0.0
  0
LINE
  5
31E
330
6C
100
AcDbEntity
  8
Viditelná (ISO)
100
AcDbLine
 10
391.2436595334166
 20
637.244800824804
 30
0.0
 11
391.2436595334166
 21
648.5282214011945
 31
0.0
  0
LINE
  5
31F
330
6C
100
AcDbEntity
  8
Viditelná (ISO)
100
AcDbLine
 10
391.2436595334166
 20
617.2630907880336
 30
0.0
 11
391.2436595334166
 21
637.244800824804
 31
0.0
  0
LINE
  5
320
330
6C
100
AcDbEntity
  8
Viditelná (ISO)
100
AcDbLine
 10
392.2436595334165
 20
659.2448008248041
 30
0.0
 11
392.2436595334165
 21
649.244800824804
 31
0.0
  0
LINE
  5
321
330
6C
100
AcDbEntity
  8
Viditelná (ISO)
100
AcDbLine
 10
391.2436595334166
 20
659.2448008248041
 30
0.0
 11
392.2436595334165
 21
659.2448008248041
 31
0.0
  0
ARC
  5
322
330
6C
100
AcDbEntity
  8
Viditelná (ISO)
100
AcDbCircle
 10
386.7436595334165
 20
617.2630907880336
 30
0.0
 40
4.500000000000017
100
AcDbArc
 50
315.0000000000004
 51
0.0
  0
LINE
  5
323
330
6C
100
AcDbEntity
  8
Viditelná (ISO)
100
AcDbLine
 10
387.4507663146031
 20
611.6062365385413
 30
0.0
 11
389.925640048756
 21
614.0811102726942
 31
0.0
  0
ARC
  5
324
330
6C
100
AcDbEntity
  8
Viditelná (ISO)
100
AcDbCircle
 10
392.0469603923157
 20
607.0100424608287
 30
0.0
 40
6.500000000000011
100
AcDbArc
 50
135.0
 51
225.0
  0
LINE
  5
325
330
6C
100
AcDbEntity
  8
Viditelná (ISO)
100
AcDbLine
 10
389.925640048756
 20
599.9389746489632
 30
0.0
 11
387.4507663146031
 21
602.4138483831161
 31
0.0
  0
ARC
  5
326
330
6C
100
AcDbEntity
  8
Viditelná (ISO)
100
AcDbCircle
 10
386.7436595334166
 20
596.7569941336237
 30
0.0
 40
4.499999999999999
100
AcDbArc
 50
315.0000000000008
 51
44.99999999999999
  0
LINE
  5
327
330
6C
100
AcDbEntity
  8
Viditelná (ISO)
100
AcDbLine
 10
387.4507663146031
 20
591.1001398841313
 30
0.0
 11
389.925640048756
 21
593.5750136182843
 31
0.0
  0
ARC
  5
328
330
6C
100
AcDbEntity
  8
Viditelná (ISO)
100
AcDbCircle
 10
392.0469603923157
 20
586.5039458064188
 30
0.0
 40
6.500000000000005
100
AcDbArc
 50
135.0
 51
225.0
  0
LINE
  5
329
330
6C
100
AcDbEntity
  8
Viditelná (ISO)
100
AcDbLine
 10
389.925640048756
 20
579.4328779945533
 30
0.0
 11
387.4507663146031
 21
581.9077517287063
 31
0.0
  0
ARC
  5
32A
330
6C
100
AcDbEntity
  8
Viditelná (ISO)
100
AcDbCircle
 10
386.7436595334166
 20
576.2508974792138
 30
0.0
 40
4.499999999999996
100
AcDbArc
 50
315.0000000000004
 51
44.9999999999996
  0
LINE
  5
32B
330
6C
100
AcDbEntity
  8
Viditelná (ISO)
100
AcDbLine
 10
387.4507663146031
 20
570.5940432297214
 30
0.0
 11
389.925640048756
 21
573.0689169638743
 31
0.0
  0
ARC
  5
32C
330
6C
100
AcDbEntity
  8
Viditelná (ISO)
100
AcDbCircle
 10
392.0469603923157
 20
565.9978491520089
 30
0.0
 40
6.500000000000037
100
AcDbArc
 50
135.0000000000003
 51
224.9999999999997
  0
LINE
  5
32D
330
6C
100
AcDbEntity
  8
Viditelná (ISO)
100
AcDbLine
 10
389.925640048756
 20
558.9267813401433
 30
0.0
 11
387.4507663146031
 21
561.4016550742964
 31
0.0
  0
ARC
  5
32E
330
6C
100
AcDbEntity
  8
Viditelná (ISO)
100
AcDbCircle
 10
386.7436595334166
 20
555.7448008248041
 30
0.0
 40
4.499999999999975
100
AcDbArc
 50
0.0
 51
45.0000000000008
  0
LINE
  5
32F
330
6C
100
AcDbEntity
  8
Viditelná (ISO)
100
AcDbLine
 10
391.2436595334166
 20
539.2573086470848
 30
0.0
 11
391.2436595334166
 21
555.7448008248041
 31
0.0
  0
LINE
  5
330
330
6C
100
AcDbEntity
  8
Viditelná (ISO)
100
AcDbLine
 10
392.2436595334165
 20
555.7448008248041
 30
0.0
 11
392.2436595334165
 21
539.2573086470848
 31
0.0
  0
ARC
  5
331
330
6C
100
AcDbEntity
  8
Viditelná (ISO)
100
AcDbCircle
 10
386.7436595334166
 20
555.7448008248041
 30
0.0
 40
5.499999999999985
100
AcDbArc
 50
0.0
 51
45.00000000000033
  0
LINE
  5
332
330
6C
100
AcDbEntity
  8
Viditelná (ISO)
100
AcDbLine
 10
388.1578730957896
 20
562.1087618554829
 30
0.0
 11
390.6327468299426
 21
559.6338881213299
 31
0.0
  0
ARC
  5
333
330
6C
100
AcDbEntity
  8
Viditelná (ISO)
100
AcDbCircle
 10
392.0469603923157
 20
565.9978491520089
 30
0.0
 40
5.500000000000041
100
AcDbArc
 50
135.0
 51
224.999999999999
  0
LINE
  5
334
330
6C
100
AcDbEntity
  8
Viditelná (ISO)
100
AcDbLine
 10
390.6327468299426
 20
572.3618101826878
 30
0.0
 11
388.1578730957896
 21
569.8869364485349
 31
0.0
  0
ARC
  5
335
330
6C
100
AcDbEntity
  8
Viditelná (ISO)
100
AcDbCircle
 10
386.7436595334165
 20
576.2508974792138
 30
0.0
 40
5.50000000000001
100
AcDbArc
 50
315.0
 51
44.99999999999999
  0
LINE
  5
336
330
6C
100
AcDbEntity
  8
Viditelná (ISO)
100
AcDbLine
 10
388.1578730957897
 20
582.6148585098929
 30
0.0
 11
390.6327468299426
 21
580.1399847757399
 31
0.0
  0
ARC
  5
337
330
6C
100
AcDbEntity
  8
Viditelná (ISO)
100
AcDbCircle
 10
392.0469603923157
 20
586.5039458064188
 30
0.0
 40
5.50000000000001
100
AcDbArc
 50
135.0
 51
225.0000000000003
  0
LINE
  5
338
330
6C
100
AcDbEntity
  8
Viditelná (ISO)
100
AcDbLine
 10
390.6327468299426
 20
592.8679068370977
 30
0.0
 11
388.1578730957897
 21
590.3930331029449
 31
0.0
  0
ARC
  5
339
330
6C
100
AcDbEntity
  8
Viditelná (ISO)
100
AcDbCircle
 10
386.7436595334166
 20
596.7569941336237
 30
0.0
 40
5.499999999999993
100
AcDbArc
 50
314.9999999999997
 51
45.00000000000031
  0
LINE
  5
33A
330
6C
100
AcDbEntity
  8
Viditelná (ISO)
100
AcDbLine
 10
388.1578730957897
 20
603.1209551643026
 30
0.0
 11
390.6327468299426
 21
600.6460814301497
 31
0.0
  0
ARC
  5
33B
330
6C
100
AcDbEntity
  8
Viditelná (ISO)
100
AcDbCircle
 10
392.0469603923157
 20
607.0100424608287
 30
0.0
 40
5.500000000000012
100
AcDbArc
 50
135.0
 51
225.0
  0
LINE
  5
33C
330
6C
100
AcDbEntity
  8
Viditelná (ISO)
100
AcDbLine
 10
390.6327468299426
 20
613.3740034915076
 30
0.0
 11
388.1578730957897
 21
610.8991297573547
 31
0.0
  0
ARC
  5
33D
330
6C
100
AcDbEntity
  8
Viditelná (ISO)
100
AcDbCircle
 10
386.7436595334166
 20
617.2630907880336
 30
0.0
 40
5.5
100
AcDbArc
 50
314.9999999999997
 51
0.0
  0
LINE
  5
33E
330
6C
100
AcDbEntity
  8
Viditelná (ISO)
100
AcDbLine
 10
392.2436595334165
 20
637.244800824804
 30
0.0
 11
392.2436595334165
 21
617.2630907880336
 31
0.0
  0
LINE
  5
33F
330
6C
100
AcDbEntity
  8
Viditelná (ISO)
100
AcDbLine
 10
391.2436595334166
 20
539.2573086470848
 30
0.0
 11
392.2436595334165
 21
539.2573086470848
 31
0.0
  0
LINE
  5
340
330
6C
100
AcDbEntity
  8
Viditelná (ISO)
100
AcDbLine
 10
392.2436595334166
 20
533.2448008248039
 30
0.0
 11
392.2436595334166
 21
539.2573086470848
 31
0.0
  0
LINE
  5
341
330
6C
100
AcDbEntity
  8
Viditelná (ISO)
100
AcDbLine
 10
391.2436595334166
 20
539.2573086470849
 30
0.0
 11
391.2436595334166
 21
533.244800824804
 31
0.0
  0
LINE
  5
342
330
6C
100
AcDbEntity
  8
Viditelná (ISO)
100
AcDbLine
 10
392.2436595334165
 20
533.2448008248039
 30
0.0
 11
391.2436595334166
 21
533.2448008248039
 31
0.0
  0
LINE
  5
347
330
6C
100
AcDbEntity
  8
Viditelná (ISO)
100
AcDbLine
 10
242.4936595333339
 20
539.2573086470848
 30
0.0
 11
242.4936595333339
 21
555.7448008248041
 31
0.0
  0
LINE
  5
348
330
6C
100
AcDbEntity
  8
Viditelná (ISO)
100
AcDbLine
 10
242.4936595333339
 20
555.7448008248041
 30
0.0
 11
242.4936595333339
 21
558.9267813401433
 31
0.0
  0
LINE
  5
349
330
6C
100
AcDbEntity
  8
Viditelná (ISO)
100
AcDbLine
 10
242.4936595333339
 20
558.9267813401433
 30
0.0
 11
242.4936595333339
 21
561.4016550742964
 31
0.0
  0
LINE
  5
34A
330
6C
100
AcDbEntity
  8
Viditelná (ISO)
100
AcDbLine
 10
242.4936595333339
 20
570.5940432297214
 30
0.0
 11
242.4936595333339
 21
561.4016550742964
 31
0.0
  0
LINE
  5
34B
330
6C
100
AcDbEntity
  8
Viditelná (ISO)
100
AcDbLine
 10
242.4936595333339
 20
570.5940432297214
 30
0.0
 11
242.4936595333339
 21
573.0228129382029
 31
0.0
  0
LINE
  5
34C
330
6C
100
AcDbEntity
  8
Viditelná (ISO)
100
AcDbLine
 10
267.4936595333339
 20
570.5940432297214
 30
0.0
 11
267.4936595333339
 21
573.0228129382029
 31
0.0
  0
LINE
  5
34D
330
6C
100
AcDbEntity
  8
Viditelná (ISO)
100
AcDbLine
 10
267.4936595333339
 20
570.5940432297214
 30
0.0
 11
267.4936595333339
 21
561.4016550742964
 31
0.0
  0
LINE
  5
34E
330
6C
100
AcDbEntity
  8
Viditelná (ISO)
100
AcDbLine
 10
267.4936595333339
 20
558.9267813401433
 30
0.0
 11
267.4936595333339
 21
561.4016550742964
 31
0.0
  0
LINE
  5
34F
330
6C
100
AcDbEntity
  8
Viditelná (ISO)
100
AcDbLine
 10
267.4936595333339
 20
555.7448008248041
 30
0.0
 11
267.4936595333339
 21
558.9267813401433
 31
0.0
  0
LINE
  5
350
330
6C
100
AcDbEntity
  8
Viditelná (ISO)
100
AcDbLine
 10
267.4936595333339
 20
539.2573086470848
 30
0.0
 11
267.4936595333339
 21
555.7448008248041
 31
0.0
  0
ARC
  5
36A
330
6C
100
AcDbEntity
  8
Viditelná (ISO)
100
AcDbCircle
 10
254.9936595333339
 20
549.244800824804
 30
0.0
 40
16.00000000000001
100
AcDbArc
 50
218.6248328730531
 51
321.375167126947
  0
CIRCLE
  5
36B
330
6C
100
AcDbEntity
  8
Viditelná (ISO)
100
AcDbCircle
 10
254.9936595333339
 20
545.7448008248039
 30
0.0
 40
6.0
  0
LINE
  5
36C
330
6C
100
AcDbEntity
  8
Viditelná (ISO)
100
AcDbLine
 10
117.7436595332512
 20
649.244800824804
 30
0.0
 11
118.7436595332512
 21
649.244800824804
 31
0.0
  0
LINE
  5
36D
330
6C
100
AcDbEntity
  8
Viditelná (ISO)
100
AcDbLine
 10
117.7436595332512
 20
637.244800824804
 30
0.0
 11
117.7436595332512
 21
649.244800824804
 31
0.0
  0
LINE
  5
36E
330
6C
100
AcDbEntity
  8
Viditelná (ISO)
100
AcDbLine
 10
118.7436595332512
 20
637.244800824804
 30
0.0
 11
117.7436595332512
 21
637.244800824804
 31
0.0
  0
LINE
  5
36F
330
6C
100
AcDbEntity
  8
Viditelná (ISO)
100
AcDbLine
 10
118.7436595332512
 20
648.5282214011945
 30
0.0
 11
118.7436595332512
 21
637.244800824804
 31
0.0
  0
LINE
  5
370
330
6C
100
AcDbEntity
  8
Viditelná (ISO)
100
AcDbLine
 10
117.7436595332512
 20
637.244800824804
 30
0.0
 11
117.7436595332512
 21
617.2630907880336
 31
0.0
  0
ARC
  5
371
330
6C
100
AcDbEntity
  8
Viditelná (ISO)
100
AcDbCircle
 10
123.2436595332512
 20
617.2630907880336
 30
0.0
 40
5.5
100
AcDbArc
 50
180.0
 51
225.0000000000001
  0
LINE
  5
372
330
6C
100
AcDbEntity
  8
Viditelná (ISO)
100
AcDbLine
 10
119.3545722367252
 20
613.3740034915076
 30
0.0
 11
121.8294459708781
 21
610.8991297573547
 31
0.0
  0
ARC
  5
373
330
6C
100
AcDbEntity
  8
Viditelná (ISO)
100
AcDbCircle
 10
117.9403586743521
 20
607.0100424608287
 30
0.0
 40
5.500000000000012
100
AcDbArc
 50
314.9999999999999
 51
45.00000000000015
  0
LINE
  5
374
330
6C
100
AcDbEntity
  8
Viditelná (ISO)
100
AcDbLine
 10
121.8294459708781
 20
603.1209551643026
 30
0.0
 11
119.3545722367252
 21
600.6460814301497
 31
0.0
  0
ARC
  5
375
330
6C
100
AcDbEntity
  8
Viditelná (ISO)
100
AcDbCircle
 10
123.2436595332512
 20
596.7569941336237
 30
0.0
 40
5.499999999999993
100
AcDbArc
 50
134.9999999999995
 51
225.0000000000001
  0
LINE
  5
376
330
6C
100
AcDbEntity
  8
Viditelná (ISO)
100
AcDbLine
 10
119.3545722367252
 20
592.8679068370977
 30
0.0
 11
121.8294459708781
 21
590.3930331029449
 31
0.0
  0
ARC
  5
377
330
6C
100
AcDbEntity
  8
Viditelná (ISO)
100
AcDbCircle
 10
117.9403586743521
 20
586.5039458064188
 30
0.0
 40
5.50000000000001
100
AcDbArc
 50
315.0
 51
45.00000000000031
  0
LINE
  5
378
330
6C
100
AcDbEntity
  8
Viditelná (ISO)
100
AcDbLine
 10
121.8294459708781
 20
582.6148585098929
 30
0.0
 11
119.3545722367252
 21
580.1399847757399
 31
0.0
  0
ARC
  5
379
330
6C
100
AcDbEntity
  8
Viditelná (ISO)
100
AcDbCircle
 10
123.2436595332512
 20
576.2508974792138
 30
0.0
 40
5.50000000000001
100
AcDbArc
 50
134.9999999999996
 51
224.9999999999999
  0
LINE
  5
37A
330
6C
100
AcDbEntity
  8
Viditelná (ISO)
100
AcDbLine
 10
119.3545722367252
 20
572.3618101826878
 30
0.0
 11
121.8294459708781
 21
569.8869364485349
 31
0.0
  0
ARC
  5
37B
330
6C
100
AcDbEntity
  8
Viditelná (ISO)
100
AcDbCircle
 10
117.9403586743521
 20
565.9978491520089
 30
0.0
 40
5.500000000000041
100
AcDbArc
 50
315.0000000000002
 51
44.99999999999984
  0
LINE
  5
37C
330
6C
100
AcDbEntity
  8
Viditelná (ISO)
100
AcDbLine
 10
121.8294459708781
 20
562.1087618554829
 30
0.0
 11
119.3545722367252
 21
559.6338881213299
 31
0.0
  0
ARC
  5
37D
330
6C
100
AcDbEntity
  8
Viditelná (ISO)
100
AcDbCircle
 10
123.2436595332512
 20
555.7448008248041
 30
0.0
 40
5.499999999999985
100
AcDbArc
 50
134.9999999999995
 51
180.0
  0
LINE
  5
37E
330
6C
100
AcDbEntity
  8
Viditelná (ISO)
100
AcDbLine
 10
117.7436595332512
 20
555.7448008248041
 30
0.0
 11
117.7436595332512
 21
539.2573086470848
 31
0.0
  0
LINE
  5
37F
330
6C
100
AcDbEntity
  8
Viditelná (ISO)
100
AcDbLine
 10
118.7436595332512
 20
539.2573086470848
 30
0.0
 11
118.7436595332512
 21
555.7448008248041
 31
0.0
  0
ARC
  5
380
330
6C
100
AcDbEntity
  8
Viditelná (ISO)
100
AcDbCircle
 10
123.2436595332512
 20
555.7448008248041
 30
0.0
 40
4.499999999999975
100
AcDbArc
 50
134.9999999999994
 51
180.0
  0
LINE
  5
381
330
6C
100
AcDbEntity
  8
Viditelná (ISO)
100
AcDbLine
 10
120.0616790179118
 20
558.9267813401433
 30
0.0
 11
122.5365527520647
 21
561.4016550742964
 31
0.0
  0
ARC
  5
382
330
6C
100
AcDbEntity
  8
Viditelná (ISO)
100
AcDbCircle
 10
117.9403586743521
 20
565.9978491520089
 30
0.0
 40
6.500000000000037
100
AcDbArc
 50
315.0000000000002
 51
44.99999999999984
  0
LINE
  5
383
330
6C
100
AcDbEntity
  8
Viditelná (ISO)
100
AcDbLine
 10
122.5365527520647
 20
570.5940432297214
 30
0.0
 11
120.0616790179118
 21
573.0689169638743
 31
0.0
  0
ARC
  5
384
330
6C
100
AcDbEntity
  8
Viditelná (ISO)
100
AcDbCircle
 10
123.2436595332512
 20
576.2508974792138
 30
0.0
 40
4.499999999999996
100
AcDbArc
 50
135.0000000000002
 51
224.9999999999994
  0
LINE
  5
385
330
6C
100
AcDbEntity
  8
Viditelná (ISO)
100
AcDbLine
 10
120.0616790179118
 20
579.4328779945533
 30
0.0
 11
122.5365527520647
 21
581.9077517287063
 31
0.0
  0
ARC
  5
386
330
6C
100
AcDbEntity
  8
Viditelná (ISO)
100
AcDbCircle
 10
117.9403586743521
 20
586.5039458064188
 30
0.0
 40
6.500000000000005
100
AcDbArc
 50
315.0
 51
44.99999999999984
  0
LINE
  5
387
330
6C
100
AcDbEntity
  8
Viditelná (ISO)
100
AcDbLine
 10
122.5365527520647
 20
591.1001398841313
 30
0.0
 11
120.0616790179118
 21
593.5750136182843
 31
0.0
  0
ARC
  5
388
330
6C
100
AcDbEntity
  8
Viditelná (ISO)
100
AcDbCircle
 10
123.2436595332512
 20
596.7569941336237
 30
0.0
 40
4.499999999999999
100
AcDbArc
 50
135.0000000000002
 51
224.9999999999994
  0
LINE
  5
389
330
6C
100
AcDbEntity
  8
Viditelná (ISO)
100
AcDbLine
 10
120.0616790179117
 20
599.9389746489632
 30
0.0
 11
122.5365527520646
 21
602.4138483831161
 31
0.0
  0
ARC
  5
38A
330
6C
100
AcDbEntity
  8
Viditelná (ISO)
100
AcDbCircle
 10
117.9403586743521
 20
607.0100424608287
 30
0.0
 40
6.500000000000011
100
AcDbArc
 50
315.0
 51
44.99999999999999
  0
LINE
  5
38B
330
6C
100
AcDbEntity
  8
Viditelná (ISO)
100
AcDbLine
 10
122.5365527520647
 20
611.6062365385413
 30
0.0
 11
120.0616790179117
 21
614.0811102726942
 31
0.0
  0
ARC
  5
38C
330
6C
100
AcDbEntity
  8
Viditelná (ISO)
100
AcDbCircle
 10
123.2436595332512
 20
617.2630907880336
 30
0.0
 40
4.500000000000017
100
AcDbArc
 50
180.0
 51
224.9999999999992
  0
LINE
  5
38D
330
6C
100
AcDbEntity
  8
Viditelná (ISO)
100
AcDbLine
 10
118.7436595332512
 20
617.2630907880336
 30
0.0
 11
118.7436595332512
 21
637.244800824804
 31
0.0
  0
LINE
  5
38E
330
6C
100
AcDbEntity
  8
Viditelná (ISO)
100
AcDbLine
 10
118.7436595332512
 20
659.2448008248041
 30
0.0
 11
117.7436595332512
 21
659.2448008248041
 31
0.0
  0
LINE
  5
38F
330
6C
100
AcDbEntity
  8
Viditelná (ISO)
100
AcDbLine
 10
117.7436595332512
 20
659.2448008248041
 30
0.0
 11
117.7436595332512
 21
649.244800824804
 31
0.0
  0
LINE
  5
390
330
6C
100
AcDbEntity
  8
Viditelná (ISO)
100
AcDbLine
 10
117.7436595332512
 20
539.2573086470848
 30
0.0
 11
118.7436595332512
 21
539.2573086470848
 31
0.0
  0
LINE
  5
391
330
6C
100
AcDbEntity
  8
Viditelná (ISO)
100
AcDbLine
 10
117.7436595332512
 20
539.2573086470849
 30
0.0
 11
117.7436595332512
 21
533.244800824804
 31
0.0
  0
LINE
  5
392
330
6C
100
AcDbEntity
  8
Viditelná (ISO)
100
AcDbLine
 10
118.7436595332512
 20
533.2448008248039
 30
0.0
 11
118.7436595332512
 21
539.2573086470848
 31
0.0
  0
LINE
  5
393
330
6C
100
AcDbEntity
  8
Viditelná (ISO)
100
AcDbLine
 10
117.7436595332512
 20
533.2448008248039
 30
0.0
 11
118.7436595332512
 21
533.2448008248039
 31
0.0
  0
ARC
  5
396
330
6C
100
AcDbEntity
  8
Viditelná (ISO)
100
AcDbCircle
 10
106.9431492761997
 20
673.494800824804
 30
0.0
 40
2.499999999999968
100
AcDbArc
 50
90.0
 51
143.1301023541563
  0
LINE
  5
397
330
6C
100
AcDbEntity
  8
Viditelná (ISO)
100
AcDbLine
 10
106.9431492761997
 20
674.9948008248041
 30
0.0
 11
104.9431492761997
 21
674.9948008248041
 31
0.0
  0
LINE
  5
398
330
6C
100
AcDbEntity
  8
Viditelná (ISO)
100
AcDbLine
 10
405.0441697906333
 20
674.9948008248041
 30
0.0
 11
403.0441697906334
 21
674.9948008248041
 31
0.0
  0
ARC
  5
399
330
6C
100
AcDbEntity
  8
Viditelná (ISO)
100
AcDbCircle
 10
403.0441697906334
 20
673.494800824804
 30
0.0
 40
2.499999999999956
100
AcDbArc
 50
36.86989764584402
 51
90.0
  0
LINE
  5
39A
330
6C
100
AcDbEntity
  8
Viditelná (ISO)
100
AcDbLine
 10
403.0441697906334
 20
675.994800824804
 30
0.0
 11
106.9431492761997
 21
675.994800824804
 31
0.0
  0
LINE
  5
39B
330
6C
100
AcDbEntity
  8
Viditelná (ISO)
100
AcDbLine
 10
106.9431492761997
 20
674.9948008248041
 30
0.0
 11
403.0441697906334
 21
674.9948008248041
 31
0.0
  0
LINE
  5
3C5
330
6C
100
AcDbEntity
  8
Viditelná (ISO)
100
AcDbLine
 10
246.1916108219996
 20
631.3005087776663
 30
0.0
 11
145.9936595333338
 21
631.3005087776663
 31
0.0
  0
LINE
  5
3C6
330
6C
100
AcDbEntity
  8
Viditelná (ISO)
100
AcDbLine
 10
363.9936595333339
 20
631.3005087776663
 30
0.0
 11
263.7957082446681
 21
631.3005087776663
 31
0.0
  0
LINE
  5
3C7
330
6C
100
AcDbEntity
  8
Viditelná (ISO)
100
AcDbLine
 10
246.0603128666656
 20
632.7948008248039
 30
0.0
 11
145.9936595333338
 21
632.7948008248039
 31
0.0
  0
LINE
  5
3C8
330
6C
100
AcDbEntity
  8
Viditelná (ISO)
100
AcDbLine
 10
363.993659533334
 20
632.7948008248039
 30
0.0
 11
263.9270062000023
 21
632.7948008248039
 31
0.0
  0
LINE
  5
3C9
330
6C
100
AcDbEntity
  8
Viditelná (ISO)
100
AcDbLine
 10
354.4936595333339
 20
573.0228129382028
 30
0.0
 11
155.4936595333339
 21
573.0228129382028
 31
0.0
  0
ARC
  5
3CA
330
6C
100
AcDbEntity
  8
Viditelná (ISO)
100
AcDbCircle
 10
359.4936595333339
 20
626.6176326362534
 30
0.0
 40
4.500000000000001
100
AcDbArc
 50
95.0
 51
180.0
  0
ARC
  5
3CB
330
6C
100
AcDbEntity
  8
Viditelná (ISO)
100
AcDbCircle
 10
150.4936595333339
 20
626.6176326362534
 30
0.0
 40
4.500000000000001
100
AcDbArc
 50
0.0
 51
85.0
  0
LINE
  5
3CC
330
6C
100
AcDbEntity
  8
Viditelná (ISO)
100
AcDbLine
 10
150.8858603756983
 20
631.1005087776663
 30
0.0
 11
148.5998499151461
 21
631.3005087776663
 31
0.0
  0
LINE
  5
3CD
330
6C
100
AcDbEntity
  8
Viditelná (ISO)
100
AcDbLine
 10
359.1014586909695
 20
631.1005087776663
 30
0.0
 11
361.3874691515217
 21
631.3005087776663
 31
0.0
  0
LINE
  5
3CE
330
6C
100
AcDbEntity
  8
Viditelná (ISO)
100
AcDbLine
 10
145.9936595333338
 20
631.3005087776663
 30
0.0
 11
145.9936595333338
 21
632.7948008248039
 31
0.0
  0
LINE
  5
3CF
330
6C
100
AcDbEntity
  8
Viditelná (ISO)
100
AcDbLine
 10
363.993659533334
 20
631.3005087776663
 30
0.0
 11
363.993659533334
 21
632.7948008248039
 31
0.0
  0
LINE
  5
3D0
330
6C
100
AcDbEntity
  8
Viditelná (ISO)
100
AcDbLine
 10
155.4936595333339
 20
573.0228129382028
 30
0.0
 11
155.0123744501663
 21
582.6485146015571
 31
0.0
  0
LINE
  5
3D1
330
6C
100
AcDbEntity
  8
Viditelná (ISO)
100
AcDbLine
 10
354.4936595333339
 20
573.0228129382029
 30
0.0
 11
354.9749446165016
 21
582.6485146015572
 31
0.0
  0
ARC
  5
3D2
330
6C
100
AcDbEntity
  8
Viditelná (ISO)
100
AcDbCircle
 10
339.9936595333902
 20
583.3975788557144
 30
0.0
 40
15.0
100
AcDbArc
 50
357.1375947738824
 51
0.0
  0
ARC
  5
3D3
330
6C
100
AcDbEntity
  8
Viditelná (ISO)
100
AcDbCircle
 10
169.9936595332776
 20
583.3975788557144
 30
0.0
 40
15.0
100
AcDbArc
 50
180.0
 51
182.8624052261179
  0
LINE
  5
3D4
330
6C
100
AcDbEntity
  8
Viditelná (ISO)
100
AcDbLine
 10
154.9936595333339
 20
583.3975788557155
 30
0.0
 11
154.9936595333339
 21
626.6176326362534
 31
0.0
  0
LINE
  5
3D5
330
6C
100
AcDbEntity
  8
Viditelná (ISO)
100
AcDbLine
 10
354.9936595333339
 20
583.3975788557157
 30
0.0
 11
354.9936595333339
 21
626.6176326362534
 31
0.0
  0
POLYLINE
  5
3E2
330
6C
100
AcDbEntity
  8
Viditelná (ISO)
100
AcDb2dPolyline
 66
     1
 10
0.0
 20
0.0
 30
0.0
 70
   128
  0
VERTEX
  5
3E3
330
3E2
100
AcDbEntity
  8
Viditelná (ISO)
100
AcDbVertex
100
AcDb2dVertex
 10
104.9936595330007
 20
93.0397472754972
 30
0.0
  0
VERTEX
  5
3E4
330
3E2
100
AcDbEntity
  8
Viditelná (ISO)
100
AcDbVertex
100
AcDb2dVertex
 10
104.9958053002126
 20
92.97426799693274
 30
0.0
  0
VERTEX
  5
3E6
330
3E2
100
AcDbEntity
  8
Viditelná (ISO)
100
AcDbVertex
100
AcDb2dVertex
 10
105.0022139916188
 20
92.90920833506753
 30
0.0
  0
VERTEX
  5
3E7
330
3E2
100
AcDbEntity
  8
Viditelná (ISO)
100
AcDbVertex
100
AcDb2dVertex
 10
105.0128474602467
 20
92.84476856150794
 30
0.0
  0
VERTEX
  5
3E8
330
3E2
100
AcDbEntity
  8
Viditelná (ISO)
100
AcDbVertex
100
AcDb2dVertex
 10
105.0276675591237
 20
92.78115848460364
 30
0.0
  0
VERTEX
  5
3E9
330
3E2
100
AcDbEntity
  8
Viditelná (ISO)
100
AcDbVertex
100
AcDb2dVertex
 10
105.046636141277
 20
92.71858791270423
 30
0.0
  0
VERTEX
  5
3EA
330
3E2
100
AcDbEntity
  8
Viditelná (ISO)
100
AcDbVertex
100
AcDb2dVertex
 10
105.0696959862477
 20
92.65726665415931
 30
0.0
  0
VERTEX
  5
3EB
330
3E2
100
AcDbEntity
  8
Viditelná (ISO)
100
AcDbVertex
100
AcDb2dVertex
 10
105.0967135796315
 20
92.59759525218179
 30
0.0
  0
VERTEX
  5
3EC
330
3E2
100
AcDbEntity
  8
Viditelná (ISO)
100
AcDbVertex
100
AcDb2dVertex
 10
105.1275267967946
 20
92.53993610301185
 30
0.0
  0
VERTEX
  5
3ED
330
3E2
100
AcDbEntity
  8
Viditelná (ISO)
100
AcDbVertex
100
AcDb2dVertex
 10
105.1619925865895
 20
92.48447040476966
 30
0.0
  0
VERTEX
  5
3EE
330
3E2
100
AcDbEntity
  8
Viditelná (ISO)
100
AcDbVertex
100
AcDb2dVertex
 10
105.2000155815846
 20
92.43136028208899
 30
0.0
  0
VERTEX
  5
3EF
330
3E2
100
AcDbEntity
  8
Viditelná (ISO)
100
AcDbVertex
100
AcDb2dVertex
 10
105.2414718041188
 20
92.38079646983313
 30
0.0
  0
VERTEX
  5
3F0
330
3E2
100
AcDbEntity
  8
Viditelná (ISO)
100
AcDbVertex
100
AcDb2dVertex
 10
105.2862372765309
 20
92.33295062937905
 30
0.0
  0
VERTEX
  5
3F1
330
3E2
100
AcDbEntity
  8
Viditelná (ISO)
100
AcDbVertex
100
AcDb2dVertex
 10
105.334025896526
 20
92.28815654673743
 30
0.0
  0
VERTEX
  5
3F2
330
3E2
100
AcDbEntity
  8
Viditelná (ISO)
100
AcDbVertex
100
AcDb2dVertex
 10
105.3845324883229
 20
92.24667171397376
 30
0.0
  0
VERTEX
  5
3F3
330
3E2
100
AcDbEntity
  8
Viditelná (ISO)
100
AcDbVertex
100
AcDb2dVertex
 10
105.4375949272878
 20
92.20860103526282
 30
0.0
  0
VERTEX
  5
3F4
330
3E2
100
AcDbEntity
  8
Viditelná (ISO)
100
AcDbVertex
100
AcDb2dVertex
 10
105.4930415520436
 20
92.17407802500892
 30
0.0
  0
VERTEX
  5
3F5
330
3E2
100
AcDbEntity
  8
Viditelná (ISO)
100
AcDbVertex
100
AcDb2dVertex
 10
105.5506911644704
 20
92.14320758738685
 30
0.0
  0
VERTEX
  5
3F6
330
3E2
100
AcDbEntity
  8
Viditelná (ISO)
100
AcDbVertex
100
AcDb2dVertex
 10
105.6103625664479
 20
92.11612323680091
 30
0.0
  0
VERTEX
  5
3F7
330
3E2
100
AcDbEntity
  8
Viditelná (ISO)
100
AcDbVertex
100
AcDb2dVertex
 10
105.6717028984792
 20
92.09298709788489
 30
0.0
  0
VERTEX
  5
3F8
330
3E2
100
AcDbEntity
  8
Viditelná (ISO)
100
AcDbVertex
100
AcDb2dVertex
 10
105.7343974480397
 20
92.07394222178626
 30
0.0
  0
VERTEX
  5
3F9
330
3E2
100
AcDbEntity
  8
Viditelná (ISO)
100
AcDbVertex
100
AcDb2dVertex
 10
105.7982459435231
 20
92.05902675547767
 30
0.0
  0
VERTEX
  5
3FA
330
3E2
100
AcDbEntity
  8
Viditelná (ISO)
100
AcDbVertex
100
AcDb2dVertex
 10
105.8629241356618
 20
92.04832652964761
 30
0.0
  0
VERTEX
  5
3FB
330
3E2
100
AcDbEntity
  8
Viditelná (ISO)
100
AcDbVertex
100
AcDb2dVertex
 10
105.9281268486745
 20
92.04188922801186
 30
0.0
  0
VERTEX
  5
3FC
330
3E2
100
AcDbEntity
  8
Viditelná (ISO)
100
AcDbVertex
100
AcDb2dVertex
 10
105.9936633476979
 20
92.03974346079995
 30
0.0
  0
SEQEND
  5
3E5
330
3E2
100
AcDbEntity
  8
Viditelná (ISO)
  0
LINE
  5
3FD
330
6C
100
AcDbEntity
  8
Viditelná (ISO)
100
AcDbLine
 10
105.9936595330006
 20
92.03974346079995
 30
0.0
 11
106.4436595330007
 21
92.03974346079995
 31
0.0
  0
LINE
  5
3FE
330
6C
100
AcDbEntity
  8
Viditelná (ISO)
100
AcDbLine
 10
104.9936595330007
 20
93.48974346079995
 30
0.0
 11
104.9936595330007
 21
93.0397434608
 31
0.0
  0
LINE
  5
403
330
6C
100
AcDbEntity
  8
Viditelná (ISO)
100
AcDbLine
 10
106.4436595330007
 20
92.03974346079995
 30
0.0
 11
106.4965065292497
 21
92.03974346079995
 31
0.0
  0
LINE
  5
404
330
6C
100
AcDbEntity
  8
Viditelná (ISO)
100
AcDbLine
 10
403.4908125369168
 20
92.03974346079995
 30
0.0
 11
403.5436595330006
 21
92.03974346079995
 31
0.0
  0
LINE
  5
405
330
6C
100
AcDbEntity
  8
Viditelná (ISO)
100
AcDbLine
 10
403.5436595330006
 20
392.0397434608
 30
0.0
 11
403.4908125361957
 21
392.0397434608
 31
0.0
  0
LINE
  5
406
330
6C
100
AcDbEntity
  8
Viditelná (ISO)
100
AcDbLine
 10
106.496506529971
 20
392.0397434608
 30
0.0
 11
106.4436595330007
 21
392.0397434608
 31
0.0
  0
LINE
  5
407
330
6C
100
AcDbEntity
  8
Viditelná (ISO)
100
AcDbLine
 10
104.9936595330007
 20
390.5897434608
 30
0.0
 11
104.9936595330007
 21
390.5368964638296
 31
0.0
  0
LINE
  5
408
330
6C
100
AcDbEntity
  8
Viditelná (ISO)
100
AcDbLine
 10
104.9936595330007
 20
93.54259045760519
 30
0.0
 11
104.9936595330007
 21
93.48974346079995
 31
0.0
  0
LINE
  5
409
330
6C
100
AcDbEntity
  8
Viditelná (ISO)
100
AcDbLine
 10
404.9936595330006
 20
93.48974346079995
 30
0.0
 11
404.9936595330006
 21
93.54259045688342
 31
0.0
  0
LINE
  5
40A
330
6C
100
AcDbEntity
  8
Viditelná (ISO)
100
AcDbLine
 10
404.9936595330006
 20
390.5368964645512
 30
0.0
 11
404.9936595330006
 21
390.5897434608
 31
0.0
  0
LINE
  5
40F
330
6C
100
AcDbEntity
  8
Viditelná (ISO)
100
AcDbLine
 10
403.5436595330006
 20
92.03974346079995
 30
0.0
 11
403.9936595330006
 21
92.03974346079995
 31
0.0
  0
LINE
  5
410
330
6C
100
AcDbEntity
  8
Viditelná (ISO)
100
AcDbLine
 10
404.9936595330006
 20
93.03974346079993
 30
0.0
 11
404.9936595330006
 21
93.48974346079995
 31
0.0
  0
POLYLINE
  5
41D
330
6C
100
AcDbEntity
  8
Viditelná (ISO)
100
AcDb2dPolyline
 66
     1
 10
0.0
 20
0.0
 30
0.0
 70
   128
  0
VERTEX
  5
41E
330
41D
100
AcDbEntity
  8
Viditelná (ISO)
100
AcDbVertex
100
AcDb2dVertex
 10
404.9936595330006
 20
391.0397396461027
 30
0.0
  0
VERTEX
  5
41F
330
41D
100
AcDbEntity
  8
Viditelná (ISO)
100
AcDbVertex
100
AcDb2dVertex
 10
404.9915137657887
 20
391.1052189246672
 30
0.0
  0
VERTEX
  5
421
330
41D
100
AcDbEntity
  8
Viditelná (ISO)
100
AcDbVertex
100
AcDb2dVertex
 10
404.9851050743825
 20
391.1702785865324
 30
0.0
  0
VERTEX
  5
422
330
41D
100
AcDbEntity
  8
Viditelná (ISO)
100
AcDbVertex
100
AcDb2dVertex
 10
404.9744716057546
 20
391.234718360092
 30
0.0
  0
VERTEX
  5
423
330
41D
100
AcDbEntity
  8
Viditelná (ISO)
100
AcDbVertex
100
AcDb2dVertex
 10
404.9596515068776
 20
391.2983284369963
 30
0.0
  0
VERTEX
  5
424
330
41D
100
AcDbEntity
  8
Viditelná (ISO)
100
AcDbVertex
100
AcDb2dVertex
 10
404.9406829247242
 20
391.3608990088957
 30
0.0
  0
VERTEX
  5
425
330
41D
100
AcDbEntity
  8
Viditelná (ISO)
100
AcDbVertex
100
AcDb2dVertex
 10
404.9176230797536
 20
391.4222202674406
 30
0.0
  0
VERTEX
  5
426
330
41D
100
AcDbEntity
  8
Viditelná (ISO)
100
AcDbVertex
100
AcDb2dVertex
 10
404.8906054863698
 20
391.4818916694181
 30
0.0
  0
VERTEX
  5
427
330
41D
100
AcDbEntity
  8
Viditelná (ISO)
100
AcDbVertex
100
AcDb2dVertex
 10
404.8597922692067
 20
391.539550818588
 30
0.0
  0
VERTEX
  5
428
330
41D
100
AcDbEntity
  8
Viditelná (ISO)
100
AcDbVertex
100
AcDb2dVertex
 10
404.8253264794118
 20
391.5950165168302
 30
0.0
  0
VERTEX
  5
429
330
41D
100
AcDbEntity
  8
Viditelná (ISO)
100
AcDbVertex
100
AcDb2dVertex
 10
404.7873034844167
 20
391.6481266395109
 30
0.0
  0
VERTEX
  5
42A
330
41D
100
AcDbEntity
  8
Viditelná (ISO)
100
AcDbVertex
100
AcDb2dVertex
 10
404.7458472618824
 20
391.6986904517668
 30
0.0
  0
VERTEX
  5
42B
330
41D
100
AcDbEntity
  8
Viditelná (ISO)
100
AcDbVertex
100
AcDb2dVertex
 10
404.7010817894704
 20
391.7465362922209
 30
0.0
  0
VERTEX
  5
42C
330
41D
100
AcDbEntity
  8
Viditelná (ISO)
100
AcDbVertex
100
AcDb2dVertex
 10
404.6532931694752
 20
391.7913303748625
 30
0.0
  0
VERTEX
  5
42D
330
41D
100
AcDbEntity
  8
Viditelná (ISO)
100
AcDbVertex
100
AcDb2dVertex
 10
404.6027865776784
 20
391.8328152076261
 30
0.0
  0
VERTEX
  5
42E
330
41D
100
AcDbEntity
  8
Viditelná (ISO)
100
AcDbVertex
100
AcDb2dVertex
 10
404.5497241387135
 20
391.8708858863371
 30
0.0
  0
VERTEX
  5
42F
330
41D
100
AcDbEntity
  8
Viditelná (ISO)
100
AcDbVertex
100
AcDb2dVertex
 10
404.4942775139577
 20
391.905408896591
 30
0.0
  0
VERTEX
  5
430
330
41D
100
AcDbEntity
  8
Viditelná (ISO)
100
AcDbVertex
100
AcDb2dVertex
 10
404.4366279015309
 20
391.936279334213
 30
0.0
  0
VERTEX
  5
431
330
41D
100
AcDbEntity
  8
Viditelná (ISO)
100
AcDbVertex
100
AcDb2dVertex
 10
404.3769564995534
 20
391.963363684799
 30
0.0
  0
VERTEX
  5
432
330
41D
100
AcDbEntity
  8
Viditelná (ISO)
100
AcDbVertex
100
AcDb2dVertex
 10
404.3156161675222
 20
391.986499823715
 30
0.0
  0
VERTEX
  5
433
330
41D
100
AcDbEntity
  8
Viditelná (ISO)
100
AcDbVertex
100
AcDb2dVertex
 10
404.2529216179616
 20
392.0055446998136
 30
0.0
  0
VERTEX
  5
434
330
41D
100
AcDbEntity
  8
Viditelná (ISO)
100
AcDbVertex
100
AcDb2dVertex
 10
404.1890731224782
 20
392.0204601661223
 30
0.0
  0
VERTEX
  5
435
330
41D
100
AcDbEntity
  8
Viditelná (ISO)
100
AcDbVertex
100
AcDb2dVertex
 10
404.1243949303395
 20
392.0311603919523
 30
0.0
  0
VERTEX
  5
436
330
41D
100
AcDbEntity
  8
Viditelná (ISO)
100
AcDbVertex
100
AcDb2dVertex
 10
404.0591922173268
 20
392.0375976935881
 30
0.0
  0
VERTEX
  5
437
330
41D
100
AcDbEntity
  8
Viditelná (ISO)
100
AcDbVertex
100
AcDb2dVertex
 10
403.9936557183034
 20
392.0397434608
 30
0.0
  0
SEQEND
  5
420
330
41D
100
AcDbEntity
  8
Viditelná (ISO)
  0
LINE
  5
438
330
6C
100
AcDbEntity
  8
Viditelná (ISO)
100
AcDbLine
 10
403.9936595330006
 20
392.0397434608
 30
0.0
 11
403.5436595330006
 21
392.0397434608
 31
0.0
  0
LINE
  5
439
330
6C
100
AcDbEntity
  8
Viditelná (ISO)
100
AcDbLine
 10
106.4436595330007
 20
392.0397434608
 30
0.0
 11
105.9936595330007
 21
392.0397434608
 31
0.0
  0
LINE
  5
43A
330
6C
100
AcDbEntity
  8
Viditelná (ISO)
100
AcDbLine
 10
404.9936595330006
 20
390.5897434608
 30
0.0
 11
404.9936595330006
 21
391.0397434607999
 31
0.0
  0
LINE
  5
43B
330
6C
100
AcDbEntity
  8
Viditelná (ISO)
100
AcDbLine
 10
104.9936595330007
 20
391.0397434608
 30
0.0
 11
104.9936595330007
 21
390.5897434608
 31
0.0
  0
POLYLINE
  5
444
330
6C
100
AcDbEntity
  8
Viditelná (ISO)
100
AcDb2dPolyline
 66
     1
 10
0.0
 20
0.0
 30
0.0
 70
   128
  0
VERTEX
  5
445
330
444
100
AcDbEntity
  8
Viditelná (ISO)
100
AcDbVertex
100
AcDb2dVertex
 10
105.9936633476979
 20
392.0397434608
 30
0.0
  0
VERTEX
  5
446
330
444
100
AcDbEntity
  8
Viditelná (ISO)
100
AcDbVertex
100
AcDb2dVertex
 10
105.9281840691335
 20
392.0375976935881
 30
0.0
  0
VERTEX
  5
448
330
444
100
AcDbEntity
  8
Viditelná (ISO)
100
AcDbVertex
100
AcDb2dVertex
 10
105.8631244072682
 20
392.0311890021818
 30
0.0
  0
VERTEX
  5
449
330
444
100
AcDbEntity
  8
Viditelná (ISO)
100
AcDbVertex
100
AcDb2dVertex
 10
105.7986846337086
 20
392.0205555335539
 30
0.0
  0
VERTEX
  5
44A
330
444
100
AcDbEntity
  8
Viditelná (ISO)
100
AcDbVertex
100
AcDb2dVertex
 10
105.7350745568043
 20
392.0057354346769
 30
0.0
  0
VERTEX
  5
44B
330
444
100
AcDbEntity
  8
Viditelná (ISO)
100
AcDbVertex
100
AcDb2dVertex
 10
105.6725039849049
 20
391.9867668525236
 30
0.0
  0
VERTEX
  5
44C
330
444
100
AcDbEntity
  8
Viditelná (ISO)
100
AcDbVertex
100
AcDb2dVertex
 10
105.61118272636
 20
391.9637070075529
 30
0.0
  0
VERTEX
  5
44D
330
444
100
AcDbEntity
  8
Viditelná (ISO)
100
AcDbVertex
100
AcDb2dVertex
 10
105.5515113243825
 20
391.9366894141691
 30
0.0
  0
VERTEX
  5
44E
330
444
100
AcDbEntity
  8
Viditelná (ISO)
100
AcDbVertex
100
AcDb2dVertex
 10
105.4938521752126
 20
391.905876197006
 30
0.0
  0
VERTEX
  5
44F
330
444
100
AcDbEntity
  8
Viditelná (ISO)
100
AcDbVertex
100
AcDb2dVertex
 10
105.4383864769704
 20
391.8714104072111
 30
0.0
  0
VERTEX
  5
450
330
444
100
AcDbEntity
  8
Viditelná (ISO)
100
AcDbVertex
100
AcDb2dVertex
 10
105.3852763542897
 20
391.833387412216
 30
0.0
  0
VERTEX
  5
451
330
444
100
AcDbEntity
  8
Viditelná (ISO)
100
AcDbVertex
100
AcDb2dVertex
 10
105.3347125420339
 20
391.7919311896818
 30
0.0
  0
VERTEX
  5
452
330
444
100
AcDbEntity
  8
Viditelná (ISO)
100
AcDbVertex
100
AcDb2dVertex
 10
105.2868667015798
 20
391.7471657172697
 30
0.0
  0
VERTEX
  5
453
330
444
100
AcDbEntity
  8
Viditelná (ISO)
100
AcDbVertex
100
AcDb2dVertex
 10
105.2420726189381
 20
391.6993770972746
 30
0.0
  0
VERTEX
  5
454
330
444
100
AcDbEntity
  8
Viditelná (ISO)
100
AcDbVertex
100
AcDb2dVertex
 10
105.2005877861745
 20
391.6488705054777
 30
0.0
  0
VERTEX
  5
455
330
444
100
AcDbEntity
  8
Viditelná (ISO)
100
AcDbVertex
100
AcDb2dVertex
 10
105.1625171074635
 20
391.5958080665129
 30
0.0
  0
VERTEX
  5
456
330
444
100
AcDbEntity
  8
Viditelná (ISO)
100
AcDbVertex
100
AcDb2dVertex
 10
105.1279940972096
 20
391.540361441757
 30
0.0
  0
VERTEX
  5
457
330
444
100
AcDbEntity
  8
Viditelná (ISO)
100
AcDbVertex
100
AcDb2dVertex
 10
105.0971236595876
 20
391.4827118293302
 30
0.0
  0
VERTEX
  5
458
330
444
100
AcDbEntity
  8
Viditelná (ISO)
100
AcDbVertex
100
AcDb2dVertex
 10
105.0700393090016
 20
391.4230404273527
 30
0.0
  0
VERTEX
  5
459
330
444
100
AcDbEntity
  8
Viditelná (ISO)
100
AcDbVertex
100
AcDb2dVertex
 10
105.0469031700856
 20
391.3617000953215
 30
0.0
  0
VERTEX
  5
45A
330
444
100
AcDbEntity
  8
Viditelná (ISO)
100
AcDbVertex
100
AcDb2dVertex
 10
105.027858293987
 20
391.2990055457609
 30
0.0
  0
VERTEX
  5
45B
330
444
100
AcDbEntity
  8
Viditelná (ISO)
100
AcDbVertex
100
AcDb2dVertex
 10
105.0129428276784
 20
391.2351570502775
 30
0.0
  0
VERTEX
  5
45C
330
444
100
AcDbEntity
  8
Viditelná (ISO)
100
AcDbVertex
100
AcDb2dVertex
 10
105.0022426018483
 20
391.1704788581388
 30
0.0
  0
VERTEX
  5
45D
330
444
100
AcDbEntity
  8
Viditelná (ISO)
100
AcDbVertex
100
AcDb2dVertex
 10
104.9958053002126
 20
391.1052761451261
 30
0.0
  0
VERTEX
  5
45E
330
444
100
AcDbEntity
  8
Viditelná (ISO)
100
AcDbVertex
100
AcDb2dVertex
 10
104.9936595330007
 20
391.0397396461027
 30
0.0
  0
SEQEND
  5
447
330
444
100
AcDbEntity
  8
Viditelná (ISO)
  0
POLYLINE
  5
45F
330
6C
100
AcDbEntity
  8
Viditelná (ISO)
100
AcDb2dPolyline
 66
     1
 10
0.0
 20
0.0
 30
0.0
 70
   128
  0
VERTEX
  5
460
330
45F
100
AcDbEntity
  8
Viditelná (ISO)
100
AcDbVertex
100
AcDb2dVertex
 10
403.9936557183034
 20
92.03974346079995
 30
0.0
  0
VERTEX
  5
461
330
45F
100
AcDbEntity
  8
Viditelná (ISO)
100
AcDbVertex
100
AcDb2dVertex
 10
404.0591349968678
 20
92.04188922801186
 30
0.0
  0
VERTEX
  5
463
330
45F
100
AcDbEntity
  8
Viditelná (ISO)
100
AcDbVertex
100
AcDb2dVertex
 10
404.124194658733
 20
92.0482979194181
 30
0.0
  0
VERTEX
  5
464
330
45F
100
AcDbEntity
  8
Viditelná (ISO)
100
AcDbVertex
100
AcDb2dVertex
 10
404.1886344322927
 20
92.05893138804603
 30
0.0
  0
VERTEX
  5
465
330
45F
100
AcDbEntity
  8
Viditelná (ISO)
100
AcDbVertex
100
AcDb2dVertex
 10
404.252244509197
 20
92.07375148692298
 30
0.0
  0
VERTEX
  5
466
330
45F
100
AcDbEntity
  8
Viditelná (ISO)
100
AcDbVertex
100
AcDb2dVertex
 10
404.3148150810964
 20
92.09272006907632
 30
0.0
  0
VERTEX
  5
467
330
45F
100
AcDbEntity
  8
Viditelná (ISO)
100
AcDbVertex
100
AcDb2dVertex
 10
404.3761363396413
 20
92.115779914047
 30
0.0
  0
VERTEX
  5
468
330
45F
100
AcDbEntity
  8
Viditelná (ISO)
100
AcDbVertex
100
AcDb2dVertex
 10
404.4358077416188
 20
92.14279750743079
 30
0.0
  0
VERTEX
  5
469
330
45F
100
AcDbEntity
  8
Viditelná (ISO)
100
AcDbVertex
100
AcDb2dVertex
 10
404.4934668907887
 20
92.17361072459388
 30
0.0
  0
VERTEX
  5
46A
330
45F
100
AcDbEntity
  8
Viditelná (ISO)
100
AcDbVertex
100
AcDb2dVertex
 10
404.548932589031
 20
92.2080765143888
 30
0.0
  0
VERTEX
  5
46B
330
45F
100
AcDbEntity
  8
Viditelná (ISO)
100
AcDbVertex
100
AcDb2dVertex
 10
404.6020427117116
 20
92.24609950938392
 30
0.0
  0
VERTEX
  5
46C
330
45F
100
AcDbEntity
  8
Viditelná (ISO)
100
AcDbVertex
100
AcDb2dVertex
 10
404.6526065239675
 20
92.28755573191811
 30
0.0
  0
VERTEX
  5
46D
330
45F
100
AcDbEntity
  8
Viditelná (ISO)
100
AcDbVertex
100
AcDb2dVertex
 10
404.7004523644215
 20
92.3323212043302
 30
0.0
  0
VERTEX
  5
46E
330
45F
100
AcDbEntity
  8
Viditelná (ISO)
100
AcDbVertex
100
AcDb2dVertex
 10
404.7452464470632
 20
92.38010982432534
 30
0.0
  0
VERTEX
  5
46F
330
45F
100
AcDbEntity
  8
Viditelná (ISO)
100
AcDbVertex
100
AcDb2dVertex
 10
404.7867312798269
 20
92.4306164161222
 30
0.0
  0
VERTEX
  5
470
330
45F
100
AcDbEntity
  8
Viditelná (ISO)
100
AcDbVertex
100
AcDb2dVertex
 10
404.8248019585377
 20
92.48367885508706
 30
0.0
  0
VERTEX
  5
471
330
45F
100
AcDbEntity
  8
Viditelná (ISO)
100
AcDbVertex
100
AcDb2dVertex
 10
404.8593249687916
 20
92.5391254798429
 30
0.0
  0
VERTEX
  5
472
330
45F
100
AcDbEntity
  8
Viditelná (ISO)
100
AcDbVertex
100
AcDb2dVertex
 10
404.8901954064137
 20
92.59677509226966
 30
0.0
  0
VERTEX
  5
473
330
45F
100
AcDbEntity
  8
Viditelná (ISO)
100
AcDbVertex
100
AcDb2dVertex
 10
404.9172797569997
 20
92.6564464942472
 30
0.0
  0
VERTEX
  5
474
330
45F
100
AcDbEntity
  8
Viditelná (ISO)
100
AcDbVertex
100
AcDb2dVertex
 10
404.9404158959157
 20
92.71778682627845
 30
0.0
  0
VERTEX
  5
475
330
45F
100
AcDbEntity
  8
Viditelná (ISO)
100
AcDbVertex
100
AcDb2dVertex
 10
404.9594607720143
 20
92.78048137583899
 30
0.0
  0
VERTEX
  5
476
330
45F
100
AcDbEntity
  8
Viditelná (ISO)
100
AcDbVertex
100
AcDb2dVertex
 10
404.9743762383229
 20
92.84432987132239
 30
0.0
  0
VERTEX
  5
477
330
45F
100
AcDbEntity
  8
Viditelná (ISO)
100
AcDbVertex
100
AcDb2dVertex
 10
404.9850764641529
 20
92.90900806346106
 30
0.0
  0
VERTEX
  5
478
330
45F
100
AcDbEntity
  8
Viditelná (ISO)
100
AcDbVertex
100
AcDb2dVertex
 10
404.9915137657887
 20
92.97421077647376
 30
0.0
  0
VERTEX
  5
479
330
45F
100
AcDbEntity
  8
Viditelná (ISO)
100
AcDbVertex
100
AcDb2dVertex
 10
404.9936595330006
 20
93.0397472754972
 30
0.0
  0
SEQEND
  5
462
330
45F
100
AcDbEntity
  8
Viditelná (ISO)
  0
LINE
  5
DA2
330
6C
100
AcDbEntity
  8
Viditelná (ISO)
100
AcDbLine
 10
403.0441697903002
 20
392.0902537179346
 30
0.0
 11
106.9431492758665
 21
392.0902537179346
 31
0.0
  0
LINE
  5
DA3
330
6C
100
AcDbEntity
  8
Viditelná (ISO)
100
AcDbLine
 10
104.9431492758665
 20
390.0902537179346
 30
0.0
 11
104.9431492758665
 21
93.98923320350091
 31
0.0
  0
LINE
  5
DA4
330
6C
100
AcDbEntity
  8
Viditelná (ISO)
100
AcDbLine
 10
106.9431492758665
 20
91.98923320350095
 30
0.0
 11
403.0441697903002
 21
91.98923320350099
 31
0.0
  0
LINE
  5
DA5
330
6C
100
AcDbEntity
  8
Viditelná (ISO)
100
AcDbLine
 10
405.0441697903002
 20
93.98923320350094
 30
0.0
 11
405.0441697903002
 21
390.0902537179347
 31
0.0
  0
ARC
  5
DA6
330
6C
100
AcDbEntity
  8
Viditelná (ISO)
100
AcDbCircle
 10
106.9431492758665
 20
390.0902537179346
 30
0.0
 40
1.999999999999993
100
AcDbArc
 50
90.0
 51
180.0
  0
ARC
  5
DA7
330
6C
100
AcDbEntity
  8
Viditelná (ISO)
100
AcDbCircle
 10
106.9431492758665
 20
93.98923320350091
 30
0.0
 40
1.999999999999993
100
AcDbArc
 50
180.0
 51
270.0
  0
ARC
  5
DA8
330
6C
100
AcDbEntity
  8
Viditelná (ISO)
100
AcDbCircle
 10
403.0441697903002
 20
93.98923320350094
 30
0.0
 40
1.999999999999993
100
AcDbArc
 50
270.0
 51
0.0
  0
ARC
  5
DA9
330
6C
100
AcDbEntity
  8
Viditelná (ISO)
100
AcDbCircle
 10
403.0441697903002
 20
390.0902537179347
 30
0.0
 40
1.999999999999993
100
AcDbArc
 50
0.0
 51
90.0
  0
LINE
  5
DB2
330
6C
100
AcDbEntity
  8
Viditelná (ISO)
100
AcDbLine
 10
389.4936595330833
 20
119.0397434607176
 30
0.0
 11
389.4936595330834
 21
365.0397434607177
 31
0.0
  0
ARC
  5
DB3
330
6C
100
AcDbEntity
  8
Viditelná (ISO)
100
AcDbCircle
 10
131.9936595330833
 20
119.0397434607176
 30
0.0
 40
11.49999999999995
100
AcDbArc
 50
180.0
 51
270.0000000000001
  0
LINE
  5
DB4
330
6C
100
AcDbEntity
  8
Viditelná (ISO)
100
AcDbLine
 10
131.9936595330833
 20
107.5397434607176
 30
0.0
 11
377.9936595330834
 21
107.5397434607176
 31
0.0
  0
ARC
  5
DB5
330
6C
100
AcDbEntity
  8
Viditelná (ISO)
100
AcDbCircle
 10
377.9936595330834
 20
119.0397434607175
 30
0.0
 40
11.49999999999995
100
AcDbArc
 50
269.9999999999998
 51
0.0
  0
ARC
  5
DB6
330
6C
100
AcDbEntity
  8
Viditelná (ISO)
100
AcDbCircle
 10
131.9936595330833
 20
365.0397434607177
 30
0.0
 40
11.49999999999995
100
AcDbArc
 50
89.99999999999968
 51
180.0
  0
LINE
  5
DB7
330
6C
100
AcDbEntity
  8
Viditelná (ISO)
100
AcDbLine
 10
377.9936595330834
 20
376.5397434607177
 30
0.0
 11
131.9936595330833
 21
376.5397434607177
 31
0.0
  0
ARC
  5
DB8
330
6C
100
AcDbEntity
  8
Viditelná (ISO)
100
AcDbCircle
 10
377.9936595330834
 20
365.0397434607177
 30
0.0
 40
11.49999999999998
100
AcDbArc
 50
0.0
 51
90.0
  0
LINE
  5
DB9
330
6C
100
AcDbEntity
  8
Viditelná (ISO)
100
AcDbLine
 10
120.4936595330833
 20
365.0397434607177
 30
0.0
 11
120.4936595330833
 21
119.0397434607176
 31
0.0
  0
CIRCLE
  5
DBA
330
6C
100
AcDbEntity
  8
Viditelná (ISO)
100
AcDbCircle
 10
254.9936595330834
 20
242.0397434607175
 30
0.0
 40
124.5
  0
LINE
  5
1316
330
6C
100
AcDbEntity
  8
Osa (ISO)
  6
Continuous
100
AcDbLine
 10
270.2436595333339
 20
632.7948008248039
 30
0.0
 11
239.7436595333339
 21
632.7948008248039
 31
0.0
  0
LINE
  5
1317
330
6C
100
AcDbEntity
  8
Osa (ISO)
  6
Continuous
100
AcDbLine
 10
254.9936595333339
 20
648.0448008248039
 30
0.0
 11
254.9936595333339
 21
617.544800824804
 31
0.0
  0
DIMENSION
  5
1398
330
6C
100
AcDbEntity
  8
Kóta (ISO)
100
AcDbDimension
  2
*D18
 10
404.9936595330007
 20
62.15689872200105
 30
0.0
 11
254.9936595330006
 21
62.15689872200105
 31
0.0
 70
   160
  1
<>
 42
300.0
  3
Výchozí (ISO)
100
AcDbAlignedDimension
 13
104.9936595330007
 23
93.48974346079996
 33
0.0
 14
404.9936595330007
 24
93.48974346079995
 34
0.0
 50
180.0
100
AcDbRotatedDimension
1001
ACAD
1000
DSTYLE
1002
{
1070
   172
1070
     0
1070
   289
1070
     1
1070
   271
1070
     2
1070
   272
1070
     2
1070
    48
1040
0.0
1070
    47
1040
0.0
1002
}
  0
DIMENSION
  5
147B
330
6C
100
AcDbEntity
  8
Kóta (ISO)
100
AcDbDimension
  2
*D19
 10
438.5333034330804
 20
92.03974346079993
 30
0.0
 11
438.5333034330804
 21
242.0397434608
 31
0.0
 70
   160
  1
<>
 42
300.0
  3
Výchozí (ISO)
100
AcDbAlignedDimension
 13
403.5436595330007
 23
392.0397434608
 33
0.0
 14
403.5436595330007
 24
92.03974346079995
 34
0.0
 50
90.0
100
AcDbRotatedDimension
1001
ACAD
1000
DSTYLE
1002
{
1070
   172
1070
     0
1070
   289
1070
     1
1070
   271
1070
     2
1070
   272
1070
     2
1070
    48
1040
0.0
1070
    47
1040
0.0
1002
}
  0
DIMENSION
  5
155D
330
6C
100
AcDbEntity
  8
Kóta (ISO)
100
AcDbDimension
  2
*D20
 10
84.48182509729406
 20
675.494800824804
 30
0.0
 11
84.48182509729395
 21
624.2588068815035
 31
0.0
 70
   160
  1
<>
 42
102.471987886601
  3
Výchozí (ISO)
100
AcDbAlignedDimension
 13
155.4936595333339
 23
573.0228129382029
 33
0.0
 14
106.9936595333339
 24
675.494800824804
 34
0.0
 50
90.0
100
AcDbRotatedDimension
1001
ACAD_DSTYLE_DIMINSPECT
1070
   396
1000
100%
1070
   395
1000

1070
   394
1070
    33
1070
   393
1070
     0
1001
ACAD
1000
DSTYLE
1002
{
1070
    47
1040
2.0
1070
    48
1040
2.0
1070
   172
1070
     0
1070
   271
1070
     1
1070
   289
1070
     1
1002
}
  0
DIMENSION
  5
1895
330
6C
100
AcDbEntity
  8
Kóta (ISO)
100
AcDbDimension
  2
*D27
 10
354.9936595333339
 20
503.0638708707591
 30
0.0
 11
253.6678134557092
 21
503.0638708707591
 31
0.0
 70
   160
  1
{\fAIGDT|b0|i0;\H8.7500;\ln\fTahoma|b0|i0;\H8.7500;}<>
 42
199.9999999999999
  3
Výchozí (ISO)
100
AcDbAlignedDimension
 13
154.9936595333339
 23
583.0228129382041
 33
0.0
 14
354.9936595333339
 24
583.3975788557157
 34
0.0
 50
180.0
100
AcDbRotatedDimension
1001
ACAD
1000
DSTYLE
1002
{
1070
   172
1070
     0
1070
   289
1070
     1
1070
   271
1070
     2
1070
   272
1070
     2
1070
    48
1040
0.0
1070
    47
1040
0.0
1002
}
  0
LINE
  5
1978
330
6C
100
AcDbEntity
  8
Kóta (ISO)
100
AcDbLine
 10
154.9936595333339
 20
583.3975788557155
 30
0.0
 11
154.9936595333339
 21
580.522812938204
 31
0.0
  0
ENDSEC
  0
SECTION
  2
OBJECTS
  0
DICTIONARY
  5
C
330
0
100
AcDbDictionary
281
     1
  3
ACAD_COLOR
350
63
  3
ACAD_GROUP
350
D
  3
ACAD_LAYOUT
350
62
  3
ACAD_MATERIAL
350
10
  3
ACAD_MLEADERSTYLE
350
66
  3
ACAD_MLINESTYLE
350
5F
  3
ACAD_PLOTSETTINGS
350
61
  3
ACAD_PLOTSTYLENAME
350
E
  3
ACAD_SCALELIST
350
42
  3
ACAD_TABLESTYLE
350
64
  3
ACAD_VISUALSTYLE
350
29
  3
ACDB_RECOMPOSE_DATA
350
1DDA
  3
AcDbVariableDictionary
350
1A6C
  3
AcmDictionary
350
1ADE
  3
AEC_PROPERTY_SET_DEFS
350
1C43
  3
AMG
350
1A84
  3
AMGSNAPSETTINGS
350
1C46
  0
DICTIONARY
  5
1A11
330
8
100
AcDbDictionary
280
     1
281
     1
  0
DICTIONARY
  5
1DC6
330
C8
100
AcDbDictionary
280
     1
281
     1
  3
ACAD_MTEXT_2008_RT
360
1DC7
  0
DICTIONARY
  5
1DDF
330
1D1
100
AcDbDictionary
280
     1
281
     1
  3
ACAD_MTEXT_2008_RT
360
1DE0
  0
DICTIONARY
  5
19DA
330
1D8
100
AcDbDictionary
280
     1
281
     1
  3
ACAD_MLATT
360
1DC9
  3
ACAD_XREC_ROUNDTRIP
360
1DC8
  0
DICTIONARY
  5
19DD
330
1DC
100
AcDbDictionary
280
     1
281
     1
  3
ACAD_MLATT
360
1DCB
  3
ACAD_XREC_ROUNDTRIP
360
1DCA
  0
DICTIONARY
  5
19E0
330
1DD
100
AcDbDictionary
280
     1
281
     1
  3
ACAD_MLATT
360
1DCD
  3
ACAD_XREC_ROUNDTRIP
360
1DCC
  0
DICTIONARY
  5
19E3
330
1DE
100
AcDbDictionary
280
     1
281
     1
  3
ACAD_MLATT
360
1DCF
  3
ACAD_XREC_ROUNDTRIP
360
1DCE
  0
DICTIONARY
  5
19E6
330
1DF
100
AcDbDictionary
280
     1
281
     1
  3
ACAD_MLATT
360
1DD1
  3
ACAD_XREC_ROUNDTRIP
360
1DD0
  0
DICTIONARY
  5
19E9
330
1E1
100
AcDbDictionary
280
     1
281
     1
  3
ACAD_MLATT
360
1DD3
  3
ACAD_XREC_ROUNDTRIP
360
1DD2
  0
DICTIONARY
  5
19EC
330
1E2
100
AcDbDictionary
280
     1
281
     1
  3
ACAD_MLATT
360
1DD5
  3
ACAD_XREC_ROUNDTRIP
360
1DD4
  0
DICTIONARY
  5
19EF
330
1E3
100
AcDbDictionary
280
     1
281
     1
  3
ACAD_MLATT
360
1DD7
  3
ACAD_XREC_ROUNDTRIP
360
1DD6
  0
DICTIONARY
  5
19F2
330
1E4
100
AcDbDictionary
280
     1
281
     1
  3
ACAD_MLATT
360
1DD9
  3
ACAD_XREC_ROUNDTRIP
360
1DD8
  0
DICTIONARY
  5
1DE1
330
131F
100
AcDbDictionary
280
     1
281
     1
  3
ACAD_MTEXT_2008_RT
360
1DE2
  0
DICTIONARY
  5
1DE3
330
1323
100
AcDbDictionary
280
     1
281
     1
  3
ACAD_MTEXT_2008_RT
360
1DE4
  0
DICTIONARY
  5
1DE5
330
1327
100
AcDbDictionary
280
     1
281
     1
  3
ACAD_MTEXT_2008_RT
360
1DE6
  0
DICTIONARY
  5
1DE7
330
1332
100
AcDbDictionary
280
     1
281
     1
  3
ACAD_MTEXT_2008_RT
360
1DE8
  0
DICTIONARY
  5
1DE9
330
1339
100
AcDbDictionary
280
     1
281
     1
  3
ACAD_MTEXT_2008_RT
360
1DEA
  0
DICTIONARY
  5
1DEB
330
1350
100
AcDbDictionary
280
     1
281
     1
  3
ACAD_MTEXT_2008_RT
360
1DEC
  0
DICTIONARY
  5
1DED
330
1355
100
AcDbDictionary
280
     1
281
     1
  3
ACAD_MTEXT_2008_RT
360
1DEE
  0
DICTIONARY
  5
1DEF
330
1358
100
AcDbDictionary
280
     1
281
     1
  3
ACAD_MTEXT_2008_RT
360
1DF0
  0
DICTIONARY
  5
1DF1
330
1359
100
AcDbDictionary
280
     1
281
     1
  3
ACAD_MTEXT_2008_RT
360
1DF2
  0
DICTIONARY
  5
1DF3
330
1368
100
AcDbDictionary
280
     1
281
     1
  3
ACAD_MTEXT_2008_RT
360
1DF4
  0
DICTIONARY
  5
1DF5
330
136D
100
AcDbDictionary
280
     1
281
     1
  3
ACAD_MTEXT_2008_RT
360
1DF6
  0
DICTIONARY
  5
1DF7
330
1370
100
AcDbDictionary
280
     1
281
     1
  3
ACAD_MTEXT_2008_RT
360
1DF8
  0
DICTIONARY
  5
1DF9
330
1375
100
AcDbDictionary
280
     1
281
     1
  3
ACAD_MTEXT_2008_RT
360
1DFA
  0
DICTIONARY
  5
1DFB
330
1378
100
AcDbDictionary
280
     1
281
     1
  3
ACAD_MTEXT_2008_RT
360
1DFC
  0
DICTIONARY
  5
1DFD
330
1379
100
AcDbDictionary
280
     1
281
     1
  3
ACAD_MTEXT_2008_RT
360
1DFE
  0
DICTIONARY
  5
63
102
{ACAD_REACTORS
330
C
102
}
330
C
100
AcDbDictionary
281
     1
  0
DICTIONARY
  5
D
102
{ACAD_REACTORS
330
C
102
}
330
C
100
AcDbDictionary
281
     1
  0
DICTIONARY
  5
62
102
{ACAD_REACTORS
330
C
102
}
330
C
100
AcDbDictionary
281
     1
  3
Layout1
350
6B
  3
Layout2
350
73
  3
Model
350
6F
  0
DICTIONARY
  5
10
102
{ACAD_REACTORS
330
C
102
}
330
C
100
AcDbDictionary
281
     1
  3
ByBlock
350
19
  3
ByLayer
350
11
  3
Global
350
21
  0
DICTIONARY
  5
66
102
{ACAD_REACTORS
330
C
102
}
330
C
100
AcDbDictionary
281
     1
  3
Standard
350
67
  0
DICTIONARY
  5
5F
102
{ACAD_REACTORS
330
C
102
}
330
C
100
AcDbDictionary
281
     1
  3
Standard
350
60
  0
DICTIONARY
  5
61
102
{ACAD_REACTORS
330
C
102
}
330
C
100
AcDbDictionary
281
     1
  0
ACDBDICTIONARYWDFLT
  5
E
102
{ACAD_REACTORS
330
C
102
}
330
C
100
AcDbDictionary
281
     1
  3
Normal
350
F
100
AcDbDictionaryWithDefault
340
F
  0
DICTIONARY
  5
42
102
{ACAD_REACTORS
330
C
102
}
330
C
100
AcDbDictionary
281
     1
  3
A0
350
43
  3
A1
350
44
  3
A2
350
45
  3
A3
350
46
  3
A4
350
47
  3
A5
350
48
  3
A6
350
49
  3
A7
350
4A
  3
A8
350
4B
  3
A9
350
4C
  3
B0
350
4D
  3
B1
350
4E
  3
B2
350
4F
  3
B3
350
50
  3
B4
350
51
  3
B5
350
52
  3
B6
350
53
  0
DICTIONARY
  5
64
102
{ACAD_REACTORS
330
C
102
}
330
C
100
AcDbDictionary
281
     1
  3
Standard
350
65
  0
DICTIONARY
  5
29
102
{ACAD_REACTORS
330
C
102
}
330
C
100
AcDbDictionary
281
     1
  3
2dWireframe
350
2F
  3
3D Hidden
350
1A77
  3
3dWireframe
350
1A76
  3
Basic
350
2E
  3
Brighten
350
35
  3
ColorChange
350
39
  3
Conceptual
350
32
  3
Dim
350
34
  3
EdgeColorOff
350
41
  3
Facepattern
350
38
  3
Flat
350
2A
  3
FlatWithEdges
350
2B
  3
Gouraud
350
2C
  3
GouraudWithEdges
350
2D
  3
Hidden
350
31
  3
JitterOff
350
3F
  3
Linepattern
350
37
  3
OverhangOff
350
40
  3
Realistic
350
33
  3
Shaded
350
3E
  3
Shaded with edges
350
3D
  3
Shades of Gray
350
3A
  3
Sketchy
350
3B
  3
Thicken
350
36
  3
Wireframe
350
30
  3
X-Ray
350
3C
  0
XRECORD
  5
1DDA
102
{ACAD_REACTORS
330
C
102
}
330
C
100
AcDbXrecord
280
     1
 90
        1
330
65
330
C8
330
1D8
330
1DC
330
1DD
330
1DE
330
1DF
330
1E1
330
1E2
330
1E3
330
1E4
  0
DICTIONARY
  5
1A6C
102
{ACAD_REACTORS
330
C
102
}
330
C
100
AcDbDictionary
281
     1
  3
CANNOSCALE
350
1A70
  3
CMLEADERSTYLE
350
1A6E
  3
CTABLESTYLE
350
1A6D
  3
LAYEREVAL
350
1A72
  3
LAYERNOTIFY
350
1A73
  3
LIGHTINGUNITS
350
1A71
  3
MSLTSCALE
350
1A6F
  3
XCLIPFRAME
350
1DC4
  0
DICTIONARY
  5
1ADE
102
{ACAD_REACTORS
330
C
102
}
330
C
100
AcDbDictionary
281
     1
  3
AcmStdDictionary
350
1AE8
  0
DICTIONARY
  5
1C43
102
{ACAD_REACTORS
330
C
102
}
330
C
100
AcDbDictionary
281
     1
  0
DICTIONARY
  5
1A84
102
{ACAD_REACTORS
330
C
102
}
330
C
100
AcDbDictionary
281
     1
  0
DICTIONARY
  5
1C46
102
{ACAD_REACTORS
330
C
102
}
330
C
100
AcDbDictionary
281
     1
  0
XRECORD
  5
1DC7
102
{ACAD_REACTORS
330
1DC6
102
}
330
1DC6
100
AcDbXrecord
280
     1
 40
2697178.0
  1
\pxsm0,94;WIG Schweisung, Nahte sauber geschliffen und poliert\PSichtstege geschliffen mit 240 Korn und abgeklebt.\P\fTahoma|b0|i0;\H3.0000; \P\fTahoma|b0|i0;\H3.5000;WIG svarovani- svary dle potreby zabrousit.\PPohledove plochy brousit (vel. brusnyc
  1
h zrn 240)\Pa polepit paskou
  0
XRECORD
  5
1DE0
102
{ACAD_REACTORS
330
1DDF
102
}
330
1DDF
100
AcDbXrecord
280
     1
 40
145673.0
  1
Effidrain rostova nastavba 300x300x30 nízká AISI 304
  0
XRECORD
  5
1DC9
102
{ACAD_REACTORS
330
19DA
102
}
330
19DA
100
AcDbXrecord
280
     1
 70
     4
 70
     0
 70
     0
 40
1.0
  2
ČÍSLO_REVIZE
  1
Embedded Object
 10
287.6423193699604
 20
66.0
 30
0.0
 40
3.499999940395355
 41
0.0
 46
0.0
 71
     1
 72
     5
  1
000
  7
Styl textu9
 73
     1
 44
1.0
  0
XRECORD
  5
1DC8
102
{ACAD_REACTORS
330
19DA
102
}
330
19DA
100
AcDbXrecord
280
     1
102
ACAD_MATT_HEIGHT
140
3.499999940395355
  0
XRECORD
  5
1DCB
102
{ACAD_REACTORS
330
19DD
102
}
330
19DD
100
AcDbXrecord
280
     1
 70
     4
 70
     0
 70
     0
 40
1.0
  2
Sheet_Size
  1
Embedded Object
 10
289.7753402652471
 20
48.33701147296152
 30
0.0
 40
2.000000029802322
 41
0.0
 46
0.0
 71
     1
 72
     5
  1
A3
  7
Styl textu40
 73
     1
 44
1.0
  0
XRECORD
  5
1DCA
102
{ACAD_REACTORS
330
19DD
102
}
330
19DD
100
AcDbXrecord
280
     1
102
ACAD_MATT_HEIGHT
140
2.000000029802322
  0
XRECORD
  5
1DCD
102
{ACAD_REACTORS
330
19E0
102
}
330
19E0
100
AcDbXrecord
280
     1
 70
     4
 70
     0
 70
     0
 40
1.0
  2
FILENAME_AND_PATH
  1
Embedded Object
 10
230.2697279123746
 20
53.13502004542946
 30
0.0
 40
2.000000029802322
 41
0.0
 46
0.0
 71
     1
 72
     5
  1
C:\\Inventor_DATA\\Projekty\\Guly\\Effidrain\\Effidrain sestava rostova nastavba\\408228.iam
  7
Styl textu40
 73
     1
 44
1.0
  0
XRECORD
  5
1DCC
102
{ACAD_REACTORS
330
19E0
102
}
330
19E0
100
AcDbXrecord
280
     1
102
ACAD_MATT_HEIGHT
140
2.000000029802322
  0
XRECORD
  5
1DCF
102
{ACAD_REACTORS
330
19E3
102
}
330
19E3
100
AcDbXrecord
280
     1
 70
     4
 70
     0
 70
     0
 40
1.0
  2
PART_NUMBER
  1
Embedded Object
 10
218.0
 20
66.0
 30
0.0
 40
3.499999940395355
 41
0.0
 46
0.0
 71
     1
 72
     5
  1
408228
  7
Text poznámky (ISO)
 73
     1
 44
1.0
  0
XRECORD
  5
1DCE
102
{ACAD_REACTORS
330
19E3
102
}
330
19E3
100
AcDbXrecord
280
     1
102
ACAD_MATT_HEIGHT
140
3.499999940395355
  0
XRECORD
  5
1DD1
102
{ACAD_REACTORS
330
19E6
102
}
330
19E6
100
AcDbXrecord
280
     1
 70
     4
 70
     0
 70
     0
 40
1.0
  2
PROJECT
  1
Embedded Object
 10
118.0
 20
60.0
 30
0.0
 40
3.499999940395355
 41
0.0
 46
0.0
 71
     1
 72
     5
  1

  7
Text poznámky (ISO)
 73
     1
 44
1.0
  0
XRECORD
  5
1DD0
102
{ACAD_REACTORS
330
19E6
102
}
330
19E6
100
AcDbXrecord
280
     1
102
ACAD_MATT_HEIGHT
140
3.499999940395355
  0
XRECORD
  5
1DD3
102
{ACAD_REACTORS
330
19E9
102
}
330
19E9
100
AcDbXrecord
280
     1
 70
     4
 70
     0
 70
     0
 40
1.0
  2
SKLADOVÉ_ČÍSLO
  1
Embedded Object
 10
118.0
 20
54.89391305489239
 30
0.0
 40
6.99999988079071
 41
153.2966041564941
 46
0.0
 71
     1
 72
     5
  1
408228
  7
Styl textu94
 73
     1
 44
1.0
  0
XRECORD
  5
1DD2
102
{ACAD_REACTORS
330
19E9
102
}
330
19E9
100
AcDbXrecord
280
     1
102
ACAD_MATT_HEIGHT
140
6.99999988079071
  0
XRECORD
  5
1DD5
102
{ACAD_REACTORS
330
19EC
102
}
330
19EC
100
AcDbXrecord
280
     1
 70
     4
 70
     0
 70
     0
 40
1.0
  2
MATERIAL
  1
Embedded Object
 10
117.5939056808251
 20
108.6756657996811
 30
0.0
 40
3.499999940395355
 41
0.0
 46
0.0
 71
     1
 72
     5
  1

  7
Text poznámky (ISO)
 73
     1
 44
1.0
  0
XRECORD
  5
1DD4
102
{ACAD_REACTORS
330
19EC
102
}
330
19EC
100
AcDbXrecord
280
     1
102
ACAD_MATT_HEIGHT
140
3.499999940395355
  0
XRECORD
  5
1DD7
102
{ACAD_REACTORS
330
19EF
102
}
330
19EF
100
AcDbXrecord
280
     1
 70
     4
 70
     0
 70
     0
 40
1.0
  2
AUTHOR
  1
Embedded Object
 10
165.2312259808574
 20
87.78242706242743
 30
0.0
 40
2.000000029802322
 41
15.06250023841858
 46
0.0
 71
     1
 72
     5
  1
pmacoun
  7
Styl textu40
 73
     1
 44
1.0
  0
XRECORD
  5
1DD6
102
{ACAD_REACTORS
330
19EF
102
}
330
19EF
100
AcDbXrecord
280
     1
102
ACAD_MATT_HEIGHT
140
2.000000029802322
  0
XRECORD
  5
1DD9
102
{ACAD_REACTORS
330
19F2
102
}
330
19F2
100
AcDbXrecord
280
     1
 70
     4
 70
     0
 70
     0
 40
1.0
  2
VS_First
  1
Embedded Object
 10
189.1855699863978
 20
86.00038821032342
 30
0.0
 40
3.499999940395355
 41
24.15597186978378
 46
0.0
 71
     1
 72
     5
  1

  7
Text poznámky (ISO)
 73
     1
 44
1.0
  0
XRECORD
  5
1DD8
102
{ACAD_REACTORS
330
19F2
102
}
330
19F2
100
AcDbXrecord
280
     1
102
ACAD_MATT_HEIGHT
140
3.499999940395355
  0
XRECORD
  5
1DE2
102
{ACAD_REACTORS
330
1DE1
102
}
330
1DE1
100
AcDbXrecord
280
     1
 40
7165.0
  1
KUSOVNÍK
  0
XRECORD
  5
1DE4
102
{ACAD_REACTORS
330
1DE3
102
}
330
1DE3
100
AcDbXrecord
280
     1
 40
6807.0
  1
MATERIÁL
  0
XRECORD
  5
1DE6
102
{ACAD_REACTORS
330
1DE5
102
}
330
1DE5
100
AcDbXrecord
280
     1
 40
6841.0
  1
SKLADOVÉ
  0
XRECORD
  5
1DE8
102
{ACAD_REACTORS
330
1DE7
102
}
330
1DE7
100
AcDbXrecord
280
     1
 40
115441.0
  1
Svařenec roštové nástavby 408228
  0
XRECORD
  5
1DEA
102
{ACAD_REACTORS
330
1DE9
102
}
330
1DE9
100
AcDbXrecord
280
     1
 40
58985.0
  1
Vypust pro žlab D218/200 snizena 
  0
XRECORD
  5
1DEC
102
{ACAD_REACTORS
330
1DEB
102
}
330
1DEB
100
AcDbXrecord
280
     1
 40
92605.0
  1
Šroub navařovací nerez M8x20 A2 
  0
XRECORD
  5
1DEE
102
{ACAD_REACTORS
330
1DED
102
}
330
1DED
100
AcDbXrecord
280
     1
 40
6989.0
  1
Pryž SBR
  0
XRECORD
  5
1DF0
102
{ACAD_REACTORS
330
1DEF
102
}
330
1DEF
100
AcDbXrecord
280
     1
 40
83405.0
  1
Profil gumový 12,3 x 8 (výztuha do 
  0
XRECORD
  5
1DF2
102
{ACAD_REACTORS
330
1DF1
102
}
330
1DF1
100
AcDbXrecord
280
     1
 40
6137.0
  1
žlabu)
  0
XRECORD
  5
1DF4
102
{ACAD_REACTORS
330
1DF3
102
}
330
1DF3
100
AcDbXrecord
280
     1
 40
63777.0
  1
šestihranná, černá
  0
XRECORD
  5
1DF6
102
{ACAD_REACTORS
330
1DF5
102
}
330
1DF5
100
AcDbXrecord
280
     1
 40
14080.0
  1
át kouř.
  0
XRECORD
  5
1DF8
102
{ACAD_REACTORS
330
1DF7
102
}
330
1DF7
100
AcDbXrecord
280
     1
 40
90508.0
  1
Effidrain kryt plastový pro balení 
  0
XRECORD
  5
1DFA
102
{ACAD_REACTORS
330
1DF9
102
}
330
1DF9
100
AcDbXrecord
280
     1
 40
4936.0
  1
Papír
  0
XRECORD
  5
1DFC
102
{ACAD_REACTORS
330
1DFB
102
}
330
1DFB
100
AcDbXrecord
280
     1
 40
51090.0
  1
Etiketa samolepící 80 x 17 
  0
XRECORD
  5
1DFE
102
{ACAD_REACTORS
330
1DFD
102
}
330
1DFD
100
AcDbXrecord
280
     1
 40
96917.0
  1
stříbrná/červená P1765C
  0
LAYOUT
  5
6B
102
{ACAD_REACTORS
330
62
102
}
330
62
100
AcDbPlotSettings
  1

  2

  4

  6

 40
0.0
 41
0.0
 42
0.0
 43
0.0
 44
0.0
 45
0.0
 46
0.0
 47
0.0
 48
0.0
 49
0.0
140
0.0
141
0.0
142
1.0
143
1.0
 70
   688
 72
     0
 73
     0
 74
     5
  7

 75
    16
147
1.0
 76
     0
 77
     2
 78
   300
148
0.0
149
0.0
100
AcDbLayout
  1
Layout1
 70
     1
 71
     1
 10
0.0
 20
0.0
 11
1050.0
 21
742.4999999999999
 12
0.0
 22
0.0
 32
0.0
 14
0.0
 24
0.0
 34
0.0
 15
1050.0
 25
742.4999999999999
 35
0.0
146
0.0
 13
0.0
 23
0.0
 33
0.0
 16
1.0
 26
0.0
 36
0.0
 17
0.0
 27
1.0
 37
0.0
 76
     0
330
68
  0
LAYOUT
  5
73
102
{ACAD_REACTORS
330
62
102
}
330
62
100
AcDbPlotSettings
  1

  2

  4

  6

 40
0.0
 41
0.0
 42
0.0
 43
0.0
 44
0.0
 45
0.0
 46
0.0
 47
0.0
 48
0.0
 49
0.0
140
0.0
141
0.0
142
1.0
143
1.0
 70
   688
 72
     0
 73
     0
 74
     5
  7

 75
    16
147
1.0
 76
     0
 77
     2
 78
   300
148
0.0
149
0.0
100
AcDbLayout
  1
Layout2
 70
     1
 71
     2
 10
0.0
 20
0.0
 11
12.0
 21
9.0
 12
0.0
 22
0.0
 32
0.0
 14
0.0
 24
0.0
 34
0.0
 15
0.0
 25
0.0
 35
0.0
146
0.0
 13
0.0
 23
0.0
 33
0.0
 16
1.0
 26
0.0
 36
0.0
 17
0.0
 27
1.0
 37
0.0
 76
     0
330
70
  0
LAYOUT
  5
6F
102
{ACAD_REACTORS
330
62
102
}
330
62
100
AcDbPlotSettings
  1

  2

  4

  6

 40
0.0
 41
0.0
 42
0.0
 43
0.0
 44
0.0
 45
0.0
 46
0.0
 47
0.0
 48
0.0
 49
0.0
140
0.0
141
0.0
142
1.0
143
1.0
 70
  1712
 72
     0
 73
     0
 74
     0
  7

 75
     0
147
1.0
 76
     0
 77
     2
 78
   300
148
0.0
149
0.0
100
AcDbLayout
  1
Model
 70
     1
 71
     0
 10
0.0
 20
0.0
 11
12.0
 21
9.0
 12
0.0
 22
0.0
 32
0.0
 14
0.0
 24
0.0
 34
0.0
 15
0.0
 25
0.0
 35
0.0
146
0.0
 13
0.0
 23
0.0
 33
0.0
 16
1.0
 26
0.0
 36
0.0
 17
0.0
 27
1.0
 37
0.0
 76
     0
330
6C
331
57
  0
MATERIAL
  5
19
102
{ACAD_XDICTIONARY
360
1A
102
}
102
{ACAD_REACTORS
330
10
102
}
330
10
100
AcDbMaterial
  1
ByBlock
 72
     0
 43
0.0208333333333333
 43
0.0
 43
0.0
 43
0.0
 43
0.0
 43
0.0208333333333333
 43
0.0
 43
0.0
 43
0.0
 43
0.0
 43
1.0
 43
0.0
 43
0.0
 43
0.0
 43
0.0
 43
1.0
 77
     0
 47
0.0208333333333333
 47
0.0
 47
0.0
 47
0.0
 47
0.0
 47
0.0208333333333333
 47
0.0
 47
0.0
 47
0.0
 47
0.0
 47
1.0
 47
0.0
 47
0.0
 47
0.0
 47
0.0
 47
1.0
171
     0
 49
0.0208333333333333
 49
0.0
 49
0.0
 49
0.0
 49
0.0
 49
0.0208333333333333
 49
0.0
 49
0.0
 49
0.0
 49
0.0
 49
1.0
 49
0.0
 49
0.0
 49
0.0
 49
0.0
 49
1.0
175
     0
142
0.0208333333333333
142
0.0
142
0.0
142
0.0
142
0.0
142
0.0208333333333333
142
0.0
142
0.0
142
0.0
142
0.0
142
1.0
142
0.0
142
0.0
142
0.0
142
0.0
142
1.0
179
     0
144
0.0208333333333333
144
0.0
144
0.0
144
0.0
144
0.0
144
0.0208333333333333
144
0.0
144
0.0
144
0.0
144
0.0
144
1.0
144
0.0
144
0.0
144
0.0
144
0.0
144
1.0
147
0.0208333333333333
147
0.0
147
0.0
147
0.0
147
0.0
147
0.0208333333333333
147
0.0
147
0.0
147
0.0
147
0.0
147
1.0
147
0.0
147
0.0
147
0.0
147
0.0
147
1.0
  0
MATERIAL
  5
11
102
{ACAD_XDICTIONARY
360
12
102
}
102
{ACAD_REACTORS
330
10
102
}
330
10
100
AcDbMaterial
  1
ByLayer
 72
     0
 43
0.0208333333333333
 43
0.0
 43
0.0
 43
0.0
 43
0.0
 43
0.0208333333333333
 43
0.0
 43
0.0
 43
0.0
 43
0.0
 43
1.0
 43
0.0
 43
0.0
 43
0.0
 43
0.0
 43
1.0
 77
     0
 47
0.0208333333333333
 47
0.0
 47
0.0
 47
0.0
 47
0.0
 47
0.0208333333333333
 47
0.0
 47
0.0
 47
0.0
 47
0.0
 47
1.0
 47
0.0
 47
0.0
 47
0.0
 47
0.0
 47
1.0
171
     0
 49
0.0208333333333333
 49
0.0
 49
0.0
 49
0.0
 49
0.0
 49
0.0208333333333333
 49
0.0
 49
0.0
 49
0.0
 49
0.0
 49
1.0
 49
0.0
 49
0.0
 49
0.0
 49
0.0
 49
1.0
175
     0
142
0.0208333333333333
142
0.0
142
0.0
142
0.0
142
0.0
142
0.0208333333333333
142
0.0
142
0.0
142
0.0
142
0.0
142
1.0
142
0.0
142
0.0
142
0.0
142
0.0
142
1.0
179
     0
144
0.0208333333333333
144
0.0
144
0.0
144
0.0
144
0.0
144
0.0208333333333333
144
0.0
144
0.0
144
0.0
144
0.0
144
1.0
144
0.0
144
0.0
144
0.0
144
0.0
144
1.0
147
0.0208333333333333
147
0.0
147
0.0
147
0.0
147
0.0
147
0.0208333333333333
147
0.0
147
0.0
147
0.0
147
0.0
147
1.0
147
0.0
147
0.0
147
0.0
147
0.0
147
1.0
  0
MATERIAL
  5
21
102
{ACAD_XDICTIONARY
360
22
102
}
102
{ACAD_REACTORS
330
10
102
}
330
10
100
AcDbMaterial
  1
Global
 72
     0
 43
0.0208333333333333
 43
0.0
 43
0.0
 43
0.0
 43
0.0
 43
0.0208333333333333
 43
0.0
 43
0.0
 43
0.0
 43
0.0
 43
1.0
 43
0.0
 43
0.0
 43
0.0
 43
0.0
 43
1.0
 77
     0
 47
0.0208333333333333
 47
0.0
 47
0.0
 47
0.0
 47
0.0
 47
0.0208333333333333
 47
0.0
 47
0.0
 47
0.0
 47
0.0
 47
1.0
 47
0.0
 47
0.0
 47
0.0
 47
0.0
 47
1.0
171
     0
 49
0.0208333333333333
 49
0.0
 49
0.0
 49
0.0
 49
0.0
 49
0.0208333333333333
 49
0.0
 49
0.0
 49
0.0
 49
0.0
 49
1.0
 49
0.0
 49
0.0
 49
0.0
 49
0.0
 49
1.0
175
     0
142
0.0208333333333333
142
0.0
142
0.0
142
0.0
142
0.0
142
0.0208333333333333
142
0.0
142
0.0
142
0.0
142
0.0
142
1.0
142
0.0
142
0.0
142
0.0
142
0.0
142
1.0
179
     0
144
0.0208333333333333
144
0.0
144
0.0
144
0.0
144
0.0
144
0.0208333333333333
144
0.0
144
0.0
144
0.0
144
0.0
144
1.0
144
0.0
144
0.0
144
0.0
144
0.0
144
1.0
147
0.0208333333333333
147
0.0
147
0.0
147
0.0
147
0.0
147
0.0208333333333333
147
0.0
147
0.0
147
0.0
147
0.0
147
1.0
147
0.0
147
0.0
147
0.0
147
0.0
147
1.0
  0
MLEADERSTYLE
  5
67
102
{ACAD_REACTORS
330
66
102
}
330
66
100
AcDbMLeaderStyle
170
     2
171
     1
172
     0
 90
        2
 40
0.0
 41
0.0
173
     1
 91
-1056964608
340
5B
 92
       -2
290
     1
 42
0.09
291
     1
 43
0.36
  3
Standard
 44
0.18
300

342
55
174
     1
178
     6
175
     1
176
     0
 93
-1056964608
 45
0.18
292
     0
297
     0
 46
0.18
 94
-1056964608
 47
1.0
 49
1.0
140
1.0
293
     1
141
0.0
294
     1
177
     0
142
1.0
295
     0
296
     0
143
0.125
1001
ACAD_MLEADERVER
1070
     2
  0
MLINESTYLE
  5
60
102
{ACAD_REACTORS
330
5F
102
}
330
5F
100
AcDbMlineStyle
  2
STANDARD
 70
     0
  3

 62
   256
 51
90.0
 52
90.0
 71
     2
 49
0.5
 62
   256
  6
BYLAYER
 49
-0.5
 62
   256
  6
BYLAYER
  0
ACDBPLACEHOLDER
  5
F
102
{ACAD_REACTORS
330
E
102
}
330
E
  0
SCALE
  5
43
102
{ACAD_REACTORS
330
42
102
}
330
42
100
AcDbScale
 70
     0
300
1:1
140
1.0
141
1.0
290
     1
  0
SCALE
  5
44
102
{ACAD_REACTORS
330
42
102
}
330
42
100
AcDbScale
 70
     0
300
1/128" = 1'-0"
140
0.0078125
141
12.0
290
     0
  0
SCALE
  5
45
102
{ACAD_REACTORS
330
42
102
}
330
42
100
AcDbScale
 70
     0
300
1/64" = 1'-0"
140
0.015625
141
12.0
290
     0
  0
SCALE
  5
46
102
{ACAD_REACTORS
330
42
102
}
330
42
100
AcDbScale
 70
     0
300
1/32" = 1'-0"
140
0.03125
141
12.0
290
     0
  0
SCALE
  5
47
102
{ACAD_REACTORS
330
42
102
}
330
42
100
AcDbScale
 70
     0
300
1/16" = 1'-0"
140
0.0625
141
12.0
290
     0
  0
SCALE
  5
48
102
{ACAD_REACTORS
330
42
102
}
330
42
100
AcDbScale
 70
     0
300
3/32" = 1'-0"
140
0.09375
141
12.0
290
     0
  0
SCALE
  5
49
102
{ACAD_REACTORS
330
42
102
}
330
42
100
AcDbScale
 70
     0
300
1/8" = 1'-0"
140
0.125
141
12.0
290
     0
  0
SCALE
  5
4A
102
{ACAD_REACTORS
330
42
102
}
330
42
100
AcDbScale
 70
     0
300
3/16" = 1'-0"
140
0.1875
141
12.0
290
     0
  0
SCALE
  5
4B
102
{ACAD_REACTORS
330
42
102
}
330
42
100
AcDbScale
 70
     0
300
1/4" = 1'-0"
140
0.25
141
12.0
290
     0
  0
SCALE
  5
4C
102
{ACAD_REACTORS
330
42
102
}
330
42
100
AcDbScale
 70
     0
300
3/8" = 1'-0"
140
0.375
141
12.0
290
     0
  0
SCALE
  5
4D
102
{ACAD_REACTORS
330
42
102
}
330
42
100
AcDbScale
 70
     0
300
1/2" = 1'-0"
140
0.5
141
12.0
290
     0
  0
SCALE
  5
4E
102
{ACAD_REACTORS
330
42
102
}
330
42
100
AcDbScale
 70
     0
300
3/4" = 1'-0"
140
0.75
141
12.0
290
     0
  0
SCALE
  5
4F
102
{ACAD_REACTORS
330
42
102
}
330
42
100
AcDbScale
 70
     0
300
1" = 1'-0"
140
1.0
141
12.0
290
     0
  0
SCALE
  5
50
102
{ACAD_REACTORS
330
42
102
}
330
42
100
AcDbScale
 70
     0
300
1-1/2" = 1'-0"
140
1.5
141
12.0
290
     0
  0
SCALE
  5
51
102
{ACAD_REACTORS
330
42
102
}
330
42
100
AcDbScale
 70
     0
300
3" = 1'-0"
140
3.0
141
12.0
290
     0
  0
SCALE
  5
52
102
{ACAD_REACTORS
330
42
102
}
330
42
100
AcDbScale
 70
     0
300
6" = 1'-0"
140
6.0
141
12.0
290
     0
  0
SCALE
  5
53
102
{ACAD_REACTORS
330
42
102
}
330
42
100
AcDbScale
 70
     0
300
1'-0" = 1'-0"
140
12.0
141
12.0
290
     0
  0
TABLESTYLE
  5
65
102
{ACAD_XDICTIONARY
360
19D6
102
}
102
{ACAD_REACTORS
330
64
102
}
330
64
100
AcDbTableStyle
  3
Standard
 70
     0
 71
     0
 40
0.06
 41
0.06
280
     0
281
     0
  7
Standard
140
0.18
170
     2
 62
     0
 63
     7
283
     0
274
    -2
284
     1
 64
     0
275
    -2
285
     1
 65
     0
276
    -2
286
     1
 66
     0
277
    -2
287
     1
 67
     0
278
    -2
288
     1
 68
     0
279
    -2
289
     1
 69
     0
  7
Standard
140
0.25
170
     5
 62
     0
 63
     7
283
     0
274
    -2
284
     1
 64
     0
275
    -2
285
     1
 65
     0
276
    -2
286
     1
 66
     0
277
    -2
287
     1
 67
     0
278
    -2
288
     1
 68
     0
279
    -2
289
     1
 69
     0
  7
Standard
140
0.18
170
     5
 62
     0
 63
     7
283
     0
274
    -2
284
     1
 64
     0
275
    -2
285
     1
 65
     0
276
    -2
286
     1
 66
     0
277
    -2
287
     1
 67
     0
278
    -2
288
     1
 68
     0
279
    -2
289
     1
 69
     0
  0
VISUALSTYLE
  5
2F
102
{ACAD_XDICTIONARY
360
1A20
102
}
102
{ACAD_REACTORS
330
29
102
}
330
29
100
AcDbVisualStyle
  2
2dWireframe
 70
     4
 71
     0
 72
     2
 73
     0
 90
        0
 40
-0.6
 41
-30.0
 62
     5
 63
     7
421
 16777215
 74
     1
 91
        4
 64
     7
 65
   257
 75
     1
175
     1
 42
1.0
 92
        0
 66
   257
 43
1.0
 76
     1
 77
     6
 78
     2
 67
     7
 79
     5
170
     0
171
     0
290
     0
174
     0
 93
        1
 44
0.0
173
     0
291
     0
 45
0.0
1001
ACAD
1000
AcDbSavedByObjectVersion
1070
     0
  0
VISUALSTYLE
  5
1A77
102
{ACAD_XDICTIONARY
360
1E01
102
}
102
{ACAD_REACTORS
330
29
102
}
330
29
100
AcDbVisualStyle
  2
3D Hidden
 70
     6
 71
     1
 72
     2
 73
     2
 90
        0
 40
-0.6
 41
-30.0
 62
     5
 63
     7
421
 16777215
 74
     2
 91
        2
 64
     7
 65
   257
 75
     2
175
     1
 42
179.0
 92
        0
 66
   257
 43
1.0
 76
     1
 77
     6
 78
     2
 67
     7
 79
     3
170
     0
171
     0
290
     0
174
     0
 93
        1
 44
0.0
173
     0
291
     0
 45
0.0
1001
ACAD
1000
AcDbSavedByObjectVersion
1070
     0
  0
VISUALSTYLE
  5
1A76
102
{ACAD_XDICTIONARY
360
1DFF
102
}
102
{ACAD_REACTORS
330
29
102
}
330
29
100
AcDbVisualStyle
  2
3dWireframe
 70
     5
 71
     0
 72
     2
 73
     0
 90
        0
 40
-0.6
 41
-30.0
 62
     5
 63
     7
421
 16777215
 74
     1
 91
        4
 64
     7
 65
   257
 75
     1
175
     1
 42
1.0
 92
        0
 66
   257
 43
1.0
 76
     1
 77
     6
 78
     2
 67
     7
 79
     5
170
     0
171
     0
290
     0
174
     0
 93
        1
 44
0.0
173
     0
291
     0
 45
0.0
1001
ACAD
1000
AcDbSavedByObjectVersion
1070
     0
  0
VISUALSTYLE
  5
2E
102
{ACAD_XDICTIONARY
360
1A1E
102
}
102
{ACAD_REACTORS
330
29
102
}
330
29
100
AcDbVisualStyle
  2
Basic
 70
     7
 71
     1
 72
     0
 73
     1
 90
        0
 40
-0.6
 41
-30.0
 62
     5
 63
     7
421
 16777215
 74
     0
 91
        4
 64
     7
 65
   257
 75
     1
175
     1
 42
1.0
 92
        8
 66
     7
 43
1.0
 76
     1
 77
     6
 78
     2
 67
     7
 79
     5
170
     0
171
     0
290
     0
174
     0
 93
        1
 44
0.0
173
     0
291
     1
 45
0.0
1001
ACAD
1000
AcDbSavedByObjectVersion
1070
     0
  0
VISUALSTYLE
  5
35
102
{ACAD_XDICTIONARY
360
1A2C
102
}
102
{ACAD_REACTORS
330
29
102
}
330
29
100
AcDbVisualStyle
  2
Brighten
 70
    12
 71
     2
 72
     2
 73
     0
 90
        0
 40
-0.6
 41
-30.0
 62
     5
 63
     7
421
 16777215
 74
     1
 91
        4
 64
     7
 65
   257
 75
     1
175
     1
 42
1.0
 92
        8
 66
     7
 43
1.0
 76
     1
 77
     6
 78
     2
 67
     7
 79
     5
170
     0
171
     0
290
     0
174
     0
 93
        1
 44
50.0
173
     0
291
     1
 45
0.0
1001
ACAD
1000
AcDbSavedByObjectVersion
1070
     0
  0
VISUALSTYLE
  5
39
102
{ACAD_XDICTIONARY
360
1A34
102
}
102
{ACAD_REACTORS
330
29
102
}
330
29
100
AcDbVisualStyle
  2
ColorChange
 70
    16
 71
     2
 72
     2
 73
     3
 90
        0
 40
-0.6
 41
-30.0
 62
     5
 63
     8
421
  8421504
 74
     1
 91
        4
 64
     7
 65
   257
 75
     1
175
     1
 42
1.0
 92
        8
 66
     8
424
  8421504
 43
1.0
 76
     1
 77
     6
 78
     2
 67
     7
 79
     5
170
     0
171
     0
290
     0
174
     0
 93
        1
 44
0.0
173
     0
291
     1
 45
0.0
1001
ACAD
1000
AcDbSavedByObjectVersion
1070
     0
  0
VISUALSTYLE
  5
32
102
{ACAD_XDICTIONARY
360
1A26
102
}
102
{ACAD_REACTORS
330
29
102
}
330
29
100
AcDbVisualStyle
  2
Conceptual
 70
     9
 71
     3
 72
     2
 73
     0
 90
        0
 40
-0.6
 41
-30.0
 62
     5
 63
     7
421
 16777215
 74
     2
 91
        2
 64
     7
 65
   257
 75
     1
175
     1
 42
179.0
 92
        8
 66
     7
 43
1.0
 76
     1
 77
     6
 78
     2
 67
     7
 79
     3
170
     0
171
     0
290
     0
174
     0
 93
        1
 44
0.0
173
     0
291
     0
 45
0.0
1001
ACAD
1000
AcDbSavedByObjectVersion
1070
     0
  0
VISUALSTYLE
  5
34
102
{ACAD_XDICTIONARY
360
1A2A
102
}
102
{ACAD_REACTORS
330
29
102
}
330
29
100
AcDbVisualStyle
  2
Dim
 70
    11
 71
     2
 72
     2
 73
     0
 90
        0
 40
-0.6
 41
-30.0
 62
     5
 63
     7
421
 16777215
 74
     1
 91
        4
 64
     7
 65
   257
 75
     1
175
     1
 42
1.0
 92
        8
 66
     7
 43
1.0
 76
     1
 77
     6
 78
     2
 67
     7
 79
     5
170
     0
171
     0
290
     0
174
     0
 93
        1
 44
-50.0
173
     0
291
     1
 45
0.0
1001
ACAD
1000
AcDbSavedByObjectVersion
1070
     0
  0
VISUALSTYLE
  5
41
102
{ACAD_XDICTIONARY
360
1A44
102
}
102
{ACAD_REACTORS
330
29
102
}
330
29
100
AcDbVisualStyle
  2
EdgeColorOff
 70
    22
 71
     2
 72
     2
 73
     0
 90
        0
 40
-0.6
 41
-30.0
 62
     5
 63
     7
421
 16777215
 74
     1
 91
        4
 64
     7
 65
   257
 75
     1
175
     1
 42
1.0
 92
        8
 66
     7
 43
1.0
 76
     1
 77
     6
 78
     2
 67
     7
 79
     5
170
     0
171
     0
290
     0
174
     0
 93
        1
 44
0.0
173
     0
291
     1
 45
0.0
1001
ACAD
1000
AcDbSavedByObjectVersion
1070
     0
  0
VISUALSTYLE
  5
38
102
{ACAD_XDICTIONARY
360
1A32
102
}
102
{ACAD_REACTORS
330
29
102
}
330
29
100
AcDbVisualStyle
  2
Facepattern
 70
    15
 71
     2
 72
     2
 73
     0
 90
        0
 40
-0.6
 41
-30.0
 62
     5
 63
     7
421
 16777215
 74
     1
 91
        4
 64
     7
 65
   257
 75
     1
175
     1
 42
1.0
 92
        8
 66
     7
 43
1.0
 76
     1
 77
     6
 78
     2
 67
     7
 79
     5
170
     0
171
     0
290
     0
174
     0
 93
        1
 44
0.0
173
     0
291
     1
 45
0.0
1001
ACAD
1000
AcDbSavedByObjectVersion
1070
     0
  0
VISUALSTYLE
  5
2A
102
{ACAD_XDICTIONARY
360
1A16
102
}
102
{ACAD_REACTORS
330
29
102
}
330
29
100
AcDbVisualStyle
  2
Flat
 70
     0
 71
     2
 72
     1
 73
     1
 90
        2
 40
-0.6
 41
30.0
 62
     5
 63
     7
421
 16777215
 74
     0
 91
        0
 64
     7
 65
   257
 75
     1
175
     1
 42
1.0
 92
        8
 66
     7
 43
1.0
 76
     1
 77
     6
 78
     2
 67
     7
 79
     5
170
     0
171
     0
290
     0
174
     0
 93
       13
 44
0.0
173
     0
291
     1
 45
0.0
1001
ACAD
1000
AcDbSavedByObjectVersion
1070
     0
  0
VISUALSTYLE
  5
2B
102
{ACAD_XDICTIONARY
360
1A18
102
}
102
{ACAD_REACTORS
330
29
102
}
330
29
100
AcDbVisualStyle
  2
FlatWithEdges
 70
     1
 71
     2
 72
     1
 73
     1
 90
        2
 40
-0.6
 41
30.0
 62
     5
 63
     7
421
 16777215
 74
     1
 91
        0
 64
     7
 65
   257
 75
     1
175
     1
 42
1.0
 92
        0
 66
   257
 43
1.0
 76
     1
 77
     6
 78
     2
 67
     7
 79
     5
170
     0
171
     0
290
     0
174
     0
 93
       13
 44
0.0
173
     0
291
     1
 45
0.0
1001
ACAD
1000
AcDbSavedByObjectVersion
1070
     0
  0
VISUALSTYLE
  5
2C
102
{ACAD_XDICTIONARY
360
1A1A
102
}
102
{ACAD_REACTORS
330
29
102
}
330
29
100
AcDbVisualStyle
  2
Gouraud
 70
     2
 71
     2
 72
     2
 73
     1
 90
        2
 40
-0.6
 41
30.0
 62
     5
 63
     7
421
 16777215
 74
     0
 91
        0
 64
     7
 65
   257
 75
     1
175
     1
 42
1.0
 92
        0
 66
     7
 43
1.0
 76
     1
 77
     6
 78
     2
 67
     7
 79
     5
170
     0
171
     0
290
     0
174
     0
 93
       13
 44
0.0
173
     0
291
     1
 45
0.0
1001
ACAD
1000
AcDbSavedByObjectVersion
1070
     0
  0
VISUALSTYLE
  5
2D
102
{ACAD_XDICTIONARY
360
1A1C
102
}
102
{ACAD_REACTORS
330
29
102
}
330
29
100
AcDbVisualStyle
  2
GouraudWithEdges
 70
     3
 71
     2
 72
     2
 73
     1
 90
        2
 40
-0.6
 41
30.0
 62
     5
 63
     7
421
 16777215
 74
     1
 91
        0
 64
     7
 65
   257
 75
     1
175
     1
 42
1.0
 92
        0
 66
   257
 43
1.0
 76
     1
 77
     6
 78
     2
 67
     7
 79
     5
170
     0
171
     0
290
     0
174
     0
 93
       13
 44
0.0
173
     0
291
     1
 45
0.0
1001
ACAD
1000
AcDbSavedByObjectVersion
1070
     0
  0
VISUALSTYLE
  5
31
102
{ACAD_XDICTIONARY
360
1A24
102
}
102
{ACAD_REACTORS
330
29
102
}
330
29
100
AcDbVisualStyle
  2
Hidden
 70
     6
 71
     1
 72
     2
 73
     2
 90
        0
 40
-0.6
 41
-30.0
 62
     5
 63
     7
421
 16777215
 74
     2
 91
        2
 64
     7
 65
   257
 75
     2
175
     1
 42
40.0
 92
        0
 66
   257
 43
1.0
 76
     1
 77
     6
 78
     2
 67
     7
 79
     3
170
     0
171
     0
290
     0
174
     0
 93
        1
 44
0.0
173
     0
291
     0
 45
0.0
1001
ACAD
1000
AcDbSavedByObjectVersion
1070
     0
  0
VISUALSTYLE
  5
3F
102
{ACAD_XDICTIONARY
360
1A40
102
}
102
{ACAD_REACTORS
330
29
102
}
330
29
100
AcDbVisualStyle
  2
JitterOff
 70
    20
 71
     2
 72
     2
 73
     0
 90
        0
 40
-0.6
 41
-30.0
 62
     5
 63
     7
421
 16777215
 74
     1
 91
        4
 64
     7
 65
   257
 75
     1
175
     1
 42
1.0
 92
       10
 66
     7
 43
1.0
 76
     1
 77
     6
 78
     2
 67
     7
 79
     5
170
     0
171
     0
290
     0
174
     0
 93
        1
 44
0.0
173
     0
291
     1
 45
0.0
1001
ACAD
1000
AcDbSavedByObjectVersion
1070
     0
  0
VISUALSTYLE
  5
37
102
{ACAD_XDICTIONARY
360
1A30
102
}
102
{ACAD_REACTORS
330
29
102
}
330
29
100
AcDbVisualStyle
  2
Linepattern
 70
    14
 71
     2
 72
     2
 73
     0
 90
        0
 40
-0.6
 41
-30.0
 62
     5
 63
     7
421
 16777215
 74
     1
 91
        4
 64
     7
 65
   257
 75
     7
175
     7
 42
1.0
 92
        8
 66
     7
 43
1.0
 76
     1
 77
     6
 78
     2
 67
     7
 79
     5
170
     0
171
     0
290
     0
174
     0
 93
        1
 44
0.0
173
     0
291
     1
 45
0.0
1001
ACAD
1000
AcDbSavedByObjectVersion
1070
     0
  0
VISUALSTYLE
  5
40
102
{ACAD_XDICTIONARY
360
1A42
102
}
102
{ACAD_REACTORS
330
29
102
}
330
29
100
AcDbVisualStyle
  2
OverhangOff
 70
    21
 71
     2
 72
     2
 73
     0
 90
        0
 40
-0.6
 41
-30.0
 62
     5
 63
     7
421
 16777215
 74
     1
 91
        4
 64
     7
 65
   257
 75
     1
175
     1
 42
1.0
 92
        9
 66
     7
 43
1.0
 76
     1
 77
     6
 78
     2
 67
     7
 79
     5
170
     0
171
     0
290
     0
174
     0
 93
        1
 44
0.0
173
     0
291
     1
 45
0.0
1001
ACAD
1000
AcDbSavedByObjectVersion
1070
     0
  0
VISUALSTYLE
  5
33
102
{ACAD_XDICTIONARY
360
1A28
102
}
102
{ACAD_REACTORS
330
29
102
}
330
29
100
AcDbVisualStyle
  2
Realistic
 70
     8
 71
     2
 72
     2
 73
     0
 90
        2
 40
-0.6
 41
30.0
 62
     5
 63
     7
421
 16777215
 74
     0
 91
        0
 64
     7
 65
   257
 75
     1
175
     1
 42
1.0
 92
        8
 66
   257
 43
1.0
 76
     1
 77
     6
 78
     2
 67
     7
 79
     3
170
     0
171
     0
290
     0
174
     0
 93
       13
 44
0.0
173
     0
291
     0
 45
0.0
1001
ACAD
1000
AcDbSavedByObjectVersion
1070
     0
  0
VISUALSTYLE
  5
3E
102
{ACAD_XDICTIONARY
360
1A3E
102
}
102
{ACAD_REACTORS
330
29
102
}
330
29
100
AcDbVisualStyle
  2
Shaded
 70
    27
 71
     2
 72
     2
 73
     1
 90
        2
 40
-0.6
 41
30.0
 62
     5
 63
     7
421
 16777215
 74
     0
 91
        4
 64
     7
 65
   257
 75
     1
175
     1
 42
1.0
 92
        8
 66
   257
 43
1.0
 76
     1
 77
     6
 78
     2
 67
     8
425
  7895160
 79
     3
170
     0
171
     0
290
     0
174
     0
 93
        5
 44
0.0
173
     0
291
     0
 45
0.0
1001
ACAD
1000
AcDbSavedByObjectVersion
1070
     0
  0
VISUALSTYLE
  5
3D
102
{ACAD_XDICTIONARY
360
1A3C
102
}
102
{ACAD_REACTORS
330
29
102
}
330
29
100
AcDbVisualStyle
  2
Shaded with edges
 70
    26
 71
     2
 72
     2
 73
     1
 90
        2
 40
-0.6
 41
30.0
 62
     5
 63
     7
421
 16777215
 74
     1
 91
       10
 64
     7
 65
   257
 75
     2
175
     1
 42
1.0
 92
        8
 66
   257
 43
1.0
 76
     1
 77
     6
 78
     2
 67
     7
 79
     3
170
     0
171
     0
290
     0
174
     0
 93
        5
 44
0.0
173
     0
291
     0
 45
0.0
1001
ACAD
1000
AcDbSavedByObjectVersion
1070
     0
  0
VISUALSTYLE
  5
3A
102
{ACAD_XDICTIONARY
360
1A36
102
}
102
{ACAD_REACTORS
330
29
102
}
330
29
100
AcDbVisualStyle
  2
Shades of Gray
 70
    23
 71
     2
 72
     2
 73
     3
 90
        0
 40
-0.6
 41
-30.0
 62
     5
 63
     7
421
 16777215
 74
     2
 91
        2
 64
     7
 65
     7
 75
     1
175
     1
 42
40.0
 92
        8
 66
     7
 43
1.0
 76
     1
 77
     6
 78
     2
 67
     7
 79
     3
170
     0
171
     0
290
     0
174
     0
 93
        1
 44
0.0
173
     0
291
     0
 45
0.0
1001
ACAD
1000
AcDbSavedByObjectVersion
1070
     0
  0
VISUALSTYLE
  5
3B
102
{ACAD_XDICTIONARY
360
1A38
102
}
102
{ACAD_REACTORS
330
29
102
}
330
29
100
AcDbVisualStyle
  2
Sketchy
 70
    24
 71
     1
 72
     2
 73
     2
 90
        0
 40
-0.6
 41
-30.0
 62
     5
 63
     7
421
 16777215
 74
     2
 91
        2
 64
     7
 65
     7
 75
     1
175
     1
 42
40.0
 92
       11
 66
     7
 43
1.0
 76
     1
 77
     6
 78
     2
 67
     7
 79
     6
170
     0
171
     0
290
     0
174
     0
 93
        1
 44
0.0
173
     0
291
     0
 45
0.0
1001
ACAD
1000
AcDbSavedByObjectVersion
1070
     0
  0
VISUALSTYLE
  5
36
102
{ACAD_XDICTIONARY
360
1A2E
102
}
102
{ACAD_REACTORS
330
29
102
}
330
29
100
AcDbVisualStyle
  2
Thicken
 70
    13
 71
     2
 72
     2
 73
     0
 90
        0
 40
-0.6
 41
-30.0
 62
     5
 63
     7
421
 16777215
 74
     1
 91
        4
 64
     7
 65
   257
 75
     1
175
     1
 42
1.0
 92
       12
 66
     7
 43
1.0
 76
     1
 77
     6
 78
     2
 67
     7
 79
     5
170
     0
171
     0
290
     0
174
     0
 93
        1
 44
0.0
173
     0
291
     1
 45
0.0
1001
ACAD
1000
AcDbSavedByObjectVersion
1070
     0
  0
VISUALSTYLE
  5
30
102
{ACAD_XDICTIONARY
360
1A22
102
}
102
{ACAD_REACTORS
330
29
102
}
330
29
100
AcDbVisualStyle
  2
Wireframe
 70
     5
 71
     0
 72
     2
 73
     0
 90
        0
 40
-0.6
 41
-30.0
 62
     5
 63
     7
421
 16777215
 74
     1
 91
        4
 64
     7
 65
   257
 75
     1
175
     1
 42
1.0
 92
        0
 66
   257
 43
1.0
 76
     1
 77
     6
 78
     2
 67
     7
 79
     3
170
     0
171
     0
290
     0
174
     0
 93
        1
 44
0.0
173
     0
291
     0
 45
0.0
1001
ACAD
1000
AcDbSavedByObjectVersion
1070
     0
  0
VISUALSTYLE
  5
3C
102
{ACAD_XDICTIONARY
360
1A3A
102
}
102
{ACAD_REACTORS
330
29
102
}
330
29
100
AcDbVisualStyle
  2
X-Ray
 70
    25
 71
     2
 72
     2
 73
     1
 90
        1
 40
0.5
 41
-30.0
 62
     5
 63
     7
421
 16777215
 74
     1
 91
        0
 64
     7
 65
   257
 75
     1
175
     1
 42
1.0
 92
        8
 66
     7
 43
1.0
 76
     1
 77
     6
 78
     2
 67
     7
 79
     3
170
     0
171
     0
290
     0
174
     0
 93
       13
 44
0.0
173
     0
291
     0
 45
0.0
1001
ACAD
1000
AcDbSavedByObjectVersion
1070
     0
  0
DICTIONARYVAR
  5
1A70
102
{ACAD_REACTORS
330
1A6C
102
}
330
1A6C
100
DictionaryVariables
280
     0
  1
1:1
  0
DICTIONARYVAR
  5
1A6E
102
{ACAD_REACTORS
330
1A6C
102
}
330
1A6C
100
DictionaryVariables
280
     0
  1
STANDARD
  0
DICTIONARYVAR
  5
1A6D
102
{ACAD_REACTORS
330
1A6C
102
}
330
1A6C
100
DictionaryVariables
280
     0
  1
STANDARD
  0
DICTIONARYVAR
  5
1A72
102
{ACAD_REACTORS
330
1A6C
102
}
330
1A6C
100
DictionaryVariables
280
     0
  1
0
  0
DICTIONARYVAR
  5
1A73
102
{ACAD_REACTORS
330
1A6C
102
}
330
1A6C
100
DictionaryVariables
280
     0
  1
0
  0
DICTIONARYVAR
  5
1A71
102
{ACAD_REACTORS
330
1A6C
102
}
330
1A6C
100
DictionaryVariables
280
     0
  1
2
  0
DICTIONARYVAR
  5
1A6F
102
{ACAD_REACTORS
330
1A6C
102
}
330
1A6C
100
DictionaryVariables
280
     0
  1
1
  0
DICTIONARYVAR
  5
1DC4
102
{ACAD_REACTORS
330
1A6C
102
}
330
1A6C
100
DictionaryVariables
280
     0
  1
2
  0
DICTIONARY
  5
1AE8
102
{ACAD_REACTORS
330
1ADE
102
}
330
1ADE
100
AcDbDictionary
281
     1
  0
DICTIONARY
  5
1A
330
19
100
AcDbDictionary
280
     1
281
     1
  3
ACAD_XREC_ROUNDTRIP
360
1DDC
  3
BUMPTILE
360
1C
  3
DIFFUSETILE
360
1B
  3
OPACITYTILE
360
1F
  3
REFLECTIONTILE
360
1E
  3
REFRACTIONTILE
360
20
  3
SPECULARTILE
360
1D
  0
DICTIONARY
  5
12
330
11
100
AcDbDictionary
280
     1
281
     1
  3
ACAD_XREC_ROUNDTRIP
360
1DDB
  3
BUMPTILE
360
14
  3
DIFFUSETILE
360
13
  3
OPACITYTILE
360
17
  3
REFLECTIONTILE
360
16
  3
REFRACTIONTILE
360
18
  3
SPECULARTILE
360
15
  0
DICTIONARY
  5
22
330
21
100
AcDbDictionary
280
     1
281
     1
  3
ACAD_XREC_ROUNDTRIP
360
1DDD
  3
BUMPTILE
360
24
  3
DIFFUSETILE
360
23
  3
OPACITYTILE
360
27
  3
REFLECTIONTILE
360
26
  3
REFRACTIONTILE
360
28
  3
SPECULARTILE
360
25
  0
DICTIONARY
  5
19D6
330
65
100
AcDbDictionary
280
     1
281
     1
  3
ACAD_ROUNDTRIP_2008_TABLESTYLE_CELLSTYLEMAP
360
1DC5
  3
ACAD_XREC_ROUNDTRIP
360
1DDE
  0
DICTIONARY
  5
1A20
330
2F
100
AcDbDictionary
280
     1
281
     1
  3
ACAD_XREC_ROUNDTRIP
360
1A21
  0
DICTIONARY
  5
1E01
330
1A77
100
AcDbDictionary
280
     1
281
     1
  3
ACAD_XREC_ROUNDTRIP
360
1E02
  0
DICTIONARY
  5
1DFF
330
1A76
100
AcDbDictionary
280
     1
281
     1
  3
ACAD_XREC_ROUNDTRIP
360
1E00
  0
DICTIONARY
  5
1A1E
330
2E
100
AcDbDictionary
280
     1
281
     1
  3
ACAD_XREC_ROUNDTRIP
360
1A1F
  0
DICTIONARY
  5
1A2C
330
35
100
AcDbDictionary
280
     1
281
     1
  3
ACAD_XREC_ROUNDTRIP
360
1A2D
  0
DICTIONARY
  5
1A34
330
39
100
AcDbDictionary
280
     1
281
     1
  3
ACAD_XREC_ROUNDTRIP
360
1A35
  0
DICTIONARY
  5
1A26
330
32
100
AcDbDictionary
280
     1
281
     1
  3
ACAD_XREC_ROUNDTRIP
360
1A27
  0
DICTIONARY
  5
1A2A
330
34
100
AcDbDictionary
280
     1
281
     1
  3
ACAD_XREC_ROUNDTRIP
360
1A2B
  0
DICTIONARY
  5
1A44
330
41
100
AcDbDictionary
280
     1
281
     1
  3
ACAD_XREC_ROUNDTRIP
360
1A45
  0
DICTIONARY
  5
1A32
330
38
100
AcDbDictionary
280
     1
281
     1
  3
ACAD_XREC_ROUNDTRIP
360
1A33
  0
DICTIONARY
  5
1A16
330
2A
100
AcDbDictionary
280
     1
281
     1
  3
ACAD_XREC_ROUNDTRIP
360
1A17
  0
DICTIONARY
  5
1A18
330
2B
100
AcDbDictionary
280
     1
281
     1
  3
ACAD_XREC_ROUNDTRIP
360
1A19
  0
DICTIONARY
  5
1A1A
330
2C
100
AcDbDictionary
280
     1
281
     1
  3
ACAD_XREC_ROUNDTRIP
360
1A1B
  0
DICTIONARY
  5
1A1C
330
2D
100
AcDbDictionary
280
     1
281
     1
  3
ACAD_XREC_ROUNDTRIP
360
1A1D
  0
DICTIONARY
  5
1A24
330
31
100
AcDbDictionary
280
     1
281
     1
  3
ACAD_XREC_ROUNDTRIP
360
1A25
  0
DICTIONARY
  5
1A40
330
3F
100
AcDbDictionary
280
     1
281
     1
  3
ACAD_XREC_ROUNDTRIP
360
1A41
  0
DICTIONARY
  5
1A30
330
37
100
AcDbDictionary
280
     1
281
     1
  3
ACAD_XREC_ROUNDTRIP
360
1A31
  0
DICTIONARY
  5
1A42
330
40
100
AcDbDictionary
280
     1
281
     1
  3
ACAD_XREC_ROUNDTRIP
360
1A43
  0
DICTIONARY
  5
1A28
330
33
100
AcDbDictionary
280
     1
281
     1
  3
ACAD_XREC_ROUNDTRIP
360
1A29
  0
DICTIONARY
  5
1A3E
330
3E
100
AcDbDictionary
280
     1
281
     1
  3
ACAD_XREC_ROUNDTRIP
360
1A3F
  0
DICTIONARY
  5
1A3C
330
3D
100
AcDbDictionary
280
     1
281
     1
  3
ACAD_XREC_ROUNDTRIP
360
1A3D
  0
DICTIONARY
  5
1A36
330
3A
100
AcDbDictionary
280
     1
281
     1
  3
ACAD_XREC_ROUNDTRIP
360
1A37
  0
DICTIONARY
  5
1A38
330
3B
100
AcDbDictionary
280
     1
281
     1
  3
ACAD_XREC_ROUNDTRIP
360
1A39
  0
DICTIONARY
  5
1A2E
330
36
100
AcDbDictionary
280
     1
281
     1
  3
ACAD_XREC_ROUNDTRIP
360
1A2F
  0
DICTIONARY
  5
1A22
330
30
100
AcDbDictionary
280
     1
281
     1
  3
ACAD_XREC_ROUNDTRIP
360
1A23
  0
DICTIONARY
  5
1A3A
330
3C
100
AcDbDictionary
280
     1
281
     1
  3
ACAD_XREC_ROUNDTRIP
360
1A3B
  0
XRECORD
  5
1DDC
102
{ACAD_REACTORS
330
1A
102
}
330
1A
100
AcDbXrecord
280
     1
102
MATERIAL
148
0.0
149
0.0
149
0.0
 93
        0
 94
      127
282
     0
 72
     0
 77
     0
171
     0
175
     0
179
     0
273
     0
  0
XRECORD
  5
1C
102
{ACAD_REACTORS
330
1A
102
}
330
1A
100
AcDbXrecord
280
     1
270
     1
271
     1
  0
XRECORD
  5
1B
102
{ACAD_REACTORS
330
1A
102
}
330
1A
100
AcDbXrecord
280
     1
270
     1
271
     1
  0
XRECORD
  5
1F
102
{ACAD_REACTORS
330
1A
102
}
330
1A
100
AcDbXrecord
280
     1
270
     1
271
     1
  0
XRECORD
  5
1E
102
{ACAD_REACTORS
330
1A
102
}
330
1A
100
AcDbXrecord
280
     1
270
     1
271
     1
  0
XRECORD
  5
20
102
{ACAD_REACTORS
330
1A
102
}
330
1A
100
AcDbXrecord
280
     1
270
     1
271
     1
  0
XRECORD
  5
1D
102
{ACAD_REACTORS
330
1A
102
}
330
1A
100
AcDbXrecord
280
     1
270
     1
271
     1
  0
XRECORD
  5
1DDB
102
{ACAD_REACTORS
330
12
102
}
330
12
100
AcDbXrecord
280
     1
102
MATERIAL
148
0.0
149
0.0
149
0.0
 93
        0
 94
      127
282
     0
 72
     0
 77
     0
171
     0
175
     0
179
     0
273
     0
  0
XRECORD
  5
14
102
{ACAD_REACTORS
330
12
102
}
330
12
100
AcDbXrecord
280
     1
270
     1
271
     1
  0
XRECORD
  5
13
102
{ACAD_REACTORS
330
12
102
}
330
12
100
AcDbXrecord
280
     1
270
     1
271
     1
  0
XRECORD
  5
17
102
{ACAD_REACTORS
330
12
102
}
330
12
100
AcDbXrecord
280
     1
270
     1
271
     1
  0
XRECORD
  5
16
102
{ACAD_REACTORS
330
12
102
}
330
12
100
AcDbXrecord
280
     1
270
     1
271
     1
  0
XRECORD
  5
18
102
{ACAD_REACTORS
330
12
102
}
330
12
100
AcDbXrecord
280
     1
270
     1
271
     1
  0
XRECORD
  5
15
102
{ACAD_REACTORS
330
12
102
}
330
12
100
AcDbXrecord
280
     1
270
     1
271
     1
  0
XRECORD
  5
1DDD
102
{ACAD_REACTORS
330
22
102
}
330
22
100
AcDbXrecord
280
     1
102
MATERIAL
148
0.0
149
0.0
149
0.0
 93
        0
 94
      127
282
     0
 72
     0
 77
     0
171
     0
175
     0
179
     0
273
     0
  0
XRECORD
  5
24
102
{ACAD_REACTORS
330
22
102
}
330
22
100
AcDbXrecord
280
     1
270
     1
271
     1
  0
XRECORD
  5
23
102
{ACAD_REACTORS
330
22
102
}
330
22
100
AcDbXrecord
280
     1
270
     1
271
     1
  0
XRECORD
  5
27
102
{ACAD_REACTORS
330
22
102
}
330
22
100
AcDbXrecord
280
     1
270
     1
271
     1
  0
XRECORD
  5
26
102
{ACAD_REACTORS
330
22
102
}
330
22
100
AcDbXrecord
280
     1
270
     1
271
     1
  0
XRECORD
  5
28
102
{ACAD_REACTORS
330
22
102
}
330
22
100
AcDbXrecord
280
     1
270
     1
271
     1
  0
XRECORD
  5
25
102
{ACAD_REACTORS
330
22
102
}
330
22
100
AcDbXrecord
280
     1
270
     1
271
     1
  0
CELLSTYLEMAP
  5
1DC5
102
{ACAD_REACTORS
330
19D6
102
}
330
19D6
100
AcDbCellStyleMap
 90
        3
300
CELLSTYLE
  1
TABLEFORMAT_BEGIN
 90
        5
170
     1
 91
        0
 92
    32768
 62
   257
 93
        1
300
CONTENTFORMAT
  1
CONTENTFORMAT_BEGIN
 90
        0
 91
        0
 92
      512
 93
        0
300

 40
0.0
140
1.0
 94
        5
 62
     0
340
55
144
0.25
309
CONTENTFORMAT_END
171
     0
 94
        0
309
TABLEFORMAT_END
  1
CELLSTYLE_BEGIN
 90
        1
 91
        1
300
_TITLE
309
CELLSTYLE_END
300
CELLSTYLE
  1
TABLEFORMAT_BEGIN
 90
        5
170
     1
 91
        0
 92
        0
 62
   257
 93
        1
300
CONTENTFORMAT
  1
CONTENTFORMAT_BEGIN
 90
        0
 91
        0
 92
      512
 93
        0
300

 40
0.0
140
1.0
 94
        5
 62
     0
340
55
144
0.18
309
CONTENTFORMAT_END
171
     0
 94
        0
309
TABLEFORMAT_END
  1
CELLSTYLE_BEGIN
 90
        2
 91
        1
300
_HEADER
309
CELLSTYLE_END
300
CELLSTYLE
  1
TABLEFORMAT_BEGIN
 90
        5
170
     1
 91
        0
 92
        0
 62
   257
 93
        1
300
CONTENTFORMAT
  1
CONTENTFORMAT_BEGIN
 90
        0
 91
        0
 92
      512
 93
        0
300

 40
0.0
140
1.0
 94
        2
 62
     0
340
55
144
0.18
309
CONTENTFORMAT_END
171
     0
 94
        0
309
TABLEFORMAT_END
  1
CELLSTYLE_BEGIN
 90
        3
 91
        2
300
_DATA
309
CELLSTYLE_END
  0
XRECORD
  5
1DDE
102
{ACAD_REACTORS
330
19D6
102
}
330
19D6
100
AcDbXrecord
280
     1
102
ACAD_ROUNDTRIP_PRE2007_TABLESTYLE
 90
      512
 91
        0
  1

 92
      512
 93
        0
  2

 94
      512
 95
        0
  3

  0
XRECORD
  5
1A21
102
{ACAD_REACTORS
330
1A20
102
}
330
1A20
100
AcDbXrecord
280
     1
102
RTVSPropertyOp28
 70
     1
102
RTVSPropertyOp29
 70
     1
102
RTVSPropertyOp30
 70
     1
102
RTVSPropertyOp31
 70
     1
102
RTVSPropertyOp32
 70
     1
102
RTVSPropertyOp0
 70
     1
102
RTVSPropertyOp1
 70
     1
102
RTVSPropertyOp2
 70
     1
102
RTVSPropertyOp3
 70
     1
102
RTVSPropertyOp4
 70
     1
102
RTVSPropertyOp5
 70
     1
102
RTVSPropertyOp6
 70
     1
102
RTVSPropertyOp7
 70
     1
102
RTVSPropertyOp8
 70
     1
102
RTVSPropertyOp9
 70
     1
102
RTVSPropertyOp10
 70
     1
102
RTVSPropertyOp11
 70
     1
102
RTVSPropertyOp12
 70
     1
102
RTVSPropertyOp13
 70
     1
102
RTVSPropertyOp14
 70
     1
102
RTVSPropertyOp15
 70
     1
102
RTVSPropertyOp16
 70
     1
102
RTVSPropertyOp17
 70
     1
102
RTVSPropertyOp18
 70
     1
102
RTVSPropertyOp19
 70
     1
102
RTVSPropertyOp20
 70
     1
102
RTVSPropertyOp21
 70
     1
102
RTVSPropertyOp22
 70
     1
102
RTVSPropertyOp23
 70
     1
102
RTVSPropertyOp24
 70
     1
102
RTVSPropertyOp25
 70
     1
102
RTVSPropertyOp26
 70
     1
102
RTVSPropertyOp27
 70
     1
  0
XRECORD
  5
1E02
102
{ACAD_REACTORS
330
1E01
102
}
330
1E01
100
AcDbXrecord
280
     1
102
RTVSPropertyOp0
 70
     1
102
RTVSPropertyOp1
 70
     1
102
RTVSPropertyOp2
 70
     1
102
RTVSPropertyOp3
 70
     1
102
RTVSPropertyOp4
 70
     1
102
RTVSPropertyOp5
 70
     1
102
RTVSPropertyOp6
 70
     1
102
RTVSPropertyOp7
 70
     1
102
RTVSPropertyOp8
 70
     1
102
RTVSPropertyOp9
 70
     1
102
RTVSPropertyOp10
 70
     1
102
RTVSPropertyOp11
 70
     1
102
RTVSPropertyOp12
 70
     1
102
RTVSPropertyOp13
 70
     1
102
RTVSPropertyOp14
 70
     1
102
RTVSPropertyOp15
 70
     1
102
RTVSPropertyOp16
 70
     1
102
RTVSPropertyOp17
 70
     1
102
RTVSPropertyOp18
 70
     1
102
RTVSPropertyOp19
 70
     1
102
RTVSPropertyOp20
 70
     1
102
RTVSPropertyOp21
 70
     1
102
RTVSPropertyOp22
 70
     1
102
RTVSPropertyOp23
 70
     1
102
RTVSPropertyOp24
 70
     1
102
RTVSPropertyOp25
 70
     1
102
RTVSPropertyOp26
 70
     1
102
RTVSPropertyOp27
 70
     1
  0
XRECORD
  5
1E00
102
{ACAD_REACTORS
330
1DFF
102
}
330
1DFF
100
AcDbXrecord
280
     1
102
RTVSPropertyOp0
 70
     1
102
RTVSPropertyOp1
 70
     1
102
RTVSPropertyOp2
 70
     1
102
RTVSPropertyOp3
 70
     1
102
RTVSPropertyOp4
 70
     1
102
RTVSPropertyOp5
 70
     1
102
RTVSPropertyOp6
 70
     1
102
RTVSPropertyOp7
 70
     1
102
RTVSPropertyOp8
 70
     1
102
RTVSPropertyOp9
 70
     1
102
RTVSPropertyOp10
 70
     1
102
RTVSPropertyOp11
 70
     1
102
RTVSPropertyOp12
 70
     1
102
RTVSPropertyOp13
 70
     1
102
RTVSPropertyOp14
 70
     1
102
RTVSPropertyOp15
 70
     1
102
RTVSPropertyOp16
 70
     1
102
RTVSPropertyOp17
 70
     1
102
RTVSPropertyOp18
 70
     1
102
RTVSPropertyOp19
 70
     1
102
RTVSPropertyOp20
 70
     1
102
RTVSPropertyOp21
 70
     1
102
RTVSPropertyOp22
 70
     1
102
RTVSPropertyOp23
 70
     1
102
RTVSPropertyOp24
 70
     1
102
RTVSPropertyOp25
 70
     1
102
RTVSPropertyOp26
 70
     1
102
RTVSPropertyOp27
 70
     1
  0
XRECORD
  5
1A1F
102
{ACAD_REACTORS
330
1A1E
102
}
330
1A1E
100
AcDbXrecord
280
     1
102
RTVSPropertyOp28
 70
     1
102
RTVSPropertyOp29
 70
     1
102
RTVSPropertyOp30
 70
     1
102
RTVSPropertyOp31
 70
     1
102
RTVSPropertyOp32
 70
     1
102
RTVSPropertyOp0
 70
     1
102
RTVSPropertyOp1
 70
     1
102
RTVSPropertyOp2
 70
     1
102
RTVSPropertyOp3
 70
     1
102
RTVSPropertyOp4
 70
     1
102
RTVSPropertyOp5
 70
     1
102
RTVSPropertyOp6
 70
     1
102
RTVSPropertyOp7
 70
     1
102
RTVSPropertyOp8
 70
     1
102
RTVSPropertyOp9
 70
     1
102
RTVSPropertyOp10
 70
     1
102
RTVSPropertyOp11
 70
     1
102
RTVSPropertyOp12
 70
     1
102
RTVSPropertyOp13
 70
     1
102
RTVSPropertyOp14
 70
     1
102
RTVSPropertyOp15
 70
     1
102
RTVSPropertyOp16
 70
     1
102
RTVSPropertyOp17
 70
     1
102
RTVSPropertyOp18
 70
     1
102
RTVSPropertyOp19
 70
     1
102
RTVSPropertyOp20
 70
     1
102
RTVSPropertyOp21
 70
     1
102
RTVSPropertyOp22
 70
     1
102
RTVSPropertyOp23
 70
     1
102
RTVSPropertyOp24
 70
     1
102
RTVSPropertyOp25
 70
     1
102
RTVSPropertyOp26
 70
     1
102
RTVSPropertyOp27
 70
     1
  0
XRECORD
  5
1A2D
102
{ACAD_REACTORS
330
1A2C
102
}
330
1A2C
100
AcDbXrecord
280
     1
102
RTVSPropertyOp28
 70
     1
102
RTVSPropertyOp29
 70
     1
102
RTVSPropertyOp30
 70
     1
102
RTVSPropertyOp31
 70
     1
102
RTVSPropertyOp32
 70
     1
102
RTVSPropertyOp0
 70
     1
102
RTVSPropertyOp1
 70
     1
102
RTVSPropertyOp2
 70
     1
102
RTVSPropertyOp3
 70
     1
102
RTVSPropertyOp4
 70
     1
102
RTVSPropertyOp5
 70
     1
102
RTVSPropertyOp6
 70
     1
102
RTVSPropertyOp7
 70
     1
102
RTVSPropertyOp8
 70
     1
102
RTVSPropertyOp9
 70
     1
102
RTVSPropertyOp10
 70
     1
102
RTVSPropertyOp11
 70
     1
102
RTVSPropertyOp12
 70
     1
102
RTVSPropertyOp13
 70
     1
102
RTVSPropertyOp14
 70
     1
102
RTVSPropertyOp15
 70
     1
102
RTVSPropertyOp16
 70
     1
102
RTVSPropertyOp17
 70
     1
102
RTVSPropertyOp18
 70
     1
102
RTVSPropertyOp19
 70
     1
102
RTVSPropertyOp20
 70
     1
102
RTVSPropertyOp21
 70
     1
102
RTVSPropertyOp22
 70
     1
102
RTVSPropertyOp23
 70
     1
102
RTVSPropertyOp24
 70
     1
102
RTVSPropertyOp25
 70
     1
102
RTVSPropertyOp26
 70
     1
102
RTVSPropertyOp27
 70
     1
  0
XRECORD
  5
1A35
102
{ACAD_REACTORS
330
1A34
102
}
330
1A34
100
AcDbXrecord
280
     1
102
RTVSPropertyOp28
 70
     1
102
RTVSPropertyOp29
 70
     1
102
RTVSPropertyOp30
 70
     1
102
RTVSPropertyOp31
 70
     1
102
RTVSPropertyOp32
 70
     1
102
RTVSPropertyOp0
 70
     1
102
RTVSPropertyOp1
 70
     1
102
RTVSPropertyOp2
 70
     1
102
RTVSPropertyOp3
 70
     1
102
RTVSPropertyOp4
 70
     1
102
RTVSPropertyOp5
 70
     1
102
RTVSPropertyOp6
 70
     1
102
RTVSPropertyOp7
 70
     1
102
RTVSPropertyOp8
 70
     1
102
RTVSPropertyOp9
 70
     1
102
RTVSPropertyOp10
 70
     1
102
RTVSPropertyOp11
 70
     1
102
RTVSPropertyOp12
 70
     1
102
RTVSPropertyOp13
 70
     1
102
RTVSPropertyOp14
 70
     1
102
RTVSPropertyOp15
 70
     1
102
RTVSPropertyOp16
 70
     1
102
RTVSPropertyOp17
 70
     1
102
RTVSPropertyOp18
 70
     1
102
RTVSPropertyOp19
 70
     1
102
RTVSPropertyOp20
 70
     1
102
RTVSPropertyOp21
 70
     1
102
RTVSPropertyOp22
 70
     1
102
RTVSPropertyOp23
 70
     1
102
RTVSPropertyOp24
 70
     1
102
RTVSPropertyOp25
 70
     1
102
RTVSPropertyOp26
 70
     1
102
RTVSPropertyOp27
 70
     1
  0
XRECORD
  5
1A27
102
{ACAD_REACTORS
330
1A26
102
}
330
1A26
100
AcDbXrecord
280
     1
102
RTVSPropertyOp28
 70
     1
102
RTVSPropertyOp29
 70
     1
102
RTVSPropertyOp30
 70
     1
102
RTVSPropertyOp31
 70
     1
102
RTVSPropertyOp32
 70
     1
102
RTVSPropertyOp0
 70
     1
102
RTVSPropertyOp1
 70
     1
102
RTVSPropertyOp2
 70
     1
102
RTVSPropertyOp3
 70
     1
102
RTVSPropertyOp4
 70
     1
102
RTVSPropertyOp5
 70
     1
102
RTVSPropertyOp6
 70
     1
102
RTVSPropertyOp7
 70
     1
102
RTVSPropertyOp8
 70
     1
102
RTVSPropertyOp9
 70
     1
102
RTVSPropertyOp10
 70
     1
102
RTVSPropertyOp11
 70
     1
102
RTVSPropertyOp12
 70
     1
102
RTVSPropertyOp13
 70
     1
102
RTVSPropertyOp14
 70
     1
102
RTVSPropertyOp15
 70
     1
102
RTVSPropertyOp16
 70
     1
102
RTVSPropertyOp17
 70
     1
102
RTVSPropertyOp18
 70
     1
102
RTVSPropertyOp19
 70
     1
102
RTVSPropertyOp20
 70
     1
102
RTVSPropertyOp21
 70
     1
102
RTVSPropertyOp22
 70
     1
102
RTVSPropertyOp23
 70
     1
102
RTVSPropertyOp24
 70
     1
102
RTVSPropertyOp25
 70
     1
102
RTVSPropertyOp26
 70
     1
102
RTVSPropertyOp27
 70
     1
  0
XRECORD
  5
1A2B
102
{ACAD_REACTORS
330
1A2A
102
}
330
1A2A
100
AcDbXrecord
280
     1
102
RTVSPropertyOp28
 70
     1
102
RTVSPropertyOp29
 70
     1
102
RTVSPropertyOp30
 70
     1
102
RTVSPropertyOp31
 70
     1
102
RTVSPropertyOp32
 70
     1
102
RTVSPropertyOp0
 70
     1
102
RTVSPropertyOp1
 70
     1
102
RTVSPropertyOp2
 70
     1
102
RTVSPropertyOp3
 70
     1
102
RTVSPropertyOp4
 70
     1
102
RTVSPropertyOp5
 70
     1
102
RTVSPropertyOp6
 70
     1
102
RTVSPropertyOp7
 70
     1
102
RTVSPropertyOp8
 70
     1
102
RTVSPropertyOp9
 70
     1
102
RTVSPropertyOp10
 70
     1
102
RTVSPropertyOp11
 70
     1
102
RTVSPropertyOp12
 70
     1
102
RTVSPropertyOp13
 70
     1
102
RTVSPropertyOp14
 70
     1
102
RTVSPropertyOp15
 70
     1
102
RTVSPropertyOp16
 70
     1
102
RTVSPropertyOp17
 70
     1
102
RTVSPropertyOp18
 70
     1
102
RTVSPropertyOp19
 70
     1
102
RTVSPropertyOp20
 70
     1
102
RTVSPropertyOp21
 70
     1
102
RTVSPropertyOp22
 70
     1
102
RTVSPropertyOp23
 70
     1
102
RTVSPropertyOp24
 70
     1
102
RTVSPropertyOp25
 70
     1
102
RTVSPropertyOp26
 70
     1
102
RTVSPropertyOp27
 70
     1
  0
XRECORD
  5
1A45
102
{ACAD_REACTORS
330
1A44
102
}
330
1A44
100
AcDbXrecord
280
     1
102
RTVSPropertyOp28
 70
     0
102
RTVSPropertyOp29
 70
     0
102
RTVSPropertyOp30
 70
     0
102
RTVSPropertyOp31
 70
     0
102
RTVSPropertyOp32
 70
     0
102
RTVSPropertyOp0
 70
     0
102
RTVSPropertyOp1
 70
     0
102
RTVSPropertyOp2
 70
     0
102
RTVSPropertyOp3
 70
     0
102
RTVSPropertyOp4
 70
     0
102
RTVSPropertyOp5
 70
     0
102
RTVSPropertyOp6
 70
     0
102
RTVSPropertyOp7
 70
     0
102
RTVSPropertyOp8
 70
     0
102
RTVSPropertyOp9
 70
     0
102
RTVSPropertyOp10
 70
     0
102
RTVSPropertyOp11
 70
     0
102
RTVSPropertyOp12
 70
     0
102
RTVSPropertyOp13
 70
     0
102
RTVSPropertyOp14
 70
     2
102
RTVSPropertyOp15
 70
     0
102
RTVSPropertyOp16
 70
     0
102
RTVSPropertyOp17
 70
     0
102
RTVSPropertyOp18
 70
     0
102
RTVSPropertyOp19
 70
     0
102
RTVSPropertyOp20
 70
     0
102
RTVSPropertyOp21
 70
     0
102
RTVSPropertyOp22
 70
     0
102
RTVSPropertyOp23
 70
     0
102
RTVSPropertyOp24
 70
     0
102
RTVSPropertyOp25
 70
     0
102
RTVSPropertyOp26
 70
     0
102
RTVSPropertyOp27
 70
     0
  0
XRECORD
  5
1A33
102
{ACAD_REACTORS
330
1A32
102
}
330
1A32
100
AcDbXrecord
280
     1
102
RTVSPropertyOp28
 70
     1
102
RTVSPropertyOp29
 70
     1
102
RTVSPropertyOp30
 70
     1
102
RTVSPropertyOp31
 70
     1
102
RTVSPropertyOp32
 70
     1
102
RTVSPropertyOp0
 70
     1
102
RTVSPropertyOp1
 70
     1
102
RTVSPropertyOp2
 70
     1
102
RTVSPropertyOp3
 70
     1
102
RTVSPropertyOp4
 70
     1
102
RTVSPropertyOp5
 70
     1
102
RTVSPropertyOp6
 70
     1
102
RTVSPropertyOp7
 70
     1
102
RTVSPropertyOp8
 70
     1
102
RTVSPropertyOp9
 70
     1
102
RTVSPropertyOp10
 70
     1
102
RTVSPropertyOp11
 70
     1
102
RTVSPropertyOp12
 70
     1
102
RTVSPropertyOp13
 70
     1
102
RTVSPropertyOp14
 70
     1
102
RTVSPropertyOp15
 70
     1
102
RTVSPropertyOp16
 70
     1
102
RTVSPropertyOp17
 70
     1
102
RTVSPropertyOp18
 70
     1
102
RTVSPropertyOp19
 70
     1
102
RTVSPropertyOp20
 70
     1
102
RTVSPropertyOp21
 70
     1
102
RTVSPropertyOp22
 70
     1
102
RTVSPropertyOp23
 70
     1
102
RTVSPropertyOp24
 70
     1
102
RTVSPropertyOp25
 70
     1
102
RTVSPropertyOp26
 70
     1
102
RTVSPropertyOp27
 70
     1
  0
XRECORD
  5
1A17
102
{ACAD_REACTORS
330
1A16
102
}
330
1A16
100
AcDbXrecord
280
     1
102
RTVSPropertyOp28
 70
     1
102
RTVSPropertyOp29
 70
     1
102
RTVSPropertyOp30
 70
     1
102
RTVSPropertyOp31
 70
     1
102
RTVSPropertyOp32
 70
     1
102
RTVSPropertyOp0
 70
     1
102
RTVSPropertyOp1
 70
     1
102
RTVSPropertyOp2
 70
     1
102
RTVSPropertyOp3
 70
     1
102
RTVSPropertyOp4
 70
     1
102
RTVSPropertyOp5
 70
     1
102
RTVSPropertyOp6
 70
     1
102
RTVSPropertyOp7
 70
     1
102
RTVSPropertyOp8
 70
     1
102
RTVSPropertyOp9
 70
     1
102
RTVSPropertyOp10
 70
     1
102
RTVSPropertyOp11
 70
     1
102
RTVSPropertyOp12
 70
     1
102
RTVSPropertyOp13
 70
     1
102
RTVSPropertyOp14
 70
     1
102
RTVSPropertyOp15
 70
     1
102
RTVSPropertyOp16
 70
     1
102
RTVSPropertyOp17
 70
     1
102
RTVSPropertyOp18
 70
     1
102
RTVSPropertyOp19
 70
     1
102
RTVSPropertyOp20
 70
     1
102
RTVSPropertyOp21
 70
     1
102
RTVSPropertyOp22
 70
     1
102
RTVSPropertyOp23
 70
     1
102
RTVSPropertyOp24
 70
     1
102
RTVSPropertyOp25
 70
     1
102
RTVSPropertyOp26
 70
     1
102
RTVSPropertyOp27
 70
     1
  0
XRECORD
  5
1A19
102
{ACAD_REACTORS
330
1A18
102
}
330
1A18
100
AcDbXrecord
280
     1
102
RTVSPropertyOp28
 70
     1
102
RTVSPropertyOp29
 70
     1
102
RTVSPropertyOp30
 70
     1
102
RTVSPropertyOp31
 70
     1
102
RTVSPropertyOp32
 70
     1
102
RTVSPropertyOp0
 70
     1
102
RTVSPropertyOp1
 70
     1
102
RTVSPropertyOp2
 70
     1
102
RTVSPropertyOp3
 70
     1
102
RTVSPropertyOp4
 70
     1
102
RTVSPropertyOp5
 70
     1
102
RTVSPropertyOp6
 70
     1
102
RTVSPropertyOp7
 70
     1
102
RTVSPropertyOp8
 70
     1
102
RTVSPropertyOp9
 70
     1
102
RTVSPropertyOp10
 70
     1
102
RTVSPropertyOp11
 70
     1
102
RTVSPropertyOp12
 70
     1
102
RTVSPropertyOp13
 70
     1
102
RTVSPropertyOp14
 70
     1
102
RTVSPropertyOp15
 70
     1
102
RTVSPropertyOp16
 70
     1
102
RTVSPropertyOp17
 70
     1
102
RTVSPropertyOp18
 70
     1
102
RTVSPropertyOp19
 70
     1
102
RTVSPropertyOp20
 70
     1
102
RTVSPropertyOp21
 70
     1
102
RTVSPropertyOp22
 70
     1
102
RTVSPropertyOp23
 70
     1
102
RTVSPropertyOp24
 70
     1
102
RTVSPropertyOp25
 70
     1
102
RTVSPropertyOp26
 70
     1
102
RTVSPropertyOp27
 70
     1
  0
XRECORD
  5
1A1B
102
{ACAD_REACTORS
330
1A1A
102
}
330
1A1A
100
AcDbXrecord
280
     1
102
RTVSPropertyOp28
 70
     1
102
RTVSPropertyOp29
 70
     1
102
RTVSPropertyOp30
 70
     1
102
RTVSPropertyOp31
 70
     1
102
RTVSPropertyOp32
 70
     1
102
RTVSPropertyOp0
 70
     1
102
RTVSPropertyOp1
 70
     1
102
RTVSPropertyOp2
 70
     1
102
RTVSPropertyOp3
 70
     1
102
RTVSPropertyOp4
 70
     1
102
RTVSPropertyOp5
 70
     1
102
RTVSPropertyOp6
 70
     1
102
RTVSPropertyOp7
 70
     1
102
RTVSPropertyOp8
 70
     1
102
RTVSPropertyOp9
 70
     1
102
RTVSPropertyOp10
 70
     1
102
RTVSPropertyOp11
 70
     1
102
RTVSPropertyOp12
 70
     1
102
RTVSPropertyOp13
 70
     1
102
RTVSPropertyOp14
 70
     1
102
RTVSPropertyOp15
 70
     1
102
RTVSPropertyOp16
 70
     1
102
RTVSPropertyOp17
 70
     1
102
RTVSPropertyOp18
 70
     1
102
RTVSPropertyOp19
 70
     1
102
RTVSPropertyOp20
 70
     1
102
RTVSPropertyOp21
 70
     1
102
RTVSPropertyOp22
 70
     1
102
RTVSPropertyOp23
 70
     1
102
RTVSPropertyOp24
 70
     1
102
RTVSPropertyOp25
 70
     1
102
RTVSPropertyOp26
 70
     1
102
RTVSPropertyOp27
 70
     1
  0
XRECORD
  5
1A1D
102
{ACAD_REACTORS
330
1A1C
102
}
330
1A1C
100
AcDbXrecord
280
     1
102
RTVSPropertyOp28
 70
     1
102
RTVSPropertyOp29
 70
     1
102
RTVSPropertyOp30
 70
     1
102
RTVSPropertyOp31
 70
     1
102
RTVSPropertyOp32
 70
     1
102
RTVSPropertyOp0
 70
     1
102
RTVSPropertyOp1
 70
     1
102
RTVSPropertyOp2
 70
     1
102
RTVSPropertyOp3
 70
     1
102
RTVSPropertyOp4
 70
     1
102
RTVSPropertyOp5
 70
     1
102
RTVSPropertyOp6
 70
     1
102
RTVSPropertyOp7
 70
     1
102
RTVSPropertyOp8
 70
     1
102
RTVSPropertyOp9
 70
     1
102
RTVSPropertyOp10
 70
     1
102
RTVSPropertyOp11
 70
     1
102
RTVSPropertyOp12
 70
     1
102
RTVSPropertyOp13
 70
     1
102
RTVSPropertyOp14
 70
     1
102
RTVSPropertyOp15
 70
     1
102
RTVSPropertyOp16
 70
     1
102
RTVSPropertyOp17
 70
     1
102
RTVSPropertyOp18
 70
     1
102
RTVSPropertyOp19
 70
     1
102
RTVSPropertyOp20
 70
     1
102
RTVSPropertyOp21
 70
     1
102
RTVSPropertyOp22
 70
     1
102
RTVSPropertyOp23
 70
     1
102
RTVSPropertyOp24
 70
     1
102
RTVSPropertyOp25
 70
     1
102
RTVSPropertyOp26
 70
     1
102
RTVSPropertyOp27
 70
     1
  0
XRECORD
  5
1A25
102
{ACAD_REACTORS
330
1A24
102
}
330
1A24
100
AcDbXrecord
280
     1
102
RTVSPropertyOp28
 70
     1
102
RTVSPropertyOp29
 70
     1
102
RTVSPropertyOp30
 70
     1
102
RTVSPropertyOp31
 70
     1
102
RTVSPropertyOp32
 70
     1
102
RTVSPropertyOp0
 70
     1
102
RTVSPropertyOp1
 70
     1
102
RTVSPropertyOp2
 70
     1
102
RTVSPropertyOp3
 70
     1
102
RTVSPropertyOp4
 70
     1
102
RTVSPropertyOp5
 70
     1
102
RTVSPropertyOp6
 70
     1
102
RTVSPropertyOp7
 70
     1
102
RTVSPropertyOp8
 70
     1
102
RTVSPropertyOp9
 70
     1
102
RTVSPropertyOp10
 70
     1
102
RTVSPropertyOp11
 70
     1
102
RTVSPropertyOp12
 70
     1
102
RTVSPropertyOp13
 70
     1
102
RTVSPropertyOp14
 70
     1
102
RTVSPropertyOp15
 70
     1
102
RTVSPropertyOp16
 70
     1
102
RTVSPropertyOp17
 70
     1
102
RTVSPropertyOp18
 70
     1
102
RTVSPropertyOp19
 70
     1
102
RTVSPropertyOp20
 70
     1
102
RTVSPropertyOp21
 70
     1
102
RTVSPropertyOp22
 70
     1
102
RTVSPropertyOp23
 70
     1
102
RTVSPropertyOp24
 70
     1
102
RTVSPropertyOp25
 70
     1
102
RTVSPropertyOp26
 70
     1
102
RTVSPropertyOp27
 70
     1
  0
XRECORD
  5
1A41
102
{ACAD_REACTORS
330
1A40
102
}
330
1A40
100
AcDbXrecord
280
     1
102
RTVSPropertyOp28
 70
     0
102
RTVSPropertyOp29
 70
     0
102
RTVSPropertyOp30
 70
     0
102
RTVSPropertyOp31
 70
     0
102
RTVSPropertyOp32
 70
     0
102
RTVSPropertyOp0
 70
     0
102
RTVSPropertyOp1
 70
     0
102
RTVSPropertyOp2
 70
     0
102
RTVSPropertyOp3
 70
     0
102
RTVSPropertyOp4
 70
     0
102
RTVSPropertyOp5
 70
     0
102
RTVSPropertyOp6
 70
     0
102
RTVSPropertyOp7
 70
     0
102
RTVSPropertyOp8
 70
     0
102
RTVSPropertyOp9
 70
     0
102
RTVSPropertyOp10
 70
     0
102
RTVSPropertyOp11
 70
     0
102
RTVSPropertyOp12
 70
     0
102
RTVSPropertyOp13
 70
     0
102
RTVSPropertyOp14
 70
     2
102
RTVSPropertyOp15
 70
     0
102
RTVSPropertyOp16
 70
     0
102
RTVSPropertyOp17
 70
     0
102
RTVSPropertyOp18
 70
     0
102
RTVSPropertyOp19
 70
     0
102
RTVSPropertyOp20
 70
     0
102
RTVSPropertyOp21
 70
     0
102
RTVSPropertyOp22
 70
     0
102
RTVSPropertyOp23
 70
     0
102
RTVSPropertyOp24
 70
     0
102
RTVSPropertyOp25
 70
     0
102
RTVSPropertyOp26
 70
     0
102
RTVSPropertyOp27
 70
     0
  0
XRECORD
  5
1A31
102
{ACAD_REACTORS
330
1A30
102
}
330
1A30
100
AcDbXrecord
280
     1
102
RTVSPropertyOp28
 70
     1
102
RTVSPropertyOp29
 70
     1
102
RTVSPropertyOp30
 70
     1
102
RTVSPropertyOp31
 70
     1
102
RTVSPropertyOp32
 70
     1
102
RTVSPropertyOp0
 70
     1
102
RTVSPropertyOp1
 70
     1
102
RTVSPropertyOp2
 70
     1
102
RTVSPropertyOp3
 70
     1
102
RTVSPropertyOp4
 70
     1
102
RTVSPropertyOp5
 70
     1
102
RTVSPropertyOp6
 70
     1
102
RTVSPropertyOp7
 70
     1
102
RTVSPropertyOp8
 70
     1
102
RTVSPropertyOp9
 70
     1
102
RTVSPropertyOp10
 70
     1
102
RTVSPropertyOp11
 70
     1
102
RTVSPropertyOp12
 70
     1
102
RTVSPropertyOp13
 70
     1
102
RTVSPropertyOp14
 70
     1
102
RTVSPropertyOp15
 70
     1
102
RTVSPropertyOp16
 70
     1
102
RTVSPropertyOp17
 70
     1
102
RTVSPropertyOp18
 70
     1
102
RTVSPropertyOp19
 70
     1
102
RTVSPropertyOp20
 70
     1
102
RTVSPropertyOp21
 70
     1
102
RTVSPropertyOp22
 70
     1
102
RTVSPropertyOp23
 70
     1
102
RTVSPropertyOp24
 70
     1
102
RTVSPropertyOp25
 70
     1
102
RTVSPropertyOp26
 70
     1
102
RTVSPropertyOp27
 70
     1
  0
XRECORD
  5
1A43
102
{ACAD_REACTORS
330
1A42
102
}
330
1A42
100
AcDbXrecord
280
     1
102
RTVSPropertyOp28
 70
     0
102
RTVSPropertyOp29
 70
     0
102
RTVSPropertyOp30
 70
     0
102
RTVSPropertyOp31
 70
     0
102
RTVSPropertyOp32
 70
     0
102
RTVSPropertyOp0
 70
     0
102
RTVSPropertyOp1
 70
     0
102
RTVSPropertyOp2
 70
     0
102
RTVSPropertyOp3
 70
     0
102
RTVSPropertyOp4
 70
     0
102
RTVSPropertyOp5
 70
     0
102
RTVSPropertyOp6
 70
     0
102
RTVSPropertyOp7
 70
     0
102
RTVSPropertyOp8
 70
     0
102
RTVSPropertyOp9
 70
     0
102
RTVSPropertyOp10
 70
     0
102
RTVSPropertyOp11
 70
     0
102
RTVSPropertyOp12
 70
     0
102
RTVSPropertyOp13
 70
     0
102
RTVSPropertyOp14
 70
     2
102
RTVSPropertyOp15
 70
     0
102
RTVSPropertyOp16
 70
     0
102
RTVSPropertyOp17
 70
     0
102
RTVSPropertyOp18
 70
     0
102
RTVSPropertyOp19
 70
     0
102
RTVSPropertyOp20
 70
     0
102
RTVSPropertyOp21
 70
     0
102
RTVSPropertyOp22
 70
     0
102
RTVSPropertyOp23
 70
     0
102
RTVSPropertyOp24
 70
     0
102
RTVSPropertyOp25
 70
     0
102
RTVSPropertyOp26
 70
     0
102
RTVSPropertyOp27
 70
     0
  0
XRECORD
  5
1A29
102
{ACAD_REACTORS
330
1A28
102
}
330
1A28
100
AcDbXrecord
280
     1
102
RTVSPropertyOp28
 70
     1
102
RTVSPropertyOp29
 70
     1
102
RTVSPropertyOp30
 70
     1
102
RTVSPropertyOp31
 70
     1
102
RTVSPropertyOp32
 70
     1
102
RTVSPropertyOp0
 70
     1
102
RTVSPropertyOp1
 70
     1
102
RTVSPropertyOp2
 70
     1
102
RTVSPropertyOp3
 70
     1
102
RTVSPropertyOp4
 70
     1
102
RTVSPropertyOp5
 70
     1
102
RTVSPropertyOp6
 70
     1
102
RTVSPropertyOp7
 70
     1
102
RTVSPropertyOp8
 70
     1
102
RTVSPropertyOp9
 70
     1
102
RTVSPropertyOp10
 70
     1
102
RTVSPropertyOp11
 70
     1
102
RTVSPropertyOp12
 70
     1
102
RTVSPropertyOp13
 70
     1
102
RTVSPropertyOp14
 70
     1
102
RTVSPropertyOp15
 70
     1
102
RTVSPropertyOp16
 70
     1
102
RTVSPropertyOp17
 70
     1
102
RTVSPropertyOp18
 70
     1
102
RTVSPropertyOp19
 70
     1
102
RTVSPropertyOp20
 70
     1
102
RTVSPropertyOp21
 70
     1
102
RTVSPropertyOp22
 70
     1
102
RTVSPropertyOp23
 70
     1
102
RTVSPropertyOp24
 70
     1
102
RTVSPropertyOp25
 70
     1
102
RTVSPropertyOp26
 70
     1
102
RTVSPropertyOp27
 70
     1
  0
XRECORD
  5
1A3F
102
{ACAD_REACTORS
330
1A3E
102
}
330
1A3E
100
AcDbXrecord
280
     1
102
RTVSPropertyOp28
 70
     1
102
RTVSPropertyOp29
 70
     1
102
RTVSPropertyOp30
 70
     1
102
RTVSPropertyOp31
 70
     1
102
RTVSPropertyOp32
 70
     1
102
RTVSPropertyOp0
 70
     1
102
RTVSPropertyOp1
 70
     1
102
RTVSPropertyOp2
 70
     1
102
RTVSPropertyOp3
 70
     1
102
RTVSPropertyOp4
 70
     1
102
RTVSPropertyOp5
 70
     1
102
RTVSPropertyOp6
 70
     1
102
RTVSPropertyOp7
 70
     1
102
RTVSPropertyOp8
 70
     1
102
RTVSPropertyOp9
 70
     1
102
RTVSPropertyOp10
 70
     1
102
RTVSPropertyOp11
 70
     1
102
RTVSPropertyOp12
 70
     1
102
RTVSPropertyOp13
 70
     1
102
RTVSPropertyOp14
 70
     1
102
RTVSPropertyOp15
 70
     1
102
RTVSPropertyOp16
 70
     1
102
RTVSPropertyOp17
 70
     1
102
RTVSPropertyOp18
 70
     1
102
RTVSPropertyOp19
 70
     1
102
RTVSPropertyOp20
 70
     1
102
RTVSPropertyOp21
 70
     1
102
RTVSPropertyOp22
 70
     1
102
RTVSPropertyOp23
 70
     1
102
RTVSPropertyOp24
 70
     1
102
RTVSPropertyOp25
 70
     1
102
RTVSPropertyOp26
 70
     1
102
RTVSPropertyOp27
 70
     1
  0
XRECORD
  5
1A3D
102
{ACAD_REACTORS
330
1A3C
102
}
330
1A3C
100
AcDbXrecord
280
     1
102
RTVSPropertyOp28
 70
     1
102
RTVSPropertyOp29
 70
     1
102
RTVSPropertyOp30
 70
     1
102
RTVSPropertyOp31
 70
     1
102
RTVSPropertyOp32
 70
     1
102
RTVSPropertyOp0
 70
     1
102
RTVSPropertyOp1
 70
     1
102
RTVSPropertyOp2
 70
     1
102
RTVSPropertyOp3
 70
     1
102
RTVSPropertyOp4
 70
     1
102
RTVSPropertyOp5
 70
     1
102
RTVSPropertyOp6
 70
     1
102
RTVSPropertyOp7
 70
     1
102
RTVSPropertyOp8
 70
     1
102
RTVSPropertyOp9
 70
     1
102
RTVSPropertyOp10
 70
     1
102
RTVSPropertyOp11
 70
     1
102
RTVSPropertyOp12
 70
     1
102
RTVSPropertyOp13
 70
     1
102
RTVSPropertyOp14
 70
     1
102
RTVSPropertyOp15
 70
     1
102
RTVSPropertyOp16
 70
     1
102
RTVSPropertyOp17
 70
     1
102
RTVSPropertyOp18
 70
     1
102
RTVSPropertyOp19
 70
     1
102
RTVSPropertyOp20
 70
     1
102
RTVSPropertyOp21
 70
     1
102
RTVSPropertyOp22
 70
     1
102
RTVSPropertyOp23
 70
     1
102
RTVSPropertyOp24
 70
     1
102
RTVSPropertyOp25
 70
     1
102
RTVSPropertyOp26
 70
     1
102
RTVSPropertyOp27
 70
     1
  0
XRECORD
  5
1A37
102
{ACAD_REACTORS
330
1A36
102
}
330
1A36
100
AcDbXrecord
280
     1
102
RTVSPropertyOp28
 70
     1
102
RTVSPropertyOp29
 70
     1
102
RTVSPropertyOp30
 70
     1
102
RTVSPropertyOp31
 70
     1
102
RTVSPropertyOp32
 70
     1
102
RTVSPropertyOp0
 70
     1
102
RTVSPropertyOp1
 70
     1
102
RTVSPropertyOp2
 70
     1
102
RTVSPropertyOp3
 70
     1
102
RTVSPropertyOp4
 70
     1
102
RTVSPropertyOp5
 70
     1
102
RTVSPropertyOp6
 70
     1
102
RTVSPropertyOp7
 70
     1
102
RTVSPropertyOp8
 70
     1
102
RTVSPropertyOp9
 70
     1
102
RTVSPropertyOp10
 70
     1
102
RTVSPropertyOp11
 70
     1
102
RTVSPropertyOp12
 70
     1
102
RTVSPropertyOp13
 70
     1
102
RTVSPropertyOp14
 70
     1
102
RTVSPropertyOp15
 70
     1
102
RTVSPropertyOp16
 70
     1
102
RTVSPropertyOp17
 70
     1
102
RTVSPropertyOp18
 70
     1
102
RTVSPropertyOp19
 70
     1
102
RTVSPropertyOp20
 70
     1
102
RTVSPropertyOp21
 70
     1
102
RTVSPropertyOp22
 70
     1
102
RTVSPropertyOp23
 70
     1
102
RTVSPropertyOp24
 70
     1
102
RTVSPropertyOp25
 70
     1
102
RTVSPropertyOp26
 70
     1
102
RTVSPropertyOp27
 70
     1
  0
XRECORD
  5
1A39
102
{ACAD_REACTORS
330
1A38
102
}
330
1A38
100
AcDbXrecord
280
     1
102
RTVSPropertyOp28
 70
     1
102
RTVSPropertyOp29
 70
     1
102
RTVSPropertyOp30
 70
     1
102
RTVSPropertyOp31
 70
     1
102
RTVSPropertyOp32
 70
     1
102
RTVSPropertyOp0
 70
     1
102
RTVSPropertyOp1
 70
     1
102
RTVSPropertyOp2
 70
     1
102
RTVSPropertyOp3
 70
     1
102
RTVSPropertyOp4
 70
     1
102
RTVSPropertyOp5
 70
     1
102
RTVSPropertyOp6
 70
     1
102
RTVSPropertyOp7
 70
     1
102
RTVSPropertyOp8
 70
     1
102
RTVSPropertyOp9
 70
     1
102
RTVSPropertyOp10
 70
     1
102
RTVSPropertyOp11
 70
     1
102
RTVSPropertyOp12
 70
     1
102
RTVSPropertyOp13
 70
     1
102
RTVSPropertyOp14
 70
     1
102
RTVSPropertyOp15
 70
     1
102
RTVSPropertyOp16
 70
     1
102
RTVSPropertyOp17
 70
     1
102
RTVSPropertyOp18
 70
     1
102
RTVSPropertyOp19
 70
     1
102
RTVSPropertyOp20
 70
     1
102
RTVSPropertyOp21
 70
     1
102
RTVSPropertyOp22
 70
     1
102
RTVSPropertyOp23
 70
     1
102
RTVSPropertyOp24
 70
     1
102
RTVSPropertyOp25
 70
     1
102
RTVSPropertyOp26
 70
     1
102
RTVSPropertyOp27
 70
     1
  0
XRECORD
  5
1A2F
102
{ACAD_REACTORS
330
1A2E
102
}
330
1A2E
100
AcDbXrecord
280
     1
102
RTVSPropertyOp28
 70
     1
102
RTVSPropertyOp29
 70
     1
102
RTVSPropertyOp30
 70
     1
102
RTVSPropertyOp31
 70
     1
102
RTVSPropertyOp32
 70
     1
102
RTVSPropertyOp0
 70
     1
102
RTVSPropertyOp1
 70
     1
102
RTVSPropertyOp2
 70
     1
102
RTVSPropertyOp3
 70
     1
102
RTVSPropertyOp4
 70
     1
102
RTVSPropertyOp5
 70
     1
102
RTVSPropertyOp6
 70
     1
102
RTVSPropertyOp7
 70
     1
102
RTVSPropertyOp8
 70
     1
102
RTVSPropertyOp9
 70
     1
102
RTVSPropertyOp10
 70
     1
102
RTVSPropertyOp11
 70
     1
102
RTVSPropertyOp12
 70
     1
102
RTVSPropertyOp13
 70
     1
102
RTVSPropertyOp14
 70
     1
102
RTVSPropertyOp15
 70
     1
102
RTVSPropertyOp16
 70
     1
102
RTVSPropertyOp17
 70
     1
102
RTVSPropertyOp18
 70
     1
102
RTVSPropertyOp19
 70
     1
102
RTVSPropertyOp20
 70
     1
102
RTVSPropertyOp21
 70
     1
102
RTVSPropertyOp22
 70
     1
102
RTVSPropertyOp23
 70
     1
102
RTVSPropertyOp24
 70
     1
102
RTVSPropertyOp25
 70
     1
102
RTVSPropertyOp26
 70
     1
102
RTVSPropertyOp27
 70
     1
  0
XRECORD
  5
1A23
102
{ACAD_REACTORS
330
1A22
102
}
330
1A22
100
AcDbXrecord
280
     1
102
RTVSPropertyOp28
 70
     1
102
RTVSPropertyOp29
 70
     1
102
RTVSPropertyOp30
 70
     1
102
RTVSPropertyOp31
 70
     1
102
RTVSPropertyOp32
 70
     1
102
RTVSPropertyOp0
 70
     1
102
RTVSPropertyOp1
 70
     1
102
RTVSPropertyOp2
 70
     1
102
RTVSPropertyOp3
 70
     1
102
RTVSPropertyOp4
 70
     1
102
RTVSPropertyOp5
 70
     1
102
RTVSPropertyOp6
 70
     1
102
RTVSPropertyOp7
 70
     1
102
RTVSPropertyOp8
 70
     1
102
RTVSPropertyOp9
 70
     1
102
RTVSPropertyOp10
 70
     1
102
RTVSPropertyOp11
 70
     1
102
RTVSPropertyOp12
 70
     1
102
RTVSPropertyOp13
 70
     1
102
RTVSPropertyOp14
 70
     1
102
RTVSPropertyOp15
 70
     1
102
RTVSPropertyOp16
 70
     1
102
RTVSPropertyOp17
 70
     1
102
RTVSPropertyOp18
 70
     1
102
RTVSPropertyOp19
 70
     1
102
RTVSPropertyOp20
 70
     1
102
RTVSPropertyOp21
 70
     1
102
RTVSPropertyOp22
 70
     1
102
RTVSPropertyOp23
 70
     1
102
RTVSPropertyOp24
 70
     1
102
RTVSPropertyOp25
 70
     1
102
RTVSPropertyOp26
 70
     1
102
RTVSPropertyOp27
 70
     1
  0
XRECORD
  5
1A3B
102
{ACAD_REACTORS
330
1A3A
102
}
330
1A3A
100
AcDbXrecord
280
     1
102
RTVSPropertyOp28
 70
     1
102
RTVSPropertyOp29
 70
     1
102
RTVSPropertyOp30
 70
     1
102
RTVSPropertyOp31
 70
     1
102
RTVSPropertyOp32
 70
     1
102
RTVSPropertyOp0
 70
     1
102
RTVSPropertyOp1
 70
     1
102
RTVSPropertyOp2
 70
     1
102
RTVSPropertyOp3
 70
     1
102
RTVSPropertyOp4
 70
     1
102
RTVSPropertyOp5
 70
     1
102
RTVSPropertyOp6
 70
     1
102
RTVSPropertyOp7
 70
     1
102
RTVSPropertyOp8
 70
     1
102
RTVSPropertyOp9
 70
     1
102
RTVSPropertyOp10
 70
     1
102
RTVSPropertyOp11
 70
     1
102
RTVSPropertyOp12
 70
     1
102
RTVSPropertyOp13
 70
     1
102
RTVSPropertyOp14
 70
     1
102
RTVSPropertyOp15
 70
     1
102
RTVSPropertyOp16
 70
     1
102
RTVSPropertyOp17
 70
     1
102
RTVSPropertyOp18
 70
     1
102
RTVSPropertyOp19
 70
     1
102
RTVSPropertyOp20
 70
     1
102
RTVSPropertyOp21
 70
     1
102
RTVSPropertyOp22
 70
     1
102
RTVSPropertyOp23
 70
     1
102
RTVSPropertyOp24
 70
     1
102
RTVSPropertyOp25
 70
     1
102
RTVSPropertyOp26
 70
     1
102
RTVSPropertyOp27
 70
     1
  0
ENDSEC
  0
EOF
