  0
SECTION
  2
HEADER
  9
$ACADVER
  1
AC1018
  9
$ACADMAINTVER
 70
   104
  9
$DWGCODEPAGE
  3
ANSI_1250
  9
$AUTHOR
  1
plangpaul
  9
$LASTSAVEDBY
  1
tkotlas
  9
$REVISIONNUMBER
  1
000
  9
$CUSTOMPROPERTYTAG
  1
Vedoucí
  9
$CUSTOMPROPERTY
  1

  9
$CUSTOMPROPERTYTAG
  1
Společnost
  9
$CUSTOMPROPERTY
  1

  9
$CUSTOMPROPERTYTAG
  1
Kategorie
  9
$CUSTOMPROPERTY
  1

  9
$CUSTOMPROPERTYTAG
  1
Číslo součásti
  9
$CUSTOMPROPERTY
  1
408033
  9
$CUSTOMPROPERTYTAG
  1
Popis
  9
$CUSTOMPROPERTY
  1

  9
$CUSTOMPROPERTYTAG
  1
Projekt
  9
$CUSTOMPROPERTY
  1

  9
$CUSTOMPROPERTYTAG
  1
Kreslil
  9
$CUSTOMPROPERTY
  1
plangpaul
  9
$CUSTOMPROPERTYTAG
  1
Schválil
  9
$CUSTOMPROPERTY
  1

  9
$CUSTOMPROPERTYTAG
  1
Zodpovídá
  9
$CUSTOMPROPERTY
  1

  9
$CUSTOMPROPERTYTAG
  1
Nákladové středisko
  9
$CUSTOMPROPERTY
  1

  9
$CUSTOMPROPERTYTAG
  1
Dodavatel
  9
$CUSTOMPROPERTY
  1

  9
$CUSTOMPROPERTYTAG
  1
Uživatelský stav
  9
$CUSTOMPROPERTY
  1

  9
$CUSTOMPROPERTYTAG
  1
Stav návrhu
  9
$CUSTOMPROPERTY
  1
Rozpracováno
  9
$CUSTOMPROPERTYTAG
  1
Zkontroloval
  9
$CUSTOMPROPERTY
  1

  9
$CUSTOMPROPERTYTAG
  1
Techn. kontr. schválil
  9
$CUSTOMPROPERTY
  1

  9
$CUSTOMPROPERTYTAG
  1
Výrobu schválil
  9
$CUSTOMPROPERTY
  1

  9
$CUSTOMPROPERTYTAG
  1
VS_First
  9
$CUSTOMPROPERTY
  1

  9
$CUSTOMPROPERTYTAG
  1
VS_All
  9
$CUSTOMPROPERTY
  1
1:1,
  9
$CUSTOMPROPERTYTAG
  1
Model_Mass_Value
  9
$CUSTOMPROPERTY
  1
,0
  9
$CUSTOMPROPERTYTAG
  1
Model_Mass_Units
  9
$CUSTOMPROPERTY
  1
kg
  9
$CUSTOMPROPERTYTAG
  1
Model_Area_Value
  9
$CUSTOMPROPERTY
  1
2694,0
  9
$CUSTOMPROPERTYTAG
  1
Model_Area_Units
  9
$CUSTOMPROPERTY
  1
mm˛
  9
$CUSTOMPROPERTYTAG
  1
Model_Volume_Value
  9
$CUSTOMPROPERTY
  1
5471,0
  9
$CUSTOMPROPERTYTAG
  1
Model_Volume_Units
  9
$CUSTOMPROPERTY
  1
mmł
  9
$CUSTOMPROPERTYTAG
  1
Model_CogX_Value
  9
$CUSTOMPROPERTY
  1
,0
  9
$CUSTOMPROPERTYTAG
  1
Model_CogY_Value
  9
$CUSTOMPROPERTY
  1
,0
  9
$CUSTOMPROPERTYTAG
  1
Model_CogZ_Value
  9
$CUSTOMPROPERTY
  1
,0
  9
$CUSTOMPROPERTYTAG
  1
Model_Cog_Units
  9
$CUSTOMPROPERTY
  1
mm
  9
$CUSTOMPROPERTYTAG
  1
Model_Ixx_Value
  9
$CUSTOMPROPERTY
  1
,0
  9
$CUSTOMPROPERTYTAG
  1
Model_Iyy_Value
  9
$CUSTOMPROPERTY
  1
,0
  9
$CUSTOMPROPERTYTAG
  1
Model_Izz_Value
  9
$CUSTOMPROPERTY
  1
,0
  9
$CUSTOMPROPERTYTAG
  1
Model_Ixy_Value
  9
$CUSTOMPROPERTY
  1
,0
  9
$CUSTOMPROPERTYTAG
  1
Model_Iyz_Value
  9
$CUSTOMPROPERTY
  1
,0
  9
$CUSTOMPROPERTYTAG
  1
Model_Ixz_Value
  9
$CUSTOMPROPERTY
  1
,0
  9
$CUSTOMPROPERTYTAG
  1
Model_MassMom_Units
  9
$CUSTOMPROPERTY
  1
kg mm˛
  9
$CUSTOMPROPERTYTAG
  1
FirstViewScale
  9
$CUSTOMPROPERTY
  1

  9
$CUSTOMPROPERTYTAG
  1
AllViewScales
  9
$CUSTOMPROPERTY
  1

  9
$CUSTOMPROPERTYTAG
  1
SaveDate
  9
$CUSTOMPROPERTY
  1
09/11/2007
  9
$CUSTOMPROPERTYTAG
  1
SaveTime
  9
$CUSTOMPROPERTY
  1
10:32
  9
$CUSTOMPROPERTYTAG
  1
PaperSize
  9
$CUSTOMPROPERTY
  1
A3
  9
$CUSTOMPROPERTYTAG
  1
DateSaved
  9
$CUSTOMPROPERTY
  1
12.09.2007
  9
$CUSTOMPROPERTYTAG
  1
TimeSaved
  9
$CUSTOMPROPERTY
  1
10:32 dop.
  9
$INSBASE
 10
0.0
 20
0.0
 30
0.0
  9
$EXTMIN
 10
-26.63174749665971
 20
5.059583530019999
 30
0.0
  9
$EXTMAX
 10
291.3509007620757
 20
307.6738859942612
 30
0.0
  9
$LIMMIN
 10
0.0
 20
0.0
  9
$LIMMAX
 10
594.0
 20
420.0
  9
$ORTHOMODE
 70
     1
  9
$REGENMODE
 70
     1
  9
$FILLMODE
 70
     1
  9
$QTEXTMODE
 70
     0
  9
$MIRRTEXT
 70
     0
  9
$LTSCALE
 40
1.0
  9
$ATTMODE
 70
     1
  9
$TEXTSIZE
 40
0.2
  9
$TRACEWID
 40
0.05
  9
$TEXTSTYLE
  7
Standard
  9
$CLAYER
  8
0
  9
$CELTYPE
  6
ByLayer
  9
$CECOLOR
 62
   256
  9
$CELTSCALE
 40
1.0
  9
$DISPSILH
 70
     0
  9
$DIMSCALE
 40
1.0
  9
$DIMASZ
 40
3.5
  9
$DIMEXO
 40
1.0
  9
$DIMDLI
 40
10.0
  9
$DIMRND
 40
0.0
  9
$DIMDLE
 40
0.0
  9
$DIMEXE
 40
1.0
  9
$DIMTP
 40
0.1
  9
$DIMTM
 40
0.1
  9
$DIMTXT
 40
3.5
  9
$DIMCEN
 40
0.0
  9
$DIMTSZ
 40
0.0
  9
$DIMTOL
 70
     0
  9
$DIMLIM
 70
     0
  9
$DIMTIH
 70
     0
  9
$DIMTOH
 70
     0
  9
$DIMSE1
 70
     0
  9
$DIMSE2
 70
     0
  9
$DIMTAD
 70
     1
  9
$DIMZIN
 70
     8
  9
$DIMBLK
  1

  9
$DIMASO
 70
     1
  9
$DIMSHO
 70
     1
  9
$DIMPOST
  1

  9
$DIMAPOST
  1
"
  9
$DIMALT
 70
     0
  9
$DIMALTD
 70
     2
  9
$DIMALTF
 40
0.0393701
  9
$DIMLFAC
 40
1.0
  9
$DIMTOFL
 70
     1
  9
$DIMTVP
 40
0.0
  9
$DIMTIX
 70
     0
  9
$DIMSOXD
 70
     0
  9
$DIMSAH
 70
     0
  9
$DIMBLK1
  1

  9
$DIMBLK2
  1

  9
$DIMSTYLE
  2
AM_ISO
  9
$DIMCLRD
 70
   256
  9
$DIMCLRE
 70
   256
  9
$DIMCLRT
 70
   140
  9
$DIMTFAC
 40
0.71
  9
$DIMGAP
 40
1.5
  9
$DIMJUST
 70
     0
  9
$DIMSD1
 70
     0
  9
$DIMSD2
 70
     0
  9
$DIMTOLJ
 70
     0
  9
$DIMTZIN
 70
     8
  9
$DIMALTZ
 70
     0
  9
$DIMALTTZ
 70
     0
  9
$DIMUPT
 70
     0
  9
$DIMDEC
 70
     2
  9
$DIMTDEC
 70
     3
  9
$DIMALTU
 70
     2
  9
$DIMALTTD
 70
     4
  9
$DIMTXSTY
  7
Standard
  9
$DIMAUNIT
 70
     0
  9
$DIMADEC
 70
     0
  9
$DIMALTRND
 40
0.0
  9
$DIMAZIN
 70
     2
  9
$DIMDSEP
 70
    46
  9
$DIMATFIT
 70
     3
  9
$DIMFRAC
 70
     0
  9
$DIMLDRBLK
  1

  9
$DIMLUNIT
 70
     2
  9
$DIMLWD
 70
    -1
  9
$DIMLWE
 70
    -1
  9
$DIMTMOVE
 70
     0
  9
$LUNITS
 70
     2
  9
$LUPREC
 70
     2
  9
$SKETCHINC
 40
0.1
  9
$FILLETRAD
 40
0.0
  9
$AUNITS
 70
     0
  9
$AUPREC
 70
     0
  9
$MENU
  1
.
  9
$ELEVATION
 40
0.0
  9
$PELEVATION
 40
0.0
  9
$THICKNESS
 40
0.0
  9
$LIMCHECK
 70
     0
  9
$CHAMFERA
 40
0.0
  9
$CHAMFERB
 40
0.0
  9
$CHAMFERC
 40
0.0
  9
$CHAMFERD
 40
0.0
  9
$SKPOLY
 70
     0
  9
$TDCREATE
 40
2455631.551140336
  9
$TDUCREATE
 40
2455631.467807002
  9
$TDUPDATE
 40
2455762.440499908
  9
$TDUUPDATE
 40
2455762.357166574
  9
$TDINDWG
 40
0.0084735069
  9
$TDUSRTIMER
 40
0.0084733333
  9
$USRTIMER
 70
     1
  9
$ANGBASE
 50
0.0
  9
$ANGDIR
 70
     0
  9
$PDMODE
 70
     0
  9
$PDSIZE
 40
0.0
  9
$PLINEWID
 40
0.0
  9
$SPLFRAME
 70
     0
  9
$SPLINETYPE
 70
     6
  9
$SPLINESEGS
 70
     8
  9
$HANDSEED
  5
1CBA
  9
$SURFTAB1
 70
     6
  9
$SURFTAB2
 70
     6
  9
$SURFTYPE
 70
     6
  9
$SURFU
 70
     6
  9
$SURFV
 70
     6
  9
$UCSBASE
  2

  9
$UCSNAME
  2

  9
$UCSORG
 10
0.0
 20
0.0
 30
0.0
  9
$UCSXDIR
 10
1.0
 20
0.0
 30
0.0
  9
$UCSYDIR
 10
0.0
 20
1.0
 30
0.0
  9
$UCSORTHOREF
  2

  9
$UCSORTHOVIEW
 70
     0
  9
$UCSORGTOP
 10
0.0
 20
0.0
 30
0.0
  9
$UCSORGBOTTOM
 10
0.0
 20
0.0
 30
0.0
  9
$UCSORGLEFT
 10
0.0
 20
0.0
 30
0.0
  9
$UCSORGRIGHT
 10
0.0
 20
0.0
 30
0.0
  9
$UCSORGFRONT
 10
0.0
 20
0.0
 30
0.0
  9
$UCSORGBACK
 10
0.0
 20
0.0
 30
0.0
  9
$PUCSBASE
  2

  9
$PUCSNAME
  2

  9
$PUCSORG
 10
0.0
 20
0.0
 30
0.0
  9
$PUCSXDIR
 10
1.0
 20
0.0
 30
0.0
  9
$PUCSYDIR
 10
0.0
 20
1.0
 30
0.0
  9
$PUCSORTHOREF
  2

  9
$PUCSORTHOVIEW
 70
     0
  9
$PUCSORGTOP
 10
0.0
 20
0.0
 30
0.0
  9
$PUCSORGBOTTOM
 10
0.0
 20
0.0
 30
0.0
  9
$PUCSORGLEFT
 10
0.0
 20
0.0
 30
0.0
  9
$PUCSORGRIGHT
 10
0.0
 20
0.0
 30
0.0
  9
$PUCSORGFRONT
 10
0.0
 20
0.0
 30
0.0
  9
$PUCSORGBACK
 10
0.0
 20
0.0
 30
0.0
  9
$USERI1
 70
     0
  9
$USERI2
 70
     0
  9
$USERI3
 70
     0
  9
$USERI4
 70
     0
  9
$USERI5
 70
     0
  9
$USERR1
 40
0.0
  9
$USERR2
 40
0.0
  9
$USERR3
 40
0.0
  9
$USERR4
 40
0.0
  9
$USERR5
 40
0.0
  9
$WORLDVIEW
 70
     1
  9
$SHADEDGE
 70
     3
  9
$SHADEDIF
 70
    70
  9
$TILEMODE
 70
     1
  9
$MAXACTVP
 70
    64
  9
$PINSBASE
 10
0.0
 20
0.0
 30
0.0
  9
$PLIMCHECK
 70
     0
  9
$PEXTMIN
 10
0.0
 20
0.0
 30
0.0
  9
$PEXTMAX
 10
594.0
 20
420.0
 30
0.0
  9
$PLIMMIN
 10
0.0
 20
0.0
  9
$PLIMMAX
 10
594.0
 20
420.0
  9
$UNITMODE
 70
     0
  9
$VISRETAIN
 70
     1
  9
$PLINEGEN
 70
     0
  9
$PSLTSCALE
 70
     1
  9
$TREEDEPTH
 70
  3020
  9
$CMLSTYLE
  2
Standard
  9
$CMLJUST
 70
     0
  9
$CMLSCALE
 40
1.0
  9
$PROXYGRAPHICS
 70
     1
  9
$MEASUREMENT
 70
     1
  9
$CELWEIGHT
370
    -1
  9
$ENDCAPS
280
     0
  9
$JOINSTYLE
280
     0
  9
$LWDISPLAY
290
     0
  9
$INSUNITS
 70
     4
  9
$HYPERLINKBASE
  1

  9
$STYLESHEET
  1

  9
$XEDIT
290
     1
  9
$CEPSNTYPE
380
     0
  9
$PSTYLEMODE
290
     1
  9
$FINGERPRINTGUID
  2
{04E0E1D8-123F-4C09-B5A9-6B5FCA6BA18C}
  9
$VERSIONGUID
  2
{058D51B7-AA65-4A14-BFBF-D1D53FA7C1E3}
  9
$EXTNAMES
290
     1
  9
$PSVPSCALE
 40
0.0
  9
$OLESTARTUP
290
     0
  9
$SORTENTS
280
   127
  9
$INDEXCTL
280
     0
  9
$HIDETEXT
280
     1
  9
$XCLIPFRAME
290
     0
  9
$HALOGAP
280
     0
  9
$OBSCOLOR
 70
   257
  9
$OBSLTYPE
280
     0
  9
$INTERSECTIONDISPLAY
280
     0
  9
$INTERSECTIONCOLOR
 70
   257
  9
$DIMASSOC
280
     1
  9
$PROJECTNAME
  1

  0
ENDSEC
  0
SECTION
  2
CLASSES
  0
CLASS
  1
ACDBDICTIONARYWDFLT
  2
AcDbDictionaryWithDefault
  3
ObjectDBX Classes
 90
        0
 91
        1
280
     0
281
     0
  0
CLASS
  1
MATERIAL
  2
AcDbMaterial
  3
ObjectDBX Classes
 90
     1153
 91
        3
280
     0
281
     0
  0
CLASS
  1
VISUALSTYLE
  2
AcDbVisualStyle
  3
ObjectDBX Classes
 90
     4095
 91
       26
280
     0
281
     0
  0
CLASS
  1
SCALE
  2
AcDbScale
  3
ObjectDBX Classes
 90
     1153
 91
       17
280
     0
281
     0
  0
CLASS
  1
TABLESTYLE
  2
AcDbTableStyle
  3
ObjectDBX Classes
 90
     4095
 91
        1
280
     0
281
     0
  0
CLASS
  1
MLEADERSTYLE
  2
AcDbMLeaderStyle
  3
ACDB_MLEADERSTYLE_CLASS
 90
     4095
 91
        1
280
     0
281
     0
  0
CLASS
  1
CELLSTYLEMAP
  2
AcDbCellStyleMap
  3
ObjectDBX Classes
 90
     1152
 91
        2
280
     0
281
     0
  0
CLASS
  1
DICTIONARYVAR
  2
AcDbDictionaryVar
  3
ObjectDBX Classes
 90
        0
 91
        8
280
     0
281
     0
  0
CLASS
  1
ACME_DOCUMENT
  2
AcMeDbDoc
  3
AcMeServices
 90
     1024
 91
        1
280
     0
281
     0
  0
CLASS
  1
AMGSETTINGSOBJ
  2
AmgSettingsObj
  3
"AcadM|Product Description: AutoCAD Mechanical|Company: Autodesk, Inc."
 90
     1024
 91
        2
280
     0
281
     0
  0
CLASS
  1
ACMESCOPE
  2
AcMeScope
  3
AcMeServices
 90
     1024
 91
        1
280
     0
281
     0
  0
CLASS
  1
ACMECOMMANDHISTORY
  2
AcMeCommandHistory
  3
AcMeServices
 90
     1024
 91
        1
280
     0
281
     0
  0
CLASS
  1
ACIMSYSVARMAN
  2
AcImSysVarManager
  3
AcMeServices
 90
     1024
 91
        6
280
     0
281
     0
  0
CLASS
  1
ACIMINTSYSVAR
  2
AcImIntSysVar
  3
AcMeServices
 90
     1024
 91
       27
280
     0
281
     0
  0
CLASS
  1
ACMEDRAWINGMAN
  2
AcMeDrawingMan
  3
AcMeServices
 90
     1024
 91
        1
280
     0
281
     0
  0
CLASS
  1
ACMEVIEW
  2
AcMeView
  3
AcMeServices
 90
     1024
 91
        1
280
     0
281
     0
  0
CLASS
  1
ACDBENTITYCACHE
  2
AcMeEntityCache
  3
AcMeServices
 90
     1024
 91
        1
280
     0
281
     0
  0
CLASS
  1
GSMANAGER
  2
AcMeGSManager
  3
AcMeServices
 90
     1024
 91
        1
280
     0
281
     0
  0
CLASS
  1
AMDTINTERNALREACTOR
  2
AmdtInternalReactor
  3
AcMeServices
 90
     1024
 91
        2
280
     0
281
     0
  0
CLASS
  1
ACMESTATEMGR
  2
AcMeStateMgr
  3
AcMeServices
 90
     1024
 91
        1
280
     0
281
     0
  0
CLASS
  1
ACGREFMASTER
  2
AcGrefMaster
  3
AcAttribServices
 90
     1024
 91
        1
280
     0
281
     0
  0
CLASS
  1
AM_DRAWING_MGR
  2
AcDmDwgMgr
  3
AcMechDwgViewMgmt
 90
     1024
 91
        1
280
     0
281
     0
  0
CLASS
  1
AM_DWG_DOCUMENT
  2
AcDmDwgDocument
  3
AcMechDwgViewMgmt
 90
     1024
 91
        1
280
     0
281
     0
  0
CLASS
  1
AM_DWG_SHEET
  2
AcDmSheet
  3
AcMechDwgViewMgmt
 90
     1024
 91
        2
280
     0
281
     0
  0
CLASS
  1
AM_VIEWDIMPARMAP
  2
AcDmViewDimParMap
  3
AcMechDwgViewMgmt
 90
     1024
 91
        2
280
     0
281
     0
  0
CLASS
  1
ACIMREALSYSVAR
  2
AcImRealSysVar
  3
AcMeServices
 90
     1024
 91
        1
280
     0
281
     0
  0
CLASS
  1
AM_DWGMGR_NAME
  2
AcDmDwgMgrName
  3
AcMechDwgViewMgmt
 90
     1024
 91
        1
280
     0
281
     0
  0
CLASS
  1
ACME_DATABASE
  2
AcMeDbDatabase
  3
AcMeServices
 90
     1024
 91
        1
280
     0
281
     0
  0
CLASS
  1
ACRFINSADJUSTERMGR
  2
AcRfInsAdjusterMgr
  3
AcMeServices
 90
     1024
 91
        1
280
     0
281
     0
  0
CLASS
  1
ACGREFACADMASTER
  2
AcGrefacadMaster
  3
AcGrefServices
 90
     1024
 91
        1
280
     0
281
     0
  0
CLASS
  1
AMDTMENUSTATEMGR
  2
AmdtMenuStateMgr
  3
McadcomServices
 90
     1024
 91
        1
280
     0
281
     0
  0
CLASS
  1
AMDTMCOMMENUSTATE
  2
AmdtMcomMenuState
  3
McadcomServices
 90
     1024
 91
        1
280
     0
281
     0
  0
CLASS
  1
AMIMASTER
  2
AmiMaster
  3
AmiServices
 90
     1024
 91
        1
280
     0
281
     0
  0
CLASS
  1
MAPIAMMOUDLE
  2
MApiAmModule
  3
MApiAmServices
 90
     1024
 91
        1
280
     0
281
     0
  0
CLASS
  1
ACIMSTRSYSVAR
  2
AcImStrSysVar
  3
AcMeServices
 90
     1024
 91
        6
280
     0
281
     0
  0
CLASS
  1
AMDTADMENUSTATE
  2
AmdtAdMenuState
  3
DesignerServices
 90
     1024
 91
        1
280
     0
281
     0
  0
CLASS
  1
ADAPPL
  2
AcAdAppl
  3
DesignerServices
 90
     1024
 91
        1
280
     0
281
     0
  0
CLASS
  1
DEPMGR
  2
AcAdDepMgr
  3
DesignerServices
 90
     1024
 91
        1
280
     0
281
     0
  0
CLASS
  1
PARAMMGR
  2
AcAdParamMgr
  3
DesignerServices
 90
     1024
 91
        1
280
     0
281
     0
  0
CLASS
  1
PARAMSCOPE
  2
AcAdParamScope
  3
DesignerServices
 90
     1024
 91
        1
280
     0
281
     0
  0
CLASS
  1
NAMEDAPPL
  2
AcAdNamedAppl
  3
DesignerServices
 90
     1024
 91
        1
280
     0
281
     0
  0
CLASS
  1
AMDTDMMENUSTATE
  2
AmdtDmMenuState
  3
AcMechDwgViewMgmt
 90
     1024
 91
        1
280
     0
281
     0
  0
CLASS
  1
AMDTAMMENUSTATE
  2
AmdtAmMenuState
  3
DesignerAssemblies
 90
     1024
 91
        1
280
     0
281
     0
  0
CLASS
  1
ACAMPROJECT
  2
AcAmProject
  3
DesignerAssemblies
 90
     1024
 91
        1
280
     0
281
     0
  0
CLASS
  1
ACAMGRCOMPDEF
  2
AcAmGrCompDef
  3
DesignerAssemblies
 90
     1024
 91
        1
280
     0
281
     0
  0
CLASS
  1
ACCMCONTEXT
  2
AcCmContext
  3
DesignerAssemblies
 90
     1024
 91
        1
280
     0
281
     0
  0
CLASS
  1
ACAMCOMPDEF
  2
AcAmCompDef
  3
DesignerAssemblies
 90
     1024
 91
        1
280
     0
281
     0
  0
CLASS
  1
ACAMCOMPDEFMGR
  2
AcAmCompDefMgr
  3
DesignerAssemblies
 90
     1024
 91
        1
280
     0
281
     0
  0
CLASS
  1
AMCONTEXTMGR
  2
AcAmContextMgr
  3
DesignerAssemblies
 90
     1024
 91
        1
280
     0
281
     0
  0
CLASS
  1
ACAMCONTEXTMODELER
  2
AcAmContextModeler
  3
DesignerAssemblies
 90
     1024
 91
        1
280
     0
281
     0
  0
CLASS
  1
ACMDATADICTIONARY
  2
AcmDataDictionary
  3
"AcmSymBB|Product Description: AutoCAD Mechanical|Company: Autodesk, Inc."
 90
     1024
 91
        1
280
     0
281
     0
  0
CLASS
  1
CATALOGSTATE
  2
AcAmCatalogState
  3
DesignerAssemblies
 90
     1024
 91
        1
280
     0
281
     0
  0
CLASS
  1
ACAMGRCOMPDEFSET
  2
AcAmGrCompDefSet
  3
DesignerAssemblies
 90
     1024
 91
        1
280
     0
281
     0
  0
CLASS
  1
AMDTBROWSERDBTAB
  2
AmdtBrowserDbTab
  3
McadcomServices
 90
     1024
 91
        1
280
     0
281
     0
  0
CLASS
  1
CBROWSERAPPOBJECT
  2
CBrowserAppObject
  3
McadcomServices
 90
     1024
 91
        3
280
     0
281
     0
  0
CLASS
  1
DM_PLACEHOLDER
  2
AcDmSelsetPlaceholder
  3
AcMechDwgViewMgmt
 90
     1024
 91
        1
280
     0
281
     0
  0
CLASS
  1
EXACXREFPANELOBJECT
  2
ExAcXREFPanelObject
  3
EXAC_ESW
 90
     1025
 91
        0
280
     0
281
     0
  0
CLASS
  1
NPOCOLLECTION
  2
AcDbImpNonPersistentObjectsCollection
  3
ObjectDBX Classes
 90
     1153
 91
        0
280
     0
281
     0
  0
CLASS
  1
ACMSTANDARDISO
  2
AcmStandardISO
  3
"Amdt_StdImp|Product Description: AutoCAD Mechanical|Company: Autodesk, Inc."
 90
     1024
 91
        1
280
     0
281
     0
  0
CLASS
  1
AMDTEDGESTANDARDISO13715
  2
AmdtEdgeStdISO13715
  3
"Amdt_StdImp|Product Description: AutoCAD Mechanical|Company: Autodesk, Inc."
 90
     1024
 91
        1
280
     0
281
     0
  0
CLASS
  1
ACMSURFSTANDARDISO2002
  2
AcmSurfTextStdISO2002
  3
"Amdt_StdImp|Product Description: AutoCAD Mechanical|Company: Autodesk, Inc."
 90
     1024
 91
        1
280
     0
281
     0
  0
CLASS
  1
ACMFCFSTANDARDISO
  2
AcmFCFStdISO
  3
"Amdt_StdImp|Product Description: AutoCAD Mechanical|Company: Autodesk, Inc."
 90
     1024
 91
        1
280
     0
281
     0
  0
CLASS
  1
ACMWELDSTANDARDISO
  2
AcmWeldingStdISO
  3
"Amdt_StdImp|Product Description: AutoCAD Mechanical|Company: Autodesk, Inc."
 90
     1024
 91
        1
280
     0
281
     0
  0
CLASS
  1
ACMIDSTANDARDISO
  2
AcmIdStdISO
  3
"Amdt_StdImp|Product Description: AutoCAD Mechanical|Company: Autodesk, Inc."
 90
     1024
 91
        1
280
     0
281
     0
  0
CLASS
  1
ACMDATUMSTANDARDISO
  2
AcmDatumStdISO
  3
"Amdt_StdImp|Product Description: AutoCAD Mechanical|Company: Autodesk, Inc."
 90
     1024
 91
        1
280
     0
281
     0
  0
CLASS
  1
ACMBOMSTANDARDISO
  2
AcmBOMStdISO
  3
"Amdt_StdImp|Product Description: AutoCAD Mechanical|Company: Autodesk, Inc."
 90
     1024
 91
        1
280
     0
281
     0
  0
CLASS
  1
ACMDETAILSTANDARDISO
  2
AmdtDetailSymStdISO
  3
"Amdt_StdImp|Product Description: AutoCAD Mechanical|Company: Autodesk, Inc."
 90
     1024
 91
        1
280
     0
281
     0
  0
CLASS
  1
ACMSECTIONSTANDARDISO2001
  2
AmdtSectionSymStdISO2001
  3
"Amdt_StdImp|Product Description: AutoCAD Mechanical|Company: Autodesk, Inc."
 90
     1024
 91
        1
280
     0
281
     0
  0
CLASS
  1
ACMCENTERLINESTANDARDISO
  2
AmdtCenterLineStdISO
  3
"Amdt_StdImp|Product Description: AutoCAD Mechanical|Company: Autodesk, Inc."
 90
     1024
 91
        1
280
     0
281
     0
  0
CLASS
  1
ACMTHREADLINESTANDARDISO
  2
AmdtThreadLineStdISO
  3
"Amdt_StdImp|Product Description: AutoCAD Mechanical|Company: Autodesk, Inc."
 90
     1024
 91
        1
280
     0
281
     0
  0
CLASS
  1
ACMNOTESTANDARDISO
  2
AmdtNoteStdISO
  3
"Amdt_StdImp|Product Description: AutoCAD Mechanical|Company: Autodesk, Inc."
 90
     1024
 91
        1
280
     0
281
     0
  0
CLASS
  1
ACMTAPERSTANDARDISO
  2
AcmTaperStdISO
  3
"Amdt_StdImp|Product Description: AutoCAD Mechanical|Company: Autodesk, Inc."
 90
     1024
 91
        1
280
     0
281
     0
  0
CLASS
  1
ACMANOOTATIONVIEWSTANDARDISO
  2
AmdtAnViewStdISO
  3
"Amdt_StdImp|Product Description: AutoCAD Mechanical|Company: Autodesk, Inc."
 90
     1024
 91
        1
280
     0
281
     0
  0
CLASS
  1
ACAMGLAYSTD
  2
AcAmgLayStd
  3
"AmgLay|Product Description: AutoCAD Mechanical|Company: Autodesk, Inc."
 90
     1024
 91
        1
280
     0
281
     0
  0
CLASS
  1
ACAMGDIMSTD
  2
AcAmgDimStd
  3
"AmgDim|Product Description: AutoCAD Mechanical|Company: Autodesk, Inc."
 90
     1024
 91
        1
280
     0
281
     0
  0
CLASS
  1
AMGOBJPROPCFG
  2
AmgObjPropCfg
  3
"AmgLay|Product Description: AutoCAD Mechanical|Company: Autodesk, Inc."
 90
     1025
 91
        1
280
     0
281
     0
  0
CLASS
  1
ACAMGHOLECHARTSTDISO
  2
AcAmgHoleChartStdISO
  3
AmgDim|Product Description: AutoCAD Mechanical|Company: Autodesk, Inc.
 90
     1024
 91
        1
280
     0
281
     0
  0
CLASS
  1
ACAMGTITLESTD
  2
AcAmgTitleStd
  3
"AmgTitle|Product Description: AutoCAD Mechanical|Company: Autodesk, Inc."
 90
     4095
 91
        1
280
     0
281
     0
  0
CLASS
  1
AMDTNOTETEMPLATEDB
  2
AmdtNoteTemplateDB
  3
AcmSymBB|Product Description: AutoCAD Mechanical|Company: Autodesk, Inc.
 90
     1024
 91
        6
280
     0
281
     0
  0
CLASS
  1
ACAMGFILTERDAT
  2
AcAmgFilterDat
  3
"AcadM|Product Description: AutoCAD Mechanical|Company: Autodesk, Inc."
 90
     1024
 91
        0
280
     0
281
     0
  0
CLASS
  1
AEC_REFEDIT_STATUS_TRACKER
  2
AecDbRefEditStatusTracker
  3
AecArchBase50|Product Desc: Autodesk Architectural Desktop 2007 |Company: Autodesk,Inc. |WEB Address: www.autodesk.com
 90
      129
 91
        0
280
     0
281
     0
  0
ENDSEC
  0
SECTION
  2
TABLES
  0
TABLE
  2
VPORT
  5
8
102
{ACAD_XDICTIONARY
360
1A6A
102
}
330
0
100
AcDbSymbolTable
 70
     1
  0
VPORT
  5
57
330
8
100
AcDbSymbolTableRecord
100
AcDbViewportTableRecord
  2
*Active
 70
     0
 10
0.0
 20
0.0
 11
1.0
 21
1.0
 12
125.5942428416352
 22
165.7579343459536
 13
0.0
 23
0.0
 14
1.0
 24
1.0
 15
0.0
 25
0.0
 16
0.0
 26
0.0
 36
1.0
 17
0.0
 27
0.0
 37
0.0
 40
488.2598449507321
 41
1.351097178683385
 42
50.0
 43
0.0
 44
0.0
 50
0.0
 51
0.0
 71
     0
 72
   100
 73
     1
 74
     1
 75
     0
 76
     0
 77
     0
 78
     0
281
     0
 65
     0
110
0.0
120
0.0
130
0.0
111
1.0
121
0.0
131
0.0
112
0.0
122
1.0
132
0.0
 79
     0
146
0.0
  0
ENDTAB
  0
TABLE
  2
LTYPE
  5
5
330
0
100
AcDbSymbolTable
 70
    14
  0
LTYPE
  5
5B
330
5
100
AcDbSymbolTableRecord
100
AcDbLinetypeTableRecord
  2
ByBlock
 70
     0
  3

 72
    65
 73
     0
 40
0.0
  0
LTYPE
  5
5C
330
5
100
AcDbSymbolTableRecord
100
AcDbLinetypeTableRecord
  2
ByLayer
 70
     0
  3

 72
    65
 73
     0
 40
0.0
  0
LTYPE
  5
5D
330
5
100
AcDbSymbolTableRecord
100
AcDbLinetypeTableRecord
  2
Continuous
 70
     0
  3
Solid line
 72
    65
 73
     0
 40
0.0
  0
LTYPE
  5
19A0
330
5
100
AcDbSymbolTableRecord
100
AcDbLinetypeTableRecord
  2
HIDDEN
 70
     0
  3
Skrytá __ __ __ __ __ __ __ __ __ __ __ __ __ __
 72
    65
 73
     2
 40
9.525
 49
6.349999999999998
 74
     0
 49
-3.174999999999998
 74
     0
  0
LTYPE
  5
19A1
330
5
100
AcDbSymbolTableRecord
100
AcDbLinetypeTableRecord
  2
PHANTOM2
 70
     0
  3
Sdružená (.5x) ___ _ _ ___ _ _ ___ _ _ ___ _ _
 72
    65
 73
     6
 40
31.75
 49
15.875
 74
     0
 49
-3.174999999999998
 74
     0
 49
3.174999999999998
 74
     0
 49
-3.174999999999998
 74
     0
 49
3.174999999999998
 74
     0
 49
-3.174999999999998
 74
     0
  0
LTYPE
  5
19A2
330
5
100
AcDbSymbolTableRecord
100
AcDbLinetypeTableRecord
  2
CENTER
 70
     0
  3
Středová ____ _ ____ _ ____ _ ____ _ ____ _ ____
 72
    65
 73
     4
 40
50.8
 49
31.75
 74
     0
 49
-6.349999999999998
 74
     0
 49
6.349999999999998
 74
     0
 49
-6.349999999999998
 74
     0
  0
LTYPE
  5
19EA
330
5
100
AcDbSymbolTableRecord
100
AcDbLinetypeTableRecord
  2
AM_ISO02W050
 70
     0
  3
__ __ __ __ __ __ __ __ __ __ __ __ __ __ __
 72
    65
 73
     2
 40
7.5
 49
6.0
 74
     0
 49
-1.5
 74
     0
  0
LTYPE
  5
19EB
330
5
100
AcDbSymbolTableRecord
100
AcDbLinetypeTableRecord
  2
AM_ISO08W050
 70
     0
  3
____ . ____ . ____ . ____ . ____ . ____ . ____
 72
    65
 73
     4
 40
18.0
 49
12.0
 74
     0
 49
-1.5
 74
     0
 49
3.0
 74
     0
 49
-1.5
 74
     0
  0
LTYPE
  5
19EC
330
5
100
AcDbSymbolTableRecord
100
AcDbLinetypeTableRecord
  2
AM_ISO09W050
 70
     0
  3
_____ . . _____ . . _____ . . ____ .. ____
 72
    65
 73
     6
 40
22.5
 49
12.0
 74
     0
 49
-1.5
 74
     0
 49
3.0
 74
     0
 49
-1.5
 74
     0
 49
3.0
 74
     0
 49
-1.5
 74
     0
  0
LTYPE
  5
19ED
330
5
100
AcDbSymbolTableRecord
100
AcDbLinetypeTableRecord
  2
Amconstr
 70
     0
  3
_______________________
 72
    65
 73
     2
 40
9999.0
 49
9999.0
 74
     0
 49
0.0
 74
     0
  0
LTYPE
  5
19EE
330
5
100
AcDbSymbolTableRecord
100
AcDbLinetypeTableRecord
  2
AM_ISO08W050x2
 70
     0
  3
__ . __ . __ . __ . __ . __
 72
    65
 73
     4
 40
9.0
 49
6.0
 74
     0
 49
-0.75
 74
     0
 49
1.5
 74
     0
 49
-0.75
 74
     0
  0
LTYPE
  5
19EF
330
5
100
AcDbSymbolTableRecord
100
AcDbLinetypeTableRecord
  2
AM_ISO02W050x2
 70
     0
  3
 _ _ _ _ _ _ _ _ _ _ _ _
 72
    65
 73
     2
 40
3.75
 49
3.0
 74
     0
 49
-0.75
 74
     0
  0
LTYPE
  5
19F2
330
5
100
AcDbSymbolTableRecord
100
AcDbLinetypeTableRecord
  2
Amzigzag
 70
     0
  3
/\/-/\/-/\/-/\/-/\/-/\/
 72
    65
 73
     2
 40
11.0001
 49
0.0001
 74
     4
 75
   136
340
19F1
 46
0.04
 50
0.0
 44
0.0
 45
0.0
 49
-11.0
 74
     0
  0
LTYPE
  5
1A01
330
5
100
AcDbSymbolTableRecord
100
AcDbLinetypeTableRecord
  2
ACISOWELD
 70
     0
  3
_ _ _ _ _
 72
    65
 73
     2
 40
2.0
 49
2.0
 74
     0
 49
-1.0
 74
     0
  0
LTYPE
  5
1A02
330
5
100
AcDbSymbolTableRecord
100
AcDbLinetypeTableRecord
  2
ACISOTGB
 70
     0
  3
__ . . __ . .
 72
    65
 73
     6
 40
9.0
 49
4.0
 74
     0
 49
-1.0
 74
     0
 49
1.0
 74
     0
 49
-1.0
 74
     0
 49
1.0
 74
     0
 49
-1.0
 74
     0
  0
LTYPE
  5
1A03
330
5
100
AcDbSymbolTableRecord
100
AcDbLinetypeTableRecord
  2
ACISOTGL
 70
     0
  3
_ _ _ _ _
 72
    65
 73
     2
 40
3.0
 49
2.0
 74
     0
 49
-1.0
 74
     0
  0
ENDTAB
  0
TABLE
  2
LAYER
  5
2
330
0
100
AcDbSymbolTable
 70
    19
  0
LAYER
  5
54
330
2
100
AcDbSymbolTableRecord
100
AcDbLayerTableRecord
  2
0
 70
     0
 62
     7
  6
Continuous
370
    -3
390
F
  0
LAYER
  5
75
330
2
100
AcDbSymbolTableRecord
100
AcDbLayerTableRecord
  2
Čára přerušení (ISO)
 70
     0
 62
     3
420
    65280
  6
Continuous
370
     9
390
F
  0
LAYER
  5
76
330
2
100
AcDbSymbolTableRecord
100
AcDbLayerTableRecord
  2
Čára řezu (ISO)
 70
     0
 62
     3
420
    65280
  6
Continuous
370
    18
390
F
  0
LAYER
  5
77
330
2
100
AcDbSymbolTableRecord
100
AcDbLayerTableRecord
  2
Detailní hranice (ISO)
 70
     0
 62
     7
  6
Continuous
370
     9
390
F
  0
LAYER
  5
78
330
2
100
AcDbSymbolTableRecord
100
AcDbLayerTableRecord
  2
Geometrie náčrtu (ISO)
 70
     0
 62
     7
  6
Continuous
370
     9
390
F
  0
LAYER
  5
79
330
2
100
AcDbSymbolTableRecord
100
AcDbLayerTableRecord
  2
KOPF
 70
     0
 62
     8
420
  8421504
  6
Continuous
370
     9
390
F
  0
LAYER
  5
7A
330
2
100
AcDbSymbolTableRecord
100
AcDbLayerTableRecord
  2
Kóta (ISO)
 70
     0
 62
     5
420
      255
  6
Continuous
370
     9
390
F
  0
LAYER
  5
7B
330
2
100
AcDbSymbolTableRecord
100
AcDbLayerTableRecord
  2
Nadpis (ISO)
 70
     0
 62
     7
  6
Continuous
370
    18
390
F
  0
LAYER
  5
85
330
2
100
AcDbSymbolTableRecord
100
AcDbLayerTableRecord
  2
Rámeček (ISO)
 70
     0
 62
     7
  6
Continuous
370
    35
390
F
  0
LAYER
  5
88
330
2
100
AcDbSymbolTableRecord
100
AcDbLayerTableRecord
  2
Skrytá (ISO)
 70
     0
 62
   142
420
    32960
  6
Continuous
370
     9
390
F
  0
LAYER
  5
8A
330
2
100
AcDbSymbolTableRecord
100
AcDbLayerTableRecord
  2
Šrafy (ISO)
 70
     0
 62
     6
420
 16711935
  6
Continuous
370
     9
390
F
  0
LAYER
  5
8B
330
2
100
AcDbSymbolTableRecord
100
AcDbLayerTableRecord
  2
TEXT35
 70
     0
 62
    12
420
 13369344
  6
Continuous
370
    20
390
F
  0
LAYER
  5
8C
330
2
100
AcDbSymbolTableRecord
100
AcDbLayerTableRecord
  2
TEXT50
 70
     0
 62
     7
  6
Continuous
370
    20
390
F
  0
LAYER
  5
8D
330
2
100
AcDbSymbolTableRecord
100
AcDbLayerTableRecord
  2
Viditelná (ISO)
 70
     0
 62
     7
  6
Continuous
370
    35
390
F
  0
LAYER
  5
8E
330
2
100
AcDbSymbolTableRecord
100
AcDbLayerTableRecord
  2
Viditelná tenká (ISO)
 70
     0
 62
     7
  6
Continuous
370
     9
390
F
  0
LAYER
  5
8F
330
2
100
AcDbSymbolTableRecord
100
AcDbLayerTableRecord
  2
Značka (ISO)
 70
     0
 62
     5
420
      255
  6
Continuous
370
     9
390
F
  0
LAYER
  5
763
330
2
100
AcDbSymbolTableRecord
100
AcDbLayerTableRecord
  2
Defpoints
 70
     0
 62
     7
  6
Continuous
290
     0
370
    -3
390
F
  0
LAYER
  5
1B0D
102
{ACAD_XDICTIONARY
360
1B0E
102
}
330
2
100
AcDbSymbolTableRecord
100
AcDbLayerTableRecord
  2
KOTY_GULLY
 70
     0
 62
   250
  6
Continuous
370
    -3
390
F
  0
LAYER
  5
1B85
102
{ACAD_XDICTIONARY
360
1B86
102
}
330
2
100
AcDbSymbolTableRecord
100
AcDbLayerTableRecord
  2
GULLY
 70
     0
 62
   250
  6
Continuous
370
    -3
390
F
  0
ENDTAB
  0
TABLE
  2
STYLE
  5
3
330
0
100
AcDbSymbolTable
 70
    23
  0
STYLE
  5
55
330
3
100
AcDbSymbolTableRecord
100
AcDbTextStyleTableRecord
  2
Standard
 70
     0
 40
0.0
 41
1.0
 50
0.0
 71
     0
 42
0.2
  3
TAHOMA.TTF
  4

1001
ACAD
1000
Tahoma
1071
      256
  0
STYLE
  5
5A
330
3
100
AcDbSymbolTableRecord
100
AcDbTextStyleTableRecord
  2
Annotative
 70
     0
 40
0.0
 41
1.0
 50
0.0
 71
     0
 42
0.2
  3
txt
  4

1001
AcadAnnotative
1000
AnnotativeData
1002
{
1070
     1
1070
     1
1002
}
  0
STYLE
  5
90
330
3
100
AcDbSymbolTableRecord
100
AcDbTextStyleTableRecord
  2
ITALICC8_57
 70
     0
 40
0.0
 41
1.0
 50
0.0
 71
     0
 42
0.2
  3
TAHOMA.TTF
  4

1001
ACAD
1000
Tahoma
1071
      256
  0
STYLE
  5
91
330
3
100
AcDbSymbolTableRecord
100
AcDbTextStyleTableRecord
  2
kusovnik
 70
     0
 40
0.0
 41
1.0
 50
0.0
 71
     0
 42
0.2
  3
ARIAL.TTF
  4

1001
ACAD
1000
Arial
1071
      256
  0
STYLE
  5
92
330
3
100
AcDbSymbolTableRecord
100
AcDbTextStyleTableRecord
  2
ROMANS8_69
 70
     0
 40
0.0
 41
1.0
 50
0.0
 71
     0
 42
0.2
  3
TAHOMA.TTF
  4

1001
ACAD
1000
Tahoma
1071
      256
  0
STYLE
  5
93
330
3
100
AcDbSymbolTableRecord
100
AcDbTextStyleTableRecord
  2
Text popisu (ISO)
 70
     0
 40
0.0
 41
1.0
 50
0.0
 71
     0
 42
0.2
  3
TAHOMA.TTF
  4

1001
ACAD
1000
Tahoma
1071
      256
  0
STYLE
  5
94
330
3
100
AcDbSymbolTableRecord
100
AcDbTextStyleTableRecord
  2
Text poznámky (DIN)
 70
     0
 40
0.0
 41
1.0
 50
0.0
 71
     0
 42
0.2
  3
isocpeur.ttf
  4

1001
ACAD
1000
ISOCPEUR
1071
      256
  0
STYLE
  5
95
330
3
100
AcDbSymbolTableRecord
100
AcDbTextStyleTableRecord
  2
Text poznámky (ISO)
 70
     0
 40
0.0
 41
1.0
 50
0.0
 71
     0
 42
0.2
  3
TAHOMA.TTF
  4

1001
ACAD
1000
Tahoma
1071
      256
  0
STYLE
  5
96
330
3
100
AcDbSymbolTableRecord
100
AcDbTextStyleTableRecord
  2
TEXT20_41
 70
     0
 40
0.0
 41
1.0
 50
0.0
 71
     0
 42
0.2
  3
TAHOMA.TTF
  4

1001
ACAD
1000
Tahoma
1071
      256
  0
STYLE
  5
97
330
3
100
AcDbSymbolTableRecord
100
AcDbTextStyleTableRecord
  2
TEXT20_59
 70
     0
 40
0.0
 41
1.0
 50
0.0
 71
     0
 42
0.2
  3
TAHOMA.TTF
  4

1001
ACAD
1000
Tahoma
1071
      256
  0
STYLE
  5
1C6
330
3
100
AcDbSymbolTableRecord
100
AcDbTextStyleTableRecord
  2
Styl textu62
 70
     0
 40
0.0
 41
0.8000000119209289
 50
0.0
 71
     0
 42
0.2
  3
TAHOMA.TTF
  4

1001
ACAD
1000
Tahoma
1071
      256
  0
STYLE
  5
1CD
330
3
100
AcDbSymbolTableRecord
100
AcDbTextStyleTableRecord
  2
Styl textu58
 70
     0
 40
0.0
 41
0.8000000119209289
 50
0.0
 71
     0
 42
0.2
  3
TAHOMA.TTF
  4

1001
ACAD
1000
Tahoma
1071
      256
  0
STYLE
  5
1CF
330
3
100
AcDbSymbolTableRecord
100
AcDbTextStyleTableRecord
  2
Styl textu63
 70
     0
 40
0.0
 41
0.75
 50
0.0
 71
     0
 42
0.2
  3
TAHOMA.TTF
  4

1001
ACAD
1000
Tahoma
1071
      256
  0
STYLE
  5
1D2
330
3
100
AcDbSymbolTableRecord
100
AcDbTextStyleTableRecord
  2
Styl textu72
 70
     0
 40
0.0
 41
0.6999999880790711
 50
0.0
 71
     0
 42
0.2
  3
TAHOMA.TTF
  4

1001
ACAD
1000
Tahoma
1071
      256
  0
STYLE
  5
1D5
330
3
100
AcDbSymbolTableRecord
100
AcDbTextStyleTableRecord
  2
Styl textu75
 70
     0
 40
0.0
 41
0.8000000119209289
 50
0.0
 71
     0
 42
0.2
  3
TAHOMA.TTF
  4

1001
ACAD
1000
Tahoma
1071
      256
  0
STYLE
  5
1F0
330
3
100
AcDbSymbolTableRecord
100
AcDbTextStyleTableRecord
  2
Styl textu9
 70
     0
 40
0.0
 41
1.0
 50
0.0
 71
     0
 42
0.2
  3
ARIAL.TTF
  4

1001
ACAD
1000
Arial
1071
      256
  0
STYLE
  5
1F4
330
3
100
AcDbSymbolTableRecord
100
AcDbTextStyleTableRecord
  2
Styl textu40
 70
     0
 40
0.0
 41
1.0
 50
0.0
 71
     0
 42
0.2
  3
ARIAL.TTF
  4

1001
ACAD
1000
Arial
1071
      256
  0
STYLE
  5
1F9
330
3
100
AcDbSymbolTableRecord
100
AcDbTextStyleTableRecord
  2
Styl textu94
 70
     0
 40
0.0
 41
1.0
 50
0.0
 71
     0
 42
0.2
  3
TAHOMA.TTF
  4

1001
ACAD
1000
Tahoma
1071
      256
  0
STYLE
  5
17BD
330
3
100
AcDbSymbolTableRecord
100
AcDbTextStyleTableRecord
  2
Styl textu81
 70
     0
 40
0.0
 41
1.0
 50
0.0
 71
     0
 42
0.2
  3
TAHOMA.TTF
  4

1001
ACAD
1000
Tahoma
1071
      256
  0
STYLE
  5
18D0
330
3
100
AcDbSymbolTableRecord
100
AcDbTextStyleTableRecord
  2
Styl textu96
 70
     0
 40
0.0
 41
1.0
 50
0.0
 71
     0
 42
0.2
  3
TAHOMA.TTF
  4

1001
ACAD
1000
Tahoma
1071
      256
  0
STYLE
  5
19F1
330
3
100
AcDbSymbolTableRecord
100
AcDbTextStyleTableRecord
  2

 70
     1
 40
0.0
 41
1.0
 50
0.0
 71
     0
 42
0.2
  3
genltshp.shx
  4

  0
STYLE
  5
19FF
330
3
100
AcDbSymbolTableRecord
100
AcDbTextStyleTableRecord
  2
ACISOTS
 70
     0
 40
1.0
 41
1.0
 50
0.0
 71
     0
 42
0.2
  3
isocp.shx
  4

  0
STYLE
  5
1A00
330
3
100
AcDbSymbolTableRecord
100
AcDbTextStyleTableRecord
  2
ACISOGDT
 70
     0
 40
0.0
 41
1.0
 50
0.0
 71
     0
 42
0.2
  3
amgdt.shx
  4

  0
ENDTAB
  0
TABLE
  2
VIEW
  5
6
330
0
100
AcDbSymbolTable
 70
     0
  0
ENDTAB
  0
TABLE
  2
UCS
  5
7
330
0
100
AcDbSymbolTable
 70
     0
  0
ENDTAB
  0
TABLE
  2
APPID
  5
9
330
0
100
AcDbSymbolTable
 70
    17
  0
APPID
  5
56
330
9
100
AcDbSymbolTableRecord
100
AcDbRegAppTableRecord
  2
ACAD
 70
     0
  0
APPID
  5
5E
330
9
100
AcDbSymbolTableRecord
100
AcDbRegAppTableRecord
  2
AcadAnnotative
 70
     0
  0
APPID
  5
1F3
330
9
100
AcDbSymbolTableRecord
100
AcDbRegAppTableRecord
  2
AcadAnnoPO
 70
     0
  0
APPID
  5
1478
330
9
100
AcDbSymbolTableRecord
100
AcDbRegAppTableRecord
  2
ACAD_DSTYLE_DIMANGULAR_EXTENSION
 70
     0
  0
APPID
  5
1959
330
9
100
AcDbSymbolTableRecord
100
AcDbRegAppTableRecord
  2
ACAD_MLEADERVER
 70
     0
  0
APPID
  5
1971
330
9
100
AcDbSymbolTableRecord
100
AcDbRegAppTableRecord
  2
MCAD_NO_VIS
 70
     0
  0
APPID
  5
1972
330
9
100
AcDbSymbolTableRecord
100
AcDbRegAppTableRecord
  2
ACAD_TEMP_GRAPHIC
 70
     0
  0
APPID
  5
19A4
330
9
100
AcDbSymbolTableRecord
100
AcDbRegAppTableRecord
  2
AD_DRAW
 70
     0
  0
APPID
  5
19A7
330
9
100
AcDbSymbolTableRecord
100
AcDbRegAppTableRecord
  2
ACATTRIBSERVICES
 70
     0
  0
APPID
  5
19C8
330
9
100
AcDbSymbolTableRecord
100
AcDbRegAppTableRecord
  2
DESIGNERASSEMBLIES
 70
     0
  0
APPID
  5
19CE
330
9
100
AcDbSymbolTableRecord
100
AcDbRegAppTableRecord
  2
ACADM_DIM_EDIT
 70
     0
  0
APPID
  5
19CF
330
9
100
AcDbSymbolTableRecord
100
AcDbRegAppTableRecord
  2
AMDT_DM_ADJ
 70
     0
  0
APPID
  5
1A82
330
9
100
AcDbSymbolTableRecord
100
AcDbRegAppTableRecord
  2
ACAD_DSTYLE_DIMARC_LENGTH_SYMBOL
 70
     0
  0
APPID
  5
1A83
330
9
100
AcDbSymbolTableRecord
100
AcDbRegAppTableRecord
  2
ACAD_DSTYLE_DIM_LINETYPE
 70
     0
  0
APPID
  5
1A84
330
9
100
AcDbSymbolTableRecord
100
AcDbRegAppTableRecord
  2
ACAD_DSTYLE_DIM_EXT1_LINETYPE
 70
     0
  0
APPID
  5
1A85
330
9
100
AcDbSymbolTableRecord
100
AcDbRegAppTableRecord
  2
ACAD_DSTYLE_DIM_EXT2_LINETYPE
 70
     0
  0
APPID
  5
1B11
330
9
100
AcDbSymbolTableRecord
100
AcDbRegAppTableRecord
  2
ACAD_DSTYLE_DIMINSPECT
 70
     0
  0
ENDTAB
  0
TABLE
  2
DIMSTYLE
  5
A
330
0
100
AcDbSymbolTable
 70
    25
100
AcDbDimStyleTable
 71
     3
340
19E8
340
B0
340
58
  0
DIMSTYLE
105
58
330
A
100
AcDbSymbolTableRecord
100
AcDbDimStyleTableRecord
  2
Standard
 70
     0
340
55
  0
DIMSTYLE
105
59
330
A
100
AcDbSymbolTableRecord
100
AcDbDimStyleTableRecord
  2
Annotative
 70
     0
340
55
1001
AcadAnnotative
1000
AnnotativeData
1002
{
1070
     1
1070
     1
1002
}
  0
DIMSTYLE
105
A6
330
A
100
AcDbSymbolTableRecord
100
AcDbDimStyleTableRecord
  2
Různé objekty (ISO)
 70
     0
 41
2.5
 42
0.0
 43
5.999999999999999
 44
1.0
 45
0.00000001
 46
10.0
 73
     0
 74
     0
 77
     1
 78
     8
 79
     2
140
5.25
143
0.03937
146
0.6676571709769112
147
0.762
171
     3
172
     1
176
   256
177
   256
178
   256
179
     2
271
     2
272
     2
274
     3
278
    44
284
     8
340
93
341
98
371
    -1
372
    -1
  0
DIMSTYLE
105
A7
330
A
100
AcDbSymbolTableRecord
100
AcDbDimStyleTableRecord
  2
Různé objekty (ISO)$7
 70
     0
 41
5.0
 42
0.0
 43
5.999999999999999
 44
1.0
 45
0.00000001
 46
10.0
 73
     0
 74
     0
 77
     1
 78
     8
 79
     2
140
5.25
143
0.03937
146
0.6676571709769112
147
0.762
171
     3
172
     1
176
   256
177
   256
178
   256
179
     2
271
     2
272
     2
274
     3
278
    44
284
     8
340
93
341
98
371
    25
372
    -1
  0
DIMSTYLE
105
A8
330
A
100
AcDbSymbolTableRecord
100
AcDbDimStyleTableRecord
  2
Výchozí - Metoda 1b (ISO)
 70
     0
 41
2.5
 42
0.0
 43
5.999999999999999
 44
1.0
 45
0.00000001
 46
10.0
 73
     0
 77
     1
 78
     8
 79
     2
140
3.5
143
0.03937
147
0.762
171
     3
172
     1
176
   256
177
   256
178
   256
179
     2
271
     2
272
     2
274
     3
278
    44
284
     8
286
     8
340
95
371
    -1
372
    -1
  0
DIMSTYLE
105
A9
330
A
100
AcDbSymbolTableRecord
100
AcDbDimStyleTableRecord
  2
Výchozí - Metoda 1b (ISO)$7
 70
     0
 41
2.5
 42
0.0
 43
5.999999999999999
 44
1.0
 45
0.00000001
 46
10.0
 73
     0
 77
     1
 78
     8
 79
     2
140
3.5
143
0.03937
147
0.762
171
     3
172
     1
176
   256
177
   256
178
   256
179
     2
271
     2
272
     2
274
     3
278
    44
284
     8
286
     8
340
95
371
    -1
372
    -1
  0
DIMSTYLE
105
AA
330
A
100
AcDbSymbolTableRecord
100
AcDbDimStyleTableRecord
  2
Výchozí - Metoda 2a (ISO)
 70
     0
 41
2.5
 42
0.0
 43
5.999999999999999
 44
1.0
 45
0.00000001
 46
10.0
 77
     1
 78
     8
 79
     2
140
3.5
143
0.03937
147
0.762
171
     3
172
     1
176
   256
177
   256
178
   256
179
     2
271
     2
272
     2
274
     3
278
    44
284
     8
286
     8
340
95
371
    -1
372
    -1
  0
DIMSTYLE
105
AB
330
A
100
AcDbSymbolTableRecord
100
AcDbDimStyleTableRecord
  2
Výchozí - Metoda 2a (ISO)$7
 70
     0
 41
2.5
 42
0.0
 43
5.999999999999999
 44
1.0
 45
0.00000001
 46
10.0
 77
     1
 78
     8
 79
     2
140
3.5
143
0.03937
147
0.762
171
     3
172
     1
176
   256
177
   256
178
   256
179
     2
271
     2
272
     2
274
     3
278
    44
284
     8
286
     8
340
95
371
    -1
372
    -1
  0
DIMSTYLE
105
AC
330
A
100
AcDbSymbolTableRecord
100
AcDbDimStyleTableRecord
  2
Výchozí - Metoda 2b (ISO)
 70
     0
 41
2.5
 42
0.0
 43
5.999999999999999
 44
1.0
 45
0.00000001
 46
10.0
 77
     1
 78
     8
 79
     2
140
3.5
143
0.03937
147
0.762
171
     3
172
     1
176
   256
177
   256
178
   256
179
     2
271
     2
272
     2
274
     3
278
    44
284
     8
286
     8
340
95
371
    -1
372
    -1
  0
DIMSTYLE
105
AD
330
A
100
AcDbSymbolTableRecord
100
AcDbDimStyleTableRecord
  2
Výchozí - Metoda 2b (ISO)$7
 70
     0
 41
2.5
 42
0.0
 43
5.999999999999999
 44
1.0
 45
0.00000001
 46
10.0
 77
     1
 78
     8
 79
     2
140
3.5
143
0.03937
147
0.762
171
     3
172
     1
176
   256
177
   256
178
   256
179
     2
271
     2
272
     2
274
     3
278
    44
284
     8
286
     8
340
95
371
    -1
372
    -1
  0
DIMSTYLE
105
AE
330
A
100
AcDbSymbolTableRecord
100
AcDbDimStyleTableRecord
  2
Výchozí - mm [palce] (ISO)
 70
     0
  4
 in
 41
2.5
 42
0.0
 43
5.999999999999999
 44
3.174999999999998
 45
0.00000001
 46
10.0
 73
     0
 74
     0
 77
     1
 78
     8
 79
     2
140
3.5
143
0.03937
147
0.762
170
     1
171
     3
172
     1
176
   256
177
   256
178
   256
179
     3
271
     3
272
     2
274
     3
275
     1
278
    44
284
     8
285
     8
286
     8
340
95
371
    -1
372
    -1
  0
DIMSTYLE
105
AF
330
A
100
AcDbSymbolTableRecord
100
AcDbDimStyleTableRecord
  2
Výchozí - mm [palce] (ISO)$7
 70
     0
  4
 in
 41
2.5
 42
0.0
 43
5.999999999999999
 44
3.174999999999998
 45
0.00000001
 46
10.0
 73
     0
 74
     0
 77
     1
 78
     8
 79
     2
140
3.5
143
0.03937
147
0.762
170
     1
171
     3
172
     1
176
   256
177
   256
178
   256
179
     3
271
     3
272
     2
274
     3
275
     1
278
    44
284
     8
285
     8
286
     8
340
95
371
    -1
372
    -1
  0
DIMSTYLE
105
B0
330
A
100
AcDbSymbolTableRecord
100
AcDbDimStyleTableRecord
  2
Výchozí (ISO)
 70
     0
 41
2.5
 42
0.0
 43
5.999999999999999
 44
1.0
 45
0.00000001
 46
10.0
 73
     0
 74
     0
 77
     1
 78
     8
 79
     2
140
3.5
143
0.03937
146
1.001485756465366
147
0.762
171
     3
172
     1
176
   256
177
   256
178
   256
179
     2
271
     2
272
     2
274
     3
278
    44
284
     8
340
95
371
    -1
372
    -1
  0
DIMSTYLE
105
B1
330
A
100
AcDbSymbolTableRecord
100
AcDbDimStyleTableRecord
  2
Výchozí (ISO)$7
 70
     0
 41
2.5
 42
0.0
 43
5.999999999999999
 44
1.0
 45
0.00000001
 46
10.0
 73
     0
 74
     0
 77
     1
 78
     8
 79
     2
140
3.5
143
0.03937
146
1.001485756465366
147
0.762
171
     3
172
     1
176
   256
177
   256
178
   256
179
     2
271
     2
272
     2
274
     3
278
    44
284
     8
340
95
371
    -1
372
    -1
  0
DIMSTYLE
105
B2
330
A
100
AcDbSymbolTableRecord
100
AcDbDimStyleTableRecord
  2
Alternativní (ISO)
 70
     0
 41
2.5
340
55
342
B3
  0
DIMSTYLE
105
C4
330
A
100
AcDbSymbolTableRecord
100
AcDbDimStyleTableRecord
  2
Základny (ISO)
 70
     0
 41
2.5
340
55
342
B3
  0
DIMSTYLE
105
19E8
102
{ACAD_REACTORS
330
1C69
102
}
330
A
100
AcDbSymbolTableRecord
100
AcDbDimStyleTableRecord
  2
AM_ISO
 70
     0
  4
"
 41
3.5
 42
1.0
 43
10.0
 44
1.0
 47
0.1
 48
0.1
 73
     0
 74
     0
 77
     1
 78
     8
 79
     2
140
3.5
141
0.0
143
0.0393701
146
0.71
147
1.5
172
     1
176
   256
177
   256
178
   140
271
     2
272
     3
274
     4
283
     0
284
     8
340
55
371
    -1
372
    -1
1001
ACAD_DSTYLE_DIMARC_LENGTH_SYMBOL
1070
   379
1070
     1
1001
ACAD_DSTYLE_DIM_LINETYPE
1070
   380
1005
5B
1001
ACAD_DSTYLE_DIM_EXT1_LINETYPE
1070
   381
1005
5B
1001
ACAD_DSTYLE_DIM_EXT2_LINETYPE
1070
   382
1005
5B
  0
DIMSTYLE
105
19F3
330
A
100
AcDbSymbolTableRecord
100
AcDbDimStyleTableRecord
  2
AM_ISO$3
 70
     0
  4
"
 41
3.5
 42
1.0
 43
10.0
 44
1.0
 47
0.1
 48
0.1
 73
     0
 77
     1
 78
     8
 79
     2
140
3.5
141
0.0
143
0.0393701
146
0.71
147
1.5
176
   256
177
   256
178
   140
271
     2
272
     3
274
     4
283
     0
284
     8
288
     1
289
     0
340
55
371
    -1
372
    -1
1001
ACAD_DSTYLE_DIMARC_LENGTH_SYMBOL
1070
   379
1070
     1
1001
ACAD_DSTYLE_DIM_LINETYPE
1070
   380
1005
5B
1001
ACAD_DSTYLE_DIM_EXT1_LINETYPE
1070
   381
1005
5B
1001
ACAD_DSTYLE_DIM_EXT2_LINETYPE
1070
   382
1005
5B
  0
DIMSTYLE
105
19F4
330
A
100
AcDbSymbolTableRecord
100
AcDbDimStyleTableRecord
  2
AM_ISO$4
 70
     0
  4
"
 41
3.5
 42
1.0
 43
10.0
 44
1.0
 47
0.1
 48
0.1
 73
     0
 74
     0
 77
     1
 78
     8
 79
     2
140
3.5
141
0.0
143
0.0393701
146
0.71
147
1.5
172
     1
176
   256
177
   256
178
   140
271
     2
272
     3
274
     4
283
     0
284
     8
340
55
371
    -1
372
    -1
1001
ACAD_DSTYLE_DIMARC_LENGTH_SYMBOL
1070
   379
1070
     1
1001
ACAD_DSTYLE_DIM_LINETYPE
1070
   380
1005
5B
1001
ACAD_DSTYLE_DIM_EXT1_LINETYPE
1070
   381
1005
5B
1001
ACAD_DSTYLE_DIM_EXT2_LINETYPE
1070
   382
1005
5B
  0
DIMSTYLE
105
19F5
330
A
100
AcDbSymbolTableRecord
100
AcDbDimStyleTableRecord
  2
AM_ISO$6
 70
     0
  4
"
 41
3.5
 42
1.0
 43
10.0
 44
1.0
 47
0.1
 48
0.1
 73
     0
 74
     0
 78
     8
 79
     2
140
3.5
141
0.0
143
0.0393701
146
0.71
147
1.5
172
     1
176
   256
177
   256
178
   140
271
     2
272
     3
274
     4
283
     0
284
     8
340
55
371
    -1
372
    -1
1001
ACAD_DSTYLE_DIMARC_LENGTH_SYMBOL
1070
   379
1070
     1
1001
ACAD_DSTYLE_DIM_LINETYPE
1070
   380
1005
5B
1001
ACAD_DSTYLE_DIM_EXT1_LINETYPE
1070
   381
1005
5B
1001
ACAD_DSTYLE_DIM_EXT2_LINETYPE
1070
   382
1005
5B
  0
DIMSTYLE
105
19F6
330
A
100
AcDbSymbolTableRecord
100
AcDbDimStyleTableRecord
  2
AM_ISO$7
 70
     0
  4
"
 41
3.5
 42
1.0
 43
10.0
 44
1.0
 47
0.1
 48
0.1
 73
     0
 74
     0
 77
     1
 78
     8
 79
     2
140
3.5
141
0.0
143
0.0393701
146
0.71
147
1.5
172
     1
176
   256
177
   256
178
   140
271
     2
272
     3
274
     4
283
     0
284
     8
340
55
371
    -1
372
    -1
1001
ACAD_DSTYLE_DIMARC_LENGTH_SYMBOL
1070
   379
1070
     1
1001
ACAD_DSTYLE_DIM_LINETYPE
1070
   380
1005
5B
1001
ACAD_DSTYLE_DIM_EXT1_LINETYPE
1070
   381
1005
5B
1001
ACAD_DSTYLE_DIM_EXT2_LINETYPE
1070
   382
1005
5B
  0
DIMSTYLE
105
19F7
330
A
100
AcDbSymbolTableRecord
100
AcDbDimStyleTableRecord
  2
AM_ISO$SF
 70
     0
  4
"
 41
3.5
 42
1.0
 43
10.0
 44
1.0
 47
0.1
 48
0.1
 73
     0
 74
     0
 75
     1
 76
     1
 77
     1
 78
     8
 79
     2
140
3.5
141
0.0
143
0.0393701
146
0.71
147
1.5
172
     1
176
   256
177
   256
178
   140
271
     2
272
     3
274
     4
283
     0
284
     8
340
55
371
    -1
372
    -1
1001
ACAD_DSTYLE_DIMARC_LENGTH_SYMBOL
1070
   379
1070
     1
1001
ACAD_DSTYLE_DIM_LINETYPE
1070
   380
1005
5B
1001
ACAD_DSTYLE_DIM_EXT1_LINETYPE
1070
   381
1005
5B
1001
ACAD_DSTYLE_DIM_EXT2_LINETYPE
1070
   382
1005
5B
  0
DIMSTYLE
105
19FC
330
A
100
AcDbSymbolTableRecord
100
AcDbDimStyleTableRecord
  2
AM_ISO$SH
 70
     0
  4
"
 41
3.5
 42
1.0
 43
10.0
 44
1.0
 47
0.1
 48
0.1
 73
     0
 74
     0
 75
     1
 76
     1
 77
     1
 78
     8
 79
     2
140
3.5
141
0.0
143
0.0393701
144
2.0
146
0.71
147
1.5
172
     1
173
     1
176
   256
177
   256
178
   140
271
     2
272
     3
274
     4
283
     0
284
     8
340
55
343
19F8
371
    -1
372
    -1
1001
ACAD_DSTYLE_DIMARC_LENGTH_SYMBOL
1070
   379
1070
     1
1001
ACAD_DSTYLE_DIM_LINETYPE
1070
   380
1005
5B
1001
ACAD_DSTYLE_DIM_EXT1_LINETYPE
1070
   381
1005
5B
1001
ACAD_DSTYLE_DIM_EXT2_LINETYPE
1070
   382
1005
5B
  0
DIMSTYLE
105
1B0F
102
{ACAD_REACTORS
330
1B35
102
}
330
A
100
AcDbSymbolTableRecord
100
AcDbDimStyleTableRecord
  2
GULLY
 70
     0
 40
2.0
 41
1.5
 42
0.0
 43
5.999999999999999
 44
1.0
 45
0.00000001
 46
10.0
 47
1.0
 48
1.0
 73
     0
 74
     0
 77
     1
 78
     8
140
6.0
143
0.03937
146
1.001485756465366
147
0.762
171
     3
176
   256
177
   256
178
   256
279
     2
340
55
  0
DIMSTYLE
105
1B10
102
{ACAD_REACTORS
330
1B34
102
}
330
A
100
AcDbSymbolTableRecord
100
AcDbDimStyleTableRecord
  2
GULLY 1
 70
     0
 40
2.0
 41
1.5
 42
0.0
 43
5.999999999999999
 44
1.0
 45
1.0
 46
10.0
 47
1.0
 48
1.0
 73
     0
 74
     0
 77
     1
 78
     8
140
6.0
143
0.03937
146
1.001485756465366
147
0.762
171
     3
176
   256
177
   256
178
   256
279
     2
284
     8
285
     8
286
     8
340
55
  0
ENDTAB
  0
TABLE
  2
BLOCK_RECORD
  5
1
330
0
100
AcDbSymbolTable
 70
    33
  0
BLOCK_RECORD
  5
6C
330
1
100
AcDbSymbolTableRecord
100
AcDbBlockTableRecord
  2
*Model_Space
340
6F
  0
BLOCK_RECORD
  5
68
330
1
100
AcDbSymbolTableRecord
100
AcDbBlockTableRecord
  2
*Paper_Space
340
6B
  0
BLOCK_RECORD
  5
70
330
1
100
AcDbSymbolTableRecord
100
AcDbBlockTableRecord
  2
*Paper_Space0
340
73
  0
BLOCK_RECORD
  5
98
330
1
100
AcDbSymbolTableRecord
100
AcDbBlockTableRecord
  2
Filled-1
340
0
  0
BLOCK_RECORD
  5
B3
330
1
100
AcDbSymbolTableRecord
100
AcDbBlockTableRecord
  2
_Closed
340
0
  0
BLOCK_RECORD
  5
BA
330
1
100
AcDbSymbolTableRecord
100
AcDbBlockTableRecord
  2
DatumFilled45
340
0
  0
BLOCK_RECORD
  5
C5
330
1
100
AcDbSymbolTableRecord
100
AcDbBlockTableRecord
  2
WIG-svarovani
340
0
  0
BLOCK_RECORD
  5
CF
330
1
100
AcDbSymbolTableRecord
100
AcDbBlockTableRecord
  2
Popis kotvy_srouby
340
0
  0
BLOCK_RECORD
  5
D3
330
1
100
AcDbSymbolTableRecord
100
AcDbBlockTableRecord
  2
Mater. provedeni Art.
340
0
  0
BLOCK_RECORD
  5
F5
330
1
100
AcDbSymbolTableRecord
100
AcDbBlockTableRecord
  2
Art. s popisy
340
0
  0
BLOCK_RECORD
  5
117
330
1
100
AcDbSymbolTableRecord
100
AcDbBlockTableRecord
  2
Tryskat
340
0
  0
BLOCK_RECORD
  5
11B
330
1
100
AcDbSymbolTableRecord
100
AcDbBlockTableRecord
  2
Morit
340
0
  0
BLOCK_RECORD
  5
11F
330
1
100
AcDbSymbolTableRecord
100
AcDbBlockTableRecord
  2
zinkovat
340
0
  0
BLOCK_RECORD
  5
123
330
1
100
AcDbSymbolTableRecord
100
AcDbBlockTableRecord
  2
Nater
340
0
  0
BLOCK_RECORD
  5
127
330
1
100
AcDbSymbolTableRecord
100
AcDbBlockTableRecord
  2
Brus
340
0
  0
BLOCK_RECORD
  5
12B
330
1
100
AcDbSymbolTableRecord
100
AcDbBlockTableRecord
  2
Elektroliticky lestit
340
0
  0
BLOCK_RECORD
  5
130
330
1
100
AcDbSymbolTableRecord
100
AcDbBlockTableRecord
  2
Rámečky Default Border
340
0
  0
BLOCK_RECORD
  5
187
330
1
100
AcDbSymbolTableRecord
100
AcDbBlockTableRecord
  2
Rohová razítka ACO-razitko
340
0
  0
BLOCK_RECORD
  5
4FF
330
1
100
AcDbSymbolTableRecord
100
AcDbBlockTableRecord
  2
2dPrevedenyRez0
340
0
  0
BLOCK_RECORD
  5
5FD
330
1
100
AcDbSymbolTableRecord
100
AcDbBlockTableRecord
  2
2dPrevedenyRez1
340
0
  0
BLOCK_RECORD
  5
846
330
1
100
AcDbSymbolTableRecord
100
AcDbBlockTableRecord
  2
*D18
340
0
  0
BLOCK_RECORD
  5
91C
330
1
100
AcDbSymbolTableRecord
100
AcDbBlockTableRecord
  2
*D19
340
0
  0
BLOCK_RECORD
  5
139C
330
1
100
AcDbSymbolTableRecord
100
AcDbBlockTableRecord
  2
Text s odkazem1
340
0
  0
BLOCK_RECORD
  5
13AE
330
1
100
AcDbSymbolTableRecord
100
AcDbBlockTableRecord
  2
2dDetail0
340
0
  0
BLOCK_RECORD
  5
1766
330
1
100
AcDbSymbolTableRecord
100
AcDbBlockTableRecord
  2
Identifikátor značky svaru1
340
0
  0
BLOCK_RECORD
  5
1786
330
1
100
AcDbSymbolTableRecord
100
AcDbBlockTableRecord
  2
KUSOVNÍK
340
0
  0
BLOCK_RECORD
  5
18D2
330
1
100
AcDbSymbolTableRecord
100
AcDbBlockTableRecord
  2
Pozice1
340
0
  0
BLOCK_RECORD
  5
18DC
330
1
100
AcDbSymbolTableRecord
100
AcDbBlockTableRecord
  2
Pozice2
340
0
  0
BLOCK_RECORD
  5
18E6
330
1
100
AcDbSymbolTableRecord
100
AcDbBlockTableRecord
  2
Pozice3
340
0
  0
BLOCK_RECORD
  5
19F8
330
1
100
AcDbSymbolTableRecord
100
AcDbBlockTableRecord
  2
GENAXEH
340
0
  0
BLOCK_RECORD
  5
1AF5
330
1
100
AcDbSymbolTableRecord
100
AcDbBlockTableRecord
  2
*D28
340
0
  0
BLOCK_RECORD
  5
1B01
330
1
100
AcDbSymbolTableRecord
100
AcDbBlockTableRecord
  2
*D29
340
0
  0
BLOCK_RECORD
  5
1B36
330
1
100
AcDbSymbolTableRecord
100
AcDbBlockTableRecord
  2
*D30
340
0
  0
BLOCK_RECORD
  5
1B42
330
1
100
AcDbSymbolTableRecord
100
AcDbBlockTableRecord
  2
*D31
340
0
  0
ENDTAB
  0
ENDSEC
  0
SECTION
  2
BLOCKS
  0
BLOCK
  5
6D
330
6C
100
AcDbEntity
  8
0
100
AcDbBlockBegin
  2
*Model_Space
 70
     0
 10
0.0
 20
0.0
 30
0.0
  3
*Model_Space
  1

  0
ENDBLK
  5
6E
330
6C
100
AcDbEntity
  8
0
100
AcDbBlockEnd
  0
BLOCK
  5
69
330
68
100
AcDbEntity
 67
     1
  8
0
100
AcDbBlockBegin
  2
*Paper_Space
 70
     0
 10
0.0
 20
0.0
 30
0.0
  3
*Paper_Space
  1

  0
ENDBLK
  5
6A
330
68
100
AcDbEntity
 67
     1
  8
0
100
AcDbBlockEnd
  0
BLOCK
  5
71
330
70
100
AcDbEntity
 67
     1
  8
0
100
AcDbBlockBegin
  2
*Paper_Space0
 70
     0
 10
0.0
 20
0.0
 30
0.0
  3
*Paper_Space0
  1

  0
ENDBLK
  5
72
330
70
100
AcDbEntity
 67
     1
  8
0
100
AcDbBlockEnd
  0
BLOCK
  5
99
330
98
100
AcDbEntity
  8
0
100
AcDbBlockBegin
  2
Filled-1
 70
     0
 10
0.0
 20
0.0
 30
0.0
  3
Filled-1
  1

  0
LINE
  5
9B
330
98
100
AcDbEntity
  8
0
 62
     0
100
AcDbLine
 10
-1.0
 20
0.0
 30
0.0
 11
0.0
 21
0.0
 31
0.0
  0
POLYLINE
  5
9C
330
98
100
AcDbEntity
  8
0
 62
     0
100
AcDb2dPolyline
 66
     1
 10
0.0
 20
0.0
 30
0.0
 70
   128
  0
VERTEX
  5
9D
330
9C
100
AcDbEntity
  8
0
 62
     0
100
AcDbVertex
100
AcDb2dVertex
 10
-1.0
 20
-0.1
 30
0.0
  0
VERTEX
  5
9E
330
9C
100
AcDbEntity
  8
0
 62
     0
100
AcDbVertex
100
AcDb2dVertex
 10
0.0
 20
0.0
 30
0.0
  0
VERTEX
  5
A0
330
9C
100
AcDbEntity
  8
0
 62
     0
100
AcDbVertex
100
AcDb2dVertex
 10
-1.0
 20
0.1
 30
0.0
  0
VERTEX
  5
A1
330
9C
100
AcDbEntity
  8
0
 62
     0
100
AcDbVertex
100
AcDb2dVertex
 10
-1.0
 20
-0.1
 30
0.0
  0
SEQEND
  5
9F
330
9C
100
AcDbEntity
  8
0
 62
     0
  0
SOLID
  5
A2
330
98
100
AcDbEntity
  8
0
 62
     0
100
AcDbTrace
 10
-1.0
 20
-0.1
 30
0.0
 11
0.0
 21
0.0
 31
0.0
 12
-1.0
 22
0.1
 32
0.0
 13
-1.0
 23
-0.1
 33
0.0
  0
LINE
  5
A3
330
98
100
AcDbEntity
  8
0
 62
     0
100
AcDbLine
 10
-1.0
 20
-0.1
 30
0.0
 11
0.0
 21
0.0
 31
0.0
  0
LINE
  5
A4
330
98
100
AcDbEntity
  8
0
 62
     0
100
AcDbLine
 10
0.0
 20
0.0
 30
0.0
 11
-1.0
 21
0.1
 31
0.0
  0
LINE
  5
A5
330
98
100
AcDbEntity
  8
0
 62
     0
100
AcDbLine
 10
-1.0
 20
0.1
 30
0.0
 11
-1.0
 21
-0.1
 31
0.0
  0
ENDBLK
  5
9A
330
98
100
AcDbEntity
  8
0
100
AcDbBlockEnd
  0
BLOCK
  5
B8
330
B3
100
AcDbEntity
  8
0
100
AcDbBlockBegin
  2
_Closed
 70
     0
 10
0.0
 20
0.0
 30
0.0
  3
_Closed
  1

  0
LINE
  5
B4
330
B3
100
AcDbEntity
  8
0
  6
ByBlock
 62
     0
370
    -2
100
AcDbLine
 10
-1.0
 20
0.1666666666666666
 30
0.0
 11
0.0
 21
0.0
 31
0.0
  0
LINE
  5
B5
330
B3
100
AcDbEntity
  8
0
  6
ByBlock
 62
     0
370
    -2
100
AcDbLine
 10
0.0
 20
0.0
 30
0.0
 11
-1.0
 21
-0.1666666666666666
 31
0.0
  0
LINE
  5
B6
330
B3
100
AcDbEntity
  8
0
  6
ByBlock
 62
     0
370
    -2
100
AcDbLine
 10
-1.0
 20
0.1666666666666666
 30
0.0
 11
-1.0
 21
-0.1666666666666666
 31
0.0
  0
LINE
  5
B7
330
B3
100
AcDbEntity
  8
0
  6
ByBlock
 62
     0
370
    -2
100
AcDbLine
 10
0.0
 20
0.0
 30
0.0
 11
-1.0
 21
0.0
 31
0.0
  0
ENDBLK
  5
B9
330
B3
100
AcDbEntity
  8
0
100
AcDbBlockEnd
  0
BLOCK
  5
BB
330
BA
100
AcDbEntity
  8
0
100
AcDbBlockBegin
  2
DatumFilled45
 70
     0
 10
0.0
 20
0.0
 30
0.0
  3
DatumFilled45
  1

  0
POLYLINE
  5
BD
330
BA
100
AcDbEntity
  8
0
 62
     0
100
AcDb2dPolyline
 66
     1
 10
0.0
 20
0.0
 30
0.0
 70
   128
  0
VERTEX
  5
BE
330
BD
100
AcDbEntity
  8
0
 62
     0
100
AcDbVertex
100
AcDb2dVertex
 10
0.0
 20
1.0
 30
0.0
  0
VERTEX
  5
BF
330
BD
100
AcDbEntity
  8
0
 62
     0
100
AcDbVertex
100
AcDb2dVertex
 10
0.0
 20
-1.0
 30
0.0
  0
VERTEX
  5
C1
330
BD
100
AcDbEntity
  8
0
 62
     0
100
AcDbVertex
100
AcDb2dVertex
 10
-1.0
 20
0.0
 30
0.0
  0
VERTEX
  5
C2
330
BD
100
AcDbEntity
  8
0
 62
     0
100
AcDbVertex
100
AcDb2dVertex
 10
0.0
 20
1.0
 30
0.0
  0
SEQEND
  5
C0
330
BD
100
AcDbEntity
  8
0
 62
     0
  0
SOLID
  5
C3
330
BA
100
AcDbEntity
  8
0
 62
     0
100
AcDbTrace
 10
0.0
 20
1.0
 30
0.0
 11
0.0
 21
-1.0
 31
0.0
 12
-1.0
 22
0.0
 32
0.0
 13
0.0
 23
1.0
 33
0.0
  0
ENDBLK
  5
BC
330
BA
100
AcDbEntity
  8
0
100
AcDbBlockEnd
  0
BLOCK
  5
C6
330
C5
100
AcDbEntity
  8
0
100
AcDbBlockBegin
  2
WIG-svarovani
 70
     0
 10
0.0
 20
0.0
 30
0.0
  3
WIG-svarovani
  1

  0
MTEXT
  5
C8
330
C5
100
AcDbEntity
  8
Značka (ISO)
100
AcDbMText
 10
-57.87338256835937
 20
16.31795931607484
 30
0.0
 40
3.499999940395355
 41
115.7467651367187
 71
     1
 72
     1
  1
\fTahoma|b0|i0;WIG Schweisung, Nahte sauber geschliffen und poliert
  7
Text poznámky (ISO)
 73
     1
 44
1.0
  0
MTEXT
  5
CA
330
C5
100
AcDbEntity
  8
Značka (ISO)
100
AcDbMText
 10
-57.87338256835937
 20
10.55530179291963
 30
0.0
 40
3.499999940395355
 41
108.1851768493652
 71
     1
 72
     1
  1
\fTahoma|b0|i0;Sichtstege geschliffen mit 240 Korn und abgeklebt.
  7
Text poznámky (ISO)
 73
     1
 44
1.0
  0
MTEXT
  5
CB
330
C5
100
AcDbEntity
  8
Značka (ISO)
100
AcDbMText
 10
-57.87338256835937
 20
4.7442464902997
 30
0.0
 40
3.000000119209288
 41
0.0
 71
     1
 72
     1
  1
\fTahoma|b0|i0; 
  7
Text poznámky (ISO)
 73
     1
 44
1.0
  0
MTEXT
  5
CC
330
C5
100
AcDbEntity
  8
Značka (ISO)
100
AcDbMText
 10
-57.87338256835937
 20
-0.1694674417376518
 30
0.0
 40
3.499999940395355
 41
93.11872482299804
 71
     1
 72
     1
  1
\fTahoma|b0|i0;WIG svarovani- svary dle potreby zabrousit.
  7
Text poznámky (ISO)
 73
     1
 44
1.0
  0
MTEXT
  5
CD
330
C5
100
AcDbEntity
  8
Značka (ISO)
100
AcDbMText
 10
-57.87338256835937
 20
-5.932125560939311
 30
0.0
 40
3.499999940395355
 41
103.8512992858886
 71
     1
 72
     1
  1
\fTahoma|b0|i0;Pohledove plochy brousit (vel. brusnych zrn 240)
  7
Text poznámky (ISO)
 73
     1
 44
1.0
  0
MTEXT
  5
CE
330
C5
100
AcDbEntity
  8
Značka (ISO)
100
AcDbMText
 10
-57.87338256835937
 20
-11.69478368014097
 30
0.0
 40
3.499999940395355
 41
34.83833074569702
 71
     1
 72
     1
  1
\fTahoma|b0|i0;a polepit paskou
  7
Text poznámky (ISO)
 73
     1
 44
1.0
  0
ENDBLK
  5
C7
330
C5
100
AcDbEntity
  8
0
100
AcDbBlockEnd
  0
BLOCK
  5
D0
330
CF
100
AcDbEntity
  8
0
100
AcDbBlockBegin
  2
Popis kotvy_srouby
 70
     0
 10
0.0
 20
0.0
 30
0.0
  3
Popis kotvy_srouby
  1

  0
MTEXT
  5
D2
330
CF
100
AcDbEntity
  8
Značka (ISO)
100
AcDbMText
 10
-39.79761123657226
 20
21.84130281209946
 30
0.0
 40
3.499999940395355
 41
0.0
 71
     1
 72
     1
  1
Vzdalenost nivel. sroubu ca. 1500\PVzdalenost kotev ca. 400\PVzdalenost dist. koliku ca. 250\P\PAbstand der Nivellieschraben ca.1500\PAbstand der Maueranker ca.400\PAbstand der Distanzstege ca.250\P
  7
Text poznámky (ISO)
 73
     2
 44
0.9878841638565063
  0
ENDBLK
  5
D1
330
CF
100
AcDbEntity
  8
0
100
AcDbBlockEnd
  0
BLOCK
  5
D4
330
D3
100
AcDbEntity
  8
0
100
AcDbBlockBegin
  2
Mater. provedeni Art.
 70
     0
 10
0.0
 20
0.0
 30
0.0
  3
Mater. provedeni Art.
  1

  0
LINE
  5
D6
330
D3
100
AcDbEntity
  8
Geometrie náčrtu (ISO)
100
AcDbLine
 10
-35.0
 20
-22.5
 30
0.0
 11
35.0
 21
-22.5
 31
0.0
  0
LINE
  5
D7
330
D3
100
AcDbEntity
  8
Geometrie náčrtu (ISO)
100
AcDbLine
 10
35.0
 20
-22.5
 30
0.0
 11
34.99999999999996
 21
-13.49999999999998
 31
0.0
  0
LINE
  5
D8
330
D3
100
AcDbEntity
  8
Geometrie náčrtu (ISO)
100
AcDbLine
 10
34.99999999999996
 20
-13.49999999999998
 30
0.0
 11
-35.00000000000003
 21
-13.49999999999998
 31
0.0
  0
LINE
  5
D9
330
D3
100
AcDbEntity
  8
Geometrie náčrtu (ISO)
100
AcDbLine
 10
-35.00000000000003
 20
-13.49999999999998
 30
0.0
 11
-35.0
 21
-22.5
 31
0.0
  0
LINE
  5
DA
330
D3
100
AcDbEntity
  8
Geometrie náčrtu (ISO)
100
AcDbLine
 10
-35.00000000000003
 20
-13.49999999999998
 30
0.0
 11
34.99999999999996
 21
-13.49999999999998
 31
0.0
  0
LINE
  5
DB
330
D3
100
AcDbEntity
  8
Geometrie náčrtu (ISO)
100
AcDbLine
 10
34.99999999999996
 20
-13.49999999999998
 30
0.0
 11
34.99999999999996
 21
-4.499999999999992
 31
0.0
  0
LINE
  5
DC
330
D3
100
AcDbEntity
  8
Geometrie náčrtu (ISO)
100
AcDbLine
 10
34.99999999999996
 20
-4.499999999999992
 30
0.0
 11
-35.00000000000003
 21
-4.499999999999992
 31
0.0
  0
LINE
  5
DD
330
D3
100
AcDbEntity
  8
Geometrie náčrtu (ISO)
100
AcDbLine
 10
-35.00000000000003
 20
-4.499999999999992
 30
0.0
 11
-35.00000000000003
 21
-13.49999999999998
 31
0.0
  0
LINE
  5
DE
330
D3
100
AcDbEntity
  8
Geometrie náčrtu (ISO)
100
AcDbLine
 10
-35.00000000000003
 20
-4.499999999999992
 30
0.0
 11
34.99999999999996
 21
-4.499999999999992
 31
0.0
  0
LINE
  5
DF
330
D3
100
AcDbEntity
  8
Geometrie náčrtu (ISO)
100
AcDbLine
 10
34.99999999999996
 20
-4.499999999999992
 30
0.0
 11
34.99999999999996
 21
4.499999999999992
 31
0.0
  0
LINE
  5
E0
330
D3
100
AcDbEntity
  8
Geometrie náčrtu (ISO)
100
AcDbLine
 10
34.99999999999996
 20
4.499999999999992
 30
0.0
 11
-35.00000000000003
 21
4.499999999999992
 31
0.0
  0
LINE
  5
E1
330
D3
100
AcDbEntity
  8
Geometrie náčrtu (ISO)
100
AcDbLine
 10
-35.00000000000003
 20
4.499999999999992
 30
0.0
 11
-35.00000000000003
 21
-4.499999999999992
 31
0.0
  0
LINE
  5
E2
330
D3
100
AcDbEntity
  8
Geometrie náčrtu (ISO)
100
AcDbLine
 10
-35.00000000000003
 20
4.499999999999992
 30
0.0
 11
34.99999999999996
 21
4.499999999999992
 31
0.0
  0
LINE
  5
E3
330
D3
100
AcDbEntity
  8
Geometrie náčrtu (ISO)
100
AcDbLine
 10
34.99999999999996
 20
4.499999999999992
 30
0.0
 11
34.99999999999996
 21
13.50000000000001
 31
0.0
  0
LINE
  5
E4
330
D3
100
AcDbEntity
  8
Geometrie náčrtu (ISO)
100
AcDbLine
 10
34.99999999999996
 20
13.50000000000001
 30
0.0
 11
-35.00000000000003
 21
13.50000000000001
 31
0.0
  0
LINE
  5
E5
330
D3
100
AcDbEntity
  8
Geometrie náčrtu (ISO)
100
AcDbLine
 10
-35.00000000000003
 20
13.50000000000001
 30
0.0
 11
-35.00000000000003
 21
4.499999999999992
 31
0.0
  0
LINE
  5
E6
330
D3
100
AcDbEntity
  8
Geometrie náčrtu (ISO)
100
AcDbLine
 10
-35.00000000000003
 20
13.50000000000001
 30
0.0
 11
34.99999999999996
 21
13.50000000000001
 31
0.0
  0
LINE
  5
E7
330
D3
100
AcDbEntity
  8
Geometrie náčrtu (ISO)
100
AcDbLine
 10
34.99999999999996
 20
13.50000000000001
 30
0.0
 11
34.99999999999996
 21
22.5
 31
0.0
  0
LINE
  5
E8
330
D3
100
AcDbEntity
  8
Geometrie náčrtu (ISO)
100
AcDbLine
 10
34.99999999999996
 20
22.5
 30
0.0
 11
-35.00000000000003
 21
22.5
 31
0.0
  0
LINE
  5
E9
330
D3
100
AcDbEntity
  8
Geometrie náčrtu (ISO)
100
AcDbLine
 10
-35.00000000000003
 20
22.5
 30
0.0
 11
-35.00000000000003
 21
13.50000000000001
 31
0.0
  0
LINE
  5
EA
330
D3
100
AcDbEntity
  8
Geometrie náčrtu (ISO)
100
AcDbLine
 10
-6.999999999999992
 20
22.5
 30
0.0
 11
-6.999999999999992
 21
-22.5
 31
0.0
  0
MTEXT
  5
EB
330
D3
100
AcDbEntity
  8
Značka (ISO)
100
AcDbMText
 10
-5.126613448311374
 20
11.7684641726084
 30
0.0
 40
5.0
 41
37.43922233581543
 71
     1
 72
     1
  1
\fTahoma|b0|i0;xxxxxxxxxxx
  7
Text poznámky (ISO)
 73
     1
 44
1.0
  0
MTEXT
  5
EC
330
D3
100
AcDbEntity
  8
Značka (ISO)
100
AcDbMText
 10
-33.0130165251342
 20
11.7684641726084
 30
0.0
 40
5.0
 41
20.42139291763306
 71
     1
 72
     1
  1
\fTahoma|b0|i0;xxxxxx
  7
Text poznámky (ISO)
 73
     1
 44
1.0
  0
MTEXT
  5
ED
330
D3
100
AcDbEntity
  8
Značka (ISO)
100
AcDbMText
 10
-32.07756235018873
 20
20.30710993714994
 30
0.0
 40
5.0
 41
10.98865509033203
 71
     1
 72
     1
  1
\fTahoma|b0|i0;Art.
  7
Text poznámky (ISO)
 73
     1
 44
1.0
  0
MTEXT
  5
EE
330
D3
100
AcDbEntity
  8
Značka (ISO)
100
AcDbMText
 10
4.291672002492318
 20
20.30710993714994
 30
0.0
 40
5.0
 41
13.29416513442993
 71
     1
 72
     1
  1
\fTahoma|b0|i0;Mat.
  7
Text poznámky (ISO)
 73
     1
 44
1.0
  0
MTEXT
  5
EF
330
D3
100
AcDbEntity
  8
Značka (ISO)
100
AcDbMText
 10
-33.0130165251342
 20
2.473781856899818
 30
0.0
 40
5.0
 41
20.42139291763306
 71
     1
 72
     1
  1
\fTahoma|b0|i0;xxxxxx
  7
Text poznámky (ISO)
 73
     1
 44
1.0
  0
MTEXT
  5
F0
330
D3
100
AcDbEntity
  8
Značka (ISO)
100
AcDbMText
 10
-5.126613448311374
 20
2.473781856899818
 30
0.0
 40
5.0
 41
37.43922233581543
 71
     1
 72
     1
  1
\fTahoma|b0|i0;xxxxxxxxxxx
  7
Text poznámky (ISO)
 73
     1
 44
1.0
  0
MTEXT
  5
F1
330
D3
100
AcDbEntity
  8
Značka (ISO)
100
AcDbMText
 10
-33.0130165251342
 20
-6.862452441171491
 30
0.0
 40
5.0
 41
20.42139291763306
 71
     1
 72
     1
  1
\fTahoma|b0|i0;xxxxxx
  7
Text poznámky (ISO)
 73
     1
 44
1.0
  0
MTEXT
  5
F2
330
D3
100
AcDbEntity
  8
Značka (ISO)
100
AcDbMText
 10
-5.126613448311374
 20
-6.862452441171491
 30
0.0
 40
5.0
 41
37.43922233581543
 71
     1
 72
     1
  1
\fTahoma|b0|i0;xxxxxxxxxxx
  7
Text poznámky (ISO)
 73
     1
 44
1.0
  0
MTEXT
  5
F3
330
D3
100
AcDbEntity
  8
Značka (ISO)
100
AcDbMText
 10
-33.0130165251342
 20
-15.52177565039578
 30
0.0
 40
5.0
 41
20.42139291763306
 71
     1
 72
     1
  1
\fTahoma|b0|i0;xxxxxx
  7
Text poznámky (ISO)
 73
     1
 44
1.0
  0
MTEXT
  5
F4
330
D3
100
AcDbEntity
  8
Značka (ISO)
100
AcDbMText
 10
-5.126613448311374
 20
-15.52177565039578
 30
0.0
 40
5.0
 41
37.43922233581543
 71
     1
 72
     1
  1
\fTahoma|b0|i0;xxxxxxxxxxx
  7
Text poznámky (ISO)
 73
     1
 44
1.0
  0
ENDBLK
  5
D5
330
D3
100
AcDbEntity
  8
0
100
AcDbBlockEnd
  0
BLOCK
  5
F6
330
F5
100
AcDbEntity
  8
0
100
AcDbBlockBegin
  2
Art. s popisy
 70
     0
 10
0.0
 20
0.0
 30
0.0
  3
Art. s popisy
  1

  0
LINE
  5
F8
330
F5
100
AcDbEntity
  8
Geometrie náčrtu (ISO)
100
AcDbLine
 10
-60.00000000000081
 20
-22.5
 30
0.0
 11
59.99999999999911
 21
-22.5
 31
0.0
  0
LINE
  5
F9
330
F5
100
AcDbEntity
  8
Geometrie náčrtu (ISO)
100
AcDbLine
 10
59.99999999999911
 20
-22.5
 30
0.0
 11
60.00000000000081
 21
-13.50000000000001
 31
0.0
  0
LINE
  5
FA
330
F5
100
AcDbEntity
  8
Geometrie náčrtu (ISO)
100
AcDbLine
 10
60.00000000000081
 20
-13.50000000000001
 30
0.0
 11
-60.00000000000081
 21
-13.49999999999998
 31
0.0
  0
LINE
  5
FB
330
F5
100
AcDbEntity
  8
Geometrie náčrtu (ISO)
100
AcDbLine
 10
-60.00000000000081
 20
-13.49999999999998
 30
0.0
 11
-60.00000000000081
 21
-22.5
 31
0.0
  0
LINE
  5
FC
330
F5
100
AcDbEntity
  8
Geometrie náčrtu (ISO)
100
AcDbLine
 10
-60.00000000000081
 20
-13.49999999999998
 30
0.0
 11
60.00000000000081
 21
-13.50000000000001
 31
0.0
  0
LINE
  5
FD
330
F5
100
AcDbEntity
  8
Geometrie náčrtu (ISO)
100
AcDbLine
 10
60.00000000000081
 20
-13.50000000000001
 30
0.0
 11
59.99999999999911
 21
-4.500000000000028
 31
0.0
  0
LINE
  5
FE
330
F5
100
AcDbEntity
  8
Geometrie náčrtu (ISO)
100
AcDbLine
 10
59.99999999999911
 20
-4.500000000000028
 30
0.0
 11
-60.00000000000081
 21
-4.499999999999992
 31
0.0
  0
LINE
  5
FF
330
F5
100
AcDbEntity
  8
Geometrie náčrtu (ISO)
100
AcDbLine
 10
-60.00000000000081
 20
-4.499999999999992
 30
0.0
 11
-60.00000000000081
 21
-13.49999999999998
 31
0.0
  0
LINE
  5
100
330
F5
100
AcDbEntity
  8
Geometrie náčrtu (ISO)
100
AcDbLine
 10
-60.00000000000081
 20
-4.499999999999992
 30
0.0
 11
59.99999999999911
 21
-4.500000000000028
 31
0.0
  0
LINE
  5
101
330
F5
100
AcDbEntity
  8
Geometrie náčrtu (ISO)
100
AcDbLine
 10
59.99999999999911
 20
-4.500000000000028
 30
0.0
 11
59.99999999999911
 21
4.499999999999957
 31
0.0
  0
LINE
  5
102
330
F5
100
AcDbEntity
  8
Geometrie náčrtu (ISO)
100
AcDbLine
 10
59.99999999999911
 20
4.499999999999957
 30
0.0
 11
-60.00000000000081
 21
4.499999999999992
 31
0.0
  0
LINE
  5
103
330
F5
100
AcDbEntity
  8
Geometrie náčrtu (ISO)
100
AcDbLine
 10
-60.00000000000081
 20
4.499999999999992
 30
0.0
 11
-60.00000000000081
 21
-4.499999999999992
 31
0.0
  0
LINE
  5
104
330
F5
100
AcDbEntity
  8
Geometrie náčrtu (ISO)
100
AcDbLine
 10
-60.00000000000081
 20
4.499999999999992
 30
0.0
 11
59.99999999999911
 21
4.499999999999957
 31
0.0
  0
LINE
  5
105
330
F5
100
AcDbEntity
  8
Geometrie náčrtu (ISO)
100
AcDbLine
 10
59.99999999999911
 20
4.499999999999957
 30
0.0
 11
59.99999999999911
 21
13.49999999999998
 31
0.0
  0
LINE
  5
106
330
F5
100
AcDbEntity
  8
Geometrie náčrtu (ISO)
100
AcDbLine
 10
59.99999999999911
 20
13.49999999999998
 30
0.0
 11
-60.00000000000081
 21
13.50000000000001
 31
0.0
  0
LINE
  5
107
330
F5
100
AcDbEntity
  8
Geometrie náčrtu (ISO)
100
AcDbLine
 10
-60.00000000000081
 20
13.50000000000001
 30
0.0
 11
-60.00000000000081
 21
4.499999999999992
 31
0.0
  0
LINE
  5
108
330
F5
100
AcDbEntity
  8
Geometrie náčrtu (ISO)
100
AcDbLine
 10
-60.00000000000081
 20
13.50000000000001
 30
0.0
 11
59.99999999999911
 21
13.49999999999998
 31
0.0
  0
LINE
  5
109
330
F5
100
AcDbEntity
  8
Geometrie náčrtu (ISO)
100
AcDbLine
 10
59.99999999999911
 20
13.49999999999998
 30
0.0
 11
59.99999999999911
 21
22.49999999999996
 31
0.0
  0
LINE
  5
10A
330
F5
100
AcDbEntity
  8
Geometrie náčrtu (ISO)
100
AcDbLine
 10
59.99999999999911
 20
22.49999999999996
 30
0.0
 11
-60.00000000000081
 21
22.5
 31
0.0
  0
LINE
  5
10B
330
F5
100
AcDbEntity
  8
Geometrie náčrtu (ISO)
100
AcDbLine
 10
-60.00000000000081
 20
22.5
 30
0.0
 11
-60.00000000000081
 21
13.50000000000001
 31
0.0
  0
LINE
  5
10C
330
F5
100
AcDbEntity
  8
Geometrie náčrtu (ISO)
100
AcDbLine
 10
-32.00000000000081
 20
22.5
 30
0.0
 11
-32.00000000000081
 21
-22.5
 31
0.0
  0
MTEXT
  5
10D
330
F5
100
AcDbEntity
  8
Značka (ISO)
100
AcDbMText
 10
-27.63552601875791
 20
11.7684641726084
 30
0.0
 40
5.0
 41
37.43922233581543
 71
     1
 72
     1
  1
\fTahoma|b0|i0;xxxxxxxxxxx
  7
Text poznámky (ISO)
 73
     1
 44
1.0
  0
MTEXT
  5
10E
330
F5
100
AcDbEntity
  8
Značka (ISO)
100
AcDbMText
 10
-55.52192909558073
 20
11.7684641726084
 30
0.0
 40
5.0
 41
20.42139291763306
 71
     1
 72
     1
  1
\fTahoma|b0|i0;xxxxxx
  7
Text poznámky (ISO)
 73
     1
 44
1.0
  0
MTEXT
  5
10F
330
F5
100
AcDbEntity
  8
Značka (ISO)
100
AcDbMText
 10
-54.58647492063526
 20
20.30710993714994
 30
0.0
 40
5.0
 41
10.98865509033203
 71
     1
 72
     1
  1
\fTahoma|b0|i0;Art.
  7
Text poznámky (ISO)
 73
     1
 44
1.0
  0
MTEXT
  5
110
330
F5
100
AcDbEntity
  8
Značka (ISO)
100
AcDbMText
 10
-18.21724056795421
 20
20.30710993714994
 30
0.0
 40
5.0
 41
18.04700136184692
 71
     1
 72
     1
  1
\fTahoma|b0|i0;Popis.
  7
Text poznámky (ISO)
 73
     1
 44
1.0
  0
MTEXT
  5
111
330
F5
100
AcDbEntity
  8
Značka (ISO)
100
AcDbMText
 10
-55.52192909558073
 20
2.473781856899818
 30
0.0
 40
5.0
 41
20.42139291763306
 71
     1
 72
     1
  1
\fTahoma|b0|i0;xxxxxx
  7
Text poznámky (ISO)
 73
     1
 44
1.0
  0
MTEXT
  5
112
330
F5
100
AcDbEntity
  8
Značka (ISO)
100
AcDbMText
 10
-27.63552601875791
 20
2.473781856899818
 30
0.0
 40
5.0
 41
37.43922233581543
 71
     1
 72
     1
  1
\fTahoma|b0|i0;xxxxxxxxxxx
  7
Text poznámky (ISO)
 73
     1
 44
1.0
  0
MTEXT
  5
113
330
F5
100
AcDbEntity
  8
Značka (ISO)
100
AcDbMText
 10
-55.52192909558073
 20
-6.862452441171491
 30
0.0
 40
5.0
 41
20.42139291763306
 71
     1
 72
     1
  1
\fTahoma|b0|i0;xxxxxx
  7
Text poznámky (ISO)
 73
     1
 44
1.0
  0
MTEXT
  5
114
330
F5
100
AcDbEntity
  8
Značka (ISO)
100
AcDbMText
 10
-27.63552601875791
 20
-6.862452441171491
 30
0.0
 40
5.0
 41
37.43922233581543
 71
     1
 72
     1
  1
\fTahoma|b0|i0;xxxxxxxxxxx
  7
Text poznámky (ISO)
 73
     1
 44
1.0
  0
MTEXT
  5
115
330
F5
100
AcDbEntity
  8
Značka (ISO)
100
AcDbMText
 10
-55.52192909558073
 20
-15.52177565039578
 30
0.0
 40
5.0
 41
20.42139291763306
 71
     1
 72
     1
  1
\fTahoma|b0|i0;xxxxxx
  7
Text poznámky (ISO)
 73
     1
 44
1.0
  0
MTEXT
  5
116
330
F5
100
AcDbEntity
  8
Značka (ISO)
100
AcDbMText
 10
-27.63552601875791
 20
-15.52177565039578
 30
0.0
 40
5.0
 41
37.43922233581543
 71
     1
 72
     1
  1
\fTahoma|b0|i0;xxxxxxxxxxx
  7
Text poznámky (ISO)
 73
     1
 44
1.0
  0
ENDBLK
  5
F7
330
F5
100
AcDbEntity
  8
0
100
AcDbBlockEnd
  0
BLOCK
  5
118
330
117
100
AcDbEntity
  8
0
100
AcDbBlockBegin
  2
Tryskat
 70
     0
 10
0.0
 20
0.0
 30
0.0
  3
Tryskat
  1

  0
MTEXT
  5
11A
330
117
100
AcDbEntity
  8
Značka (ISO)
100
AcDbMText
 10
-30.20239114761352
 20
5.036920197308063
 30
0.0
 40
3.499999940395355
 41
0.0
 71
     1
 72
     1
  1
Tryskat \P( Blasted , Glasperlstrahken)
  7
Text poznámky (ISO)
 73
     2
 44
0.9878841638565063
  0
ENDBLK
  5
119
330
117
100
AcDbEntity
  8
0
100
AcDbBlockEnd
  0
BLOCK
  5
11C
330
11B
100
AcDbEntity
  8
0
100
AcDbBlockBegin
  2
Morit
 70
     0
 10
0.0
 20
0.0
 30
0.0
  3
Morit
  1

  0
MTEXT
  5
11E
330
11B
100
AcDbEntity
  8
Značka (ISO)
100
AcDbMText
 10
-19.08124089241028
 20
5.11633675545454
 30
0.0
 40
3.499999940395355
 41
0.0
 71
     1
 72
     1
  1
Morit a pasivovat\P(Pickled, gebeitzt)
  7
Text poznámky (ISO)
 73
     2
 44
0.9878841638565063
  0
ENDBLK
  5
11D
330
11B
100
AcDbEntity
  8
0
100
AcDbBlockEnd
  0
BLOCK
  5
120
330
11F
100
AcDbEntity
  8
0
100
AcDbBlockBegin
  2
zinkovat
 70
     0
 10
0.0
 20
0.0
 30
0.0
  3
zinkovat
  1

  0
MTEXT
  5
122
330
11F
100
AcDbEntity
  8
Značka (ISO)
100
AcDbMText
 10
-27.74189710617065
 20
5.049683563411234
 30
0.0
 40
3.499999940395355
 41
0.0
 71
     1
 72
     1
  1
Zarove zinkovat\P(hot galvanized, verzinkt )
  7
Text poznámky (ISO)
 73
     2
 44
0.9878841638565063
  0
ENDBLK
  5
121
330
11F
100
AcDbEntity
  8
0
100
AcDbBlockEnd
  0
BLOCK
  5
124
330
123
100
AcDbEntity
  8
0
100
AcDbBlockBegin
  2
Nater
 70
     0
 10
0.0
 20
0.0
 30
0.0
  3
Nater
  1

  0
MTEXT
  5
126
330
123
100
AcDbEntity
  8
Značka (ISO)
100
AcDbMText
 10
-25.88411808013916
 20
1.864870421122758
 30
0.0
 40
3.499999940395355
 41
0.0
 71
     1
 72
     1
  1
Lackiert Farbe RAL 5002
  7
Text poznámky (ISO)
 73
     1
 44
1.0
  0
ENDBLK
  5
125
330
123
100
AcDbEntity
  8
0
100
AcDbBlockEnd
  0
BLOCK
  5
128
330
127
100
AcDbEntity
  8
0
100
AcDbBlockBegin
  2
Brus
 70
     0
 10
0.0
 20
0.0
 30
0.0
  3
Brus
  1

  0
MTEXT
  5
12A
330
127
100
AcDbEntity
  8
Značka (ISO)
100
AcDbMText
 10
-23.46616744995117
 20
5.11633675545454
 30
0.0
 40
3.499999940395355
 41
0.0
 71
     1
 72
     1
  1
Brousit\P(geburstet , brushed )
  7
Text poznámky (ISO)
 73
     2
 44
0.9878841638565063
  0
ENDBLK
  5
129
330
127
100
AcDbEntity
  8
0
100
AcDbBlockEnd
  0
BLOCK
  5
12C
330
12B
100
AcDbEntity
  8
0
100
AcDbBlockBegin
  2
Elektroliticky lestit
 70
     0
 10
0.0
 20
0.0
 30
0.0
  3
Elektroliticky lestit
  1

  0
MTEXT
  5
12E
330
12B
100
AcDbEntity
  8
Značka (ISO)
100
AcDbMText
 10
-18.68841171264648
 20
5.036920197308063
 30
0.0
 40
3.499999940395355
 41
0.0
 71
     1
 72
     1
  1
Elektrolit. lestit\P(Elektropolished )
  7
Text poznámky (ISO)
 73
     2
 44
0.9878841638565063
  0
ENDBLK
  5
12D
330
12B
100
AcDbEntity
  8
0
100
AcDbBlockEnd
  0
BLOCK
  5
131
330
130
100
AcDbEntity
  8
0
100
AcDbBlockBegin
  2
Rámečky Default Border
 70
     0
 10
0.0
 20
0.0
 30
0.0
  3
Rámečky Default Border
  1

  0
POLYLINE
  5
133
330
130
100
AcDbEntity
  8
Rámeček (ISO)
100
AcDb2dPolyline
 66
     1
 10
0.0
 20
0.0
 30
0.0
 70
   128
  0
VERTEX
  5
134
330
133
100
AcDbEntity
  8
Rámeček (ISO)
100
AcDbVertex
100
AcDb2dVertex
 10
10.0
 20
10.0
 30
0.0
  0
VERTEX
  5
135
330
133
100
AcDbEntity
  8
Rámeček (ISO)
100
AcDbVertex
100
AcDb2dVertex
 10
10.0
 20
410.0
 30
0.0
  0
VERTEX
  5
137
330
133
100
AcDbEntity
  8
Rámeček (ISO)
100
AcDbVertex
100
AcDb2dVertex
 10
584.0000152587889
 20
410.0
 30
0.0
  0
VERTEX
  5
138
330
133
100
AcDbEntity
  8
Rámeček (ISO)
100
AcDbVertex
100
AcDb2dVertex
 10
584.0000152587889
 20
10.0
 30
0.0
  0
VERTEX
  5
139
330
133
100
AcDbEntity
  8
Rámeček (ISO)
100
AcDbVertex
100
AcDb2dVertex
 10
10.0
 20
10.0
 30
0.0
  0
SEQEND
  5
136
330
133
100
AcDbEntity
  8
Rámeček (ISO)
  0
POLYLINE
  5
13A
330
130
100
AcDbEntity
  8
Rámeček (ISO)
100
AcDb2dPolyline
 66
     1
 10
0.0
 20
0.0
 30
0.0
 70
   128
  0
VERTEX
  5
13B
330
13A
100
AcDbEntity
  8
Rámeček (ISO)
100
AcDbVertex
100
AcDb2dVertex
 10
297.0000076293946
 20
0.0
 30
0.0
  0
VERTEX
  5
13C
330
13A
100
AcDbEntity
  8
Rámeček (ISO)
100
AcDbVertex
100
AcDb2dVertex
 10
297.0000076293946
 20
10.0
 30
0.0
  0
VERTEX
  5
13E
330
13A
100
AcDbEntity
  8
Rámeček (ISO)
100
AcDbVertex
100
AcDb2dVertex
 10
294.1132545471191
 20
5.0
 30
0.0
  0
VERTEX
  5
13F
330
13A
100
AcDbEntity
  8
Rámeček (ISO)
100
AcDbVertex
100
AcDb2dVertex
 10
299.8867607116699
 20
5.0
 30
0.0
  0
VERTEX
  5
140
330
13A
100
AcDbEntity
  8
Rámeček (ISO)
100
AcDbVertex
100
AcDb2dVertex
 10
297.0000076293946
 20
10.0
 30
0.0
  0
SEQEND
  5
13D
330
13A
100
AcDbEntity
  8
Rámeček (ISO)
  0
POLYLINE
  5
141
330
130
100
AcDbEntity
  8
Rámeček (ISO)
100
AcDb2dPolyline
 66
     1
 10
0.0
 20
0.0
 30
0.0
 70
   128
  0
VERTEX
  5
142
330
141
100
AcDbEntity
  8
Rámeček (ISO)
100
AcDbVertex
100
AcDb2dVertex
 10
297.0000076293946
 20
420.0
 30
0.0
  0
VERTEX
  5
143
330
141
100
AcDbEntity
  8
Rámeček (ISO)
100
AcDbVertex
100
AcDb2dVertex
 10
297.0000076293946
 20
410.0
 30
0.0
  0
VERTEX
  5
145
330
141
100
AcDbEntity
  8
Rámeček (ISO)
100
AcDbVertex
100
AcDb2dVertex
 10
294.1132545471191
 20
415.0
 30
0.0
  0
VERTEX
  5
146
330
141
100
AcDbEntity
  8
Rámeček (ISO)
100
AcDbVertex
100
AcDb2dVertex
 10
299.8867607116699
 20
415.0
 30
0.0
  0
VERTEX
  5
147
330
141
100
AcDbEntity
  8
Rámeček (ISO)
100
AcDbVertex
100
AcDb2dVertex
 10
297.0000076293946
 20
410.0
 30
0.0
  0
SEQEND
  5
144
330
141
100
AcDbEntity
  8
Rámeček (ISO)
  0
POLYLINE
  5
148
330
130
100
AcDbEntity
  8
Rámeček (ISO)
100
AcDb2dPolyline
 66
     1
 10
0.0
 20
0.0
 30
0.0
 70
   128
  0
VERTEX
  5
149
330
148
100
AcDbEntity
  8
Rámeček (ISO)
100
AcDbVertex
100
AcDb2dVertex
 10
0.0
 20
210.0
 30
0.0
  0
VERTEX
  5
14A
330
148
100
AcDbEntity
  8
Rámeček (ISO)
100
AcDbVertex
100
AcDb2dVertex
 10
10.0
 20
210.0
 30
0.0
  0
VERTEX
  5
14C
330
148
100
AcDbEntity
  8
Rámeček (ISO)
100
AcDbVertex
100
AcDb2dVertex
 10
5.0
 20
212.8867530822754
 30
0.0
  0
VERTEX
  5
14D
330
148
100
AcDbEntity
  8
Rámeček (ISO)
100
AcDbVertex
100
AcDb2dVertex
 10
5.0
 20
207.1132469177246
 30
0.0
  0
VERTEX
  5
14E
330
148
100
AcDbEntity
  8
Rámeček (ISO)
100
AcDbVertex
100
AcDb2dVertex
 10
10.0
 20
210.0
 30
0.0
  0
SEQEND
  5
14B
330
148
100
AcDbEntity
  8
Rámeček (ISO)
  0
POLYLINE
  5
14F
330
130
100
AcDbEntity
  8
Rámeček (ISO)
100
AcDb2dPolyline
 66
     1
 10
0.0
 20
0.0
 30
0.0
 70
   128
  0
VERTEX
  5
150
330
14F
100
AcDbEntity
  8
Rámeček (ISO)
100
AcDbVertex
100
AcDb2dVertex
 10
594.0000152587892
 20
210.0
 30
0.0
  0
VERTEX
  5
151
330
14F
100
AcDbEntity
  8
Rámeček (ISO)
100
AcDbVertex
100
AcDb2dVertex
 10
584.0000152587889
 20
210.0
 30
0.0
  0
VERTEX
  5
153
330
14F
100
AcDbEntity
  8
Rámeček (ISO)
100
AcDbVertex
100
AcDb2dVertex
 10
589.0000152587889
 20
212.8867530822754
 30
0.0
  0
VERTEX
  5
154
330
14F
100
AcDbEntity
  8
Rámeček (ISO)
100
AcDbVertex
100
AcDb2dVertex
 10
589.0000152587889
 20
207.1132469177246
 30
0.0
  0
VERTEX
  5
155
330
14F
100
AcDbEntity
  8
Rámeček (ISO)
100
AcDbVertex
100
AcDb2dVertex
 10
584.0000152587889
 20
210.0
 30
0.0
  0
SEQEND
  5
152
330
14F
100
AcDbEntity
  8
Rámeček (ISO)
  0
LINE
  5
156
330
130
100
AcDbEntity
  8
Rámeček (ISO)
100
AcDbLine
 10
74.25000190734862
 20
10.0
 30
0.0
 11
74.25000190734862
 21
6.100000143051147
 31
0.0
  0
LINE
  5
157
330
130
100
AcDbEntity
  8
Rámeček (ISO)
100
AcDbLine
 10
74.25000190734862
 20
410.0
 30
0.0
 11
74.25000190734862
 21
413.8999938964842
 31
0.0
  0
LINE
  5
158
330
130
100
AcDbEntity
  8
Rámeček (ISO)
100
AcDbLine
 10
148.5000038146973
 20
10.0
 30
0.0
 11
148.5000038146973
 21
6.100000143051147
 31
0.0
  0
LINE
  5
159
330
130
100
AcDbEntity
  8
Rámeček (ISO)
100
AcDbLine
 10
148.5000038146973
 20
410.0
 30
0.0
 11
148.5000038146973
 21
413.8999938964842
 31
0.0
  0
LINE
  5
15A
330
130
100
AcDbEntity
  8
Rámeček (ISO)
100
AcDbLine
 10
222.7499961853027
 20
10.0
 30
0.0
 11
222.7499961853027
 21
6.100000143051147
 31
0.0
  0
LINE
  5
15B
330
130
100
AcDbEntity
  8
Rámeček (ISO)
100
AcDbLine
 10
222.7499961853027
 20
410.0
 30
0.0
 11
222.7499961853027
 21
413.8999938964842
 31
0.0
  0
LINE
  5
15C
330
130
100
AcDbEntity
  8
Rámeček (ISO)
100
AcDbLine
 10
371.25
 20
10.0
 30
0.0
 11
371.25
 21
6.100000143051147
 31
0.0
  0
LINE
  5
15D
330
130
100
AcDbEntity
  8
Rámeček (ISO)
100
AcDbLine
 10
371.25
 20
410.0
 30
0.0
 11
371.25
 21
413.8999938964842
 31
0.0
  0
LINE
  5
15E
330
130
100
AcDbEntity
  8
Rámeček (ISO)
100
AcDbLine
 10
445.4999923706053
 20
10.0
 30
0.0
 11
445.4999923706053
 21
6.100000143051147
 31
0.0
  0
LINE
  5
15F
330
130
100
AcDbEntity
  8
Rámeček (ISO)
100
AcDbLine
 10
445.4999923706053
 20
410.0
 30
0.0
 11
445.4999923706053
 21
413.8999938964842
 31
0.0
  0
LINE
  5
160
330
130
100
AcDbEntity
  8
Rámeček (ISO)
100
AcDbLine
 10
519.7499847412108
 20
10.0
 30
0.0
 11
519.7499847412108
 21
6.100000143051147
 31
0.0
  0
LINE
  5
161
330
130
100
AcDbEntity
  8
Rámeček (ISO)
100
AcDbLine
 10
519.7499847412108
 20
410.0
 30
0.0
 11
519.7499847412108
 21
413.8999938964842
 31
0.0
  0
MTEXT
  5
162
330
130
100
AcDbEntity
  8
Rámeček (ISO)
100
AcDbMText
 10
556.0853922448459
 20
410.4
 30
0.0
 40
3.499999940395355
 41
0.0
 71
     7
 72
     1
  1
1
  7
Text poznámky (ISO)
 73
     1
 44
1.0
  0
MTEXT
  5
163
330
130
100
AcDbEntity
  8
Rámeček (ISO)
100
AcDbMText
 10
556.0853922448459
 20
6.100000059604643
 30
0.0
 40
3.499999940395355
 41
0.0
 71
     7
 72
     1
  1
1
  7
Text poznámky (ISO)
 73
     1
 44
1.0
  0
MTEXT
  5
164
330
130
100
AcDbEntity
  8
Rámeček (ISO)
100
AcDbMText
 10
481.5637915541735
 20
410.4
 30
0.0
 40
3.499999940395355
 41
0.0
 71
     7
 72
     1
  1
2
  7
Text poznámky (ISO)
 73
     1
 44
1.0
  0
MTEXT
  5
165
330
130
100
AcDbEntity
  8
Rámeček (ISO)
100
AcDbMText
 10
481.5637915541735
 20
6.100000059604643
 30
0.0
 40
3.499999940395355
 41
0.0
 71
     7
 72
     1
  1
2
  7
Text poznámky (ISO)
 73
     1
 44
1.0
  0
MTEXT
  5
166
330
130
100
AcDbEntity
  8
Rámeček (ISO)
100
AcDbMText
 10
407.2857914829701
 20
410.3262560764327
 30
0.0
 40
3.499999940395355
 41
0.0
 71
     7
 72
     1
  1
3
  7
Text poznámky (ISO)
 73
     1
 44
1.0
  0
MTEXT
  5
167
330
130
100
AcDbEntity
  8
Rámeček (ISO)
100
AcDbMText
 10
407.2857914829701
 20
6.026256136037407
 30
0.0
 40
3.499999940395355
 41
0.0
 71
     7
 72
     1
  1
3
  7
Text poznámky (ISO)
 73
     1
 44
1.0
  0
MTEXT
  5
168
330
130
100
AcDbEntity
  8
Rámeček (ISO)
100
AcDbMText
 10
332.9041911483145
 20
410.4
 30
0.0
 40
3.499999940395355
 41
0.0
 71
     7
 72
     1
  1
4
  7
Text poznámky (ISO)
 73
     1
 44
1.0
  0
MTEXT
  5
169
330
130
100
AcDbEntity
  8
Rámeček (ISO)
100
AcDbMText
 10
332.9041911483145
 20
6.100000059604643
 30
0.0
 40
3.499999940395355
 41
0.0
 71
     7
 72
     1
  1
4
  7
Text poznámky (ISO)
 73
     1
 44
1.0
  0
MTEXT
  5
16A
330
130
100
AcDbEntity
  8
Rámeček (ISO)
100
AcDbMText
 10
258.8501916467381
 20
410.3262560764327
 30
0.0
 40
3.499999940395355
 41
0.0
 71
     7
 72
     1
  1
5
  7
Text poznámky (ISO)
 73
     1
 44
1.0
  0
MTEXT
  5
16B
330
130
100
AcDbEntity
  8
Rámeček (ISO)
100
AcDbMText
 10
258.8501916467381
 20
6.026256136037407
 30
0.0
 40
3.499999940395355
 41
0.0
 71
     7
 72
     1
  1
5
  7
Text poznámky (ISO)
 73
     1
 44
1.0
  0
MTEXT
  5
16C
330
130
100
AcDbEntity
  8
Rámeček (ISO)
100
AcDbMText
 10
184.5077914117669
 20
410.3262560764327
 30
0.0
 40
3.499999940395355
 41
0.0
 71
     7
 72
     1
  1
6
  7
Text poznámky (ISO)
 73
     1
 44
1.0
  0
MTEXT
  5
16D
330
130
100
AcDbEntity
  8
Rámeček (ISO)
100
AcDbMText
 10
184.5077914117669
 20
6.026256136037407
 30
0.0
 40
3.499999940395355
 41
0.0
 71
     7
 72
     1
  1
6
  7
Text poznámky (ISO)
 73
     1
 44
1.0
  0
MTEXT
  5
16E
330
130
100
AcDbEntity
  8
Rámeček (ISO)
100
AcDbMText
 10
110.2913914972109
 20
410.4
 30
0.0
 40
3.499999940395355
 41
0.0
 71
     7
 72
     1
  1
7
  7
Text poznámky (ISO)
 73
     1
 44
1.0
  0
MTEXT
  5
16F
330
130
100
AcDbEntity
  8
Rámeček (ISO)
100
AcDbMText
 10
110.2913914972109
 20
6.100000059604643
 30
0.0
 40
3.499999940395355
 41
0.0
 71
     7
 72
     1
  1
7
  7
Text poznámky (ISO)
 73
     1
 44
1.0
  0
MTEXT
  5
170
330
130
100
AcDbEntity
  8
Rámeček (ISO)
100
AcDbMText
 10
35.9825913476839
 20
410.3205834697932
 30
0.0
 40
3.499999940395355
 41
0.0
 71
     7
 72
     1
  1
8
  7
Text poznámky (ISO)
 73
     1
 44
1.0
  0
MTEXT
  5
171
330
130
100
AcDbEntity
  8
Rámeček (ISO)
100
AcDbMText
 10
35.9825913476839
 20
6.020583529397844
 30
0.0
 40
3.499999940395355
 41
0.0
 71
     7
 72
     1
  1
8
  7
Text poznámky (ISO)
 73
     1
 44
1.0
  0
LINE
  5
172
330
130
100
AcDbEntity
  8
Rámeček (ISO)
100
AcDbLine
 10
10.0
 20
70.0
 30
0.0
 11
6.100000143051147
 21
70.0
 31
0.0
  0
LINE
  5
173
330
130
100
AcDbEntity
  8
Rámeček (ISO)
100
AcDbLine
 10
584.0000152587889
 20
70.0
 30
0.0
 11
587.9000091552732
 21
70.0
 31
0.0
  0
LINE
  5
174
330
130
100
AcDbEntity
  8
Rámeček (ISO)
100
AcDbLine
 10
10.0
 20
140.0
 30
0.0
 11
6.100000143051147
 21
140.0
 31
0.0
  0
LINE
  5
175
330
130
100
AcDbEntity
  8
Rámeček (ISO)
100
AcDbLine
 10
584.0000152587889
 20
140.0
 30
0.0
 11
587.9000091552732
 21
140.0
 31
0.0
  0
LINE
  5
176
330
130
100
AcDbEntity
  8
Rámeček (ISO)
100
AcDbLine
 10
10.0
 20
280.0
 30
0.0
 11
6.100000143051147
 21
280.0
 31
0.0
  0
LINE
  5
177
330
130
100
AcDbEntity
  8
Rámeček (ISO)
100
AcDbLine
 10
584.0000152587889
 20
280.0
 30
0.0
 11
587.9000091552732
 21
280.0
 31
0.0
  0
LINE
  5
178
330
130
100
AcDbEntity
  8
Rámeček (ISO)
100
AcDbLine
 10
10.0
 20
350.0
 30
0.0
 11
6.100000143051147
 21
350.0
 31
0.0
  0
LINE
  5
179
330
130
100
AcDbEntity
  8
Rámeček (ISO)
100
AcDbLine
 10
584.0000152587889
 20
350.0
 30
0.0
 11
587.9000091552732
 21
350.0
 31
0.0
  0
MTEXT
  5
17A
330
130
100
AcDbEntity
  8
Rámeček (ISO)
100
AcDbMText
 10
6.361230343933396
 20
33.25000002980232
 30
0.0
 40
3.499999940395355
 41
0.0
 71
     7
 72
     1
  1
A
  7
Text poznámky (ISO)
 73
     1
 44
1.0
  0
MTEXT
  5
17B
330
130
100
AcDbEntity
  8
Rámeček (ISO)
100
AcDbMText
 10
584.6612302843287
 20
33.25000002980232
 30
0.0
 40
3.499999940395355
 41
0.0
 71
     7
 72
     1
  1
A
  7
Text poznámky (ISO)
 73
     1
 44
1.0
  0
MTEXT
  5
17C
330
130
100
AcDbEntity
  8
Rámeček (ISO)
100
AcDbMText
 10
6.781848468328937
 20
103.2500000298023
 30
0.0
 40
3.499999940395355
 41
0.0
 71
     7
 72
     1
  1
B
  7
Text poznámky (ISO)
 73
     1
 44
1.0
  0
MTEXT
  5
17D
330
130
100
AcDbEntity
  8
Rámeček (ISO)
100
AcDbMText
 10
585.0818484087242
 20
103.2500000298023
 30
0.0
 40
3.499999940395355
 41
0.0
 71
     7
 72
     1
  1
B
  7
Text poznámky (ISO)
 73
     1
 44
1.0
  0
MTEXT
  5
17E
330
130
100
AcDbEntity
  8
Rámeček (ISO)
100
AcDbMText
 10
6.558903094188358
 20
173.1876013241708
 30
0.0
 40
3.499999940395355
 41
0.0
 71
     7
 72
     1
  1
C
  7
Text poznámky (ISO)
 73
     1
 44
1.0
  0
MTEXT
  5
17F
330
130
100
AcDbEntity
  8
Rámeček (ISO)
100
AcDbMText
 10
584.8589030345837
 20
173.1876013241708
 30
0.0
 40
3.499999940395355
 41
0.0
 71
     7
 72
     1
  1
C
  7
Text poznámky (ISO)
 73
     1
 44
1.0
  0
MTEXT
  5
180
330
130
100
AcDbEntity
  8
Rámeček (ISO)
100
AcDbMText
 10
6.56770745709084
 20
243.2500000298023
 30
0.0
 40
3.499999940395355
 41
0.0
 71
     7
 72
     1
  1
D
  7
Text poznámky (ISO)
 73
     1
 44
1.0
  0
MTEXT
  5
181
330
130
100
AcDbEntity
  8
Rámeček (ISO)
100
AcDbMText
 10
584.8677073974861
 20
243.2500000298023
 30
0.0
 40
3.499999940395355
 41
0.0
 71
     7
 72
     1
  1
D
  7
Text poznámky (ISO)
 73
     1
 44
1.0
  0
MTEXT
  5
182
330
130
100
AcDbEntity
  8
Rámeček (ISO)
100
AcDbMText
 10
6.849919803883061
 20
313.2500000298023
 30
0.0
 40
3.499999940395355
 41
0.0
 71
     7
 72
     1
  1
E
  7
Text poznámky (ISO)
 73
     1
 44
1.0
  0
MTEXT
  5
183
330
130
100
AcDbEntity
  8
Rámeček (ISO)
100
AcDbMText
 10
585.1499197442782
 20
313.2500000298023
 30
0.0
 40
3.499999940395355
 41
0.0
 71
     7
 72
     1
  1
E
  7
Text poznámky (ISO)
 73
     1
 44
1.0
  0
MTEXT
  5
184
330
130
100
AcDbEntity
  8
Rámeček (ISO)
100
AcDbMText
 10
6.944936015154347
 20
383.2500000298023
 30
0.0
 40
3.499999940395355
 41
0.0
 71
     7
 72
     1
  1
F
  7
Text poznámky (ISO)
 73
     1
 44
1.0
  0
MTEXT
  5
185
330
130
100
AcDbEntity
  8
Rámeček (ISO)
100
AcDbMText
 10
585.2449359555496
 20
383.2500000298023
 30
0.0
 40
3.499999940395355
 41
0.0
 71
     7
 72
     1
  1
F
  7
Text poznámky (ISO)
 73
     1
 44
1.0
  0
ENDBLK
  5
132
330
130
100
AcDbEntity
  8
0
100
AcDbBlockEnd
  0
BLOCK
  5
188
330
187
100
AcDbEntity
  8
0
100
AcDbBlockBegin
  2
Rohová razítka ACO-razitko
 70
     2
 10
0.0
 20
0.0
 30
0.0
  3
Rohová razítka ACO-razitko
  1

  0
LINE
  5
18A
330
187
100
AcDbEntity
  8
KOPF
  6
Continuous
370
    25
100
AcDbLine
 10
264.0
 20
94.01203200000001
 30
0.0
 11
264.0
 21
74.00000000000003
 31
0.0
  0
LINE
  5
18B
330
187
100
AcDbEntity
  8
KOPF
  6
Continuous
370
    25
100
AcDbLine
 10
264.0
 20
94.01203200000001
 30
0.0
 11
264.0
 21
74.00000000000003
 31
0.0
  0
CIRCLE
  5
18C
330
187
100
AcDbEntity
  8
TEXT50
  6
Continuous
370
    25
100
AcDbCircle
 10
247.5054493575618
 20
83.04852954632861
 30
0.0
 40
1.979948192651899
  0
LINE
  5
18D
330
187
100
AcDbEntity
  8
TEXT50
  6
Continuous
370
    25
100
AcDbLine
 10
262.4910595621649
 20
85.02847773898061
 30
0.0
 11
262.4910595621649
 21
81.06858135367653
 31
0.0
  0
LINE
  5
18E
330
187
100
AcDbEntity
  8
TEXT50
  6
Continuous
370
    25
100
AcDbLine
 10
253.9413433929653
 20
87.07146289795376
 30
0.0
 11
253.9413433929653
 21
79.02559619470344
 31
0.0
  0
LINE
  5
18F
330
187
100
AcDbEntity
  8
TEXT50
  6
Continuous
370
    25
100
AcDbLine
 10
262.4910595621649
 20
85.02847773898061
 30
0.0
 11
253.9413433929653
 21
87.07146289795376
 31
0.0
  0
CIRCLE
  5
190
330
187
100
AcDbEntity
  8
TEXT50
  6
Continuous
370
    25
100
AcDbCircle
 10
247.5054493575618
 20
83.04852954632861
 30
0.0
 40
4.022933351625178
  0
LINE
  5
191
330
187
100
AcDbEntity
  8
TEXT50
  6
Continuous
370
    25
100
AcDbLine
 10
253.9413433929653
 20
79.02559619470344
 30
0.0
 11
262.4910595621649
 21
81.06858135367653
 31
0.0
  0
CIRCLE
  5
192
330
187
100
AcDbEntity
  8
TEXT35
  6
Continuous
370
    25
100
AcDbCircle
 10
221.0936673107637
 20
101.9131972309053
 30
0.0
 40
2.281499999999998
  0
CIRCLE
  5
193
330
187
100
AcDbEntity
  8
TEXT35
  6
Continuous
370
    25
100
AcDbCircle
 10
221.0936673107637
 20
101.9131972309053
 30
0.0
 40
1.579499999999999
  0
ARC
  5
194
330
187
100
AcDbEntity
  8
TEXT35
  6
Continuous
370
    25
100
AcDbCircle
 10
214.6291610736662
 20
101.9131972309054
 30
0.0
 40
1.579500000000071
100
AcDbArc
 50
31.05580049908738
 51
329.9999999999987
  0
LINE
  5
195
330
187
100
AcDbEntity
  8
TEXT35
  6
Continuous
370
    25
100
AcDbLine
 10
215.9822639109751
 20
102.7280180465864
 30
0.0
 11
216.5902852082589
 21
103.0790593062462
 31
0.0
  0
ARC
  5
196
330
187
100
AcDbEntity
  8
TEXT35
  6
Continuous
370
    25
100
AcDbCircle
 10
214.6291610736662
 20
101.9131972309052
 30
0.0
 40
2.281500000000015
100
AcDbArc
 50
30.73091726592628
 51
330.0000000000017
  0
LINE
  5
197
330
187
100
AcDbEntity
  8
TEXT35
  6
Continuous
370
    25
100
AcDbLine
 10
216.6049980324005
 20
100.7724472309053
 30
0.0
 11
215.9970481989438
 21
101.1234472309053
 31
0.0
  0
LINE
  5
198
330
187
100
AcDbEntity
  8
TEXT35
  6
Continuous
370
    25
100
AcDbLine
 10
211.8347763192409
 20
111.6789659312995
 30
0.0
 11
211.8347763192409
 21
98.44416361029551
 31
0.0
  0
LINE
  5
199
330
187
100
AcDbEntity
  8
TEXT35
  6
Continuous
370
    25
100
AcDbLine
 10
211.8347763192409
 20
98.44416361029551
 30
0.0
 11
217.4235458280916
 21
98.44416361029551
 31
0.0
  0
LINE
  5
19A
330
187
100
AcDbEntity
  8
TEXT35
  6
Continuous
370
    25
100
AcDbLine
 10
217.4235458280916
 20
98.44416361029551
 30
0.0
 11
217.4235458280916
 21
111.6789659312995
 31
0.0
  0
LINE
  5
19B
330
187
100
AcDbEntity
  8
TEXT35
  6
Continuous
370
    25
100
AcDbLine
 10
217.4235458280916
 20
111.6789659312995
 30
0.0
 11
211.8347763192409
 21
111.6789659312995
 31
0.0
  0
LINE
  5
19C
330
187
100
AcDbEntity
  8
TEXT35
  6
Continuous
370
    25
100
AcDbLine
 10
223.888052065189
 20
111.6789659312995
 30
0.0
 11
223.888052065189
 21
98.44416361029551
 31
0.0
  0
LINE
  5
19D
330
187
100
AcDbEntity
  8
TEXT35
  6
Continuous
370
    25
100
AcDbLine
 10
223.888052065189
 20
98.44416361029551
 30
0.0
 11
218.2992825563384
 21
98.44416361029551
 31
0.0
  0
LINE
  5
19E
330
187
100
AcDbEntity
  8
TEXT35
  6
Continuous
370
    25
100
AcDbLine
 10
218.2992825563384
 20
98.44416361029551
 30
0.0
 11
218.2992825563384
 21
111.6789659312995
 31
0.0
  0
LINE
  5
19F
330
187
100
AcDbEntity
  8
TEXT35
  6
Continuous
370
    25
100
AcDbLine
 10
218.2992825563384
 20
111.6789659312995
 30
0.0
 11
223.888052065189
 21
111.6789659312995
 31
0.0
  0
ARC
  5
1A0
330
187
100
AcDbEntity
  8
TEXT35
  6
Continuous
370
    25
100
AcDbCircle
 10
211.499154836569
 20
99.57623034270234
 30
0.0
 40
4.914000000000251
100
AcDbArc
 50
172.305837035409
 51
179.7113029220757
  0
LINE
  5
1A1
330
187
100
AcDbEntity
  8
TEXT35
  6
Continuous
370
    25
100
AcDbLine
 10
206.6293963427935
 20
100.2341423522474
 30
0.0
 11
209.6999133303443
 21
100.2341423522474
 31
0.0
  0
ARC
  5
1A2
330
187
100
AcDbEntity
  8
TEXT35
  6
Continuous
370
    25
100
AcDbCircle
 10
204.8301548365688
 20
99.57623034270323
 30
0.0
 40
4.914000000000132
100
AcDbArc
 50
0.2886970779141535
 51
7.694162964580896
  0
LINE
  5
1A3
330
187
100
AcDbEntity
  8
TEXT35
  6
Continuous
370
    25
100
AcDbLine
 10
209.7440924568018
 20
99.60099048123302
 30
0.0
 11
210.4461002543538
 21
99.60099048123302
 31
0.0
  0
ARC
  5
1A4
330
187
100
AcDbEntity
  8
TEXT35
  6
Continuous
370
    25
100
AcDbCircle
 10
204.8301548365688
 20
99.5762303427033
 30
0.0
 40
5.616000000000016
100
AcDbArc
 50
0.2526096926473688
 51
53.57642635766914
  0
ARC
  5
1A5
330
187
100
AcDbEntity
  8
TEXT35
  6
Continuous
370
    25
100
AcDbCircle
 10
211.4991548365688
 20
99.57623034270323
 30
0.0
 40
5.616000000000023
100
AcDbArc
 50
126.4235736423304
 51
179.7473903073512
  0
LINE
  5
1A6
330
187
100
AcDbEntity
  8
TEXT35
  6
Continuous
370
    25
100
AcDbLine
 10
205.8832094187838
 20
99.60099048123302
 30
0.0
 11
206.5852172163358
 21
99.60099048123302
 31
0.0
  0
LINE
  5
1A7
330
187
100
AcDbEntity
  8
TEXT35
  6
Continuous
370
    25
100
AcDbLine
 10
205.3702700821435
 20
111.6789659312995
 30
0.0
 11
205.3702700821435
 21
98.44416361029551
 31
0.0
  0
LINE
  5
1A8
330
187
100
AcDbEntity
  8
TEXT35
  6
Continuous
370
    25
100
AcDbLine
 10
205.3702700821435
 20
98.44416361029551
 30
0.0
 11
210.9590395909941
 21
98.44416361029551
 31
0.0
  0
LINE
  5
1A9
330
187
100
AcDbEntity
  8
TEXT35
  6
Continuous
370
    25
100
AcDbLine
 10
210.9590395909941
 20
98.44416361029551
 30
0.0
 11
210.9590395909941
 21
111.6789659312995
 31
0.0
  0
LINE
  5
1AA
330
187
100
AcDbEntity
  8
TEXT35
  6
Continuous
370
    25
100
AcDbLine
 10
210.9590395909941
 20
111.6789659312995
 30
0.0
 11
205.3702700821435
 21
111.6789659312995
 31
0.0
  0
ARC
  5
1AB
330
187
100
AcDbEntity
  8
TEXT35
  6
Continuous
370
    25
100
AcDbCircle
 10
204.830154836569
 20
99.57623034270341
 30
0.0
 40
4.913999999999818
100
AcDbArc
 50
16.0658750272321
 51
47.26788995739759
  0
LINE
  5
1AC
330
187
100
AcDbEntity
  8
TEXT35
  6
Continuous
370
    25
100
AcDbLine
 10
209.5522343918387
 20
100.9361423522474
 30
0.0
 11
206.7770752812989
 21
100.9361423522474
 31
0.0
  0
ARC
  5
1AD
330
187
100
AcDbEntity
  8
TEXT35
  6
Continuous
370
    25
100
AcDbCircle
 10
211.4991548365683
 20
99.57623034270341
 30
0.0
 40
4.913999999999566
100
AcDbArc
 50
132.7321100425983
 51
163.9341249727667
  0
LINE
  5
1AE
330
187
100
AcDbEntity
  8
Nadpis (ISO)
100
AcDbLine
 10
299.0
 20
114.0
 30
0.0
 11
299.0
 21
45.0
 31
0.0
  0
LINE
  5
1AF
330
187
100
AcDbEntity
  8
Nadpis (ISO)
100
AcDbLine
 10
299.0
 20
45.0
 30
0.0
 11
117.0
 21
44.99999999999999
 31
0.0
  0
LINE
  5
1B0
330
187
100
AcDbEntity
  8
Nadpis (ISO)
100
AcDbLine
 10
117.0
 20
44.99999999999999
 30
0.0
 11
117.0
 21
114.0
 31
0.0
  0
LINE
  5
1B1
330
187
100
AcDbEntity
  8
Nadpis (ISO)
100
AcDbLine
 10
117.0
 20
114.0
 30
0.0
 11
299.0
 21
114.0
 31
0.0
  0
LINE
  5
1B2
330
187
100
AcDbEntity
  8
Nadpis (ISO)
100
AcDbLine
 10
199.0
 20
114.0
 30
0.0
 11
199.0
 21
93.99999999999998
 31
0.0
  0
LINE
  5
1B3
330
187
100
AcDbEntity
  8
KOPF
100
AcDbLine
 10
199.0
 20
104.0
 30
0.0
 11
117.0
 21
104.0
 31
0.0
  0
LINE
  5
1B4
330
187
100
AcDbEntity
  8
Nadpis (ISO)
100
AcDbLine
 10
199.0
 20
93.99999999999998
 30
0.0
 11
117.0
 21
93.99999999999996
 31
0.0
  0
LINE
  5
1B5
330
187
100
AcDbEntity
  8
KOPF
100
AcDbLine
 10
158.0
 20
93.99999999999998
 30
0.0
 11
158.0
 21
114.0
 31
0.0
  0
LINE
  5
1B6
330
187
100
AcDbEntity
  8
Nadpis (ISO)
100
AcDbLine
 10
199.0
 20
93.99999999999998
 30
0.0
 11
299.0
 21
93.99999999999998
 31
0.0
  0
LINE
  5
1B7
330
187
100
AcDbEntity
  8
Nadpis (ISO)
100
AcDbLine
 10
216.0
 20
94.00000000000003
 30
0.0
 11
216.0
 21
44.99999999999999
 31
0.0
  0
LINE
  5
1B8
330
187
100
AcDbEntity
  8
Nadpis (ISO)
100
AcDbLine
 10
299.0
 20
74.00000000000004
 30
0.0
 11
117.0
 21
73.99999999999998
 31
0.0
  0
LINE
  5
1B9
330
187
100
AcDbEntity
  8
Nadpis (ISO)
100
AcDbLine
 10
186.0
 20
94.0
 30
0.0
 11
186.0
 21
74.00000000000002
 31
0.0
  0
LINE
  5
1BA
330
187
100
AcDbEntity
  8
KOPF
100
AcDbLine
 10
137.0
 20
93.99999999999998
 30
0.0
 11
137.0
 21
74.0
 31
0.0
  0
LINE
  5
1BB
330
187
100
AcDbEntity
  8
KOPF
100
AcDbLine
 10
162.0
 20
93.99999999999998
 30
0.0
 11
162.0
 21
74.0
 31
0.0
  0
LINE
  5
1BC
330
187
100
AcDbEntity
  8
KOPF
100
AcDbLine
 10
186.0
 20
84.0
 30
0.0
 11
117.0
 21
83.99999999999996
 31
0.0
  0
LINE
  5
1BD
330
187
100
AcDbEntity
  8
KOPF
100
AcDbLine
 10
186.0
 20
79.0
 30
0.0
 11
117.0
 21
78.99999999999997
 31
0.0
  0
LINE
  5
1BE
330
187
100
AcDbEntity
  8
KOPF
100
AcDbLine
 10
186.0
 20
89.0
 30
0.0
 11
117.0
 21
88.99999999999996
 31
0.0
  0
LINE
  5
1BF
330
187
100
AcDbEntity
  8
KOPF
100
AcDbLine
 10
216.0
 20
50.0
 30
0.0
 11
299.0
 21
50.0
 31
0.0
  0
LINE
  5
1C0
330
187
100
AcDbEntity
  8
Nadpis (ISO)
100
AcDbLine
 10
216.0
 20
55.0
 30
0.0
 11
299.0
 21
55.0
 31
0.0
  0
LINE
  5
1C1
330
187
100
AcDbEntity
  8
KOPF
100
AcDbLine
 10
238.0000000000001
 20
93.99999999999998
 30
0.0
 11
238.0000000000001
 21
74.00000000000003
 31
0.0
  0
LINE
  5
1C2
330
187
100
AcDbEntity
  8
KOPF
100
AcDbLine
 10
238.0000000000001
 20
84.00000000000003
 30
0.0
 11
216.0
 21
84.00000000000003
 31
0.0
  0
LINE
  5
1C3
330
187
100
AcDbEntity
  8
Nadpis (ISO)
100
AcDbLine
 10
287.0
 20
74.00000000000004
 30
0.0
 11
287.0
 21
55.0
 31
0.0
  0
LINE
  5
1C4
330
187
100
AcDbEntity
  8
KOPF
100
AcDbLine
 10
289.0
 20
50.0
 30
0.0
 11
289.0
 21
45.0
 31
0.0
  0
LINE
  5
1C5
330
187
100
AcDbEntity
  8
Nadpis (ISO)
100
AcDbLine
 10
260.9160465310349
 20
50.0
 30
0.0
 11
260.9160465310349
 21
45.0
 31
0.0
  0
TEXT
  5
1C7
330
187
100
AcDbEntity
  8
Viditelná tenká (ISO)
100
AcDbText
 10
266.0
 20
84.97994933403729
 30
0.0
 40
1.539999991655349
  1
zum Zweck anderweitiger Benutzung
 41
0.7999999523162842
  7
Styl textu62
100
AcDbText
  0
TEXT
  5
1C9
330
187
100
AcDbEntity
  8
Viditelná tenká (ISO)
100
AcDbText
 10
266.0
 20
82.63814072439631
 30
0.0
 40
1.539999991655349
  1
mitgeteilt werden und bleibt unser
 41
0.7999999523162842
  7
Styl textu62
100
AcDbText
  0
TEXT
  5
1CA
330
187
100
AcDbEntity
  8
Viditelná tenká (ISO)
100
AcDbText
 10
266.0
 20
87.26106040199921
 30
0.0
 40
1.539999991655349
  1
noch dritten Personen, insbesondere
 41
0.7999999523162842
  7
Styl textu62
100
AcDbText
  0
TEXT
  5
1CB
330
187
100
AcDbEntity
  8
Viditelná tenká (ISO)
100
AcDbText
 10
266.0
 20
89.6282322587214
 30
0.0
 40
1.539999991655349
  1
Diese Zeichnung darf weder kopiert
 41
0.7999999523162842
  7
Styl textu62
100
AcDbText
  0
TEXT
  5
1CC
330
187
100
AcDbEntity
  8
Viditelná tenká (ISO)
100
AcDbText
 10
266.0
 20
80.37532604459597
 30
0.0
 40
1.539999991655349
  1
Eigentum.
 41
0.7999999523162842
  7
Styl textu62
100
AcDbText
  0
TEXT
  5
1CE
330
187
100
AcDbEntity
  8
Viditelná tenká (ISO)
100
AcDbText
 10
241.877559521167
 20
90.82431699999998
 30
0.0
 40
2.000000029802321
  1
Projektion: ISO-E
 41
0.7999999523162842
  7
Styl textu58
100
AcDbText
  0
TEXT
  5
1D0
330
187
100
AcDbEntity
  8
Viditelná tenká (ISO)
100
AcDbText
 10
266.0
 20
77.30982488917627
 30
0.0
 40
1.539999991655349
  1
Schutzvermerk nach DIN 34 beachten
 41
0.75
  7
Styl textu63
100
AcDbText
  0
TEXT
  5
1D1
330
187
100
AcDbEntity
  8
Viditelná tenká (ISO)
100
AcDbText
 10
236.2487793316645
 20
99.38243367792949
 30
0.0
 40
2.000000029802321
  1
582 22 Přibyslav
 41
0.7999999523162842
  7
Styl textu58
100
AcDbText
  0
TEXT
  5
1D3
330
187
100
AcDbEntity
  8
Viditelná tenká (ISO)
100
AcDbText
 10
261.6984261202779
 20
99.57784645000472
 30
0.0
 40
2.099999934434889
  1
Fax: 0451 / 482529
 41
0.7000000476837159
  7
Styl textu72
100
AcDbText
  0
TEXT
  5
1D4
330
187
100
AcDbEntity
  8
Viditelná tenká (ISO)
100
AcDbText
 10
236.5351154208068
 20
103.0087314099309
 30
0.0
 40
2.000000029802321
  1
Havličkova 260
 41
0.7999999523162842
  7
Styl textu58
100
AcDbText
  0
TEXT
  5
1D6
330
187
100
AcDbEntity
  8
TEXT35
100
AcDbText
 10
235.9801354774567
 20
108.2018007493417
 30
0.0
 40
3.000000119209288
  1
ACO Industries
 41
0.7999999523162842
  7
Styl textu75
100
AcDbText
  0
TEXT
  5
1D7
330
187
100
AcDbEntity
  8
Viditelná tenká (ISO)
100
AcDbText
 10
261.6456899832647
 20
102.9064533471121
 30
0.0
 40
2.099999934434889
  1
Tel.: 0451 / 491660
 41
0.7000000476837159
  7
Styl textu72
100
AcDbText
  0
MTEXT
  5
1D8
330
187
100
AcDbEntity
  8
Viditelná tenká (ISO)
100
AcDbMText
 10
217.3570092483237
 20
73.27889989032858
 30
0.0
 40
2.000000029802321
 41
17.54573225975036
 71
     1
 72
     1
  1
\fArial|b0|i0;Zeichnung Nr.
  7
Text poznámky (ISO)
 73
     1
 44
1.0
  0
MTEXT
  5
1D9
330
187
100
AcDbEntity
  8
Viditelná tenká (ISO)
100
AcDbMText
 10
287.9433731401013
 20
72.84063462326732
 30
0.0
 40
2.000000029802321
 41
6.833841204643249
 71
     1
 72
     1
  1
\fArial|b0|i0;Index
  7
Text poznámky (ISO)
 73
     1
 44
1.0
  0
MTEXT
  5
1DA
330
187
100
AcDbEntity
  8
Viditelná tenká (ISO)
100
AcDbMText
 10
217.1230582952341
 20
52.66864072161396
 30
0.0
 40
2.000000029802321
 41
11.95426821708679
 71
     1
 72
     1
  1
\fArial|b0|i0;Ersatz fur
  7
Text poznámky (ISO)
 73
     1
 44
1.0
  0
MTEXT
  5
1DB
330
187
100
AcDbEntity
  8
Viditelná tenká (ISO)
100
AcDbMText
 10
217.1230582952341
 20
49.48769937830647
 30
0.0
 40
2.000000029802321
 41
15.68292737007141
 71
     1
 72
     1
  1
\fArial|b0|i0;Ersatz durch
  7
Text poznámky (ISO)
 73
     1
 44
1.0
  0
MTEXT
  5
1DC
330
187
100
AcDbEntity
  8
Viditelná tenká (ISO)
100
AcDbMText
 10
188.9161081342839
 20
93.0
 30
0.0
 40
2.000000029802321
 41
11.9573175907135
 71
     1
 72
     1
  1
\fArial|b0|i0;Massstab
  7
Text poznámky (ISO)
 73
     1
 44
1.0
  0
MTEXT
  5
1DD
330
187
100
AcDbEntity
  8
Viditelná tenká (ISO)
100
AcDbMText
 10
217.0
 20
93.0
 30
0.0
 40
2.000000029802321
 41
14.90701198577881
 71
     1
 72
     1
  1
\fArial|b0|i0;Masseinheit
  7
Text poznámky (ISO)
 73
     1
 44
1.0
  0
MTEXT
  5
1DE
330
187
100
AcDbEntity
  8
Viditelná tenká (ISO)
100
AcDbMText
 10
118.0
 20
113.0
 30
0.0
 40
2.000000029802321
 41
12.57317066192627
 71
     1
 72
     1
  1
\fArial|b0|i0;Werkstoff.
  7
Text poznámky (ISO)
 73
     1
 44
1.0
  0
MTEXT
  5
1DF
330
187
100
AcDbEntity
  8
Viditelná tenká (ISO)
100
AcDbMText
 10
159.0
 20
113.0
 30
0.0
 40
2.000000029802321
 41
11.95579290390014
 71
     1
 72
     1
  1
\fArial|b0|i0;Hmotnost
  7
Text poznámky (ISO)
 73
     1
 44
1.0
  0
MTEXT
  5
1E0
330
187
100
AcDbEntity
  8
Viditelná tenká (ISO)
100
AcDbMText
 10
118.0
 20
103.0
 30
0.0
 40
2.000000029802321
 41
15.68445086479187
 71
     1
 72
     1
  1
\fArial|b0|i0;zul.Abweich.
  7
Text poznámky (ISO)
 73
     1
 44
1.0
  0
MTEXT
  5
1E1
330
187
100
AcDbEntity
  8
Viditelná tenká (ISO)
100
AcDbMText
 10
159.0
 20
103.0
 30
0.0
 40
2.000000029802321
 41
13.66463422775268
 71
     1
 72
     1
  1
\fArial|b0|i0;Oberflache
  7
Text poznámky (ISO)
 73
     1
 44
1.0
  0
MTEXT
  5
1E2
330
187
100
AcDbEntity
  8
Viditelná tenká (ISO)
100
AcDbMText
 10
118.2064366962235
 20
87.52498463872976
 30
0.0
 40
2.000000029802321
 41
14.13262248039245
 71
     1
 72
     1
  1
\fArial|b0|i0;Gezeichnet
  7
Text poznámky (ISO)
 73
     1
 44
1.0
  0
MTEXT
  5
1E3
330
187
100
AcDbEntity
  8
Viditelná tenká (ISO)
100
AcDbMText
 10
118.2064366962235
 20
82.79398756785594
 30
0.0
 40
2.000000029802321
 41
9.315548539161682
 71
     1
 72
     1
  1
\fArial|b0|i0;Gepruft
  7
Text poznámky (ISO)
 73
     1
 44
1.0
  0
MTEXT
  5
1E4
330
187
100
AcDbEntity
  8
Viditelná tenká (ISO)
100
AcDbMText
 10
118.2064366962235
 20
77.59713566222233
 30
0.0
 40
2.000000029802321
 41
9.007622003555296
 71
     1
 72
     1
  1
\fArial|b0|i0;Update
  7
Text poznámky (ISO)
 73
     1
 44
1.0
  0
MTEXT
  5
1E5
330
187
100
AcDbEntity
  8
Viditelná tenká (ISO)
100
AcDbMText
 10
143.0
 20
93.0
 30
0.0
 40
2.000000029802321
 41
8.22865843772888
 71
     1
 72
     1
  1
\fArial|b0|i0;Datum
  7
Text poznámky (ISO)
 73
     1
 44
1.0
  0
MTEXT
  5
1E6
330
187
100
AcDbEntity
  8
Viditelná tenká (ISO)
100
AcDbMText
 10
170.0
 20
93.0
 30
0.0
 40
2.000000029802321
 41
7.452743649482727
 71
     1
 72
     1
  1
\fArial|b0|i0;Name
  7
Text poznámky (ISO)
 73
     1
 44
1.0
  0
MTEXT
  5
1E7
102
{ACAD_XDICTIONARY
360
1CA6
102
}
330
187
100
AcDbEntity
  8
Nadpis (ISO)
100
AcDbMText
 10
118.0
 20
71.0
 30
0.0
 40
3.499999940395355
 41
0.0
 71
     1
 72
     1
  1
Ro\U+0161t Volcano pro InDrain guly 218x218-30; V2A
  7
Text poznámky (ISO)
 73
     1
 44
1.0
  0
MTEXT
  5
1E8
330
187
100
AcDbEntity
  8
Nadpis (ISO)
100
AcDbMText
 10
138.6542642016321
 20
87.78242706242744
 30
0.0
 40
2.000000029802321
 41
13.67261052131653
 71
     1
 72
     1
  1
\fTahoma|b0|i0;27.10.2010
  7
Text poznámky (ISO)
 73
     1
 44
1.0
  0
MTEXT
  5
1E9
330
187
100
AcDbEntity
  8
Nadpis (ISO)
100
AcDbMText
 10
118.9147684950603
 20
98.79632878646518
 30
0.0
 40
3.499999940395355
 41
0.0
 71
     1
 72
     1
  1
ISO 2768-m
  7
Text poznámky (ISO)
 73
     1
 44
1.0
  0
MTEXT
  5
1EA
330
187
100
AcDbEntity
  8
Nadpis (ISO)
100
AcDbMText
 10
162.5831033854
 20
99.20167780246003
 30
0.0
 40
3.499999940395355
 41
0.0
 71
     1
 72
     1
  1
DIN ISO 1302
  7
Text poznámky (ISO)
 73
     1
 44
1.0
  0
MTEXT
  5
1EB
330
187
100
AcDbEntity
  8
Nadpis (ISO)
100
AcDbMText
 10
262.4743825961981
 20
49.11909359328863
 30
0.0
 40
3.499999940395355
 41
8.96608233451843
 71
     1
 72
     1
  1
\fArial|b0|i0;List:
  7
Text poznámky (ISO)
 73
     1
 44
1.0
  0
MTEXT
  5
1EC
330
187
100
AcDbEntity
  8
Nadpis (ISO)
100
AcDbMText
 10
271.4404649307165
 20
49.13243192069646
 30
0.0
 40
3.499999940395355
 41
0.0
 71
     1
 72
     1
  1
\fArial|b0|i0;1 
  7
Text poznámky (ISO)
 73
     1
 44
1.0
  0
MTEXT
  5
1ED
330
187
100
AcDbEntity
  8
Nadpis (ISO)
100
AcDbMText
 10
275.5166847278509
 20
49.17778241269704
 30
0.0
 40
3.499999940395355
 41
0.0
 71
     1
 72
     1
  1
\fArial|b0|i0;/
  7
Text poznámky (ISO)
 73
     1
 44
1.0
  0
MTEXT
  5
1EE
330
187
100
AcDbEntity
  8
Nadpis (ISO)
100
AcDbMText
 10
276.8772036601934
 20
49.13243192069646
 30
0.0
 40
3.499999940395355
 41
0.0
 71
     1
 72
     1
  1
\fArial|b0|i0;1 
  7
Text poznámky (ISO)
 73
     1
 44
1.0
  0
MTEXT
  5
1EF
330
187
100
AcDbEntity
  8
Nadpis (ISO)
100
AcDbMText
 10
159.4396788094336
 20
109.6756657996811
 30
0.0
 40
3.499999940395355
 41
29.10098367733216
 71
     1
 72
     1
  1
1,36 kg
  7
Text poznámky (ISO)
 73
     1
 44
1.0
  0
ATTDEF
  5
1F1
102
{ACAD_XDICTIONARY
360
18F2
102
}
330
187
100
AcDbEntity
  8
Nadpis (ISO)
100
AcDbText
 10
287.4393862219839
 20
62.4856753668063
 30
0.0
 40
3.499999940395355
  1
000
  7
Styl textu9
100
AcDbAttributeDefinition
  3
ČÍSLO REVIZE
  2
ČÍSLO_REVIZE_001
 70
     0
  0
ATTDEF
  5
1F5
102
{ACAD_XDICTIONARY
360
18F5
102
}
330
187
100
AcDbEntity
  8
Nadpis (ISO)
100
AcDbText
 10
289.7753402652471
 20
46.32882590415591
 30
0.0
 40
2.000000029802321
  1
A2
  7
Styl textu40
100
AcDbAttributeDefinition
  3
Sheet Size
  2
Sheet_Size_001
 70
     0
  0
ATTDEF
  5
1F6
102
{ACAD_XDICTIONARY
360
18F8
102
}
330
187
100
AcDbEntity
  8
Nadpis (ISO)
100
AcDbText
 10
230.1305737493188
 20
51.10091360311345
 30
0.0
 40
2.000000029802321
  1
C:\Inventor_DATA\Projekty\FloorDrain B\Rošty\Rošty InDrain pro Guly\Rošt Volcano pro InDrain guly\Rošt Volcano pro InDrain guly 218x218-30(_SC) V2A.iam
  7
Styl textu40
100
AcDbAttributeDefinition
  3
FILENAME AND PATH
  2
FILENAME_AND_PATH_001
 70
     0
  0
ATTDEF
  5
1F7
102
{ACAD_XDICTIONARY
360
18FB
102
}
330
187
100
AcDbEntity
  8
Nadpis (ISO)
100
AcDbText
 10
217.9059771674843
 20
62.42008065196634
 30
0.0
 40
3.499999940395355
  1
408033
  7
Text poznámky (ISO)
100
AcDbAttributeDefinition
  3
PART NUMBER
  2
PART_NUMBER_001
 70
     0
  0
ATTDEF
  5
1F8
102
{ACAD_XDICTIONARY
360
18FE
102
}
330
187
100
AcDbEntity
  8
Nadpis (ISO)
100
AcDbText
 10
118.0
 20
56.50000005960464
 30
0.0
 40
3.499999940395355
  1

  7
Text poznámky (ISO)
 11
118.0
 21
60.0
 31
0.0
100
AcDbAttributeDefinition
  3
PROJECT
  2
PROJECT
 70
     0
 74
     3
  0
ATTDEF
  5
1FA
102
{ACAD_XDICTIONARY
360
1901
102
}
330
187
100
AcDbEntity
  8
Nadpis (ISO)
100
AcDbText
 10
117.8119543349687
 20
47.73407435882505
 30
0.0
 40
6.99999988079071
  1
408033
  7
Styl textu94
100
AcDbAttributeDefinition
  3
SKLADOVÉ ČÍSLO
  2
SKLADOVÉ_ČÍSLO_001
 70
     0
  0
ATTDEF
  5
1FB
102
{ACAD_XDICTIONARY
360
1904
102
}
330
187
100
AcDbEntity
  8
Nadpis (ISO)
100
AcDbText
 10
117.5939056808251
 20
105.1756658592857
 30
0.0
 40
3.499999940395355
  1

  7
Text poznámky (ISO)
 11
117.5939056808251
 21
108.6756657996811
 31
0.0
100
AcDbAttributeDefinition
  3
MATERIAL
  2
MATERIAL
 70
     0
 74
     3
  0
ATTDEF
  5
1FC
102
{ACAD_XDICTIONARY
360
1907
102
}
330
187
100
AcDbEntity
  8
Nadpis (ISO)
100
AcDbText
 10
165.0470513532835
 20
85.78242703262512
 30
0.0
 40
2.000000029802321
  1
plangpaul
  7
Styl textu40
100
AcDbAttributeDefinition
  3
AUTHOR
  2
AUTHOR_001
 70
     0
  0
ATTDEF
  5
1FD
102
{ACAD_XDICTIONARY
360
190A
102
}
330
187
100
AcDbEntity
  8
Nadpis (ISO)
100
AcDbText
 10
189.1855699863978
 20
82.50038826992808
 30
0.0
 40
3.499999940395355
  1

  7
Text poznámky (ISO)
 11
189.1855699863978
 21
86.00038821032343
 31
0.0
100
AcDbAttributeDefinition
  3
VS_First
  2
VS_First
 70
     0
 74
     3
  0
ENDBLK
  5
189
330
187
100
AcDbEntity
  8
0
100
AcDbBlockEnd
  0
BLOCK
  5
500
330
4FF
100
AcDbEntity
  8
0
100
AcDbBlockBegin
  2
2dPrevedenyRez0
 70
     0
 10
0.0
 20
0.0
 30
0.0
  3
2dPrevedenyRez0
  1

  0
LINE
  5
502
330
4FF
100
AcDbEntity
  8
Čára řezu (ISO)
  6
Continuous
100
AcDbLine
 10
45.71052302233659
 20
137.7141364389817
 30
0.0
 11
266.1756745833184
 21
137.7141364389816
 31
0.0
  0
LINE
  5
503
330
4FF
100
AcDbEntity
  8
Čára řezu (ISO)
  6
Continuous
370
    35
100
AcDbLine
 10
45.71052302233659
 20
137.7141364389817
 30
0.0
 11
48.53792978312469
 21
137.7141364389817
 31
0.0
  0
LINE
  5
504
330
4FF
100
AcDbEntity
  8
Čára řezu (ISO)
  6
Continuous
370
    35
100
AcDbLine
 10
263.3482678225303
 20
137.7141364389816
 30
0.0
 11
266.1756745833184
 21
137.7141364389816
 31
0.0
  0
LINE
  5
505
330
4FF
100
AcDbEntity
  8
Čára řezu (ISO)
  6
Continuous
100
AcDbLine
 10
47.12422640273064
 20
135.2141364389817
 30
0.0
 11
47.12422640273064
 21
137.7141364389817
 31
0.0
  0
POLYLINE
  5
506
330
4FF
100
AcDbEntity
  8
Čára řezu (ISO)
  6
Continuous
100
AcDb2dPolyline
 66
     1
 10
0.0
 20
0.0
 30
0.0
 70
   128
  0
VERTEX
  5
507
330
506
100
AcDbEntity
  8
Čára řezu (ISO)
  6
Continuous
100
AcDbVertex
100
AcDb2dVertex
 10
47.62422306848421
 20
135.2141366252585
 30
0.0
  0
VERTEX
  5
508
330
506
100
AcDbEntity
  8
Čára řezu (ISO)
  6
Continuous
100
AcDbVertex
100
AcDb2dVertex
 10
47.12423069787874
 20
137.7141366252585
 30
0.0
  0
VERTEX
  5
50A
330
506
100
AcDbEntity
  8
Čára řezu (ISO)
  6
Continuous
100
AcDbVertex
100
AcDb2dVertex
 10
46.62422879053011
 20
135.2141366252585
 30
0.0
  0
VERTEX
  5
50B
330
506
100
AcDbEntity
  8
Čára řezu (ISO)
  6
Continuous
100
AcDbVertex
100
AcDb2dVertex
 10
47.62422306848421
 20
135.2141366252585
 30
0.0
  0
SEQEND
  5
509
330
506
100
AcDbEntity
  8
Čára řezu (ISO)
  6
Continuous
  0
SOLID
  5
50C
330
4FF
100
AcDbEntity
  8
Čára řezu (ISO)
100
AcDbTrace
 10
47.62422306848421
 20
135.2141366252585
 30
0.0
 11
47.12423069787874
 21
137.7141366252585
 31
0.0
 12
46.62422879053011
 22
135.2141366252585
 32
0.0
 13
47.62422306848421
 23
135.2141366252585
 33
0.0
  0
LINE
  5
50D
330
4FF
100
AcDbEntity
  8
Čára řezu (ISO)
  6
Continuous
100
AcDbLine
 10
47.62422640273064
 20
135.2141364389817
 30
0.0
 11
47.12422640273064
 21
137.7141364389817
 31
0.0
  0
LINE
  5
50E
330
4FF
100
AcDbEntity
  8
Čára řezu (ISO)
  6
Continuous
100
AcDbLine
 10
47.12422640273064
 20
137.7141364389817
 30
0.0
 11
46.62422640273063
 21
135.2141364389817
 31
0.0
  0
LINE
  5
50F
330
4FF
100
AcDbEntity
  8
Čára řezu (ISO)
  6
Continuous
100
AcDbLine
 10
46.62422640273063
 20
135.2141364389817
 30
0.0
 11
47.62422640273064
 21
135.2141364389817
 31
0.0
  0
LINE
  5
510
330
4FF
100
AcDbEntity
  8
Čára řezu (ISO)
  6
Continuous
100
AcDbLine
 10
47.12422640273064
 20
132.5181228470309
 30
0.0
 11
47.12422640273064
 21
135.2141364389817
 31
0.0
  0
LINE
  5
511
330
4FF
100
AcDbEntity
  8
Čára řezu (ISO)
  6
Continuous
100
AcDbLine
 10
264.7619712029243
 20
135.2141364389816
 30
0.0
 11
264.7619712029243
 21
137.7141364389816
 31
0.0
  0
POLYLINE
  5
512
330
4FF
100
AcDbEntity
  8
Čára řezu (ISO)
  6
Continuous
100
AcDb2dPolyline
 66
     1
 10
0.0
 20
0.0
 30
0.0
 70
   128
  0
VERTEX
  5
513
330
512
100
AcDbEntity
  8
Čára řezu (ISO)
  6
Continuous
100
AcDbVertex
100
AcDb2dVertex
 10
265.2619717867459
 20
135.2141366252585
 30
0.0
  0
VERTEX
  5
514
330
512
100
AcDbEntity
  8
Čára řezu (ISO)
  6
Continuous
100
AcDbVertex
100
AcDb2dVertex
 10
264.7619698793973
 20
137.7141366252585
 30
0.0
  0
VERTEX
  5
516
330
512
100
AcDbEntity
  8
Čára řezu (ISO)
  6
Continuous
100
AcDbVertex
100
AcDb2dVertex
 10
264.2619679720486
 20
135.2141366252585
 30
0.0
  0
VERTEX
  5
517
330
512
100
AcDbEntity
  8
Čára řezu (ISO)
  6
Continuous
100
AcDbVertex
100
AcDb2dVertex
 10
265.2619717867459
 20
135.2141366252585
 30
0.0
  0
SEQEND
  5
515
330
512
100
AcDbEntity
  8
Čára řezu (ISO)
  6
Continuous
  0
SOLID
  5
518
330
4FF
100
AcDbEntity
  8
Čára řezu (ISO)
100
AcDbTrace
 10
265.2619717867459
 20
135.2141366252585
 30
0.0
 11
264.7619698793973
 21
137.7141366252585
 31
0.0
 12
264.2619679720486
 22
135.2141366252585
 32
0.0
 13
265.2619717867459
 23
135.2141366252585
 33
0.0
  0
LINE
  5
519
330
4FF
100
AcDbEntity
  8
Čára řezu (ISO)
  6
Continuous
100
AcDbLine
 10
265.2619712029243
 20
135.2141364389816
 30
0.0
 11
264.7619712029243
 21
137.7141364389816
 31
0.0
  0
LINE
  5
51A
330
4FF
100
AcDbEntity
  8
Čára řezu (ISO)
  6
Continuous
100
AcDbLine
 10
264.7619712029243
 20
137.7141364389816
 30
0.0
 11
264.2619712029243
 21
135.2141364389816
 31
0.0
  0
LINE
  5
51B
330
4FF
100
AcDbEntity
  8
Čára řezu (ISO)
  6
Continuous
100
AcDbLine
 10
264.2619712029243
 20
135.2141364389816
 30
0.0
 11
265.2619712029243
 21
135.2141364389816
 31
0.0
  0
LINE
  5
51C
330
4FF
100
AcDbEntity
  8
Čára řezu (ISO)
  6
Continuous
100
AcDbLine
 10
264.7619712029243
 20
132.5181228470308
 30
0.0
 11
264.7619712029243
 21
135.2141364389816
 31
0.0
  0
MTEXT
  5
51D
330
4FF
100
AcDbEntity
  8
Čára řezu (ISO)
100
AcDbMText
 10
44.89107217290416
 20
123.9641366774003
 30
0.0
 40
5.24999976158142
 41
0.0
 71
     7
 72
     1
  1
A
  7
Text popisu (ISO)
 73
     1
 44
1.0
  0
MTEXT
  5
51E
330
4FF
100
AcDbEntity
  8
Čára řezu (ISO)
100
AcDbMText
 10
262.5288169730978
 20
123.9641366774002
 30
0.0
 40
5.24999976158142
 41
0.0
 71
     7
 72
     1
  1
A
  7
Text popisu (ISO)
 73
     1
 44
1.0
  0
ENDBLK
  5
501
330
4FF
100
AcDbEntity
  8
0
100
AcDbBlockEnd
  0
BLOCK
  5
5FE
330
5FD
100
AcDbEntity
  8
0
100
AcDbBlockBegin
  2
2dPrevedenyRez1
 70
     0
 10
0.0
 20
0.0
 30
0.0
  3
2dPrevedenyRez1
  1

  0
LINE
  5
600
330
5FD
100
AcDbEntity
  8
Čára řezu (ISO)
  6
Continuous
100
AcDbLine
 10
198.1913846285426
 20
268.7936477190422
 30
0.0
 11
198.1913846285426
 21
30.18383929602432
 31
0.0
  0
LINE
  5
601
330
5FD
100
AcDbEntity
  8
Čára řezu (ISO)
  6
Continuous
370
    35
100
AcDbLine
 10
198.1913846285426
 20
268.7936477190422
 30
0.0
 11
198.1913846285426
 21
265.9470439972026
 31
0.0
  0
LINE
  5
602
330
5FD
100
AcDbEntity
  8
Čára řezu (ISO)
  6
Continuous
370
    35
100
AcDbLine
 10
198.1913846285426
 20
33.03044301786393
 30
0.0
 11
198.1913846285426
 21
30.18383929602432
 31
0.0
  0
LINE
  5
603
330
5FD
100
AcDbEntity
  8
Čára řezu (ISO)
  6
Continuous
100
AcDbLine
 10
195.6913846285426
 20
267.3703458581224
 30
0.0
 11
198.1913846285426
 21
267.3703458581224
 31
0.0
  0
POLYLINE
  5
604
330
5FD
100
AcDbEntity
  8
Čára řezu (ISO)
  6
Continuous
100
AcDb2dPolyline
 66
     1
 10
0.0
 20
0.0
 30
0.0
 70
   128
  0
VERTEX
  5
605
330
604
100
AcDbEntity
  8
Čára řezu (ISO)
  6
Continuous
100
AcDbVertex
100
AcDb2dVertex
 10
195.69138510538
 20
266.8703422794028
 30
0.0
  0
VERTEX
  5
606
330
604
100
AcDbEntity
  8
Čára řezu (ISO)
  6
Continuous
100
AcDbVertex
100
AcDb2dVertex
 10
198.1913827211942
 20
267.3703441867514
 30
0.0
  0
VERTEX
  5
608
330
604
100
AcDbEntity
  8
Čára řezu (ISO)
  6
Continuous
100
AcDbVertex
100
AcDb2dVertex
 10
195.69138510538
 20
267.8703460941
 30
0.0
  0
VERTEX
  5
609
330
604
100
AcDbEntity
  8
Čára řezu (ISO)
  6
Continuous
100
AcDbVertex
100
AcDb2dVertex
 10
195.69138510538
 20
266.8703422794028
 30
0.0
  0
SEQEND
  5
607
330
604
100
AcDbEntity
  8
Čára řezu (ISO)
  6
Continuous
  0
SOLID
  5
60A
330
5FD
100
AcDbEntity
  8
Čára řezu (ISO)
100
AcDbTrace
 10
195.69138510538
 20
266.8703422794028
 30
0.0
 11
198.1913827211942
 21
267.3703441867514
 31
0.0
 12
195.69138510538
 22
267.8703460941
 32
0.0
 13
195.69138510538
 23
266.8703422794028
 33
0.0
  0
LINE
  5
60B
330
5FD
100
AcDbEntity
  8
Čára řezu (ISO)
  6
Continuous
100
AcDbLine
 10
195.6913846285426
 20
266.8703458581224
 30
0.0
 11
198.1913846285426
 21
267.3703458581224
 31
0.0
  0
LINE
  5
60C
330
5FD
100
AcDbEntity
  8
Čára řezu (ISO)
  6
Continuous
100
AcDbLine
 10
198.1913846285426
 20
267.3703458581224
 30
0.0
 11
195.6913846285426
 21
267.8703458581224
 31
0.0
  0
LINE
  5
60D
330
5FD
100
AcDbEntity
  8
Čára řezu (ISO)
  6
Continuous
100
AcDbLine
 10
195.6913846285426
 20
267.8703458581224
 30
0.0
 11
195.6913846285426
 21
266.8703458581224
 31
0.0
  0
LINE
  5
60E
330
5FD
100
AcDbEntity
  8
Čára řezu (ISO)
  6
Continuous
100
AcDbLine
 10
192.9927513285976
 20
267.3703458581224
 30
0.0
 11
195.6913846285426
 21
267.3703458581224
 31
0.0
  0
LINE
  5
60F
330
5FD
100
AcDbEntity
  8
Čára řezu (ISO)
  6
Continuous
100
AcDbLine
 10
195.6913846285426
 20
31.60714115694414
 30
0.0
 11
198.1913846285426
 21
31.60714115694414
 31
0.0
  0
POLYLINE
  5
610
330
5FD
100
AcDbEntity
  8
Čára řezu (ISO)
  6
Continuous
100
AcDb2dPolyline
 66
     1
 10
0.0
 20
0.0
 30
0.0
 70
   128
  0
VERTEX
  5
611
330
610
100
AcDbEntity
  8
Čára řezu (ISO)
  6
Continuous
100
AcDbVertex
100
AcDb2dVertex
 10
195.69138510538
 20
31.10714533421239
 30
0.0
  0
VERTEX
  5
612
330
610
100
AcDbEntity
  8
Čára řezu (ISO)
  6
Continuous
100
AcDbVertex
100
AcDb2dVertex
 10
198.1913827211942
 20
31.60713770481786
 30
0.0
  0
VERTEX
  5
614
330
610
100
AcDbEntity
  8
Čára řezu (ISO)
  6
Continuous
100
AcDbVertex
100
AcDb2dVertex
 10
195.69138510538
 20
32.10713961216649
 30
0.0
  0
VERTEX
  5
615
330
610
100
AcDbEntity
  8
Čára řezu (ISO)
  6
Continuous
100
AcDbVertex
100
AcDb2dVertex
 10
195.69138510538
 20
31.10714533421239
 30
0.0
  0
SEQEND
  5
613
330
610
100
AcDbEntity
  8
Čára řezu (ISO)
  6
Continuous
  0
SOLID
  5
616
330
5FD
100
AcDbEntity
  8
Čára řezu (ISO)
100
AcDbTrace
 10
195.69138510538
 20
31.10714533421239
 30
0.0
 11
198.1913827211942
 21
31.60713770481786
 31
0.0
 12
195.69138510538
 22
32.10713961216649
 32
0.0
 13
195.69138510538
 23
31.10714533421239
 33
0.0
  0
LINE
  5
617
330
5FD
100
AcDbEntity
  8
Čára řezu (ISO)
  6
Continuous
100
AcDbLine
 10
195.6913846285426
 20
31.10714115694414
 30
0.0
 11
198.1913846285426
 21
31.60714115694414
 31
0.0
  0
LINE
  5
618
330
5FD
100
AcDbEntity
  8
Čára řezu (ISO)
  6
Continuous
100
AcDbLine
 10
198.1913846285426
 20
31.60714115694414
 30
0.0
 11
195.6913846285426
 21
32.10714115694415
 31
0.0
  0
LINE
  5
619
330
5FD
100
AcDbEntity
  8
Čára řezu (ISO)
  6
Continuous
100
AcDbLine
 10
195.6913846285426
 20
32.10714115694415
 30
0.0
 11
195.6913846285426
 21
31.10714115694414
 31
0.0
  0
LINE
  5
61A
330
5FD
100
AcDbEntity
  8
Čára řezu (ISO)
  6
Continuous
100
AcDbLine
 10
192.9927513285976
 20
31.60714115694414
 30
0.0
 11
195.6913846285426
 21
31.60714115694414
 31
0.0
  0
MTEXT
  5
61B
330
5FD
100
AcDbEntity
  8
Čára řezu (ISO)
100
AcDbMText
 10
185.961929190205
 20
264.7453459773317
 30
0.0
 40
5.24999976158142
 41
0.0
 71
     7
 72
     1
  1
B
  7
Text popisu (ISO)
 73
     1
 44
2.841535091400146
  0
MTEXT
  5
61C
330
5FD
100
AcDbEntity
  8
Čára řezu (ISO)
100
AcDbMText
 10
185.961929190205
 20
28.98214127615343
 30
0.0
 40
5.24999976158142
 41
0.0
 71
     7
 72
     1
  1
B
  7
Text popisu (ISO)
 73
     1
 44
1.0
  0
ENDBLK
  5
5FF
330
5FD
100
AcDbEntity
  8
0
100
AcDbBlockEnd
  0
BLOCK
  5
847
330
846
100
AcDbEntity
  8
0
100
AcDbBlockBegin
  2
*D18
 70
     1
 10
0.0
 20
0.0
 30
0.0
  3
*D18
  1

  0
LINE
  5
1A16
330
846
100
AcDbEntity
  8
Kóta (ISO)
100
AcDbLine
 10
51.19138462853651
 20
38.97646143528277
 30
0.0
 11
24.25623262263349
 21
38.97646143528279
 31
0.0
  0
LINE
  5
1A17
330
846
100
AcDbEntity
  8
Kóta (ISO)
100
AcDbLine
 10
51.19138462853758
 20
256.9764614352828
 30
0.0
 11
24.25623262263354
 21
256.9764614352828
 31
0.0
  0
LINE
  5
1A18
330
846
100
AcDbEntity
  8
Kóta (ISO)
100
AcDbLine
 10
25.25623262263349
 20
41.47646143528278
 30
0.0
 11
25.25623262263354
 21
254.4764614352828
 31
0.0
  0
SOLID
  5
1A19
330
846
100
AcDbEntity
  8
Kóta (ISO)
100
AcDbTrace
 10
24.83956595596682
 20
41.47646143528278
 30
0.0
 11
25.67289928930016
 21
41.47646143528278
 31
0.0
 12
25.25623262263349
 22
38.97646143528279
 32
0.0
 13
25.25623262263349
 23
38.97646143528279
 33
0.0
  0
SOLID
  5
1A1A
330
846
100
AcDbEntity
  8
Kóta (ISO)
100
AcDbTrace
 10
24.83956595596688
 20
254.4764614352828
 30
0.0
 11
25.67289928930021
 21
254.4764614352828
 31
0.0
 12
25.25623262263354
 22
256.9764614352828
 32
0.0
 13
25.25623262263354
 23
256.9764614352828
 33
0.0
  0
MTEXT
  5
1A1B
330
846
100
AcDbEntity
  8
Kóta (ISO)
100
AcDbMText
 10
20.83439380463484
 20
144.2496313479759
 30
0.0
 40
3.5
 41
0.0
 71
     1
 72
     1
  1
\A1;218
  7
Text poznámky (ISO)
 11
0.0000000000000001
 21
1.0
 31
0.0
 73
     1
 44
1.0
  0
POINT
  5
1A1C
330
846
100
AcDbEntity
  8
Defpoints
 62
     0
100
AcDbPoint
 10
51.19138462853651
 20
38.97646143528277
 30
0.0
  0
POINT
  5
1A1D
330
846
100
AcDbEntity
  8
Defpoints
 62
     0
100
AcDbPoint
 10
51.19138462853758
 20
256.9764614352828
 30
0.0
  0
POINT
  5
1A1E
330
846
100
AcDbEntity
  8
Defpoints
 62
     0
100
AcDbPoint
 10
25.25623262263354
 20
256.9764614352828
 30
0.0
  0
ENDBLK
  5
848
330
846
100
AcDbEntity
  8
0
100
AcDbBlockEnd
  0
BLOCK
  5
91D
330
91C
100
AcDbEntity
  8
0
100
AcDbBlockBegin
  2
*D19
 70
     1
 10
0.0
 20
0.0
 30
0.0
  3
*D19
  1

  0
LINE
  5
1A1F
330
91C
100
AcDbEntity
  8
Kóta (ISO)
100
AcDbLine
 10
265.1913846285418
 20
42.97646143528306
 30
0.0
 11
265.1913846285418
 21
13.97646143528341
 31
0.0
  0
LINE
  5
1A20
330
91C
100
AcDbEntity
  8
Kóta (ISO)
100
AcDbLine
 10
47.19138462853663
 20
42.97646143528279
 30
0.0
 11
47.19138462853663
 21
13.97646143528341
 31
0.0
  0
LINE
  5
1A21
330
91C
100
AcDbEntity
  8
Kóta (ISO)
100
AcDbLine
 10
262.6913846285418
 20
14.97646143528341
 30
0.0
 11
49.69138462853663
 21
14.97646143528341
 31
0.0
  0
SOLID
  5
1A22
330
91C
100
AcDbEntity
  8
Kóta (ISO)
100
AcDbTrace
 10
262.6913846285418
 20
15.39312810195007
 30
0.0
 11
262.6913846285418
 21
14.55979476861674
 31
0.0
 12
265.1913846285418
 22
14.97646143528341
 32
0.0
 13
265.1913846285418
 23
14.97646143528341
 33
0.0
  0
SOLID
  5
1A23
330
91C
100
AcDbEntity
  8
Kóta (ISO)
100
AcDbTrace
 10
49.69138462853663
 20
15.39312810195007
 30
0.0
 11
49.69138462853663
 21
14.55979476861674
 31
0.0
 12
47.19138462853663
 22
14.97646143528341
 32
0.0
 13
47.19138462853663
 23
14.97646143528341
 33
0.0
  0
MTEXT
  5
1A24
330
91C
100
AcDbEntity
  8
Kóta (ISO)
100
AcDbMText
 10
177.4645545412329
 20
19.39830025328206
 30
0.0
 40
3.5
 41
0.0
 71
     1
 72
     1
  1
\A1;218
  7
Text poznámky (ISO)
 73
     1
 44
1.0
  0
POINT
  5
1A25
330
91C
100
AcDbEntity
  8
Defpoints
 62
     0
100
AcDbPoint
 10
265.1913846285418
 20
42.97646143528306
 30
0.0
  0
POINT
  5
1A26
330
91C
100
AcDbEntity
  8
Defpoints
 62
     0
100
AcDbPoint
 10
47.19138462853663
 20
42.97646143528279
 30
0.0
  0
POINT
  5
1A27
330
91C
100
AcDbEntity
  8
Defpoints
 62
     0
100
AcDbPoint
 10
47.19138462853663
 20
14.97646143528341
 30
0.0
  0
ENDBLK
  5
91E
330
91C
100
AcDbEntity
  8
0
100
AcDbBlockEnd
  0
BLOCK
  5
139D
330
139C
100
AcDbEntity
  8
0
100
AcDbBlockBegin
  2
Text s odkazem1
 70
     0
 10
0.0
 20
0.0
 30
0.0
  3
Text s odkazem1
  1

  0
LINE
  5
139F
330
139C
100
AcDbEntity
  8
Značka (ISO)
100
AcDbLine
 10
200.5243015586133
 20
349.9669905484055
 30
0.0
 11
199.1424382291233
 21
347.8836149849002
 31
0.0
  0
POLYLINE
  5
13A0
330
139C
100
AcDbEntity
  8
Značka (ISO)
100
AcDb2dPolyline
 66
     1
 10
0.0
 20
0.0
 30
0.0
 70
   128
  0
VERTEX
  5
13A1
330
13A0
100
AcDbEntity
  8
Značka (ISO)
100
AcDbVertex
100
AcDb2dVertex
 10
200.1076316833496
 20
350.2433776855469
 30
0.0
  0
VERTEX
  5
13A2
330
13A0
100
AcDbEntity
  8
Značka (ISO)
100
AcDbVertex
100
AcDb2dVertex
 10
199.1424369812012
 20
347.8836059570312
 30
0.0
  0
VERTEX
  5
13A4
330
13A0
100
AcDbEntity
  8
Značka (ISO)
100
AcDbVertex
100
AcDb2dVertex
 10
200.9409713745117
 20
349.6906280517578
 30
0.0
  0
VERTEX
  5
13A5
330
13A0
100
AcDbEntity
  8
Značka (ISO)
100
AcDbVertex
100
AcDb2dVertex
 10
200.1076316833496
 20
350.2433776855469
 30
0.0
  0
SEQEND
  5
13A3
330
13A0
100
AcDbEntity
  8
Značka (ISO)
  0
SOLID
  5
13A6
330
139C
100
AcDbEntity
  8
Značka (ISO)
100
AcDbTrace
 10
200.1076316833496
 20
350.2433776855469
 30
0.0
 11
199.1424369812012
 21
347.8836059570312
 31
0.0
 12
200.9409713745117
 22
349.6906280517578
 32
0.0
 13
200.1076316833496
 23
350.2433776855469
 33
0.0
  0
LINE
  5
13A7
330
139C
100
AcDbEntity
  8
Značka (ISO)
100
AcDbLine
 10
200.1076264459123
 20
350.2433632143035
 30
0.0
 11
199.1424382291233
 21
347.8836149849002
 31
0.0
  0
LINE
  5
13A8
330
139C
100
AcDbEntity
  8
Značka (ISO)
100
AcDbLine
 10
199.1424382291233
 20
347.8836149849002
 30
0.0
 11
200.9409766713144
 21
349.6906178825075
 31
0.0
  0
LINE
  5
13A9
330
139C
100
AcDbEntity
  8
Značka (ISO)
100
AcDbLine
 10
200.9409766713144
 20
349.6906178825075
 30
0.0
 11
200.1076264459123
 21
350.2433632143035
 31
0.0
  0
LINE
  5
13AA
330
139C
100
AcDbEntity
  8
Značka (ISO)
100
AcDbLine
 10
200.5243015586133
 20
349.9669905484055
 30
0.0
 11
203.6459011679726
 21
354.6732912413885
 31
0.0
  0
LINE
  5
13AB
330
139C
100
AcDbEntity
  8
Značka (ISO)
100
AcDbLine
 10
203.6459011679726
 20
354.6732912413885
 30
0.0
 11
196.0727237054229
 21
354.6732912413885
 31
0.0
  0
MTEXT
  5
13AC
102
{ACAD_XDICTIONARY
360
1CA8
102
}
330
139C
100
AcDbEntity
  8
Značka (ISO)
100
AcDbMText
 10
168.4463023311443
 20
352.3191582985331
 30
0.0
 40
3.499999940395355
 41
0.0
 71
     7
 72
     1
  1
durchzug \U+00D86
  7
Text poznámky (ISO)
 73
     1
 44
1.0
  0
ENDBLK
  5
139E
330
139C
100
AcDbEntity
  8
0
100
AcDbBlockEnd
  0
BLOCK
  5
13AF
330
13AE
100
AcDbEntity
  8
0
100
AcDbBlockBegin
  2
2dDetail0
 70
     0
 10
0.0
 20
0.0
 30
0.0
  3
2dDetail0
  1

  0
MTEXT
  5
13B1
330
13AE
100
AcDbEntity
  8
Detailní hranice (ISO)
100
AcDbMText
 10
271.7112954545461
 20
344.9444338688139
 30
0.0
 40
5.24999976158142
 41
0.0
 71
     7
 72
     1
  1
C
  7
Text popisu (ISO)
 73
     1
 44
1.0
  0
CIRCLE
  5
13B2
330
13AE
100
AcDbEntity
  8
Detailní hranice (ISO)
100
AcDbCircle
 10
245.2785893565786
 20
330.3529191595897
 30
0.0
 40
28.2334181632814
  0
ENDBLK
  5
13B0
330
13AE
100
AcDbEntity
  8
0
100
AcDbBlockEnd
  0
BLOCK
  5
1767
330
1766
100
AcDbEntity
  8
0
100
AcDbBlockBegin
  2
Identifikátor značky svaru1
 70
     0
 10
0.0
 20
0.0
 30
0.0
  3
Identifikátor značky svaru1
  1

  0
LINE
  5
1769
330
1766
100
AcDbEntity
  8
Značka (ISO)
100
AcDbLine
 10
342.7636590863563
 20
336.7946250262887
 30
0.0
 11
340.9240289782634
 21
338.4874809166107
 31
0.0
  0
POLYLINE
  5
176A
330
1766
100
AcDbEntity
  8
Značka (ISO)
100
AcDb2dPolyline
 66
     1
 10
0.0
 20
0.0
 30
0.0
 70
   128
  0
VERTEX
  5
176B
330
176A
100
AcDbEntity
  8
Značka (ISO)
100
AcDbVertex
100
AcDb2dVertex
 10
343.1022262573242
 20
337.1625518798828
 30
0.0
  0
VERTEX
  5
176C
330
176A
100
AcDbEntity
  8
Značka (ISO)
100
AcDbVertex
100
AcDb2dVertex
 10
340.9240341186523
 20
338.4874725341797
 30
0.0
  0
VERTEX
  5
176E
330
176A
100
AcDbEntity
  8
Značka (ISO)
100
AcDbVertex
100
AcDb2dVertex
 10
342.4250793457031
 20
336.4266967773438
 30
0.0
  0
VERTEX
  5
176F
330
176A
100
AcDbEntity
  8
Značka (ISO)
100
AcDbVertex
100
AcDb2dVertex
 10
343.1022262573242
 20
337.1625518798828
 30
0.0
  0
SEQEND
  5
176D
330
176A
100
AcDbEntity
  8
Značka (ISO)
  0
SOLID
  5
1770
330
1766
100
AcDbEntity
  8
Značka (ISO)
100
AcDbTrace
 10
343.1022262573242
 20
337.1625518798828
 30
0.0
 11
340.9240341186523
 21
338.4874725341797
 31
0.0
 12
342.4250793457031
 22
336.4266967773438
 32
0.0
 13
343.1022262573242
 23
337.1625518798828
 33
0.0
  0
LINE
  5
1771
330
1766
100
AcDbEntity
  8
Značka (ISO)
100
AcDbLine
 10
343.1022302644207
 20
337.1625510479072
 30
0.0
 11
340.9240289782634
 21
338.4874809166107
 31
0.0
  0
LINE
  5
1772
330
1766
100
AcDbEntity
  8
Značka (ISO)
100
AcDbLine
 10
340.9240289782634
 20
338.4874809166107
 30
0.0
 11
342.4250879082917
 21
336.42669900467
 31
0.0
  0
LINE
  5
1773
330
1766
100
AcDbEntity
  8
Značka (ISO)
100
AcDbLine
 10
342.4250879082917
 20
336.42669900467
 30
0.0
 11
343.1022302644207
 21
337.1625510479072
 31
0.0
  0
LINE
  5
1774
330
1766
100
AcDbEntity
  8
Značka (ISO)
100
AcDbLine
 10
342.7636590863563
 20
336.7946250262887
 30
0.0
 11
360.1407848960105
 21
320.8039268667336
 31
0.0
  0
LINE
  5
1775
330
1766
100
AcDbEntity
  8
Značka (ISO)
100
AcDbLine
 10
369.8223329012862
 20
337.0142396513552
 30
0.0
 11
371.104223661528
 21
339.1605751514127
 31
0.0
  0
POLYLINE
  5
1776
330
1766
100
AcDbEntity
  8
Značka (ISO)
100
AcDb2dPolyline
 66
     1
 10
0.0
 20
0.0
 30
0.0
 70
   128
  0
VERTEX
  5
1777
330
1776
100
AcDbEntity
  8
Značka (ISO)
100
AcDbVertex
100
AcDb2dVertex
 10
370.2516174316406
 20
336.7578506469727
 30
0.0
  0
VERTEX
  5
1778
330
1776
100
AcDbEntity
  8
Značka (ISO)
100
AcDbVertex
100
AcDb2dVertex
 10
371.1042404174805
 20
339.1605758666992
 30
0.0
  0
VERTEX
  5
177A
330
1776
100
AcDbEntity
  8
Značka (ISO)
100
AcDbVertex
100
AcDb2dVertex
 10
369.3930816650391
 20
337.270622253418
 30
0.0
  0
VERTEX
  5
177B
330
1776
100
AcDbEntity
  8
Značka (ISO)
100
AcDbVertex
100
AcDb2dVertex
 10
370.2516174316406
 20
336.7578506469727
 30
0.0
  0
SEQEND
  5
1779
330
1776
100
AcDbEntity
  8
Značka (ISO)
  0
SOLID
  5
177C
330
1766
100
AcDbEntity
  8
Značka (ISO)
100
AcDbTrace
 10
370.2516174316406
 20
336.7578506469727
 30
0.0
 11
371.1042404174805
 21
339.1605758666992
 31
0.0
 12
369.3930816650391
 22
337.270622253418
 32
0.0
 13
370.2516174316406
 23
336.7578506469727
 33
0.0
  0
LINE
  5
177D
330
1766
100
AcDbEntity
  8
Značka (ISO)
100
AcDbLine
 10
370.2516000012979
 20
336.7578614993068
 30
0.0
 11
371.104223661528
 21
339.1605751514127
 31
0.0
  0
LINE
  5
177E
330
1766
100
AcDbEntity
  8
Značka (ISO)
100
AcDbLine
 10
371.104223661528
 20
339.1605751514127
 30
0.0
 11
369.3930658012748
 21
337.2706178034036
 31
0.0
  0
LINE
  5
177F
330
1766
100
AcDbEntity
  8
Značka (ISO)
100
AcDbLine
 10
369.3930658012748
 20
337.2706178034036
 30
0.0
 11
370.2516000012979
 21
336.7578614993068
 31
0.0
  0
LINE
  5
1780
330
1766
100
AcDbEntity
  8
Značka (ISO)
100
AcDbLine
 10
369.8223329012862
 20
337.0142396513552
 30
0.0
 11
360.1407848960105
 21
320.8039268667336
 31
0.0
  0
LINE
  5
1781
330
1766
100
AcDbEntity
  8
Značka (ISO)
100
AcDbLine
 10
366.1407848975105
 20
320.8039268667336
 30
0.0
 11
372.1407851359291
 21
320.8039268667336
 31
0.0
  0
LINE
  5
1782
330
1766
100
AcDbEntity
  8
Značka (ISO)
100
AcDbLine
 10
372.1407851359291
 20
320.8039268667336
 30
0.0
 11
366.1407848975105
 21
326.8039271051522
 31
0.0
  0
LINE
  5
1783
330
1766
100
AcDbEntity
  8
Značka (ISO)
100
AcDbLine
 10
366.1407848975105
 20
326.8039271051522
 30
0.0
 11
366.1407848975105
 21
320.8039268667336
 31
0.0
  0
LINE
  5
1784
330
1766
100
AcDbEntity
  8
Značka (ISO)
100
AcDbLine
 10
360.1407848975105
 20
320.8039268667336
 30
0.0
 11
378.1407851359291
 21
320.8039268667336
 31
0.0
  0
ENDBLK
  5
1768
330
1766
100
AcDbEntity
  8
0
100
AcDbBlockEnd
  0
BLOCK
  5
1787
330
1786
100
AcDbEntity
  8
0
100
AcDbBlockBegin
  2
KUSOVNÍK
 70
     0
 10
0.0
 20
0.0
 30
0.0
  3
KUSOVNÍK
  1

  0
LINE
  5
1789
330
1786
100
AcDbEntity
  8
Značka (ISO)
100
AcDbLine
 10
584.0
 20
129.7896095752717
 30
0.0
 11
401.8502272377385
 21
129.7896095752717
 31
0.0
  0
LINE
  5
178A
330
1786
100
AcDbEntity
  8
Značka (ISO)
100
AcDbLine
 10
584.0
 20
129.7896095752717
 30
0.0
 11
584.0
 21
123.4409083783627
 31
0.0
  0
LINE
  5
178B
330
1786
100
AcDbEntity
  8
Značka (ISO)
100
AcDbLine
 10
401.8502272377385
 20
129.7896095752717
 30
0.0
 11
401.8502272377385
 21
123.4409083783627
 31
0.0
  0
MTEXT
  5
178C
102
{ACAD_XDICTIONARY
360
1CAA
102
}
330
1786
100
AcDbEntity
  8
Značka (ISO)
100
AcDbMText
 10
482.3817352073387
 20
124.1655836254359
 30
0.0
 40
3.499999940395355
 41
0.0
 71
     7
 72
     1
  1
KUSOVN\U+00CDK
  7
Text poznámky (DIN)
 73
     1
 44
1.0
  0
LINE
  5
178E
330
1786
100
AcDbEntity
  8
Značka (ISO)
100
AcDbLine
 10
584.0
 20
123.4409083783627
 30
0.0
 11
401.8502272377385
 21
123.4409083783627
 31
0.0
  0
LINE
  5
178F
330
1786
100
AcDbEntity
  8
Značka (ISO)
100
AcDbLine
 10
584.0
 20
123.4409083783627
 30
0.0
 11
584.0
 21
117.0922071814537
 31
0.0
  0
MTEXT
  5
1790
102
{ACAD_XDICTIONARY
360
1CAC
102
}
330
1786
100
AcDbEntity
  8
Značka (ISO)
100
AcDbMText
 10
561.1172192400529
 20
117.8168824285269
 30
0.0
 40
3.499999940395355
 41
0.0
 71
     7
 72
     1
  1
MATERI\U+00C1L
  7
Text poznámky (DIN)
 73
     1
 44
1.0
  0
LINE
  5
1791
330
1786
100
AcDbEntity
  8
Značka (ISO)
100
AcDbLine
 10
558.619896589483
 20
123.4409083783627
 30
0.0
 11
558.619896589483
 21
117.0922071814537
 31
0.0
  0
MTEXT
  5
1792
330
1786
100
AcDbEntity
  8
Značka (ISO)
100
AcDbMText
 10
534.8554450935655
 20
118.5165578097105
 30
0.0
 40
3.499999940395355
 41
0.0
 71
     7
 72
     1
  1
HMOTNOST
  7
Text poznámky (DIN)
 73
     1
 44
1.0
  0
LINE
  5
1793
330
1786
100
AcDbEntity
  8
Značka (ISO)
100
AcDbLine
 10
533.2264512301883
 20
123.4409083783627
 30
0.0
 11
533.2264512301883
 21
117.0922071814537
 31
0.0
  0
MTEXT
  5
1794
102
{ACAD_XDICTIONARY
360
1CAE
102
}
330
1786
100
AcDbEntity
  8
Značka (ISO)
100
AcDbMText
 10
509.6340470923393
 20
117.8168824285269
 30
0.0
 40
3.499999940395355
 41
0.0
 71
     7
 72
     1
  1
SKLADOV\U+00C9
  7
Text poznámky (DIN)
 73
     1
 44
1.0
  0
LINE
  5
1795
330
1786
100
AcDbEntity
  8
Značka (ISO)
100
AcDbLine
 10
507.8264512301883
 20
123.4409083783627
 30
0.0
 11
507.8264512301883
 21
117.0922071814537
 31
0.0
  0
MTEXT
  5
1796
330
1786
100
AcDbEntity
  8
Značka (ISO)
100
AcDbMText
 10
463.4037748929626
 20
118.5165578097105
 30
0.0
 40
3.499999940395355
 41
0.0
 71
     7
 72
     1
  1
POPIS
  7
Text poznámky (DIN)
 73
     1
 44
1.0
  0
LINE
  5
1797
330
1786
100
AcDbEntity
  8
Značka (ISO)
100
AcDbLine
 10
430.6198027340689
 20
123.4409083783627
 30
0.0
 11
430.6198027340689
 21
117.0922071814537
 31
0.0
  0
MTEXT
  5
1798
330
1786
100
AcDbEntity
  8
Značka (ISO)
100
AcDbMText
 10
421.8091687918755
 20
118.5165578097105
 30
0.0
 40
3.499999940395355
 41
0.0
 71
     7
 72
     1
  1
KS
  7
Text poznámky (DIN)
 73
     1
 44
1.0
  0
LINE
  5
1799
330
1786
100
AcDbEntity
  8
Značka (ISO)
100
AcDbLine
 10
417.9911357651128
 20
123.4409083783627
 30
0.0
 11
417.9911357651128
 21
117.0922071814537
 31
0.0
  0
MTEXT
  5
179A
330
1786
100
AcDbEntity
  8
Značka (ISO)
100
AcDbMText
 10
403.0526280067347
 20
118.5165578097105
 30
0.0
 40
3.499999940395355
 41
0.0
 71
     7
 72
     1
  1
POZICE
  7
Text poznámky (DIN)
 73
     1
 44
1.0
  0
LINE
  5
179B
330
1786
100
AcDbEntity
  8
Značka (ISO)
100
AcDbLine
 10
401.8502272377386
 20
123.4409083783627
 30
0.0
 11
401.8502272377386
 21
117.0922071814537
 31
0.0
  0
MTEXT
  5
179C
330
1786
100
AcDbEntity
  8
Značka (ISO)
100
AcDbMText
 10
559.8222973584792
 20
112.1678566128016
 30
0.0
 40
3.499999940395355
 41
0.0
 71
     7
 72
     1
  1
AISI 304
  7
Text poznámky (DIN)
 73
     1
 44
1.0
  0
MTEXT
  5
179D
330
1786
100
AcDbEntity
  8
Značka (ISO)
100
AcDbMText
 10
534.4288519991843
 20
111.119155356288
 30
0.0
 40
3.499999940395355
 41
0.0
 71
     7
 72
     1
  1
0,110 kg
  7
Text poznámky (DIN)
 73
     1
 44
1.0
  0
MTEXT
  5
179E
330
1786
100
AcDbEntity
  8
Značka (ISO)
100
AcDbMText
 10
509.0288519991843
 20
112.1678566128016
 30
0.0
 40
3.499999940395355
 41
0.0
 71
     7
 72
     1
  1
E53965
  7
Text poznámky (DIN)
 73
     1
 44
1.0
  0
MTEXT
  5
179F
102
{ACAD_XDICTIONARY
360
1CB0
102
}
330
1786
100
AcDbEntity
  8
Značka (ISO)
100
AcDbMText
 10
431.8222035030649
 20
110.9454540103674
 30
0.0
 40
3.499999940395355
 41
0.0
 71
     7
 72
     1
  1
Lemovac\U+00ED p\U+0159\U+00ED\U+010Dka k Volcano 
  7
Text poznámky (DIN)
 73
     1
 44
1.0
  0
MTEXT
  5
17A0
102
{ACAD_XDICTIONARY
360
1CB2
102
}
330
1786
100
AcDbEntity
  8
Značka (ISO)
100
AcDbMText
 10
431.8222035030649
 20
104.944155433774
 30
0.0
 40
3.499999940395355
 41
0.0
 71
     7
 72
     1
  1
ro\U+0161t\U+016Fm 218x218-30; V2A
  7
Text poznámky (DIN)
 73
     1
 44
1.0
  0
MTEXT
  5
17A1
330
1786
100
AcDbEntity
  8
Značka (ISO)
100
AcDbMText
 10
423.3838440836523
 20
112.1678566128016
 30
0.0
 40
3.499999940395355
 41
0.0
 71
     7
 72
     1
  1
2
  7
Text poznámky (DIN)
 73
     1
 44
1.0
  0
MTEXT
  5
17A2
330
1786
100
AcDbEntity
  8
Značka (ISO)
100
AcDbMText
 10
409.3452822782026
 20
112.1678566128016
 30
0.0
 40
3.499999940395355
 41
0.0
 71
     7
 72
     1
  1
1
  7
Text poznámky (DIN)
 73
     1
 44
1.0
  0
LINE
  5
17A3
330
1786
100
AcDbEntity
  8
Značka (ISO)
100
AcDbLine
 10
584.0
 20
117.0922071814537
 30
0.0
 11
401.8502272377386
 21
117.0922071814537
 31
0.0
  0
MTEXT
  5
17A4
330
1786
100
AcDbEntity
  8
Značka (ISO)
100
AcDbMText
 10
559.8222973584792
 20
99.47045421898373
 30
0.0
 40
3.499999940395355
 41
0.0
 71
     7
 72
     1
  1
AISI 304
  7
Text poznámky (DIN)
 73
     1
 44
1.0
  0
MTEXT
  5
17A5
330
1786
100
AcDbEntity
  8
Značka (ISO)
100
AcDbMText
 10
534.4288519991843
 20
98.42175296247013
 30
0.0
 40
3.499999940395355
 41
0.0
 71
     7
 72
     1
  1
0,227 kg
  7
Text poznámky (DIN)
 73
     1
 44
1.0
  0
MTEXT
  5
17A6
330
1786
100
AcDbEntity
  8
Značka (ISO)
100
AcDbMText
 10
509.0288519991843
 20
99.47045421898373
 30
0.0
 40
3.499999940395355
 41
0.0
 71
     7
 72
     1
  1
E53971
  7
Text poznámky (DIN)
 73
     1
 44
1.0
  0
MTEXT
  5
17A7
102
{ACAD_XDICTIONARY
360
1CB4
102
}
330
1786
100
AcDbEntity
  8
Značka (ISO)
100
AcDbMText
 10
431.8222035030649
 20
98.24805161654957
 30
0.0
 40
3.499999940395355
 41
0.0
 71
     7
 72
     1
  1
P\U+0159\U+00ED\U+010Dka bez loga t=1,5,L=214; 
  7
Text poznámky (DIN)
 73
     1
 44
1.0
  0
MTEXT
  5
17A8
330
1786
100
AcDbEntity
  8
Značka (ISO)
100
AcDbMText
 10
431.8222035030649
 20
92.24675303995615
 30
0.0
 40
3.499999940395355
 41
0.0
 71
     7
 72
     1
  1
H=30; V2A
  7
Text poznámky (DIN)
 73
     1
 44
1.0
  0
MTEXT
  5
17A9
330
1786
100
AcDbEntity
  8
Značka (ISO)
100
AcDbMText
 10
423.3838440836523
 20
99.47045421898373
 30
0.0
 40
3.499999940395355
 41
0.0
 71
     7
 72
     1
  1
3
  7
Text poznámky (DIN)
 73
     1
 44
1.0
  0
MTEXT
  5
17AA
330
1786
100
AcDbEntity
  8
Značka (ISO)
100
AcDbMText
 10
408.9990563354872
 20
99.47045421898373
 30
0.0
 40
3.499999940395355
 41
0.0
 71
     7
 72
     1
  1
2
  7
Text poznámky (DIN)
 73
     1
 44
1.0
  0
LINE
  5
17AB
330
1786
100
AcDbEntity
  8
Značka (ISO)
100
AcDbLine
 10
584.0
 20
104.3948047876358
 30
0.0
 11
401.8502272377386
 21
104.3948047876358
 31
0.0
  0
MTEXT
  5
17AC
330
1786
100
AcDbEntity
  8
Značka (ISO)
100
AcDbMText
 10
559.8222973584792
 20
86.77305182516581
 30
0.0
 40
3.499999940395355
 41
0.0
 71
     7
 72
     1
  1
AISI 304
  7
Text poznámky (DIN)
 73
     1
 44
1.0
  0
MTEXT
  5
17AD
330
1786
100
AcDbEntity
  8
Značka (ISO)
100
AcDbMText
 10
534.4288519991843
 20
85.72435056865222
 30
0.0
 40
3.499999940395355
 41
0.0
 71
     7
 72
     1
  1
0,228 kg
  7
Text poznámky (DIN)
 73
     1
 44
1.0
  0
MTEXT
  5
17AE
330
1786
100
AcDbEntity
  8
Značka (ISO)
100
AcDbMText
 10
509.0288519991843
 20
86.77305182516581
 30
0.0
 40
3.499999940395355
 41
0.0
 71
     7
 72
     1
  1
E53982
  7
Text poznámky (DIN)
 73
     1
 44
1.0
  0
MTEXT
  5
17AF
102
{ACAD_XDICTIONARY
360
1CB6
102
}
330
1786
100
AcDbEntity
  8
Značka (ISO)
100
AcDbMText
 10
431.8222035030649
 20
85.55064922273166
 30
0.0
 40
3.499999940395355
 41
0.0
 71
     7
 72
     1
  1
P\U+0159\U+00ED\U+010Dka s logem t=1,5; L=214; 
  7
Text poznámky (DIN)
 73
     1
 44
1.0
  0
MTEXT
  5
17B0
330
1786
100
AcDbEntity
  8
Značka (ISO)
100
AcDbMText
 10
431.8222035030649
 20
79.54935064613827
 30
0.0
 40
3.499999940395355
 41
0.0
 71
     7
 72
     1
  1
H=30; V2A
  7
Text poznámky (DIN)
 73
     1
 44
1.0
  0
MTEXT
  5
17B1
330
1786
100
AcDbEntity
  8
Značka (ISO)
100
AcDbMText
 10
423.3838440836523
 20
86.77305182516581
 30
0.0
 40
3.499999940395355
 41
0.0
 71
     7
 72
     1
  1
2
  7
Text poznámky (DIN)
 73
     1
 44
1.0
  0
MTEXT
  5
17B2
330
1786
100
AcDbEntity
  8
Značka (ISO)
100
AcDbMText
 10
408.9990563354872
 20
86.77305182516581
 30
0.0
 40
3.499999940395355
 41
0.0
 71
     7
 72
     1
  1
3
  7
Text poznámky (DIN)
 73
     1
 44
1.0
  0
LINE
  5
17B3
330
1786
100
AcDbEntity
  8
Značka (ISO)
100
AcDbLine
 10
584.0
 20
91.69740239381795
 30
0.0
 11
401.8502272377386
 21
91.69740239381795
 31
0.0
  0
LINE
  5
17B4
330
1786
100
AcDbEntity
  8
Značka (ISO)
100
AcDbLine
 10
584.0
 20
79.00000000000007
 30
0.0
 11
401.8502272377386
 21
79.00000000000007
 31
0.0
  0
LINE
  5
17B5
330
1786
100
AcDbEntity
  8
Značka (ISO)
100
AcDbLine
 10
584.0
 20
117.0922071814537
 30
0.0
 11
584.0
 21
79.00000000000007
 31
0.0
  0
LINE
  5
17B6
330
1786
100
AcDbEntity
  8
Značka (ISO)
100
AcDbLine
 10
558.619896589483
 20
117.0922071814537
 30
0.0
 11
558.619896589483
 21
79.00000000000007
 31
0.0
  0
LINE
  5
17B7
330
1786
100
AcDbEntity
  8
Značka (ISO)
100
AcDbLine
 10
533.2264512301883
 20
117.0922071814537
 30
0.0
 11
533.2264512301883
 21
79.00000000000007
 31
0.0
  0
LINE
  5
17B8
330
1786
100
AcDbEntity
  8
Značka (ISO)
100
AcDbLine
 10
507.8264512301883
 20
117.0922071814537
 30
0.0
 11
507.8264512301883
 21
79.00000000000007
 31
0.0
  0
LINE
  5
17B9
330
1786
100
AcDbEntity
  8
Značka (ISO)
100
AcDbLine
 10
430.6198027340689
 20
117.0922071814537
 30
0.0
 11
430.6198027340689
 21
79.00000000000007
 31
0.0
  0
LINE
  5
17BA
330
1786
100
AcDbEntity
  8
Značka (ISO)
100
AcDbLine
 10
417.9911357651128
 20
117.0922071814537
 30
0.0
 11
417.9911357651128
 21
79.00000000000007
 31
0.0
  0
LINE
  5
17BB
330
1786
100
AcDbEntity
  8
Značka (ISO)
100
AcDbLine
 10
401.8502272377386
 20
117.0922071814537
 30
0.0
 11
401.8502272377386
 21
79.00000000000007
 31
0.0
  0
ENDBLK
  5
1788
330
1786
100
AcDbEntity
  8
0
100
AcDbBlockEnd
  0
BLOCK
  5
18D3
330
18D2
100
AcDbEntity
  8
0
100
AcDbBlockBegin
  2
Pozice1
 70
     0
 10
0.0
 20
0.0
 30
0.0
  3
Pozice1
  1

  0
LINE
  5
18D5
330
18D2
100
AcDbEntity
  8
Značka (ISO)
100
AcDbLine
 10
249.6113866263467
 20
222.4363507438128
 30
0.0
 11
248.4039793434854
 21
222.1128269374347
 31
0.0
  0
CIRCLE
  5
18D6
102
{ACAD_REACTORS
330
18D7
102
}
330
18D2
100
AcDbEntity
  8
Značka (ISO)
100
AcDbCircle
 10
247.196572060624
 20
221.7893031310566
 30
0.0
 40
1.25
  0
HATCH
  5
18D7
330
18D2
100
AcDbEntity
  8
Značka (ISO)
100
AcDbHatch
 10
0.0
 20
0.0
 30
0.0
210
0.0
220
0.0
230
1.0
  2
SOLID
 70
     1
 71
     1
 91
        1
 92
        0
 93
        1
 72
     2
 10
247.196572060624
 20
221.7893031310566
 40
1.25
 50
0.0
 51
360.0
 73
     1
 97
        1
330
18D6
 75
     0
 76
     1
 98
        1
 10
0.0
 20
0.0
450
        0
451
        0
460
0.0
461
0.0
452
        0
462
0.0
453
        0
470

  0
LINE
  5
18D8
330
18D2
100
AcDbEntity
  8
Značka (ISO)
100
AcDbLine
 10
249.6113866263467
 20
222.4363507438128
 30
0.0
 11
271.3377163557875
 21
228.2579032493075
 31
0.0
  0
CIRCLE
  5
18D9
330
18D2
100
AcDbEntity
  8
Značka (ISO)
100
AcDbCircle
 10
278.9154362334905
 20
230.288347171007
 30
0.0
 40
7.874999642372131
  0
MTEXT
  5
18DA
330
18D2
100
AcDbEntity
  8
Značka (ISO)
100
AcDbMText
 10
278.9154362334905
 20
230.3436551078616
 30
0.0
 40
5.24999976158142
 41
0.0
 71
     5
 72
     1
  1
3
  7
Text popisu (ISO)
 73
     1
 44
1.0
  0
ENDBLK
  5
18D4
330
18D2
100
AcDbEntity
  8
0
100
AcDbBlockEnd
  0
BLOCK
  5
18DD
330
18DC
100
AcDbEntity
  8
0
100
AcDbBlockBegin
  2
Pozice2
 70
     0
 10
0.0
 20
0.0
 30
0.0
  3
Pozice2
  1

  0
LINE
  5
18DF
330
18DC
100
AcDbEntity
  8
Značka (ISO)
100
AcDbLine
 10
51.08482381361891
 20
38.89615714026676
 30
0.0
 11
50.32893981466177
 21
39.89171697278339
 31
0.0
  0
CIRCLE
  5
18E0
102
{ACAD_REACTORS
330
18E1
102
}
330
18DC
100
AcDbEntity
  8
Značka (ISO)
100
AcDbCircle
 10
49.57305581570461
 20
40.88727680530001
 30
0.0
 40
1.249999999999998
  0
HATCH
  5
18E1
330
18DC
100
AcDbEntity
  8
Značka (ISO)
100
AcDbHatch
 10
0.0
 20
0.0
 30
0.0
210
0.0
220
0.0
230
1.0
  2
SOLID
 70
     1
 71
     1
 91
        1
 92
        0
 93
        1
 72
     2
 10
49.57305581570461
 20
40.88727680530001
 40
1.249999999999998
 50
0.0
 51
360.0
 73
     1
 97
        1
330
18E0
 75
     0
 76
     1
 98
        1
 10
0.0
 20
0.0
450
        0
451
        0
460
0.0
461
0.0
452
        0
462
0.0
453
        0
470

  0
LINE
  5
18E2
330
18DC
100
AcDbEntity
  8
Značka (ISO)
100
AcDbLine
 10
51.08482381361891
 20
38.89615714026676
 30
0.0
 11
58.53371326313663
 21
29.0853724920562
 31
0.0
  0
CIRCLE
  5
18E3
330
18DC
100
AcDbEntity
  8
Značka (ISO)
100
AcDbCircle
 10
63.28118518829368
 20
22.83257131990872
 30
0.0
 40
7.874999642372131
  0
MTEXT
  5
18E4
330
18DC
100
AcDbEntity
  8
Značka (ISO)
100
AcDbMText
 10
63.28118518829368
 20
22.83257131990872
 30
0.0
 40
5.24999976158142
 41
0.0
 71
     5
 72
     1
  1
1
  7
Text popisu (ISO)
 73
     1
 44
1.0
  0
ENDBLK
  5
18DE
330
18DC
100
AcDbEntity
  8
0
100
AcDbBlockEnd
  0
BLOCK
  5
18E7
330
18E6
100
AcDbEntity
  8
0
100
AcDbBlockBegin
  2
Pozice3
 70
     0
 10
0.0
 20
0.0
 30
0.0
  3
Pozice3
  1

  0
LINE
  5
18E9
330
18E6
100
AcDbEntity
  8
Značka (ISO)
100
AcDbLine
 10
208.4116980995903
 20
45.78877356126461
 30
0.0
 11
207.7134068958531
 21
46.8255422889871
 31
0.0
  0
CIRCLE
  5
18EA
102
{ACAD_REACTORS
330
18EB
102
}
330
18E6
100
AcDbEntity
  8
Značka (ISO)
100
AcDbCircle
 10
207.015115692116
 20
47.8623110167096
 30
0.0
 40
1.25
  0
HATCH
  5
18EB
330
18E6
100
AcDbEntity
  8
Značka (ISO)
100
AcDbHatch
 10
0.0
 20
0.0
 30
0.0
210
0.0
220
0.0
230
1.0
  2
SOLID
 70
     1
 71
     1
 91
        1
 92
        0
 93
        1
 72
     2
 10
207.015115692116
 20
47.8623110167096
 40
1.25
 50
0.0
 51
360.0
 73
     1
 97
        1
330
18EA
 75
     0
 76
     1
 98
        1
 10
0.0
 20
0.0
450
        0
451
        0
460
0.0
461
0.0
452
        0
462
0.0
453
        0
470

  0
LINE
  5
18EC
330
18E6
100
AcDbEntity
  8
Značka (ISO)
100
AcDbLine
 10
208.4116980995903
 20
45.78877356126461
 30
0.0
 11
219.8425232361989
 21
28.81716920727195
 31
0.0
  0
CIRCLE
  5
18ED
330
18E6
100
AcDbEntity
  8
Značka (ISO)
100
AcDbCircle
 10
224.2257374444015
 20
22.30931203586174
 30
0.0
 40
7.874999642372131
  0
MTEXT
  5
18EE
330
18E6
100
AcDbEntity
  8
Značka (ISO)
100
AcDbMText
 10
224.2257374444015
 20
22.30931203586174
 30
0.0
 40
5.24999976158142
 41
0.0
 71
     5
 72
     1
  1
2
  7
Text popisu (ISO)
 73
     1
 44
1.0
  0
ENDBLK
  5
18E8
330
18E6
100
AcDbEntity
  8
0
100
AcDbBlockEnd
  0
BLOCK
  5
19FA
330
19F8
100
AcDbEntity
  8
0
100
AcDbBlockBegin
  2
GENAXEH
 70
     0
 10
0.0
 20
0.0
 30
0.0
  3
GENAXEH
  1

  0
LINE
  5
19F9
330
19F8
100
AcDbEntity
  8
0
100
AcDbLine
 10
-1.0
 20
0.0
 30
0.0
 11
1.0
 21
0.0
 31
0.0
  0
ENDBLK
  5
19FB
330
19F8
100
AcDbEntity
  8
0
100
AcDbBlockEnd
  0
BLOCK
  5
1AF6
330
1AF5
100
AcDbEntity
  8
0
100
AcDbBlockBegin
  2
*D28
 70
     1
 10
0.0
 20
0.0
 30
0.0
  3
*D28
  1

  0
LINE
  5
1AF7
330
1AF5
100
AcDbEntity
  8
KOTY_GULLY
370
    -2
100
AcDbLine
 10
236.4368884576717
 20
308.2258366989143
 30
0.0
 11
236.4368884576717
 21
338.5976782899102
 31
0.0
  0
LINE
  5
1AF8
330
1AF5
100
AcDbEntity
  8
KOTY_GULLY
370
    -2
100
AcDbLine
 10
68.43688845767179
 20
308.2258366989137
 30
0.0
 11
68.43688845767179
 21
338.5976782899102
 31
0.0
  0
LINE
  5
1AF9
330
1AF5
100
AcDbEntity
  8
KOTY_GULLY
370
    -2
100
AcDbLine
 10
233.4368884576717
 20
336.5976782899102
 30
0.0
 11
71.43688845767178
 21
336.5976782899102
 31
0.0
  0
SOLID
  5
1AFA
330
1AF5
100
AcDbEntity
  8
KOTY_GULLY
100
AcDbTrace
 10
233.4368884576717
 20
337.0976782899102
 30
0.0
 11
233.4368884576717
 21
336.0976782899102
 31
0.0
 12
236.4368884576717
 22
336.5976782899102
 32
0.0
 13
236.4368884576717
 23
336.5976782899102
 33
0.0
  0
SOLID
  5
1AFB
330
1AF5
100
AcDbEntity
  8
KOTY_GULLY
100
AcDbTrace
 10
71.43688845767178
 20
337.0976782899102
 30
0.0
 11
71.43688845767178
 21
336.0976782899102
 31
0.0
 12
68.43688845767179
 22
336.5976782899102
 32
0.0
 13
68.43688845767179
 23
336.5976782899102
 33
0.0
  0
MTEXT
  5
1AFC
330
1AF5
100
AcDbEntity
  8
KOTY_GULLY
100
AcDbMText
 10
152.4368884576716
 20
344.1216782899102
 30
0.0
 40
12.0
 41
0.0
 71
     5
 72
     1
  1
\A1;168
  7
Annotative
 73
     1
 44
1.0
  0
POINT
  5
1AFD
330
1AF5
100
AcDbEntity
  8
Defpoints
 62
     0
100
AcDbPoint
 10
236.4368884576717
 20
308.2258366989143
 30
0.0
  0
POINT
  5
1AFE
330
1AF5
100
AcDbEntity
  8
Defpoints
 62
     0
100
AcDbPoint
 10
68.43688845767179
 20
308.2258366989137
 30
0.0
  0
POINT
  5
1AFF
330
1AF5
100
AcDbEntity
  8
Defpoints
 62
     0
100
AcDbPoint
 10
68.43688845767179
 20
336.5976782899102
 30
0.0
  0
ENDBLK
  5
1B00
330
1AF5
100
AcDbEntity
  8
0
100
AcDbBlockEnd
  0
BLOCK
  5
1B02
330
1B01
100
AcDbEntity
  8
0
100
AcDbBlockBegin
  2
*D29
 70
     1
 10
0.0
 20
0.0
 30
0.0
  3
*D29
  1

  0
LINE
  5
1B03
330
1B01
100
AcDbEntity
  8
KOTY_GULLY
370
    -2
100
AcDbLine
 10
72.43688845767178
 20
312.2258366989137
 30
0.0
 11
30.7123120318818
 21
312.2258366989137
 31
0.0
  0
LINE
  5
1B04
330
1B01
100
AcDbEntity
  8
KOTY_GULLY
370
    -2
100
AcDbLine
 10
72.43688845767214
 20
144.2258366989134
 30
0.0
 11
30.71231203188176
 21
144.2258366989134
 31
0.0
  0
LINE
  5
1B05
330
1B01
100
AcDbEntity
  8
KOTY_GULLY
370
    -2
100
AcDbLine
 10
32.7123120318818
 20
309.2258366989137
 30
0.0
 11
32.71231203188178
 21
147.2258366989134
 31
0.0
  0
SOLID
  5
1B06
330
1B01
100
AcDbEntity
  8
KOTY_GULLY
100
AcDbTrace
 10
32.2123120318818
 20
309.2258366989137
 30
0.0
 11
33.2123120318818
 21
309.2258366989137
 31
0.0
 12
32.7123120318818
 22
312.2258366989137
 32
0.0
 13
32.7123120318818
 23
312.2258366989137
 33
0.0
  0
SOLID
  5
1B07
330
1B01
100
AcDbEntity
  8
KOTY_GULLY
100
AcDbTrace
 10
32.21231203188177
 20
147.2258366989134
 30
0.0
 11
33.21231203188176
 21
147.2258366989134
 31
0.0
 12
32.71231203188178
 22
144.2258366989134
 32
0.0
 13
32.71231203188178
 23
144.2258366989134
 33
0.0
  0
MTEXT
  5
1B08
330
1B01
100
AcDbEntity
  8
KOTY_GULLY
100
AcDbMText
 10
25.18831203188174
 20
228.2258366989136
 30
0.0
 40
12.0
 41
0.0
 71
     5
 72
     1
  1
\A1;168
  7
Annotative
 11
0.0000000000000001
 21
1.0
 31
0.0
 73
     1
 44
1.0
  0
POINT
  5
1B09
330
1B01
100
AcDbEntity
  8
Defpoints
 62
     0
100
AcDbPoint
 10
72.43688845767178
 20
312.2258366989137
 30
0.0
  0
POINT
  5
1B0A
330
1B01
100
AcDbEntity
  8
Defpoints
 62
     0
100
AcDbPoint
 10
72.43688845767214
 20
144.2258366989134
 30
0.0
  0
POINT
  5
1B0B
330
1B01
100
AcDbEntity
  8
Defpoints
 62
     0
100
AcDbPoint
 10
32.71231203188178
 20
144.2258366989134
 30
0.0
  0
ENDBLK
  5
1B0C
330
1B01
100
AcDbEntity
  8
0
100
AcDbBlockEnd
  0
BLOCK
  5
1B37
330
1B36
100
AcDbEntity
  8
0
100
AcDbBlockBegin
  2
*D30
 70
     1
 10
0.0
 20
0.0
 30
0.0
  3
*D30
  1

  0
LINE
  5
1C83
330
1B36
100
AcDbEntity
  8
KOTY_GULLY
370
    -2
100
AcDbLine
 10
291.3509007620757
 20
268.1421523373518
 30
0.0
 11
291.3509007620757
 21
296.1498859942612
 31
0.0
  0
LINE
  5
1C84
330
1B36
100
AcDbEntity
  8
KOTY_GULLY
370
    -2
100
AcDbLine
 10
23.35090076207864
 20
268.1421523373515
 30
0.0
 11
23.35090076207864
 21
296.1498859942612
 31
0.0
  0
LINE
  5
1C85
330
1B36
100
AcDbEntity
  8
KOTY_GULLY
370
    -2
100
AcDbLine
 10
288.3509007620757
 20
294.1498859942612
 30
0.0
 11
26.35090076207864
 21
294.1498859942612
 31
0.0
  0
SOLID
  5
1C86
330
1B36
100
AcDbEntity
  8
KOTY_GULLY
100
AcDbTrace
 10
288.3509007620757
 20
294.6498859942612
 30
0.0
 11
288.3509007620757
 21
293.6498859942613
 31
0.0
 12
291.3509007620757
 22
294.1498859942612
 32
0.0
 13
291.3509007620757
 23
294.1498859942612
 33
0.0
  0
SOLID
  5
1C87
330
1B36
100
AcDbEntity
  8
KOTY_GULLY
100
AcDbTrace
 10
26.35090076207864
 20
294.6498859942612
 30
0.0
 11
26.35090076207864
 21
293.6498859942613
 31
0.0
 12
23.35090076207864
 22
294.1498859942612
 32
0.0
 13
23.35090076207864
 23
294.1498859942612
 33
0.0
  0
MTEXT
  5
1C88
330
1B36
100
AcDbEntity
  8
KOTY_GULLY
100
AcDbMText
 10
157.3509007620772
 20
301.6738859942612
 30
0.0
 40
12.0
 41
0.0
 71
     5
 72
     1
  1
\A1;268
  7
Annotative
 73
     1
 44
1.0
  0
POINT
  5
1C89
330
1B36
100
AcDbEntity
  8
Defpoints
 62
     0
100
AcDbPoint
 10
291.3509007620757
 20
268.1421523373518
 30
0.0
  0
POINT
  5
1C8A
330
1B36
100
AcDbEntity
  8
Defpoints
 62
     0
100
AcDbPoint
 10
23.35090076207864
 20
268.1421523373515
 30
0.0
  0
POINT
  5
1C8B
330
1B36
100
AcDbEntity
  8
Defpoints
 62
     0
100
AcDbPoint
 10
23.35090076207864
 20
294.1498859942612
 30
0.0
  0
ENDBLK
  5
1B38
330
1B36
100
AcDbEntity
  8
0
100
AcDbBlockEnd
  0
BLOCK
  5
1B43
330
1B42
100
AcDbEntity
  8
0
100
AcDbBlockBegin
  2
*D31
 70
     1
 10
0.0
 20
0.0
 30
0.0
  3
*D31
  1

  0
LINE
  5
1C8C
330
1B42
100
AcDbEntity
  8
KOTY_GULLY
370
    -2
100
AcDbLine
 10
28.26833195473901
 20
273.0595835300119
 30
0.0
 11
-15.10774749665965
 21
273.0595835300119
 31
0.0
  0
LINE
  5
1C8D
330
1B42
100
AcDbEntity
  8
KOTY_GULLY
370
    -2
100
AcDbLine
 10
28.26833195473787
 20
5.059583530020105
 30
0.0
 11
-15.10774749665971
 21
5.059583530020118
 31
0.0
  0
LINE
  5
1C8E
330
1B42
100
AcDbEntity
  8
KOTY_GULLY
370
    -2
100
AcDbLine
 10
-13.10774749665965
 20
270.059583530012
 30
0.0
 11
-13.10774749665971
 21
8.059583530020118
 31
0.0
  0
SOLID
  5
1C8F
330
1B42
100
AcDbEntity
  8
KOTY_GULLY
100
AcDbTrace
 10
-13.60774749665965
 20
270.059583530012
 30
0.0
 11
-12.60774749665965
 21
270.059583530012
 31
0.0
 12
-13.10774749665965
 22
273.0595835300119
 32
0.0
 13
-13.10774749665965
 23
273.0595835300119
 33
0.0
  0
SOLID
  5
1C90
330
1B42
100
AcDbEntity
  8
KOTY_GULLY
100
AcDbTrace
 10
-13.60774749665971
 20
8.059583530020118
 30
0.0
 11
-12.60774749665971
 21
8.059583530020118
 31
0.0
 12
-13.10774749665971
 22
5.059583530020117
 32
0.0
 13
-13.10774749665971
 23
5.059583530020117
 33
0.0
  0
MTEXT
  5
1C91
330
1B42
100
AcDbEntity
  8
KOTY_GULLY
100
AcDbMText
 10
-20.63174749665971
 20
139.059583530016
 30
0.0
 40
12.0
 41
0.0
 71
     5
 72
     1
  1
\A1;268
  7
Annotative
 11
0.0000000000000001
 21
1.0
 31
0.0
 73
     1
 44
1.0
  0
POINT
  5
1C92
330
1B42
100
AcDbEntity
  8
Defpoints
 62
     0
100
AcDbPoint
 10
28.26833195473901
 20
273.0595835300119
 30
0.0
  0
POINT
  5
1C93
330
1B42
100
AcDbEntity
  8
Defpoints
 62
     0
100
AcDbPoint
 10
28.26833195473787
 20
5.059583530020105
 30
0.0
  0
POINT
  5
1C94
330
1B42
100
AcDbEntity
  8
Defpoints
 62
     0
100
AcDbPoint
 10
-13.10774749665971
 20
5.059583530020117
 30
0.0
  0
ENDBLK
  5
1B44
330
1B42
100
AcDbEntity
  8
0
100
AcDbBlockEnd
  0
ENDSEC
  0
SECTION
  2
ENTITIES
  0
ARC
  5
20A
330
6C
100
AcDbEntity
  8
GULLY
100
AcDbCircle
 10
286.4334695694152
 20
9.977014722680848
 30
0.0
 40
4.917431192660393
100
AcDbArc
 50
270.0
 51
0.0
  0
ARC
  5
20B
330
6C
100
AcDbEntity
  8
GULLY
100
AcDbCircle
 10
286.4334695694152
 20
9.977014722680827
 30
0.0
 40
2.458715596330174
100
AcDbArc
 50
270.0
 51
0.0000000000003312
  0
ARC
  5
20C
330
6C
100
AcDbEntity
  8
GULLY
100
AcDbCircle
 10
286.4334695694152
 20
268.1421523373518
 30
0.0
 40
4.9174311926604
100
AcDbArc
 50
0.0
 51
90.0
  0
ARC
  5
20D
330
6C
100
AcDbEntity
  8
GULLY
100
AcDbCircle
 10
286.4334695694154
 20
268.1421523373519
 30
0.0
 40
2.458715596330174
100
AcDbArc
 50
0.0
 51
90.0
  0
LINE
  5
20E
330
6C
100
AcDbEntity
  8
GULLY
100
AcDbLine
 10
279.0573227804246
 20
7.518299126350612
 30
0.0
 11
286.4334695694152
 21
7.518299126350648
 31
0.0
  0
LINE
  5
20F
330
6C
100
AcDbEntity
  8
GULLY
100
AcDbLine
 10
279.0573227804246
 20
7.518299126350612
 30
0.0
 11
279.0573227804246
 21
5.059583530020411
 31
0.0
  0
LINE
  5
210
330
6C
100
AcDbEntity
  8
GULLY
100
AcDbLine
 10
279.0573227804246
 20
5.059583530020411
 30
0.0
 11
286.4334695694154
 21
5.059583530020447
 31
0.0
  0
LINE
  5
211
330
6C
100
AcDbEntity
  8
GULLY
100
AcDbLine
 10
279.0573227804246
 20
270.6008679336821
 30
0.0
 11
286.4334695694154
 21
270.6008679336821
 31
0.0
  0
LINE
  5
212
330
6C
100
AcDbEntity
  8
GULLY
100
AcDbLine
 10
286.4334695694154
 20
273.0595835300122
 30
0.0
 11
279.0573227804246
 21
273.0595835300123
 31
0.0
  0
LINE
  5
213
330
6C
100
AcDbEntity
  8
GULLY
100
AcDbLine
 10
279.0573227804246
 20
270.6008679336821
 30
0.0
 11
279.0573227804246
 21
273.0595835300123
 31
0.0
  0
LINE
  5
214
330
6C
100
AcDbEntity
  8
GULLY
100
AcDbLine
 10
291.3509007620757
 20
9.977014722680848
 30
0.0
 11
291.3509007620757
 21
268.1421523373518
 31
0.0
  0
LINE
  5
215
330
6C
100
AcDbEntity
  8
GULLY
100
AcDbLine
 10
288.8921851657455
 20
9.977014722680848
 30
0.0
 11
288.8921851657455
 21
268.1421523373518
 31
0.0
  0
ARC
  5
216
330
6C
100
AcDbEntity
  8
GULLY
100
AcDbCircle
 10
28.26833195473787
 20
9.977014722680493
 30
0.0
 40
4.917431192660388
100
AcDbArc
 50
179.9999999999996
 51
270.0
  0
ARC
  5
217
330
6C
100
AcDbEntity
  8
GULLY
100
AcDbCircle
 10
28.26833195473787
 20
9.977014722680472
 30
0.0
 40
2.458715596330169
100
AcDbArc
 50
179.9999999999996
 51
270.0
  0
ARC
  5
218
330
6C
100
AcDbEntity
  8
GULLY
100
AcDbCircle
 10
28.26833195473908
 20
268.1421523373515
 30
0.0
 40
4.917431192660381
100
AcDbArc
 50
90.0
 51
180.0
  0
ARC
  5
219
330
6C
100
AcDbEntity
  8
GULLY
100
AcDbCircle
 10
28.26833195473901
 20
268.1421523373515
 30
0.0
 40
2.458715596330169
100
AcDbArc
 50
90.0
 51
180.000000000001
  0
LINE
  5
21A
330
6C
100
AcDbEntity
  8
GULLY
100
AcDbLine
 10
35.64447874372844
 20
7.5182991263502
 30
0.0
 11
28.26833195473784
 21
7.518299126350306
 31
0.0
  0
LINE
  5
21B
330
6C
100
AcDbEntity
  8
GULLY
100
AcDbLine
 10
28.26833195473776
 20
5.059583530020084
 30
0.0
 11
35.64447874372838
 21
5.059583530019999
 31
0.0
  0
LINE
  5
21C
330
6C
100
AcDbEntity
  8
GULLY
100
AcDbLine
 10
35.64447874372844
 20
7.5182991263502
 30
0.0
 11
35.64447874372842
 21
5.059583530019999
 31
0.0
  0
LINE
  5
21D
330
6C
100
AcDbEntity
  8
GULLY
100
AcDbLine
 10
35.64447874372964
 20
270.6008679336816
 30
0.0
 11
28.26833195473901
 21
270.6008679336816
 31
0.0
  0
LINE
  5
21E
330
6C
100
AcDbEntity
  8
GULLY
100
AcDbLine
 10
35.64447874372964
 20
270.6008679336816
 30
0.0
 11
35.64447874372964
 21
273.0595835300119
 31
0.0
  0
LINE
  5
21F
330
6C
100
AcDbEntity
  8
GULLY
100
AcDbLine
 10
35.64447874372964
 20
273.0595835300119
 30
0.0
 11
28.26833195473901
 21
273.0595835300119
 31
0.0
  0
LINE
  5
220
330
6C
100
AcDbEntity
  8
GULLY
100
AcDbLine
 10
23.35090076207864
 20
268.1421523373513
 30
0.0
 11
23.35090076207752
 21
9.977014722680436
 31
0.0
  0
LINE
  5
221
330
6C
100
AcDbEntity
  8
GULLY
100
AcDbLine
 10
25.80961635840888
 20
268.1421523373515
 30
0.0
 11
25.80961635840768
 21
9.977014722680493
 31
0.0
  0
LINE
  5
24A
330
6C
100
AcDbEntity
  8
GULLY
100
AcDbLine
 10
25.80961635840782
 20
18.03710289114303
 30
0.0
 11
25.80961635840782
 21
53.54995407715445
 31
0.0
  0
LINE
  5
24B
330
6C
100
AcDbEntity
  8
GULLY
100
AcDbLine
 10
288.8921851657455
 20
53.54995407715345
 30
0.0
 11
288.8921851657455
 21
18.03710289114203
 31
0.0
  0
CIRCLE
  5
24C
330
6C
100
AcDbEntity
  8
GULLY
100
AcDbCircle
 10
83.58943287216893
 20
35.79352848414846
 30
0.0
 40
7.346503531286321
  0
CIRCLE
  5
24D
330
6C
100
AcDbEntity
  8
GULLY
100
AcDbCircle
 10
120.4701668171228
 20
35.79352848414832
 30
0.0
 40
7.346503531286321
  0
CIRCLE
  5
24E
330
6C
100
AcDbEntity
  8
GULLY
100
AcDbCircle
 10
157.3509007620765
 20
35.79352848414818
 30
0.0
 40
7.346503531286321
  0
CIRCLE
  5
24F
330
6C
100
AcDbEntity
  8
GULLY
100
AcDbCircle
 10
194.2316347070305
 20
35.79352848414805
 30
0.0
 40
7.346503531286321
  0
CIRCLE
  5
250
330
6C
100
AcDbEntity
  8
GULLY
100
AcDbCircle
 10
231.1123686519843
 20
35.79352848414788
 30
0.0
 40
7.346503531286321
  0
CIRCLE
  5
251
330
6C
100
AcDbEntity
  8
GULLY
100
AcDbCircle
 10
83.58943287216893
 20
35.79352848414848
 30
0.0
 40
5.839449541286117
  0
CIRCLE
  5
252
330
6C
100
AcDbEntity
  8
GULLY
100
AcDbCircle
 10
120.4701668171228
 20
35.79352848414835
 30
0.0
 40
5.839449541286117
  0
CIRCLE
  5
253
330
6C
100
AcDbEntity
  8
GULLY
100
AcDbCircle
 10
157.3509007620765
 20
35.79352848414819
 30
0.0
 40
5.839449541286117
  0
CIRCLE
  5
254
330
6C
100
AcDbEntity
  8
GULLY
100
AcDbCircle
 10
194.2316347070305
 20
35.79352848414805
 30
0.0
 40
5.839449541286117
  0
CIRCLE
  5
255
330
6C
100
AcDbEntity
  8
GULLY
100
AcDbCircle
 10
231.1123686519843
 20
35.79352848414791
 30
0.0
 40
5.839449541286117
  0
CIRCLE
  5
256
330
6C
100
AcDbEntity
  8
GULLY
100
AcDbCircle
 10
267.9931025969383
 20
35.79352848414774
 30
0.0
 40
7.346503531286321
  0
CIRCLE
  5
257
330
6C
100
AcDbEntity
  8
GULLY
100
AcDbCircle
 10
267.9931025969383
 20
35.79352848414777
 30
0.0
 40
5.839449541286117
  0
LINE
  5
258
330
6C
100
AcDbEntity
  8
GULLY
100
AcDbLine
 10
288.8921851657455
 20
17.92238243443953
 30
0.0
 11
25.80961635840792
 21
17.92238243444056
 31
0.0
  0
LINE
  5
25A
330
6C
100
AcDbEntity
  8
GULLY
100
AcDbLine
 10
25.80961635840792
 20
53.6646745338583
 30
0.0
 11
288.8921851657455
 21
53.66467453385733
 31
0.0
  0
LINE
  5
25C
330
6C
100
AcDbEntity
  8
GULLY
100
AcDbLine
 10
25.80961635840782
 20
14.3490294966466
 30
0.0
 11
288.8921851657455
 21
14.3490294966456
 31
0.0
  0
LINE
  5
25D
330
6C
100
AcDbEntity
  8
GULLY
100
AcDbLine
 10
288.8921851657455
 20
57.23802747165001
 30
0.0
 11
25.80961635840782
 21
57.23802747165097
 31
0.0
  0
LINE
  5
288
330
6C
100
AcDbEntity
  8
GULLY
100
AcDbLine
 10
288.8921851657456
 20
260.0820641688853
 30
0.0
 11
288.8921851657456
 21
224.5692129828837
 31
0.0
  0
LINE
  5
289
330
6C
100
AcDbEntity
  8
GULLY
100
AcDbLine
 10
25.80961635841321
 20
224.5692129828836
 30
0.0
 11
25.80961635841325
 21
260.0820641688853
 31
0.0
  0
CIRCLE
  5
28A
330
6C
100
AcDbEntity
  8
GULLY
100
AcDbCircle
 10
231.1123686519856
 20
242.3256385758845
 30
0.0
 40
7.346503531284302
  0
CIRCLE
  5
28B
330
6C
100
AcDbEntity
  8
GULLY
100
AcDbCircle
 10
194.2316347070325
 20
242.3256385758845
 30
0.0
 40
7.346503531284302
  0
CIRCLE
  5
28C
330
6C
100
AcDbEntity
  8
GULLY
100
AcDbCircle
 10
157.3509007620794
 20
242.3256385758845
 30
0.0
 40
7.346503531284302
  0
CIRCLE
  5
28D
330
6C
100
AcDbEntity
  8
GULLY
100
AcDbCircle
 10
120.4701668171263
 20
242.3256385758845
 30
0.0
 40
7.346503531284302
  0
CIRCLE
  5
28E
330
6C
100
AcDbEntity
  8
GULLY
100
AcDbCircle
 10
83.58943287217313
 20
242.3256385758845
 30
0.0
 40
7.346503531284302
  0
CIRCLE
  5
28F
330
6C
100
AcDbEntity
  8
GULLY
100
AcDbCircle
 10
231.1123686519856
 20
242.3256385758845
 30
0.0
 40
5.839449541284512
  0
CIRCLE
  5
290
330
6C
100
AcDbEntity
  8
GULLY
100
AcDbCircle
 10
194.2316347070325
 20
242.3256385758845
 30
0.0
 40
5.839449541284512
  0
CIRCLE
  5
291
330
6C
100
AcDbEntity
  8
GULLY
100
AcDbCircle
 10
157.3509007620794
 20
242.3256385758845
 30
0.0
 40
5.839449541284512
  0
CIRCLE
  5
292
330
6C
100
AcDbEntity
  8
GULLY
100
AcDbCircle
 10
120.4701668171263
 20
242.3256385758845
 30
0.0
 40
5.839449541284512
  0
CIRCLE
  5
293
330
6C
100
AcDbEntity
  8
GULLY
100
AcDbCircle
 10
83.58943287217313
 20
242.3256385758845
 30
0.0
 40
5.839449541284512
  0
CIRCLE
  5
294
330
6C
100
AcDbEntity
  8
GULLY
100
AcDbCircle
 10
46.70869892722001
 20
242.3256385758845
 30
0.0
 40
7.346503531284302
  0
CIRCLE
  5
295
330
6C
100
AcDbEntity
  8
GULLY
100
AcDbCircle
 10
46.70869892722001
 20
242.3256385758845
 30
0.0
 40
5.839449541284512
  0
LINE
  5
296
330
6C
100
AcDbEntity
  8
GULLY
100
AcDbLine
 10
25.80961635841325
 20
260.1967846255885
 30
0.0
 11
288.8921851657456
 21
260.1967846255885
 31
0.0
  0
LINE
  5
298
330
6C
100
AcDbEntity
  8
GULLY
100
AcDbLine
 10
288.8921851657456
 20
224.4544925261805
 30
0.0
 11
25.80961635841325
 21
224.4544925261805
 31
0.0
  0
LINE
  5
29A
330
6C
100
AcDbEntity
  8
GULLY
100
AcDbLine
 10
288.8921851657456
 20
263.7701375633808
 30
0.0
 11
25.80961635841325
 21
263.7701375633808
 31
0.0
  0
LINE
  5
29B
330
6C
100
AcDbEntity
  8
GULLY
100
AcDbLine
 10
25.80961635841321
 20
220.8811395883882
 30
0.0
 11
288.8921851657456
 21
220.8811395883882
 31
0.0
  0
LINE
  5
29E
330
6C
100
AcDbEntity
  8
GULLY
100
AcDbLine
 10
288.8921851657455
 20
208.4490366459518
 30
0.0
 11
288.8921851657455
 21
172.9361854599488
 31
0.0
  0
LINE
  5
29F
330
6C
100
AcDbEntity
  8
GULLY
100
AcDbLine
 10
25.80961635841639
 20
172.9361854599488
 30
0.0
 11
25.80961635841639
 21
208.4490366459516
 31
0.0
  0
CIRCLE
  5
2A0
330
6C
100
AcDbEntity
  8
GULLY
100
AcDbCircle
 10
267.993102596939
 20
190.6926110529502
 30
0.0
 40
7.304852041154
  0
CIRCLE
  5
2A1
330
6C
100
AcDbEntity
  8
GULLY
100
AcDbCircle
 10
231.1123686519862
 20
190.6926110529502
 30
0.0
 40
7.304852041154
  0
CIRCLE
  5
2A2
330
6C
100
AcDbEntity
  8
GULLY
100
AcDbCircle
 10
194.2316347070336
 20
190.6926110529502
 30
0.0
 40
7.304852041154
  0
CIRCLE
  5
2A3
330
6C
100
AcDbEntity
  8
GULLY
100
AcDbCircle
 10
157.3509007620808
 20
190.6926110529502
 30
0.0
 40
7.304852041154
  0
CIRCLE
  5
2A4
330
6C
100
AcDbEntity
  8
GULLY
100
AcDbCircle
 10
120.4701668171282
 20
190.6926110529502
 30
0.0
 40
7.304852041154
  0
CIRCLE
  5
2A5
330
6C
100
AcDbEntity
  8
GULLY
100
AcDbCircle
 10
83.58943287217561
 20
190.6926110529502
 30
0.0
 40
7.304852041154
  0
CIRCLE
  5
2A6
330
6C
100
AcDbEntity
  8
GULLY
100
AcDbCircle
 10
267.993102596939
 20
190.6926110529502
 30
0.0
 40
5.839449541284712
  0
CIRCLE
  5
2A7
330
6C
100
AcDbEntity
  8
GULLY
100
AcDbCircle
 10
231.1123686519862
 20
190.6926110529502
 30
0.0
 40
5.839449541284712
  0
CIRCLE
  5
2A8
330
6C
100
AcDbEntity
  8
GULLY
100
AcDbCircle
 10
194.2316347070336
 20
190.6926110529502
 30
0.0
 40
5.839449541284712
  0
CIRCLE
  5
2A9
330
6C
100
AcDbEntity
  8
GULLY
100
AcDbCircle
 10
157.3509007620808
 20
190.6926110529502
 30
0.0
 40
5.839449541284712
  0
CIRCLE
  5
2AA
330
6C
100
AcDbEntity
  8
GULLY
100
AcDbCircle
 10
120.4701668171282
 20
190.6926110529502
 30
0.0
 40
5.839449541284712
  0
CIRCLE
  5
2AB
330
6C
100
AcDbEntity
  8
GULLY
100
AcDbCircle
 10
83.58943287217561
 20
190.6926110529502
 30
0.0
 40
5.839449541284712
  0
CIRCLE
  5
2AC
330
6C
100
AcDbEntity
  8
GULLY
100
AcDbCircle
 10
46.70869892722294
 20
190.6926110529502
 30
0.0
 40
7.304852041154
  0
CIRCLE
  5
2AD
330
6C
100
AcDbEntity
  8
GULLY
100
AcDbCircle
 10
46.70869892722294
 20
190.6926110529502
 30
0.0
 40
5.839449541284712
  0
LINE
  5
2AE
330
6C
100
AcDbEntity
  8
GULLY
100
AcDbLine
 10
25.80961635841639
 20
208.5637571026549
 30
0.0
 11
288.8921851657456
 21
208.5637571026549
 31
0.0
  0
LINE
  5
2B0
330
6C
100
AcDbEntity
  8
GULLY
100
AcDbLine
 10
288.8921851657455
 20
172.8214650032457
 30
0.0
 11
25.80961635841639
 21
172.8214650032457
 31
0.0
  0
LINE
  5
2B2
330
6C
100
AcDbEntity
  8
GULLY
100
AcDbLine
 10
288.8921851657455
 20
212.1371100404473
 30
0.0
 11
25.80961635841639
 21
212.1371100404473
 31
0.0
  0
LINE
  5
2B3
330
6C
100
AcDbEntity
  8
GULLY
100
AcDbLine
 10
25.80961635841639
 20
169.2481120654531
 30
0.0
 11
288.8921851657456
 21
169.2481120654532
 31
0.0
  0
LINE
  5
2B6
330
6C
100
AcDbEntity
  8
GULLY
100
AcDbLine
 10
288.8921851657455
 20
156.8160091230174
 30
0.0
 11
288.8921851657455
 21
121.3031579370146
 31
0.0
  0
LINE
  5
2B7
330
6C
100
AcDbEntity
  8
GULLY
100
AcDbLine
 10
25.80961635841639
 20
121.3031579370146
 30
0.0
 11
25.80961635841639
 21
156.8160091230174
 31
0.0
  0
CIRCLE
  5
2B8
330
6C
100
AcDbEntity
  8
GULLY
100
AcDbCircle
 10
267.9931025969389
 20
139.059583530016
 30
0.0
 40
7.304852041154
  0
CIRCLE
  5
2B9
330
6C
100
AcDbEntity
  8
GULLY
100
AcDbCircle
 10
231.1123686519862
 20
139.059583530016
 30
0.0
 40
7.304852041154
  0
CIRCLE
  5
2BA
330
6C
100
AcDbEntity
  8
GULLY
100
AcDbCircle
 10
194.2316347070336
 20
139.059583530016
 30
0.0
 40
7.304852041154
  0
CIRCLE
  5
2BB
330
6C
100
AcDbEntity
  8
GULLY
100
AcDbCircle
 10
157.3509007620808
 20
139.059583530016
 30
0.0
 40
7.304852041154
  0
CIRCLE
  5
2BC
330
6C
100
AcDbEntity
  8
GULLY
100
AcDbCircle
 10
120.4701668171282
 20
139.059583530016
 30
0.0
 40
7.304852041154
  0
CIRCLE
  5
2BD
330
6C
100
AcDbEntity
  8
GULLY
100
AcDbCircle
 10
83.58943287217561
 20
139.059583530016
 30
0.0
 40
7.304852041154
  0
CIRCLE
  5
2BE
330
6C
100
AcDbEntity
  8
GULLY
100
AcDbCircle
 10
267.9931025969389
 20
139.059583530016
 30
0.0
 40
5.839449541284712
  0
CIRCLE
  5
2BF
330
6C
100
AcDbEntity
  8
GULLY
100
AcDbCircle
 10
231.1123686519862
 20
139.059583530016
 30
0.0
 40
5.839449541284712
  0
CIRCLE
  5
2C0
330
6C
100
AcDbEntity
  8
GULLY
100
AcDbCircle
 10
194.2316347070336
 20
139.059583530016
 30
0.0
 40
5.839449541284712
  0
CIRCLE
  5
2C1
330
6C
100
AcDbEntity
  8
GULLY
100
AcDbCircle
 10
157.3509007620808
 20
139.059583530016
 30
0.0
 40
5.839449541284712
  0
CIRCLE
  5
2C2
330
6C
100
AcDbEntity
  8
GULLY
100
AcDbCircle
 10
120.4701668171282
 20
139.059583530016
 30
0.0
 40
5.839449541284712
  0
CIRCLE
  5
2C3
330
6C
100
AcDbEntity
  8
GULLY
100
AcDbCircle
 10
83.58943287217561
 20
139.059583530016
 30
0.0
 40
5.839449541284712
  0
CIRCLE
  5
2C4
330
6C
100
AcDbEntity
  8
GULLY
100
AcDbCircle
 10
46.70869892722294
 20
139.059583530016
 30
0.0
 40
7.304852041154
  0
CIRCLE
  5
2C5
330
6C
100
AcDbEntity
  8
GULLY
100
AcDbCircle
 10
46.70869892722294
 20
139.059583530016
 30
0.0
 40
5.839449541284712
  0
LINE
  5
2C6
330
6C
100
AcDbEntity
  8
GULLY
100
AcDbLine
 10
25.80961635841639
 20
156.9307295797207
 30
0.0
 11
288.8921851657455
 21
156.9307295797207
 31
0.0
  0
LINE
  5
2C8
330
6C
100
AcDbEntity
  8
GULLY
100
AcDbLine
 10
288.8921851657455
 20
121.1884374803115
 30
0.0
 11
25.80961635841639
 21
121.1884374803115
 31
0.0
  0
LINE
  5
2CA
330
6C
100
AcDbEntity
  8
GULLY
100
AcDbLine
 10
288.8921851657455
 20
160.504082517513
 30
0.0
 11
25.80961635841639
 21
160.504082517513
 31
0.0
  0
LINE
  5
2CB
330
6C
100
AcDbEntity
  8
GULLY
100
AcDbLine
 10
25.80961635841639
 20
117.6150845425189
 30
0.0
 11
288.8921851657455
 21
117.615084542519
 31
0.0
  0
LINE
  5
2CE
330
6C
100
AcDbEntity
  8
GULLY
100
AcDbLine
 10
288.8921851657455
 20
105.1829816000832
 30
0.0
 11
288.8921851657455
 21
69.67013041408043
 31
0.0
  0
LINE
  5
2CF
330
6C
100
AcDbEntity
  8
GULLY
100
AcDbLine
 10
25.80961635841639
 20
69.67013041408034
 30
0.0
 11
25.80961635841639
 21
105.1829816000832
 31
0.0
  0
CIRCLE
  5
2D0
330
6C
100
AcDbEntity
  8
GULLY
100
AcDbCircle
 10
267.9931025969389
 20
87.42655600708181
 30
0.0
 40
7.304852041154
  0
CIRCLE
  5
2D1
330
6C
100
AcDbEntity
  8
GULLY
100
AcDbCircle
 10
231.1123686519862
 20
87.42655600708181
 30
0.0
 40
7.304852041154
  0
CIRCLE
  5
2D2
330
6C
100
AcDbEntity
  8
GULLY
100
AcDbCircle
 10
194.2316347070336
 20
87.42655600708181
 30
0.0
 40
7.304852041154
  0
CIRCLE
  5
2D3
330
6C
100
AcDbEntity
  8
GULLY
100
AcDbCircle
 10
157.3509007620808
 20
87.42655600708181
 30
0.0
 40
7.304852041154
  0
CIRCLE
  5
2D4
330
6C
100
AcDbEntity
  8
GULLY
100
AcDbCircle
 10
120.4701668171282
 20
87.42655600708181
 30
0.0
 40
7.304852041154
  0
CIRCLE
  5
2D5
330
6C
100
AcDbEntity
  8
GULLY
100
AcDbCircle
 10
83.58943287217561
 20
87.42655600708181
 30
0.0
 40
7.304852041154
  0
CIRCLE
  5
2D6
330
6C
100
AcDbEntity
  8
GULLY
100
AcDbCircle
 10
267.9931025969389
 20
87.42655600708181
 30
0.0
 40
5.839449541284712
  0
CIRCLE
  5
2D7
330
6C
100
AcDbEntity
  8
GULLY
100
AcDbCircle
 10
231.1123686519862
 20
87.42655600708181
 30
0.0
 40
5.839449541284712
  0
CIRCLE
  5
2D8
330
6C
100
AcDbEntity
  8
GULLY
100
AcDbCircle
 10
194.2316347070336
 20
87.42655600708181
 30
0.0
 40
5.839449541284712
  0
CIRCLE
  5
2D9
330
6C
100
AcDbEntity
  8
GULLY
100
AcDbCircle
 10
157.3509007620808
 20
87.42655600708181
 30
0.0
 40
5.839449541284712
  0
CIRCLE
  5
2DA
330
6C
100
AcDbEntity
  8
GULLY
100
AcDbCircle
 10
120.4701668171282
 20
87.42655600708181
 30
0.0
 40
5.839449541284712
  0
CIRCLE
  5
2DB
330
6C
100
AcDbEntity
  8
GULLY
100
AcDbCircle
 10
83.58943287217561
 20
87.42655600708181
 30
0.0
 40
5.839449541284712
  0
CIRCLE
  5
2DC
330
6C
100
AcDbEntity
  8
GULLY
100
AcDbCircle
 10
46.70869892722294
 20
87.42655600708181
 30
0.0
 40
7.304852041154
  0
CIRCLE
  5
2DD
330
6C
100
AcDbEntity
  8
GULLY
100
AcDbCircle
 10
46.70869892722294
 20
87.42655600708181
 30
0.0
 40
5.839449541284712
  0
LINE
  5
2DE
330
6C
100
AcDbEntity
  8
GULLY
100
AcDbLine
 10
25.80961635841639
 20
105.2977020567865
 30
0.0
 11
288.8921851657455
 21
105.2977020567863
 31
0.0
  0
LINE
  5
2E0
330
6C
100
AcDbEntity
  8
GULLY
100
AcDbLine
 10
288.8921851657455
 20
69.55540995737726
 30
0.0
 11
25.80961635841639
 21
69.5554099573772
 31
0.0
  0
LINE
  5
2E2
330
6C
100
AcDbEntity
  8
GULLY
100
AcDbLine
 10
288.8921851657455
 20
108.8710549945789
 30
0.0
 11
25.80961635841639
 21
108.8710549945789
 31
0.0
  0
LINE
  5
2E3
330
6C
100
AcDbEntity
  8
GULLY
100
AcDbLine
 10
25.80961635841639
 20
65.98205701958477
 30
0.0
 11
288.8921851657455
 21
65.98205701958486
 31
0.0
  0
CIRCLE
  5
1A11
330
6C
100
AcDbEntity
  8
GULLY
100
AcDbCircle
 10
46.70869892721997
 20
35.79352848414755
 30
0.0
 40
7.346503531284302
  0
CIRCLE
  5
1A12
330
6C
100
AcDbEntity
  8
GULLY
100
AcDbCircle
 10
46.70869892721997
 20
35.79352848414755
 30
0.0
 40
5.839449541284512
  0
CIRCLE
  5
1A14
330
6C
100
AcDbEntity
  8
GULLY
100
AcDbCircle
 10
267.9931025969383
 20
242.3256385758842
 30
0.0
 40
7.346503531286321
  0
CIRCLE
  5
1A15
330
6C
100
AcDbEntity
  8
GULLY
100
AcDbCircle
 10
267.9931025969383
 20
242.3256385758842
 30
0.0
 40
5.839449541286117
  0
DIMENSION
  5
1B34
330
6C
100
AcDbEntity
  8
KOTY_GULLY
100
AcDbDimension
  2
*D30
 10
23.35090076207864
 20
294.1498859942612
 30
0.0
 11
157.3509007620772
 21
301.6738859942612
 31
0.0
 70
    32
  1
<>
 71
     5
 42
267.999999999997
  3
GULLY 1
100
AcDbAlignedDimension
 13
291.3509007620757
 23
268.1421523373518
 33
0.0
 14
23.35090076207864
 24
268.1421523373515
 34
0.0
100
AcDbRotatedDimension
1001
ACAD
1000
DSTYLE
1002
{
1070
   340
1005
5A
1002
}
1001
ACAD_DSTYLE_DIMINSPECT
1070
   396
1000
100%
1070
   395
1000

1070
   394
1070
    33
1070
   393
1070
     0
  0
DIMENSION
  5
1B35
330
6C
100
AcDbEntity
  8
KOTY_GULLY
100
AcDbDimension
  2
*D31
 10
-13.10774749665971
 20
5.059583530020117
 30
0.0
 11
-20.63174749665971
 21
139.059583530016
 31
0.0
 70
    32
 71
     5
 42
267.9999999999918
  3
GULLY
100
AcDbAlignedDimension
 13
28.26833195473901
 23
273.0595835300119
 33
0.0
 14
28.26833195473787
 24
5.059583530020105
 34
0.0
 50
90.0
100
AcDbRotatedDimension
1001
ACAD_DSTYLE_DIMINSPECT
1070
   396
1000
100%
1070
   395
1000

1070
   394
1070
    33
1070
   393
1070
     0
1001
ACAD
1000
DSTYLE
1002
{
1070
   340
1005
5A
1070
    45
1040
1.0
1002
}
  0
ENDSEC
  0
SECTION
  2
OBJECTS
  0
DICTIONARY
  5
C
330
0
100
AcDbDictionary
281
     1
  3
ACAD_2007HEADERVARS_RT
350
1CA0
  3
ACAD_COLOR
350
63
  3
ACAD_GROUP
350
D
  3
ACAD_LAYOUT
350
62
  3
ACAD_MATERIAL
350
10
  3
ACAD_MLEADERSTYLE
350
66
  3
ACAD_MLINESTYLE
350
5F
  3
ACAD_PLOTSETTINGS
350
61
  3
ACAD_PLOTSTYLENAME
350
E
  3
ACAD_SCALELIST
350
42
  3
ACAD_TABLESTYLE
350
64
  3
ACAD_VISUALSTYLE
350
29
  3
ACDB_RECOMPOSE_DATA
350
1928
  3
AcDbVariableDictionary
350
195A
  3
AcmDictionary
350
19C9
  3
AcmSystemVariableManager
350
1CB8
  3
AEC_PROPERTY_SET_DEFS
350
1B30
  3
AMG
350
196C
  3
AMGSNAPSETTINGS
350
1A0A
  0
DICTIONARY
  5
1A6A
330
8
100
AcDbDictionary
280
     1
281
     1
  0
DICTIONARY
  5
1B0E
330
1B0D
100
AcDbDictionary
280
     1
281
     1
  0
DICTIONARY
  5
1B86
330
1B85
100
AcDbDictionary
280
     1
281
     1
  0
DICTIONARY
  5
1CA6
330
1E7
100
AcDbDictionary
280
     1
281
     1
  3
ACAD_MTEXT_2008_RT
360
1CA7
  0
DICTIONARY
  5
18F2
330
1F1
100
AcDbDictionary
280
     1
281
     1
  3
ACAD_MLATT
360
1C96
  3
ACAD_XREC_ROUNDTRIP
360
18F3
  0
DICTIONARY
  5
18F5
330
1F5
100
AcDbDictionary
280
     1
281
     1
  3
ACAD_MLATT
360
1C97
  3
ACAD_XREC_ROUNDTRIP
360
18F6
  0
DICTIONARY
  5
18F8
330
1F6
100
AcDbDictionary
280
     1
281
     1
  3
ACAD_MLATT
360
1C98
  3
ACAD_XREC_ROUNDTRIP
360
18F9
  0
DICTIONARY
  5
18FB
330
1F7
100
AcDbDictionary
280
     1
281
     1
  3
ACAD_MLATT
360
1C99
  3
ACAD_XREC_ROUNDTRIP
360
18FC
  0
DICTIONARY
  5
18FE
330
1F8
100
AcDbDictionary
280
     1
281
     1
  3
ACAD_MLATT
360
1C9A
  3
ACAD_XREC_ROUNDTRIP
360
18FF
  0
DICTIONARY
  5
1901
330
1FA
100
AcDbDictionary
280
     1
281
     1
  3
ACAD_MLATT
360
1C9B
  3
ACAD_XREC_ROUNDTRIP
360
1902
  0
DICTIONARY
  5
1904
330
1FB
100
AcDbDictionary
280
     1
281
     1
  3
ACAD_MLATT
360
1C9C
  3
ACAD_XREC_ROUNDTRIP
360
1905
  0
DICTIONARY
  5
1907
330
1FC
100
AcDbDictionary
280
     1
281
     1
  3
ACAD_MLATT
360
1C9D
  3
ACAD_XREC_ROUNDTRIP
360
1908
  0
DICTIONARY
  5
190A
330
1FD
100
AcDbDictionary
280
     1
281
     1
  3
ACAD_MLATT
360
1C9E
  3
ACAD_XREC_ROUNDTRIP
360
190B
  0
DICTIONARY
  5
1CA8
330
13AC
100
AcDbDictionary
280
     1
281
     1
  3
ACAD_MTEXT_2008_RT
360
1CA9
  0
DICTIONARY
  5
1CAA
330
178C
100
AcDbDictionary
280
     1
281
     1
  3
ACAD_MTEXT_2008_RT
360
1CAB
  0
DICTIONARY
  5
1CAC
330
1790
100
AcDbDictionary
280
     1
281
     1
  3
ACAD_MTEXT_2008_RT
360
1CAD
  0
DICTIONARY
  5
1CAE
330
1794
100
AcDbDictionary
280
     1
281
     1
  3
ACAD_MTEXT_2008_RT
360
1CAF
  0
DICTIONARY
  5
1CB0
330
179F
100
AcDbDictionary
280
     1
281
     1
  3
ACAD_MTEXT_2008_RT
360
1CB1
  0
DICTIONARY
  5
1CB2
330
17A0
100
AcDbDictionary
280
     1
281
     1
  3
ACAD_MTEXT_2008_RT
360
1CB3
  0
DICTIONARY
  5
1CB4
330
17A7
100
AcDbDictionary
280
     1
281
     1
  3
ACAD_MTEXT_2008_RT
360
1CB5
  0
DICTIONARY
  5
1CB6
330
17AF
100
AcDbDictionary
280
     1
281
     1
  3
ACAD_MTEXT_2008_RT
360
1CB7
  0
DICTIONARY
  5
1CA0
102
{ACAD_REACTORS
330
C
102
}
330
C
100
AcDbDictionary
281
     1
  3
DIMARCSYM
350
1CA1
  3
DIMLTEX1
350
1CA3
  3
DIMLTEX2
350
1CA4
  3
DIMLTYPE
350
1CA2
  0
DICTIONARY
  5
63
102
{ACAD_REACTORS
330
C
102
}
330
C
100
AcDbDictionary
281
     1
  0
DICTIONARY
  5
D
102
{ACAD_REACTORS
330
C
102
}
330
C
100
AcDbDictionary
281
     1
  0
DICTIONARY
  5
62
102
{ACAD_REACTORS
330
C
102
}
330
C
100
AcDbDictionary
281
     1
  3
Layout1
350
6B
  3
Layout2
350
73
  3
Model
350
6F
  0
DICTIONARY
  5
10
102
{ACAD_REACTORS
330
C
102
}
330
C
100
AcDbDictionary
281
     1
  3
ByBlock
350
19
  3
ByLayer
350
11
  3
Global
350
21
  0
DICTIONARY
  5
66
102
{ACAD_REACTORS
330
C
102
}
330
C
100
AcDbDictionary
281
     1
  3
Standard
350
67
  0
DICTIONARY
  5
5F
102
{ACAD_REACTORS
330
C
102
}
330
C
100
AcDbDictionary
281
     1
  3
Standard
350
60
  0
DICTIONARY
  5
61
102
{ACAD_REACTORS
330
C
102
}
330
C
100
AcDbDictionary
281
     1
  0
ACDBDICTIONARYWDFLT
  5
E
102
{ACAD_REACTORS
330
C
102
}
330
C
100
AcDbDictionary
281
     1
  3
Normal
350
F
100
AcDbDictionaryWithDefault
340
F
  0
DICTIONARY
  5
42
102
{ACAD_REACTORS
330
C
102
}
330
C
100
AcDbDictionary
281
     1
  3
A0
350
43
  3
A1
350
44
  3
A2
350
45
  3
A3
350
46
  3
A4
350
47
  3
A5
350
48
  3
A6
350
49
  3
A7
350
4A
  3
A8
350
4B
  3
A9
350
4C
  3
B0
350
4D
  3
B1
350
4E
  3
B2
350
4F
  3
B3
350
50
  3
B4
350
51
  3
B5
350
52
  3
B6
350
53
  0
DICTIONARY
  5
64
102
{ACAD_REACTORS
330
C
102
}
330
C
100
AcDbDictionary
281
     1
  3
Standard
350
65
  0
DICTIONARY
  5
29
102
{ACAD_REACTORS
330
C
102
}
330
C
100
AcDbDictionary
281
     1
  3
2dWireframe
350
2F
  3
3D Hidden
350
1961
  3
3dWireframe
350
1960
  3
Basic
350
2E
  3
Brighten
350
35
  3
ColorChange
350
39
  3
Conceptual
350
32
  3
Dim
350
34
  3
EdgeColorOff
350
41
  3
Facepattern
350
38
  3
Flat
350
2A
  3
FlatWithEdges
350
2B
  3
Gouraud
350
2C
  3
GouraudWithEdges
350
2D
  3
Hidden
350
31
  3
JitterOff
350
3F
  3
Linepattern
350
37
  3
OverhangOff
350
40
  3
Realistic
350
33
  3
Shaded
350
3E
  3
Shaded with edges
350
3D
  3
Shades of Gray
350
3A
  3
Sketchy
350
3B
  3
Thicken
350
36
  3
Wireframe
350
30
  3
X-Ray
350
3C
  0
XRECORD
  5
1928
102
{ACAD_REACTORS
330
C
102
}
330
C
100
AcDbXrecord
280
     1
 90
        1
330
65
330
1F1
330
1F5
330
1F6
330
1F7
330
1F8
330
1FA
330
1FB
330
1FC
330
1FD
  0
DICTIONARY
  5
195A
102
{ACAD_REACTORS
330
C
102
}
330
C
100
AcDbDictionary
281
     1
  3
CANNOSCALE
350
195D
  3
CMLEADERSTYLE
350
195C
  3
CTABLESTYLE
350
195B
  3
LAYEREVAL
350
1A8A
  3
LAYERNOTIFY
350
1A8B
  3
LIGHTINGUNITS
350
1A89
  3
MSLTSCALE
350
1A88
  3
XCLIPFRAME
350
195E
  0
DICTIONARY
  5
19C9
102
{ACAD_REACTORS
330
C
102
}
330
C
100
AcDbDictionary
281
     1
  3
AcmStdDictionary
350
19D6
  0
DICTIONARY
  5
1B30
102
{ACAD_REACTORS
330
C
102
}
330
C
100
AcDbDictionary
281
     1
  0
DICTIONARY
  5
196C
102
{ACAD_REACTORS
330
C
102
}
330
C
100
AcDbDictionary
281
     1
  0
DICTIONARY
  5
1A0A
102
{ACAD_REACTORS
330
C
102
}
330
C
100
AcDbDictionary
281
     1
  0
XRECORD
  5
1CA7
102
{ACAD_REACTORS
330
1CA6
102
}
330
1CA6
100
AcDbXrecord
280
     1
 40
97113.0
  1
Rošt Volcano pro InDrain guly 218x218-30; V2A
  0
XRECORD
  5
1C96
102
{ACAD_REACTORS
330
18F2
102
}
330
18F2
100
AcDbXrecord
280
     1
 70
     4
 70
     0
 70
     0
 40
1.0
  2
ČÍSLO_REVIZE
  1
Embedded Object
 10
287.6423193699604
 20
66.0
 30
0.0
 40
3.499999940395355
 41
0.0
 46
0.0
 71
     1
 72
     5
  1
000
  7
Styl textu9
 73
     1
 44
1.0
  0
XRECORD
  5
18F3
102
{ACAD_REACTORS
330
18F2
102
}
330
18F2
100
AcDbXrecord
280
     1
102
ACAD_MATT_HEIGHT
140
3.499999940395355
  0
XRECORD
  5
1C97
102
{ACAD_REACTORS
330
18F5
102
}
330
18F5
100
AcDbXrecord
280
     1
 70
     4
 70
     0
 70
     0
 40
1.0
  2
Sheet_Size
  1
Embedded Object
 10
289.7753402652471
 20
48.33701147296152
 30
0.0
 40
2.000000029802321
 41
0.0
 46
0.0
 71
     1
 72
     5
  1
A2
  7
Styl textu40
 73
     1
 44
1.0
  0
XRECORD
  5
18F6
102
{ACAD_REACTORS
330
18F5
102
}
330
18F5
100
AcDbXrecord
280
     1
102
ACAD_MATT_HEIGHT
140
2.000000029802321
  0
XRECORD
  5
1C98
102
{ACAD_REACTORS
330
18F8
102
}
330
18F8
100
AcDbXrecord
280
     1
 70
     4
 70
     0
 70
     0
 40
1.0
  2
FILENAME_AND_PATH
  1
Embedded Object
 10
230.2697279123746
 20
53.13502004542946
 30
0.0
 40
2.000000029802321
 41
0.0
 46
0.0
 71
     1
 72
     5
  1
C:\\Inventor_DATA\\Projekty\\FloorDrain B\\Rošty\\Rošty InDrain pro Guly\\Rošt Volcano pro InDrain guly\\Rošt Volcano pro InDrain guly 218x218-30(_SC) V2A.iam
  7
Styl textu40
 73
     1
 44
1.0
  0
XRECORD
  5
18F9
102
{ACAD_REACTORS
330
18F8
102
}
330
18F8
100
AcDbXrecord
280
     1
102
ACAD_MATT_HEIGHT
140
2.000000029802321
  0
XRECORD
  5
1C99
102
{ACAD_REACTORS
330
18FB
102
}
330
18FB
100
AcDbXrecord
280
     1
 70
     4
 70
     0
 70
     0
 40
1.0
  2
PART_NUMBER
  1
Embedded Object
 10
218.0
 20
66.0
 30
0.0
 40
3.499999940395355
 41
0.0
 46
0.0
 71
     1
 72
     5
  1
408033
  7
Text poznámky (ISO)
 73
     1
 44
1.0
  0
XRECORD
  5
18FC
102
{ACAD_REACTORS
330
18FB
102
}
330
18FB
100
AcDbXrecord
280
     1
102
ACAD_MATT_HEIGHT
140
3.499999940395355
  0
XRECORD
  5
1C9A
102
{ACAD_REACTORS
330
18FE
102
}
330
18FE
100
AcDbXrecord
280
     1
 70
     4
 70
     0
 70
     0
 40
1.0
  2
PROJECT
  1
Embedded Object
 10
118.0
 20
60.0
 30
0.0
 40
3.499999940395355
 41
0.0
 46
0.0
 71
     1
 72
     5
  1

  7
Text poznámky (ISO)
 73
     1
 44
1.0
  0
XRECORD
  5
18FF
102
{ACAD_REACTORS
330
18FE
102
}
330
18FE
100
AcDbXrecord
280
     1
102
ACAD_MATT_HEIGHT
140
3.499999940395355
  0
XRECORD
  5
1C9B
102
{ACAD_REACTORS
330
1901
102
}
330
1901
100
AcDbXrecord
280
     1
 70
     4
 70
     0
 70
     0
 40
1.0
  2
SKLADOVÉ_ČÍSLO
  1
Embedded Object
 10
118.0
 20
54.89391305489238
 30
0.0
 40
6.99999988079071
 41
153.2966041564941
 46
0.0
 71
     1
 72
     5
  1
408033
  7
Styl textu94
 73
     1
 44
1.0
  0
XRECORD
  5
1902
102
{ACAD_REACTORS
330
1901
102
}
330
1901
100
AcDbXrecord
280
     1
102
ACAD_MATT_HEIGHT
140
6.99999988079071
  0
XRECORD
  5
1C9C
102
{ACAD_REACTORS
330
1904
102
}
330
1904
100
AcDbXrecord
280
     1
 70
     4
 70
     0
 70
     0
 40
1.0
  2
MATERIAL
  1
Embedded Object
 10
117.5939056808251
 20
108.6756657996811
 30
0.0
 40
3.499999940395355
 41
0.0
 46
0.0
 71
     1
 72
     5
  1

  7
Text poznámky (ISO)
 73
     1
 44
1.0
  0
XRECORD
  5
1905
102
{ACAD_REACTORS
330
1904
102
}
330
1904
100
AcDbXrecord
280
     1
102
ACAD_MATT_HEIGHT
140
3.499999940395355
  0
XRECORD
  5
1C9D
102
{ACAD_REACTORS
330
1907
102
}
330
1907
100
AcDbXrecord
280
     1
 70
     4
 70
     0
 70
     0
 40
1.0
  2
AUTHOR
  1
Embedded Object
 10
165.2312259808574
 20
87.78242706242744
 30
0.0
 40
2.000000029802321
 41
15.06250023841858
 46
0.0
 71
     1
 72
     5
  1
plangpaul
  7
Styl textu40
 73
     1
 44
1.0
  0
XRECORD
  5
1908
102
{ACAD_REACTORS
330
1907
102
}
330
1907
100
AcDbXrecord
280
     1
102
ACAD_MATT_HEIGHT
140
2.000000029802321
  0
XRECORD
  5
1C9E
102
{ACAD_REACTORS
330
190A
102
}
330
190A
100
AcDbXrecord
280
     1
 70
     4
 70
     0
 70
     0
 40
1.0
  2
VS_First
  1
Embedded Object
 10
189.1855699863978
 20
86.00038821032343
 30
0.0
 40
3.499999940395355
 41
24.15597186978378
 46
0.0
 71
     1
 72
     5
  1

  7
Text poznámky (ISO)
 73
     1
 44
1.0
  0
XRECORD
  5
190B
102
{ACAD_REACTORS
330
190A
102
}
330
190A
100
AcDbXrecord
280
     1
102
ACAD_MATT_HEIGHT
140
3.499999940395355
  0
XRECORD
  5
1CA9
102
{ACAD_REACTORS
330
1CA8
102
}
330
1CA8
100
AcDbXrecord
280
     1
 40
10756.0
  1
durchzug \U+00D86
  0
XRECORD
  5
1CAB
102
{ACAD_REACTORS
330
1CAA
102
}
330
1CAA
100
AcDbXrecord
280
     1
 40
7165.0
  1
KUSOVNÍK
  0
XRECORD
  5
1CAD
102
{ACAD_REACTORS
330
1CAC
102
}
330
1CAC
100
AcDbXrecord
280
     1
 40
6807.0
  1
MATERIÁL
  0
XRECORD
  5
1CAF
102
{ACAD_REACTORS
330
1CAE
102
}
330
1CAE
100
AcDbXrecord
280
     1
 40
6841.0
  1
SKLADOVÉ
  0
XRECORD
  5
1CB1
102
{ACAD_REACTORS
330
1CB0
102
}
330
1CB0
100
AcDbXrecord
280
     1
 40
94895.0
  1
Lemovací příčka k Volcano 
  0
XRECORD
  5
1CB3
102
{ACAD_REACTORS
330
1CB2
102
}
330
1CB2
100
AcDbXrecord
280
     1
 40
35764.0
  1
roštům 218x218-30; V2A
  0
XRECORD
  5
1CB5
102
{ACAD_REACTORS
330
1CB4
102
}
330
1CB4
100
AcDbXrecord
280
     1
 40
75060.0
  1
Příčka bez loga t=1,5,L=214; 
  0
XRECORD
  5
1CB7
102
{ACAD_REACTORS
330
1CB6
102
}
330
1CB6
100
AcDbXrecord
280
     1
 40
73535.0
  1
Příčka s logem t=1,5; L=214; 
  0
XRECORD
  5
1CA1
102
{ACAD_REACTORS
330
1CA0
102
}
330
1CA0
100
AcDbXrecord
280
     1
 70
     1
  0
XRECORD
  5
1CA3
102
{ACAD_REACTORS
330
1CA0
102
}
330
1CA0
100
AcDbXrecord
280
     1
340
5B
  0
XRECORD
  5
1CA4
102
{ACAD_REACTORS
330
1CA0
102
}
330
1CA0
100
AcDbXrecord
280
     1
340
5B
  0
XRECORD
  5
1CA2
102
{ACAD_REACTORS
330
1CA0
102
}
330
1CA0
100
AcDbXrecord
280
     1
340
5B
  0
LAYOUT
  5
6B
102
{ACAD_REACTORS
330
62
102
}
330
62
100
AcDbPlotSettings
  1

  2

  4

  6

 40
0.0
 41
0.0
 42
0.0
 43
0.0
 44
0.0
 45
0.0
 46
0.0
 47
0.0
 48
0.0
 49
0.0
140
0.0
141
0.0
142
1.0
143
1.0
 70
   688
 72
     0
 73
     0
 74
     5
  7

 75
    16
147
1.0
 76
     0
 77
     2
 78
   300
148
0.0
149
0.0
100
AcDbLayout
  1
Layout1
 70
     1
 71
     1
 10
0.0
 20
0.0
 11
594.0
 21
420.0
 12
0.0
 22
0.0
 32
0.0
 14
0.0
 24
0.0
 34
0.0
 15
594.0
 25
420.0
 35
0.0
146
0.0
 13
0.0
 23
0.0
 33
0.0
 16
1.0
 26
0.0
 36
0.0
 17
0.0
 27
1.0
 37
0.0
 76
     0
330
68
  0
LAYOUT
  5
73
102
{ACAD_REACTORS
330
62
102
}
330
62
100
AcDbPlotSettings
  1

  2

  4

  6

 40
0.0
 41
0.0
 42
0.0
 43
0.0
 44
0.0
 45
0.0
 46
0.0
 47
0.0
 48
0.0
 49
0.0
140
0.0
141
0.0
142
1.0
143
1.0
 70
   688
 72
     0
 73
     0
 74
     5
  7

 75
    16
147
1.0
 76
     0
 77
     2
 78
   300
148
0.0
149
0.0
100
AcDbLayout
  1
Layout2
 70
     1
 71
     2
 10
0.0
 20
0.0
 11
12.0
 21
9.0
 12
0.0
 22
0.0
 32
0.0
 14
0.0
 24
0.0
 34
0.0
 15
0.0
 25
0.0
 35
0.0
146
0.0
 13
0.0
 23
0.0
 33
0.0
 16
1.0
 26
0.0
 36
0.0
 17
0.0
 27
1.0
 37
0.0
 76
     0
330
70
  0
LAYOUT
  5
6F
102
{ACAD_REACTORS
330
62
102
}
330
62
100
AcDbPlotSettings
  1

  2

  4

  6

 40
0.0
 41
0.0
 42
0.0
 43
0.0
 44
0.0
 45
0.0
 46
0.0
 47
0.0
 48
0.0
 49
0.0
140
0.0
141
0.0
142
1.0
143
1.0
 70
  1712
 72
     0
 73
     0
 74
     0
  7

 75
     0
147
1.0
 76
     0
 77
     2
 78
   300
148
0.0
149
0.0
100
AcDbLayout
  1
Model
 70
     1
 71
     0
 10
0.0
 20
0.0
 11
12.0
 21
9.0
 12
0.0
 22
0.0
 32
0.0
 14
0.0
 24
0.0
 34
0.0
 15
0.0
 25
0.0
 35
0.0
146
0.0
 13
0.0
 23
0.0
 33
0.0
 16
1.0
 26
0.0
 36
0.0
 17
0.0
 27
1.0
 37
0.0
 76
     0
330
6C
331
57
  0
MATERIAL
  5
19
102
{ACAD_XDICTIONARY
360
1A
102
}
102
{ACAD_REACTORS
330
10
102
}
330
10
100
AcDbMaterial
  1
ByBlock
 72
     0
 43
0.0208333333333333
 43
0.0
 43
0.0
 43
0.0
 43
0.0
 43
0.0208333333333333
 43
0.0
 43
0.0
 43
0.0
 43
0.0
 43
1.0
 43
0.0
 43
0.0
 43
0.0
 43
0.0
 43
1.0
 77
     0
 47
0.0208333333333333
 47
0.0
 47
0.0
 47
0.0
 47
0.0
 47
0.0208333333333333
 47
0.0
 47
0.0
 47
0.0
 47
0.0
 47
1.0
 47
0.0
 47
0.0
 47
0.0
 47
0.0
 47
1.0
171
     0
 49
0.0208333333333333
 49
0.0
 49
0.0
 49
0.0
 49
0.0
 49
0.0208333333333333
 49
0.0
 49
0.0
 49
0.0
 49
0.0
 49
1.0
 49
0.0
 49
0.0
 49
0.0
 49
0.0
 49
1.0
175
     0
142
0.0208333333333333
142
0.0
142
0.0
142
0.0
142
0.0
142
0.0208333333333333
142
0.0
142
0.0
142
0.0
142
0.0
142
1.0
142
0.0
142
0.0
142
0.0
142
0.0
142
1.0
179
     0
144
0.0208333333333333
144
0.0
144
0.0
144
0.0
144
0.0
144
0.0208333333333333
144
0.0
144
0.0
144
0.0
144
0.0
144
1.0
144
0.0
144
0.0
144
0.0
144
0.0
144
1.0
147
0.0208333333333333
147
0.0
147
0.0
147
0.0
147
0.0
147
0.0208333333333333
147
0.0
147
0.0
147
0.0
147
0.0
147
1.0
147
0.0
147
0.0
147
0.0
147
0.0
147
1.0
  0
MATERIAL
  5
11
102
{ACAD_XDICTIONARY
360
12
102
}
102
{ACAD_REACTORS
330
10
102
}
330
10
100
AcDbMaterial
  1
ByLayer
 72
     0
 43
0.0208333333333333
 43
0.0
 43
0.0
 43
0.0
 43
0.0
 43
0.0208333333333333
 43
0.0
 43
0.0
 43
0.0
 43
0.0
 43
1.0
 43
0.0
 43
0.0
 43
0.0
 43
0.0
 43
1.0
 77
     0
 47
0.0208333333333333
 47
0.0
 47
0.0
 47
0.0
 47
0.0
 47
0.0208333333333333
 47
0.0
 47
0.0
 47
0.0
 47
0.0
 47
1.0
 47
0.0
 47
0.0
 47
0.0
 47
0.0
 47
1.0
171
     0
 49
0.0208333333333333
 49
0.0
 49
0.0
 49
0.0
 49
0.0
 49
0.0208333333333333
 49
0.0
 49
0.0
 49
0.0
 49
0.0
 49
1.0
 49
0.0
 49
0.0
 49
0.0
 49
0.0
 49
1.0
175
     0
142
0.0208333333333333
142
0.0
142
0.0
142
0.0
142
0.0
142
0.0208333333333333
142
0.0
142
0.0
142
0.0
142
0.0
142
1.0
142
0.0
142
0.0
142
0.0
142
0.0
142
1.0
179
     0
144
0.0208333333333333
144
0.0
144
0.0
144
0.0
144
0.0
144
0.0208333333333333
144
0.0
144
0.0
144
0.0
144
0.0
144
1.0
144
0.0
144
0.0
144
0.0
144
0.0
144
1.0
147
0.0208333333333333
147
0.0
147
0.0
147
0.0
147
0.0
147
0.0208333333333333
147
0.0
147
0.0
147
0.0
147
0.0
147
1.0
147
0.0
147
0.0
147
0.0
147
0.0
147
1.0
  0
MATERIAL
  5
21
102
{ACAD_XDICTIONARY
360
22
102
}
102
{ACAD_REACTORS
330
10
102
}
330
10
100
AcDbMaterial
  1
Global
 72
     0
 43
0.0208333333333333
 43
0.0
 43
0.0
 43
0.0
 43
0.0
 43
0.0208333333333333
 43
0.0
 43
0.0
 43
0.0
 43
0.0
 43
1.0
 43
0.0
 43
0.0
 43
0.0
 43
0.0
 43
1.0
 77
     0
 47
0.0208333333333333
 47
0.0
 47
0.0
 47
0.0
 47
0.0
 47
0.0208333333333333
 47
0.0
 47
0.0
 47
0.0
 47
0.0
 47
1.0
 47
0.0
 47
0.0
 47
0.0
 47
0.0
 47
1.0
171
     0
 49
0.0208333333333333
 49
0.0
 49
0.0
 49
0.0
 49
0.0
 49
0.0208333333333333
 49
0.0
 49
0.0
 49
0.0
 49
0.0
 49
1.0
 49
0.0
 49
0.0
 49
0.0
 49
0.0
 49
1.0
175
     0
142
0.0208333333333333
142
0.0
142
0.0
142
0.0
142
0.0
142
0.0208333333333333
142
0.0
142
0.0
142
0.0
142
0.0
142
1.0
142
0.0
142
0.0
142
0.0
142
0.0
142
1.0
179
     0
144
0.0208333333333333
144
0.0
144
0.0
144
0.0
144
0.0
144
0.0208333333333333
144
0.0
144
0.0
144
0.0
144
0.0
144
1.0
144
0.0
144
0.0
144
0.0
144
0.0
144
1.0
147
0.0208333333333333
147
0.0
147
0.0
147
0.0
147
0.0
147
0.0208333333333333
147
0.0
147
0.0
147
0.0
147
0.0
147
1.0
147
0.0
147
0.0
147
0.0
147
0.0
147
1.0
  0
MLEADERSTYLE
  5
67
102
{ACAD_REACTORS
330
66
102
}
330
66
100
AcDbMLeaderStyle
170
     2
171
     1
172
     0
 90
        2
 40
0.0
 41
0.0
173
     1
 91
-1056964608
340
5B
 92
       -2
290
     1
 42
0.09
291
     1
 43
0.36
  3
Standard
 44
0.18
300

342
55
174
     1
178
     6
175
     1
176
     0
 93
-1056964608
 45
0.18
292
     0
297
     0
 46
0.18
 94
-1056964608
 47
1.0
 49
1.0
140
1.0
293
     1
141
0.0
294
     1
177
     0
142
1.0
295
     0
296
     0
143
0.125
1001
ACAD_MLEADERVER
1070
     2
  0
MLINESTYLE
  5
60
102
{ACAD_REACTORS
330
5F
102
}
330
5F
100
AcDbMlineStyle
  2
STANDARD
 70
     0
  3

 62
   256
 51
90.0
 52
90.0
 71
     2
 49
0.5
 62
   256
  6
BYLAYER
 49
-0.5
 62
   256
  6
BYLAYER
  0
ACDBPLACEHOLDER
  5
F
102
{ACAD_REACTORS
330
E
102
}
330
E
  0
SCALE
  5
43
102
{ACAD_REACTORS
330
42
102
}
330
42
100
AcDbScale
 70
     0
300
1:1
140
1.0
141
1.0
290
     1
  0
SCALE
  5
44
102
{ACAD_REACTORS
330
42
102
}
330
42
100
AcDbScale
 70
     0
300
1/128" = 1'-0"
140
0.0078125
141
12.0
290
     0
  0
SCALE
  5
45
102
{ACAD_REACTORS
330
42
102
}
330
42
100
AcDbScale
 70
     0
300
1/64" = 1'-0"
140
0.015625
141
12.0
290
     0
  0
SCALE
  5
46
102
{ACAD_REACTORS
330
42
102
}
330
42
100
AcDbScale
 70
     0
300
1/32" = 1'-0"
140
0.03125
141
12.0
290
     0
  0
SCALE
  5
47
102
{ACAD_REACTORS
330
42
102
}
330
42
100
AcDbScale
 70
     0
300
1/16" = 1'-0"
140
0.0625
141
12.0
290
     0
  0
SCALE
  5
48
102
{ACAD_REACTORS
330
42
102
}
330
42
100
AcDbScale
 70
     0
300
3/32" = 1'-0"
140
0.09375
141
12.0
290
     0
  0
SCALE
  5
49
102
{ACAD_REACTORS
330
42
102
}
330
42
100
AcDbScale
 70
     0
300
1/8" = 1'-0"
140
0.125
141
12.0
290
     0
  0
SCALE
  5
4A
102
{ACAD_REACTORS
330
42
102
}
330
42
100
AcDbScale
 70
     0
300
3/16" = 1'-0"
140
0.1875
141
12.0
290
     0
  0
SCALE
  5
4B
102
{ACAD_REACTORS
330
42
102
}
330
42
100
AcDbScale
 70
     0
300
1/4" = 1'-0"
140
0.25
141
12.0
290
     0
  0
SCALE
  5
4C
102
{ACAD_REACTORS
330
42
102
}
330
42
100
AcDbScale
 70
     0
300
3/8" = 1'-0"
140
0.375
141
12.0
290
     0
  0
SCALE
  5
4D
102
{ACAD_REACTORS
330
42
102
}
330
42
100
AcDbScale
 70
     0
300
1/2" = 1'-0"
140
0.5
141
12.0
290
     0
  0
SCALE
  5
4E
102
{ACAD_REACTORS
330
42
102
}
330
42
100
AcDbScale
 70
     0
300
3/4" = 1'-0"
140
0.75
141
12.0
290
     0
  0
SCALE
  5
4F
102
{ACAD_REACTORS
330
42
102
}
330
42
100
AcDbScale
 70
     0
300
1" = 1'-0"
140
1.0
141
12.0
290
     0
  0
SCALE
  5
50
102
{ACAD_REACTORS
330
42
102
}
330
42
100
AcDbScale
 70
     0
300
1-1/2" = 1'-0"
140
1.5
141
12.0
290
     0
  0
SCALE
  5
51
102
{ACAD_REACTORS
330
42
102
}
330
42
100
AcDbScale
 70
     0
300
3" = 1'-0"
140
3.0
141
12.0
290
     0
  0
SCALE
  5
52
102
{ACAD_REACTORS
330
42
102
}
330
42
100
AcDbScale
 70
     0
300
6" = 1'-0"
140
6.0
141
12.0
290
     0
  0
SCALE
  5
53
102
{ACAD_REACTORS
330
42
102
}
330
42
100
AcDbScale
 70
     0
300
1'-0" = 1'-0"
140
12.0
141
12.0
290
     0
  0
TABLESTYLE
  5
65
102
{ACAD_XDICTIONARY
360
18F0
102
}
102
{ACAD_REACTORS
330
64
102
}
330
64
100
AcDbTableStyle
  3
Standard
 70
     0
 71
     0
 40
0.06
 41
0.06
280
     0
281
     0
  7
Standard
140
0.18
170
     2
 62
     0
 63
     7
283
     0
274
    -2
284
     1
 64
     0
275
    -2
285
     1
 65
     0
276
    -2
286
     1
 66
     0
277
    -2
287
     1
 67
     0
278
    -2
288
     1
 68
     0
279
    -2
289
     1
 69
     0
  7
Standard
140
0.25
170
     5
 62
     0
 63
     7
283
     0
274
    -2
284
     1
 64
     0
275
    -2
285
     1
 65
     0
276
    -2
286
     1
 66
     0
277
    -2
287
     1
 67
     0
278
    -2
288
     1
 68
     0
279
    -2
289
     1
 69
     0
  7
Standard
140
0.18
170
     5
 62
     0
 63
     7
283
     0
274
    -2
284
     1
 64
     0
275
    -2
285
     1
 65
     0
276
    -2
286
     1
 66
     0
277
    -2
287
     1
 67
     0
278
    -2
288
     1
 68
     0
279
    -2
289
     1
 69
     0
  0
VISUALSTYLE
  5
2F
102
{ACAD_XDICTIONARY
360
1933
102
}
102
{ACAD_REACTORS
330
29
102
}
330
29
100
AcDbVisualStyle
  2
2dWireframe
 70
     4
 71
     0
 72
     2
 73
     0
 90
        0
 40
-0.6
 41
-30.0
 62
     5
 63
     7
421
 16777215
 74
     1
 91
        4
 64
     7
 65
   257
 75
     1
175
     1
 42
1.0
 92
        0
 66
   257
 43
1.0
 76
     1
 77
     6
 78
     2
 67
     7
 79
     5
170
     0
171
     0
290
     0
174
     0
 93
        1
 44
0.0
173
     0
291
     0
 45
0.0
1001
ACAD
1000
AcDbSavedByObjectVersion
1070
     0
1000
AcDbSavedByObjectVersion
1070
     0
  0
VISUALSTYLE
  5
1961
102
{ACAD_REACTORS
330
29
102
}
330
29
100
AcDbVisualStyle
  2
3D Hidden
 70
     6
 71
     1
 72
     2
 73
     2
 90
        0
 40
-0.6
 41
-30.0
 62
     5
 63
     7
421
 16777215
 74
     2
 91
        2
 64
     7
 65
   257
 75
     2
175
     1
 42
40.0
 92
        0
 66
   257
 43
1.0
 76
     1
 77
     6
 78
     2
 67
     7
 79
     3
170
     0
171
     0
290
     0
174
     0
 93
        1
 44
0.0
173
     0
291
     0
 45
0.0
1001
ACAD
1000
AcDbSavedByObjectVersion
1070
     0
1000
AcDbSavedByObjectVersion
1070
     0
  0
VISUALSTYLE
  5
1960
102
{ACAD_REACTORS
330
29
102
}
330
29
100
AcDbVisualStyle
  2
3dWireframe
 70
     5
 71
     0
 72
     2
 73
     0
 90
        0
 40
-0.6
 41
-30.0
 62
     5
 63
     7
421
 16777215
 74
     1
 91
        4
 64
     7
 65
   257
 75
     1
175
     1
 42
1.0
 92
        0
 66
   257
 43
1.0
 76
     1
 77
     6
 78
     2
 67
     7
 79
     5
170
     0
171
     0
290
     0
174
     0
 93
        1
 44
0.0
173
     0
291
     0
 45
0.0
1001
ACAD
1000
AcDbSavedByObjectVersion
1070
     0
1000
AcDbSavedByObjectVersion
1070
     0
  0
VISUALSTYLE
  5
2E
102
{ACAD_XDICTIONARY
360
1931
102
}
102
{ACAD_REACTORS
330
29
102
}
330
29
100
AcDbVisualStyle
  2
Basic
 70
     7
 71
     1
 72
     0
 73
     1
 90
        0
 40
-0.6
 41
-30.0
 62
     5
 63
     7
421
 16777215
 74
     0
 91
        4
 64
     7
 65
   257
 75
     1
175
     1
 42
1.0
 92
        8
 66
     7
 43
1.0
 76
     1
 77
     6
 78
     2
 67
     7
 79
     5
170
     0
171
     0
290
     0
174
     0
 93
        1
 44
0.0
173
     0
291
     1
 45
0.0
1001
ACAD
1000
AcDbSavedByObjectVersion
1070
     0
1000
AcDbSavedByObjectVersion
1070
     0
  0
VISUALSTYLE
  5
35
102
{ACAD_XDICTIONARY
360
193F
102
}
102
{ACAD_REACTORS
330
29
102
}
330
29
100
AcDbVisualStyle
  2
Brighten
 70
    12
 71
     2
 72
     2
 73
     0
 90
        0
 40
-0.6
 41
-30.0
 62
     5
 63
     7
421
 16777215
 74
     1
 91
        4
 64
     7
 65
   257
 75
     1
175
     1
 42
1.0
 92
        8
 66
     7
 43
1.0
 76
     1
 77
     6
 78
     2
 67
     7
 79
     5
170
     0
171
     0
290
     0
174
     0
 93
        1
 44
50.0
173
     0
291
     1
 45
0.0
1001
ACAD
1000
AcDbSavedByObjectVersion
1070
     0
1000
AcDbSavedByObjectVersion
1070
     0
  0
VISUALSTYLE
  5
39
102
{ACAD_XDICTIONARY
360
1947
102
}
102
{ACAD_REACTORS
330
29
102
}
330
29
100
AcDbVisualStyle
  2
ColorChange
 70
    16
 71
     2
 72
     2
 73
     3
 90
        0
 40
-0.6
 41
-30.0
 62
     5
 63
     8
421
  8421504
 74
     1
 91
        4
 64
     7
 65
   257
 75
     1
175
     1
 42
1.0
 92
        8
 66
     8
424
  8421504
 43
1.0
 76
     1
 77
     6
 78
     2
 67
     7
 79
     5
170
     0
171
     0
290
     0
174
     0
 93
        1
 44
0.0
173
     0
291
     1
 45
0.0
1001
ACAD
1000
AcDbSavedByObjectVersion
1070
     0
1000
AcDbSavedByObjectVersion
1070
     0
  0
VISUALSTYLE
  5
32
102
{ACAD_XDICTIONARY
360
1939
102
}
102
{ACAD_REACTORS
330
29
102
}
330
29
100
AcDbVisualStyle
  2
Conceptual
 70
     9
 71
     3
 72
     2
 73
     0
 90
        0
 40
-0.6
 41
-30.0
 62
     5
 63
     7
421
 16777215
 74
     2
 91
        2
 64
     7
 65
   257
 75
     1
175
     1
 42
179.0
 92
        8
 66
     7
 43
1.0
 76
     1
 77
     6
 78
     2
 67
     7
 79
     3
170
     0
171
     0
290
     0
174
     0
 93
        1
 44
0.0
173
     0
291
     0
 45
0.0
1001
ACAD
1000
AcDbSavedByObjectVersion
1070
     0
1000
AcDbSavedByObjectVersion
1070
     0
  0
VISUALSTYLE
  5
34
102
{ACAD_XDICTIONARY
360
193D
102
}
102
{ACAD_REACTORS
330
29
102
}
330
29
100
AcDbVisualStyle
  2
Dim
 70
    11
 71
     2
 72
     2
 73
     0
 90
        0
 40
-0.6
 41
-30.0
 62
     5
 63
     7
421
 16777215
 74
     1
 91
        4
 64
     7
 65
   257
 75
     1
175
     1
 42
1.0
 92
        8
 66
     7
 43
1.0
 76
     1
 77
     6
 78
     2
 67
     7
 79
     5
170
     0
171
     0
290
     0
174
     0
 93
        1
 44
-50.0
173
     0
291
     1
 45
0.0
1001
ACAD
1000
AcDbSavedByObjectVersion
1070
     0
1000
AcDbSavedByObjectVersion
1070
     0
  0
VISUALSTYLE
  5
41
102
{ACAD_XDICTIONARY
360
1957
102
}
102
{ACAD_REACTORS
330
29
102
}
330
29
100
AcDbVisualStyle
  2
EdgeColorOff
 70
    22
 71
     2
 72
     2
 73
     0
 90
        0
 40
-0.6
 41
-30.0
 62
     5
 63
     7
421
 16777215
 74
     1
 91
        4
 64
     7
 65
   257
 75
     1
175
     1
 42
1.0
 92
        8
 66
     7
 43
1.0
 76
     1
 77
     6
 78
     2
 67
     7
 79
     5
170
     0
171
     0
290
     0
174
     0
 93
        1
 44
0.0
173
     0
291
     1
 45
0.0
1001
ACAD
1000
AcDbSavedByObjectVersion
1070
     0
1000
AcDbSavedByObjectVersion
1070
     0
  0
VISUALSTYLE
  5
38
102
{ACAD_XDICTIONARY
360
1945
102
}
102
{ACAD_REACTORS
330
29
102
}
330
29
100
AcDbVisualStyle
  2
Facepattern
 70
    15
 71
     2
 72
     2
 73
     0
 90
        0
 40
-0.6
 41
-30.0
 62
     5
 63
     7
421
 16777215
 74
     1
 91
        4
 64
     7
 65
   257
 75
     1
175
     1
 42
1.0
 92
        8
 66
     7
 43
1.0
 76
     1
 77
     6
 78
     2
 67
     7
 79
     5
170
     0
171
     0
290
     0
174
     0
 93
        1
 44
0.0
173
     0
291
     1
 45
0.0
1001
ACAD
1000
AcDbSavedByObjectVersion
1070
     0
1000
AcDbSavedByObjectVersion
1070
     0
  0
VISUALSTYLE
  5
2A
102
{ACAD_XDICTIONARY
360
1929
102
}
102
{ACAD_REACTORS
330
29
102
}
330
29
100
AcDbVisualStyle
  2
Flat
 70
     0
 71
     2
 72
     1
 73
     1
 90
        2
 40
-0.6
 41
30.0
 62
     5
 63
     7
421
 16777215
 74
     0
 91
        0
 64
     7
 65
   257
 75
     1
175
     1
 42
1.0
 92
        8
 66
     7
 43
1.0
 76
     1
 77
     6
 78
     2
 67
     7
 79
     5
170
     0
171
     0
290
     0
174
     0
 93
       13
 44
0.0
173
     0
291
     1
 45
0.0
1001
ACAD
1000
AcDbSavedByObjectVersion
1070
     0
1000
AcDbSavedByObjectVersion
1070
     0
  0
VISUALSTYLE
  5
2B
102
{ACAD_XDICTIONARY
360
192B
102
}
102
{ACAD_REACTORS
330
29
102
}
330
29
100
AcDbVisualStyle
  2
FlatWithEdges
 70
     1
 71
     2
 72
     1
 73
     1
 90
        2
 40
-0.6
 41
30.0
 62
     5
 63
     7
421
 16777215
 74
     1
 91
        0
 64
     7
 65
   257
 75
     1
175
     1
 42
1.0
 92
        0
 66
   257
 43
1.0
 76
     1
 77
     6
 78
     2
 67
     7
 79
     5
170
     0
171
     0
290
     0
174
     0
 93
       13
 44
0.0
173
     0
291
     1
 45
0.0
1001
ACAD
1000
AcDbSavedByObjectVersion
1070
     0
1000
AcDbSavedByObjectVersion
1070
     0
  0
VISUALSTYLE
  5
2C
102
{ACAD_XDICTIONARY
360
192D
102
}
102
{ACAD_REACTORS
330
29
102
}
330
29
100
AcDbVisualStyle
  2
Gouraud
 70
     2
 71
     2
 72
     2
 73
     1
 90
        2
 40
-0.6
 41
30.0
 62
     5
 63
     7
421
 16777215
 74
     0
 91
        0
 64
     7
 65
   257
 75
     1
175
     1
 42
1.0
 92
        0
 66
     7
 43
1.0
 76
     1
 77
     6
 78
     2
 67
     7
 79
     5
170
     0
171
     0
290
     0
174
     0
 93
       13
 44
0.0
173
     0
291
     1
 45
0.0
1001
ACAD
1000
AcDbSavedByObjectVersion
1070
     0
1000
AcDbSavedByObjectVersion
1070
     0
  0
VISUALSTYLE
  5
2D
102
{ACAD_XDICTIONARY
360
192F
102
}
102
{ACAD_REACTORS
330
29
102
}
330
29
100
AcDbVisualStyle
  2
GouraudWithEdges
 70
     3
 71
     2
 72
     2
 73
     1
 90
        2
 40
-0.6
 41
30.0
 62
     5
 63
     7
421
 16777215
 74
     1
 91
        0
 64
     7
 65
   257
 75
     1
175
     1
 42
1.0
 92
        0
 66
   257
 43
1.0
 76
     1
 77
     6
 78
     2
 67
     7
 79
     5
170
     0
171
     0
290
     0
174
     0
 93
       13
 44
0.0
173
     0
291
     1
 45
0.0
1001
ACAD
1000
AcDbSavedByObjectVersion
1070
     0
1000
AcDbSavedByObjectVersion
1070
     0
  0
VISUALSTYLE
  5
31
102
{ACAD_XDICTIONARY
360
1937
102
}
102
{ACAD_REACTORS
330
29
102
}
330
29
100
AcDbVisualStyle
  2
Hidden
 70
     6
 71
     1
 72
     2
 73
     2
 90
        0
 40
-0.6
 41
-30.0
 62
     5
 63
     7
421
 16777215
 74
     2
 91
        2
 64
     7
 65
   257
 75
     2
175
     1
 42
40.0
 92
        0
 66
   257
 43
1.0
 76
     1
 77
     6
 78
     2
 67
     7
 79
     3
170
     0
171
     0
290
     0
174
     0
 93
        1
 44
0.0
173
     0
291
     0
 45
0.0
1001
ACAD
1000
AcDbSavedByObjectVersion
1070
     0
1000
AcDbSavedByObjectVersion
1070
     0
  0
VISUALSTYLE
  5
3F
102
{ACAD_XDICTIONARY
360
1953
102
}
102
{ACAD_REACTORS
330
29
102
}
330
29
100
AcDbVisualStyle
  2
JitterOff
 70
    20
 71
     2
 72
     2
 73
     0
 90
        0
 40
-0.6
 41
-30.0
 62
     5
 63
     7
421
 16777215
 74
     1
 91
        4
 64
     7
 65
   257
 75
     1
175
     1
 42
1.0
 92
       10
 66
     7
 43
1.0
 76
     1
 77
     6
 78
     2
 67
     7
 79
     5
170
     0
171
     0
290
     0
174
     0
 93
        1
 44
0.0
173
     0
291
     1
 45
0.0
1001
ACAD
1000
AcDbSavedByObjectVersion
1070
     0
1000
AcDbSavedByObjectVersion
1070
     0
  0
VISUALSTYLE
  5
37
102
{ACAD_XDICTIONARY
360
1943
102
}
102
{ACAD_REACTORS
330
29
102
}
330
29
100
AcDbVisualStyle
  2
Linepattern
 70
    14
 71
     2
 72
     2
 73
     0
 90
        0
 40
-0.6
 41
-30.0
 62
     5
 63
     7
421
 16777215
 74
     1
 91
        4
 64
     7
 65
   257
 75
     7
175
     7
 42
1.0
 92
        8
 66
     7
 43
1.0
 76
     1
 77
     6
 78
     2
 67
     7
 79
     5
170
     0
171
     0
290
     0
174
     0
 93
        1
 44
0.0
173
     0
291
     1
 45
0.0
1001
ACAD
1000
AcDbSavedByObjectVersion
1070
     0
1000
AcDbSavedByObjectVersion
1070
     0
  0
VISUALSTYLE
  5
40
102
{ACAD_XDICTIONARY
360
1955
102
}
102
{ACAD_REACTORS
330
29
102
}
330
29
100
AcDbVisualStyle
  2
OverhangOff
 70
    21
 71
     2
 72
     2
 73
     0
 90
        0
 40
-0.6
 41
-30.0
 62
     5
 63
     7
421
 16777215
 74
     1
 91
        4
 64
     7
 65
   257
 75
     1
175
     1
 42
1.0
 92
        9
 66
     7
 43
1.0
 76
     1
 77
     6
 78
     2
 67
     7
 79
     5
170
     0
171
     0
290
     0
174
     0
 93
        1
 44
0.0
173
     0
291
     1
 45
0.0
1001
ACAD
1000
AcDbSavedByObjectVersion
1070
     0
1000
AcDbSavedByObjectVersion
1070
     0
  0
VISUALSTYLE
  5
33
102
{ACAD_XDICTIONARY
360
193B
102
}
102
{ACAD_REACTORS
330
29
102
}
330
29
100
AcDbVisualStyle
  2
Realistic
 70
     8
 71
     2
 72
     2
 73
     0
 90
        2
 40
-0.6
 41
30.0
 62
     5
 63
     7
421
 16777215
 74
     0
 91
        0
 64
     7
 65
   257
 75
     1
175
     1
 42
1.0
 92
        8
 66
   257
 43
1.0
 76
     1
 77
     6
 78
     2
 67
     7
 79
     3
170
     0
171
     0
290
     0
174
     0
 93
       13
 44
0.0
173
     0
291
     0
 45
0.0
1001
ACAD
1000
AcDbSavedByObjectVersion
1070
     0
1000
AcDbSavedByObjectVersion
1070
     0
  0
VISUALSTYLE
  5
3E
102
{ACAD_XDICTIONARY
360
1951
102
}
102
{ACAD_REACTORS
330
29
102
}
330
29
100
AcDbVisualStyle
  2
Shaded
 70
    27
 71
     2
 72
     2
 73
     1
 90
        2
 40
-0.6
 41
30.0
 62
     5
 63
     7
421
 16777215
 74
     0
 91
        4
 64
     7
 65
   257
 75
     1
175
     1
 42
1.0
 92
        8
 66
   257
 43
1.0
 76
     1
 77
     6
 78
     2
 67
     8
425
  7895160
 79
     3
170
     0
171
     0
290
     0
174
     0
 93
        5
 44
0.0
173
     0
291
     0
 45
0.0
1001
ACAD
1000
AcDbSavedByObjectVersion
1070
     0
1000
AcDbSavedByObjectVersion
1070
     0
  0
VISUALSTYLE
  5
3D
102
{ACAD_XDICTIONARY
360
194F
102
}
102
{ACAD_REACTORS
330
29
102
}
330
29
100
AcDbVisualStyle
  2
Shaded with edges
 70
    26
 71
     2
 72
     2
 73
     1
 90
        2
 40
-0.6
 41
30.0
 62
     5
 63
     7
421
 16777215
 74
     1
 91
       10
 64
     7
 65
   257
 75
     2
175
     1
 42
1.0
 92
        8
 66
   257
 43
1.0
 76
     1
 77
     6
 78
     2
 67
     7
 79
     3
170
     0
171
     0
290
     0
174
     0
 93
        5
 44
0.0
173
     0
291
     0
 45
0.0
1001
ACAD
1000
AcDbSavedByObjectVersion
1070
     0
1000
AcDbSavedByObjectVersion
1070
     0
  0
VISUALSTYLE
  5
3A
102
{ACAD_XDICTIONARY
360
1949
102
}
102
{ACAD_REACTORS
330
29
102
}
330
29
100
AcDbVisualStyle
  2
Shades of Gray
 70
    23
 71
     2
 72
     2
 73
     3
 90
        0
 40
-0.6
 41
-30.0
 62
     5
 63
     7
421
 16777215
 74
     2
 91
        2
 64
     7
 65
     7
 75
     1
175
     1
 42
40.0
 92
        8
 66
     7
 43
1.0
 76
     1
 77
     6
 78
     2
 67
     7
 79
     3
170
     0
171
     0
290
     0
174
     0
 93
        1
 44
0.0
173
     0
291
     0
 45
0.0
1001
ACAD
1000
AcDbSavedByObjectVersion
1070
     0
1000
AcDbSavedByObjectVersion
1070
     0
  0
VISUALSTYLE
  5
3B
102
{ACAD_XDICTIONARY
360
194B
102
}
102
{ACAD_REACTORS
330
29
102
}
330
29
100
AcDbVisualStyle
  2
Sketchy
 70
    24
 71
     1
 72
     2
 73
     2
 90
        0
 40
-0.6
 41
-30.0
 62
     5
 63
     7
421
 16777215
 74
     2
 91
        2
 64
     7
 65
     7
 75
     1
175
     1
 42
40.0
 92
       11
 66
     7
 43
1.0
 76
     1
 77
     6
 78
     2
 67
     7
 79
     6
170
     0
171
     0
290
     0
174
     0
 93
        1
 44
0.0
173
     0
291
     0
 45
0.0
1001
ACAD
1000
AcDbSavedByObjectVersion
1070
     0
1000
AcDbSavedByObjectVersion
1070
     0
  0
VISUALSTYLE
  5
36
102
{ACAD_XDICTIONARY
360
1941
102
}
102
{ACAD_REACTORS
330
29
102
}
330
29
100
AcDbVisualStyle
  2
Thicken
 70
    13
 71
     2
 72
     2
 73
     0
 90
        0
 40
-0.6
 41
-30.0
 62
     5
 63
     7
421
 16777215
 74
     1
 91
        4
 64
     7
 65
   257
 75
     1
175
     1
 42
1.0
 92
       12
 66
     7
 43
1.0
 76
     1
 77
     6
 78
     2
 67
     7
 79
     5
170
     0
171
     0
290
     0
174
     0
 93
        1
 44
0.0
173
     0
291
     1
 45
0.0
1001
ACAD
1000
AcDbSavedByObjectVersion
1070
     0
1000
AcDbSavedByObjectVersion
1070
     0
  0
VISUALSTYLE
  5
30
102
{ACAD_XDICTIONARY
360
1935
102
}
102
{ACAD_REACTORS
330
29
102
}
330
29
100
AcDbVisualStyle
  2
Wireframe
 70
     5
 71
     0
 72
     2
 73
     0
 90
        0
 40
-0.6
 41
-30.0
 62
     5
 63
     7
421
 16777215
 74
     1
 91
        4
 64
     7
 65
   257
 75
     1
175
     1
 42
1.0
 92
        0
 66
   257
 43
1.0
 76
     1
 77
     6
 78
     2
 67
     7
 79
     3
170
     0
171
     0
290
     0
174
     0
 93
        1
 44
0.0
173
     0
291
     0
 45
0.0
1001
ACAD
1000
AcDbSavedByObjectVersion
1070
     0
1000
AcDbSavedByObjectVersion
1070
     0
  0
VISUALSTYLE
  5
3C
102
{ACAD_XDICTIONARY
360
194D
102
}
102
{ACAD_REACTORS
330
29
102
}
330
29
100
AcDbVisualStyle
  2
X-Ray
 70
    25
 71
     2
 72
     2
 73
     1
 90
        1
 40
0.5
 41
-30.0
 62
     5
 63
     7
421
 16777215
 74
     1
 91
        0
 64
     7
 65
   257
 75
     1
175
     1
 42
1.0
 92
        8
 66
     7
 43
1.0
 76
     1
 77
     6
 78
     2
 67
     7
 79
     3
170
     0
171
     0
290
     0
174
     0
 93
       13
 44
0.0
173
     0
291
     0
 45
0.0
1001
ACAD
1000
AcDbSavedByObjectVersion
1070
     0
1000
AcDbSavedByObjectVersion
1070
     0
  0
DICTIONARYVAR
  5
195D
102
{ACAD_REACTORS
330
195A
102
}
330
195A
100
DictionaryVariables
280
     0
  1
1:1
  0
DICTIONARYVAR
  5
195C
102
{ACAD_REACTORS
330
195A
102
}
330
195A
100
DictionaryVariables
280
     0
  1
STANDARD
  0
DICTIONARYVAR
  5
195B
102
{ACAD_REACTORS
330
195A
102
}
330
195A
100
DictionaryVariables
280
     0
  1
STANDARD
  0
DICTIONARYVAR
  5
1A8A
102
{ACAD_REACTORS
330
195A
102
}
330
195A
100
DictionaryVariables
280
     0
  1
0
  0
DICTIONARYVAR
  5
1A8B
102
{ACAD_REACTORS
330
195A
102
}
330
195A
100
DictionaryVariables
280
     0
  1
0
  0
DICTIONARYVAR
  5
1A89
102
{ACAD_REACTORS
330
195A
102
}
330
195A
100
DictionaryVariables
280
     0
  1
2
  0
DICTIONARYVAR
  5
1A88
102
{ACAD_REACTORS
330
195A
102
}
330
195A
100
DictionaryVariables
280
     0
  1
1
  0
DICTIONARYVAR
  5
195E
102
{ACAD_REACTORS
330
195A
102
}
330
195A
100
DictionaryVariables
280
     0
  1
2
  0
DICTIONARY
  5
19D6
102
{ACAD_REACTORS
330
19C9
102
}
330
19C9
100
AcDbDictionary
281
     1
  0
DICTIONARY
  5
1A
330
19
100
AcDbDictionary
280
     1
281
     1
  3
ACAD_XREC_ROUNDTRIP
360
1BE8
  3
BUMPTILE
360
1C
  3
DIFFUSETILE
360
1B
  3
OPACITYTILE
360
1F
  3
REFLECTIONTILE
360
1E
  3
REFRACTIONTILE
360
20
  3
SPECULARTILE
360
1D
  0
DICTIONARY
  5
12
330
11
100
AcDbDictionary
280
     1
281
     1
  3
ACAD_XREC_ROUNDTRIP
360
1BE7
  3
BUMPTILE
360
14
  3
DIFFUSETILE
360
13
  3
OPACITYTILE
360
17
  3
REFLECTIONTILE
360
16
  3
REFRACTIONTILE
360
18
  3
SPECULARTILE
360
15
  0
DICTIONARY
  5
22
330
21
100
AcDbDictionary
280
     1
281
     1
  3
ACAD_XREC_ROUNDTRIP
360
1BE9
  3
BUMPTILE
360
24
  3
DIFFUSETILE
360
23
  3
OPACITYTILE
360
27
  3
REFLECTIONTILE
360
26
  3
REFRACTIONTILE
360
28
  3
SPECULARTILE
360
25
  0
DICTIONARY
  5
18F0
330
65
100
AcDbDictionary
280
     1
281
     1
  3
ACAD_ROUNDTRIP_2008_TABLESTYLE_CELLSTYLEMAP
360
1C95
  3
ACAD_XREC_ROUNDTRIP
360
1CA5
  0
DICTIONARY
  5
1933
330
2F
100
AcDbDictionary
280
     1
281
     1
  3
ACAD_XREC_ROUNDTRIP
360
1934
  0
DICTIONARY
  5
1931
330
2E
100
AcDbDictionary
280
     1
281
     1
  3
ACAD_XREC_ROUNDTRIP
360
1932
  0
DICTIONARY
  5
193F
330
35
100
AcDbDictionary
280
     1
281
     1
  3
ACAD_XREC_ROUNDTRIP
360
1940
  0
DICTIONARY
  5
1947
330
39
100
AcDbDictionary
280
     1
281
     1
  3
ACAD_XREC_ROUNDTRIP
360
1948
  0
DICTIONARY
  5
1939
330
32
100
AcDbDictionary
280
     1
281
     1
  3
ACAD_XREC_ROUNDTRIP
360
193A
  0
DICTIONARY
  5
193D
330
34
100
AcDbDictionary
280
     1
281
     1
  3
ACAD_XREC_ROUNDTRIP
360
193E
  0
DICTIONARY
  5
1957
330
41
100
AcDbDictionary
280
     1
281
     1
  3
ACAD_XREC_ROUNDTRIP
360
1958
  0
DICTIONARY
  5
1945
330
38
100
AcDbDictionary
280
     1
281
     1
  3
ACAD_XREC_ROUNDTRIP
360
1946
  0
DICTIONARY
  5
1929
330
2A
100
AcDbDictionary
280
     1
281
     1
  3
ACAD_XREC_ROUNDTRIP
360
192A
  0
DICTIONARY
  5
192B
330
2B
100
AcDbDictionary
280
     1
281
     1
  3
ACAD_XREC_ROUNDTRIP
360
192C
  0
DICTIONARY
  5
192D
330
2C
100
AcDbDictionary
280
     1
281
     1
  3
ACAD_XREC_ROUNDTRIP
360
192E
  0
DICTIONARY
  5
192F
330
2D
100
AcDbDictionary
280
     1
281
     1
  3
ACAD_XREC_ROUNDTRIP
360
1930
  0
DICTIONARY
  5
1937
330
31
100
AcDbDictionary
280
     1
281
     1
  3
ACAD_XREC_ROUNDTRIP
360
1938
  0
DICTIONARY
  5
1953
330
3F
100
AcDbDictionary
280
     1
281
     1
  3
ACAD_XREC_ROUNDTRIP
360
1954
  0
DICTIONARY
  5
1943
330
37
100
AcDbDictionary
280
     1
281
     1
  3
ACAD_XREC_ROUNDTRIP
360
1944
  0
DICTIONARY
  5
1955
330
40
100
AcDbDictionary
280
     1
281
     1
  3
ACAD_XREC_ROUNDTRIP
360
1956
  0
DICTIONARY
  5
193B
330
33
100
AcDbDictionary
280
     1
281
     1
  3
ACAD_XREC_ROUNDTRIP
360
193C
  0
DICTIONARY
  5
1951
330
3E
100
AcDbDictionary
280
     1
281
     1
  3
ACAD_XREC_ROUNDTRIP
360
1952
  0
DICTIONARY
  5
194F
330
3D
100
AcDbDictionary
280
     1
281
     1
  3
ACAD_XREC_ROUNDTRIP
360
1950
  0
DICTIONARY
  5
1949
330
3A
100
AcDbDictionary
280
     1
281
     1
  3
ACAD_XREC_ROUNDTRIP
360
194A
  0
DICTIONARY
  5
194B
330
3B
100
AcDbDictionary
280
     1
281
     1
  3
ACAD_XREC_ROUNDTRIP
360
194C
  0
DICTIONARY
  5
1941
330
36
100
AcDbDictionary
280
     1
281
     1
  3
ACAD_XREC_ROUNDTRIP
360
1942
  0
DICTIONARY
  5
1935
330
30
100
AcDbDictionary
280
     1
281
     1
  3
ACAD_XREC_ROUNDTRIP
360
1936
  0
DICTIONARY
  5
194D
330
3C
100
AcDbDictionary
280
     1
281
     1
  3
ACAD_XREC_ROUNDTRIP
360
194E
  0
XRECORD
  5
1BE8
102
{ACAD_REACTORS
330
1A
102
}
330
1A
100
AcDbXrecord
280
     1
102
MATERIAL
148
0.0
149
0.0
149
0.0
 93
        0
 94
      127
282
     0
 72
     0
 77
     0
171
     0
175
     0
179
     0
273
     0
  0
XRECORD
  5
1C
102
{ACAD_REACTORS
330
1A
102
}
330
1A
100
AcDbXrecord
280
     1
270
     1
271
     1
  0
XRECORD
  5
1B
102
{ACAD_REACTORS
330
1A
102
}
330
1A
100
AcDbXrecord
280
     1
270
     1
271
     1
  0
XRECORD
  5
1F
102
{ACAD_REACTORS
330
1A
102
}
330
1A
100
AcDbXrecord
280
     1
270
     1
271
     1
  0
XRECORD
  5
1E
102
{ACAD_REACTORS
330
1A
102
}
330
1A
100
AcDbXrecord
280
     1
270
     1
271
     1
  0
XRECORD
  5
20
102
{ACAD_REACTORS
330
1A
102
}
330
1A
100
AcDbXrecord
280
     1
270
     1
271
     1
  0
XRECORD
  5
1D
102
{ACAD_REACTORS
330
1A
102
}
330
1A
100
AcDbXrecord
280
     1
270
     1
271
     1
  0
XRECORD
  5
1BE7
102
{ACAD_REACTORS
330
12
102
}
330
12
100
AcDbXrecord
280
     1
102
MATERIAL
148
0.0
149
0.0
149
0.0
 93
        0
 94
      127
282
     0
 72
     0
 77
     0
171
     0
175
     0
179
     0
273
     0
  0
XRECORD
  5
14
102
{ACAD_REACTORS
330
12
102
}
330
12
100
AcDbXrecord
280
     1
270
     1
271
     1
  0
XRECORD
  5
13
102
{ACAD_REACTORS
330
12
102
}
330
12
100
AcDbXrecord
280
     1
270
     1
271
     1
  0
XRECORD
  5
17
102
{ACAD_REACTORS
330
12
102
}
330
12
100
AcDbXrecord
280
     1
270
     1
271
     1
  0
XRECORD
  5
16
102
{ACAD_REACTORS
330
12
102
}
330
12
100
AcDbXrecord
280
     1
270
     1
271
     1
  0
XRECORD
  5
18
102
{ACAD_REACTORS
330
12
102
}
330
12
100
AcDbXrecord
280
     1
270
     1
271
     1
  0
XRECORD
  5
15
102
{ACAD_REACTORS
330
12
102
}
330
12
100
AcDbXrecord
280
     1
270
     1
271
     1
  0
XRECORD
  5
1BE9
102
{ACAD_REACTORS
330
22
102
}
330
22
100
AcDbXrecord
280
     1
102
MATERIAL
148
0.0
149
0.0
149
0.0
 93
        0
 94
      127
282
     0
 72
     0
 77
     0
171
     0
175
     0
179
     0
273
     0
  0
XRECORD
  5
24
102
{ACAD_REACTORS
330
22
102
}
330
22
100
AcDbXrecord
280
     1
270
     1
271
     1
  0
XRECORD
  5
23
102
{ACAD_REACTORS
330
22
102
}
330
22
100
AcDbXrecord
280
     1
270
     1
271
     1
  0
XRECORD
  5
27
102
{ACAD_REACTORS
330
22
102
}
330
22
100
AcDbXrecord
280
     1
270
     1
271
     1
  0
XRECORD
  5
26
102
{ACAD_REACTORS
330
22
102
}
330
22
100
AcDbXrecord
280
     1
270
     1
271
     1
  0
XRECORD
  5
28
102
{ACAD_REACTORS
330
22
102
}
330
22
100
AcDbXrecord
280
     1
270
     1
271
     1
  0
XRECORD
  5
25
102
{ACAD_REACTORS
330
22
102
}
330
22
100
AcDbXrecord
280
     1
270
     1
271
     1
  0
CELLSTYLEMAP
  5
1C95
102
{ACAD_REACTORS
330
18F0
102
}
330
18F0
100
AcDbCellStyleMap
 90
        3
300
CELLSTYLE
  1
TABLEFORMAT_BEGIN
 90
        5
170
     1
 91
        0
 92
    32768
 62
   257
 93
        1
300
CONTENTFORMAT
  1
CONTENTFORMAT_BEGIN
 90
        0
 91
        0
 92
      512
 93
        0
300

 40
0.0
140
1.0
 94
        5
 62
     0
340
55
144
0.25
309
CONTENTFORMAT_END
171
     1
301
MARGIN
  1
CELLMARGIN_BEGIN
 40
0.06
 40
0.06
 40
0.06
 40
0.06
 40
0.18
 40
0.18
309
CELLMARGIN_END
 94
        6
 95
        1
302
GRIDFORMAT
  1
GRIDFORMAT_BEGIN
 90
        0
 91
        1
 62
     0
 92
       -2
340
0
 93
        0
 40
0.045
309
GRIDFORMAT_END
 95
        2
302
GRIDFORMAT
  1
GRIDFORMAT_BEGIN
 90
        0
 91
        1
 62
     0
 92
       -2
340
0
 93
        0
 40
0.045
309
GRIDFORMAT_END
 95
        4
302
GRIDFORMAT
  1
GRIDFORMAT_BEGIN
 90
        0
 91
        1
 62
     0
 92
       -2
340
0
 93
        0
 40
0.045
309
GRIDFORMAT_END
 95
        8
302
GRIDFORMAT
  1
GRIDFORMAT_BEGIN
 90
        0
 91
        1
 62
     0
 92
       -2
340
0
 93
        0
 40
0.045
309
GRIDFORMAT_END
 95
       16
302
GRIDFORMAT
  1
GRIDFORMAT_BEGIN
 90
        0
 91
        1
 62
     0
 92
       -2
340
0
 93
        0
 40
0.045
309
GRIDFORMAT_END
 95
       32
302
GRIDFORMAT
  1
GRIDFORMAT_BEGIN
 90
        0
 91
        1
 62
     0
 92
       -2
340
0
 93
        0
 40
0.045
309
GRIDFORMAT_END
309
TABLEFORMAT_END
  1
CELLSTYLE_BEGIN
 90
        1
 91
        1
300
_TITLE
309
CELLSTYLE_END
300
CELLSTYLE
  1
TABLEFORMAT_BEGIN
 90
        5
170
     1
 91
        0
 92
        0
 62
   257
 93
        1
300
CONTENTFORMAT
  1
CONTENTFORMAT_BEGIN
 90
        0
 91
        0
 92
      512
 93
        0
300

 40
0.0
140
1.0
 94
        5
 62
     0
340
55
144
0.18
309
CONTENTFORMAT_END
171
     1
301
MARGIN
  1
CELLMARGIN_BEGIN
 40
0.06
 40
0.06
 40
0.06
 40
0.06
 40
0.18
 40
0.18
309
CELLMARGIN_END
 94
        6
 95
        1
302
GRIDFORMAT
  1
GRIDFORMAT_BEGIN
 90
        0
 91
        1
 62
     0
 92
       -2
340
0
 93
        0
 40
0.045
309
GRIDFORMAT_END
 95
        2
302
GRIDFORMAT
  1
GRIDFORMAT_BEGIN
 90
        0
 91
        1
 62
     0
 92
       -2
340
0
 93
        0
 40
0.045
309
GRIDFORMAT_END
 95
        4
302
GRIDFORMAT
  1
GRIDFORMAT_BEGIN
 90
        0
 91
        1
 62
     0
 92
       -2
340
0
 93
        0
 40
0.045
309
GRIDFORMAT_END
 95
        8
302
GRIDFORMAT
  1
GRIDFORMAT_BEGIN
 90
        0
 91
        1
 62
     0
 92
       -2
340
0
 93
        0
 40
0.045
309
GRIDFORMAT_END
 95
       16
302
GRIDFORMAT
  1
GRIDFORMAT_BEGIN
 90
        0
 91
        1
 62
     0
 92
       -2
340
0
 93
        0
 40
0.045
309
GRIDFORMAT_END
 95
       32
302
GRIDFORMAT
  1
GRIDFORMAT_BEGIN
 90
        0
 91
        1
 62
     0
 92
       -2
340
0
 93
        0
 40
0.045
309
GRIDFORMAT_END
309
TABLEFORMAT_END
  1
CELLSTYLE_BEGIN
 90
        2
 91
        1
300
_HEADER
309
CELLSTYLE_END
300
CELLSTYLE
  1
TABLEFORMAT_BEGIN
 90
        5
170
     1
 91
        0
 92
        0
 62
   257
 93
        1
300
CONTENTFORMAT
  1
CONTENTFORMAT_BEGIN
 90
        0
 91
        0
 92
      512
 93
        0
300

 40
0.0
140
1.0
 94
        2
 62
     0
340
55
144
0.18
309
CONTENTFORMAT_END
171
     1
301
MARGIN
  1
CELLMARGIN_BEGIN
 40
0.06
 40
0.06
 40
0.06
 40
0.06
 40
0.18
 40
0.18
309
CELLMARGIN_END
 94
        6
 95
        1
302
GRIDFORMAT
  1
GRIDFORMAT_BEGIN
 90
        0
 91
        1
 62
     0
 92
       -2
340
0
 93
        0
 40
0.045
309
GRIDFORMAT_END
 95
        2
302
GRIDFORMAT
  1
GRIDFORMAT_BEGIN
 90
        0
 91
        1
 62
     0
 92
       -2
340
0
 93
        0
 40
0.045
309
GRIDFORMAT_END
 95
        4
302
GRIDFORMAT
  1
GRIDFORMAT_BEGIN
 90
        0
 91
        1
 62
     0
 92
       -2
340
0
 93
        0
 40
0.045
309
GRIDFORMAT_END
 95
        8
302
GRIDFORMAT
  1
GRIDFORMAT_BEGIN
 90
        0
 91
        1
 62
     0
 92
       -2
340
0
 93
        0
 40
0.045
309
GRIDFORMAT_END
 95
       16
302
GRIDFORMAT
  1
GRIDFORMAT_BEGIN
 90
        0
 91
        1
 62
     0
 92
       -2
340
0
 93
        0
 40
0.045
309
GRIDFORMAT_END
 95
       32
302
GRIDFORMAT
  1
GRIDFORMAT_BEGIN
 90
        0
 91
        1
 62
     0
 92
       -2
340
0
 93
        0
 40
0.045
309
GRIDFORMAT_END
309
TABLEFORMAT_END
  1
CELLSTYLE_BEGIN
 90
        3
 91
        2
300
_DATA
309
CELLSTYLE_END
  0
XRECORD
  5
1CA5
102
{ACAD_REACTORS
330
18F0
102
}
330
18F0
100
AcDbXrecord
280
     1
102
ACAD_ROUNDTRIP_PRE2007_TABLESTYLE
 90
      512
 91
        0
  1

 92
      512
 93
        0
  2

 94
      512
 95
        0
  3

  0
XRECORD
  5
1934
102
{ACAD_REACTORS
330
1933
102
}
330
1933
100
AcDbXrecord
280
     1
102
RTVSPropertyOp0
 70
     1
102
RTVSPropertyOp1
 70
     1
102
RTVSPropertyOp2
 70
     1
102
RTVSPropertyOp3
 70
     1
102
RTVSPropertyOp4
 70
     1
102
RTVSPropertyOp5
 70
     1
102
RTVSPropertyOp6
 70
     1
102
RTVSPropertyOp7
 70
     1
102
RTVSPropertyOp8
 70
     1
102
RTVSPropertyOp9
 70
     1
102
RTVSPropertyOp10
 70
     1
102
RTVSPropertyOp11
 70
     1
102
RTVSPropertyOp12
 70
     1
102
RTVSPropertyOp13
 70
     1
102
RTVSPropertyOp14
 70
     1
102
RTVSPropertyOp15
 70
     1
102
RTVSPropertyOp16
 70
     1
102
RTVSPropertyOp17
 70
     1
102
RTVSPropertyOp18
 70
     1
102
RTVSPropertyOp19
 70
     1
102
RTVSPropertyOp20
 70
     1
102
RTVSPropertyOp21
 70
     1
102
RTVSPropertyOp22
 70
     1
102
RTVSPropertyOp23
 70
     1
102
RTVSPropertyOp24
 70
     1
102
RTVSPropertyOp25
 70
     1
102
RTVSPropertyOp26
 70
     1
102
RTVSPropertyOp27
 70
     1
102
RTVSPropertyOp28
 70
     1
102
RTVSPropertyOp29
 70
     1
102
RTVSPropertyOp30
 70
     1
102
RTVSPropertyOp31
 70
     1
102
RTVSPropertyOp32
 70
     1
  0
XRECORD
  5
1932
102
{ACAD_REACTORS
330
1931
102
}
330
1931
100
AcDbXrecord
280
     1
102
RTVSPropertyOp0
 70
     1
102
RTVSPropertyOp1
 70
     1
102
RTVSPropertyOp2
 70
     1
102
RTVSPropertyOp3
 70
     1
102
RTVSPropertyOp4
 70
     1
102
RTVSPropertyOp5
 70
     1
102
RTVSPropertyOp6
 70
     1
102
RTVSPropertyOp7
 70
     1
102
RTVSPropertyOp8
 70
     1
102
RTVSPropertyOp9
 70
     1
102
RTVSPropertyOp10
 70
     1
102
RTVSPropertyOp11
 70
     1
102
RTVSPropertyOp12
 70
     1
102
RTVSPropertyOp13
 70
     1
102
RTVSPropertyOp14
 70
     1
102
RTVSPropertyOp15
 70
     1
102
RTVSPropertyOp16
 70
     1
102
RTVSPropertyOp17
 70
     1
102
RTVSPropertyOp18
 70
     1
102
RTVSPropertyOp19
 70
     1
102
RTVSPropertyOp20
 70
     1
102
RTVSPropertyOp21
 70
     1
102
RTVSPropertyOp22
 70
     1
102
RTVSPropertyOp23
 70
     1
102
RTVSPropertyOp24
 70
     1
102
RTVSPropertyOp25
 70
     1
102
RTVSPropertyOp26
 70
     1
102
RTVSPropertyOp27
 70
     1
102
RTVSPropertyOp28
 70
     1
102
RTVSPropertyOp29
 70
     1
102
RTVSPropertyOp30
 70
     1
102
RTVSPropertyOp31
 70
     1
102
RTVSPropertyOp32
 70
     1
  0
XRECORD
  5
1940
102
{ACAD_REACTORS
330
193F
102
}
330
193F
100
AcDbXrecord
280
     1
102
RTVSPropertyOp0
 70
     1
102
RTVSPropertyOp1
 70
     1
102
RTVSPropertyOp2
 70
     1
102
RTVSPropertyOp3
 70
     1
102
RTVSPropertyOp4
 70
     1
102
RTVSPropertyOp5
 70
     1
102
RTVSPropertyOp6
 70
     1
102
RTVSPropertyOp7
 70
     1
102
RTVSPropertyOp8
 70
     1
102
RTVSPropertyOp9
 70
     1
102
RTVSPropertyOp10
 70
     1
102
RTVSPropertyOp11
 70
     1
102
RTVSPropertyOp12
 70
     1
102
RTVSPropertyOp13
 70
     1
102
RTVSPropertyOp14
 70
     1
102
RTVSPropertyOp15
 70
     1
102
RTVSPropertyOp16
 70
     1
102
RTVSPropertyOp17
 70
     1
102
RTVSPropertyOp18
 70
     1
102
RTVSPropertyOp19
 70
     1
102
RTVSPropertyOp20
 70
     1
102
RTVSPropertyOp21
 70
     1
102
RTVSPropertyOp22
 70
     1
102
RTVSPropertyOp23
 70
     1
102
RTVSPropertyOp24
 70
     1
102
RTVSPropertyOp25
 70
     1
102
RTVSPropertyOp26
 70
     1
102
RTVSPropertyOp27
 70
     1
102
RTVSPropertyOp28
 70
     1
102
RTVSPropertyOp29
 70
     1
102
RTVSPropertyOp30
 70
     1
102
RTVSPropertyOp31
 70
     1
102
RTVSPropertyOp32
 70
     1
  0
XRECORD
  5
1948
102
{ACAD_REACTORS
330
1947
102
}
330
1947
100
AcDbXrecord
280
     1
102
RTVSPropertyOp0
 70
     1
102
RTVSPropertyOp1
 70
     1
102
RTVSPropertyOp2
 70
     1
102
RTVSPropertyOp3
 70
     1
102
RTVSPropertyOp4
 70
     1
102
RTVSPropertyOp5
 70
     1
102
RTVSPropertyOp6
 70
     1
102
RTVSPropertyOp7
 70
     1
102
RTVSPropertyOp8
 70
     1
102
RTVSPropertyOp9
 70
     1
102
RTVSPropertyOp10
 70
     1
102
RTVSPropertyOp11
 70
     1
102
RTVSPropertyOp12
 70
     1
102
RTVSPropertyOp13
 70
     1
102
RTVSPropertyOp14
 70
     1
102
RTVSPropertyOp15
 70
     1
102
RTVSPropertyOp16
 70
     1
102
RTVSPropertyOp17
 70
     1
102
RTVSPropertyOp18
 70
     1
102
RTVSPropertyOp19
 70
     1
102
RTVSPropertyOp20
 70
     1
102
RTVSPropertyOp21
 70
     1
102
RTVSPropertyOp22
 70
     1
102
RTVSPropertyOp23
 70
     1
102
RTVSPropertyOp24
 70
     1
102
RTVSPropertyOp25
 70
     1
102
RTVSPropertyOp26
 70
     1
102
RTVSPropertyOp27
 70
     1
102
RTVSPropertyOp28
 70
     1
102
RTVSPropertyOp29
 70
     1
102
RTVSPropertyOp30
 70
     1
102
RTVSPropertyOp31
 70
     1
102
RTVSPropertyOp32
 70
     1
  0
XRECORD
  5
193A
102
{ACAD_REACTORS
330
1939
102
}
330
1939
100
AcDbXrecord
280
     1
102
RTVSPropertyOp0
 70
     1
102
RTVSPropertyOp1
 70
     1
102
RTVSPropertyOp2
 70
     1
102
RTVSPropertyOp3
 70
     1
102
RTVSPropertyOp4
 70
     1
102
RTVSPropertyOp5
 70
     1
102
RTVSPropertyOp6
 70
     1
102
RTVSPropertyOp7
 70
     1
102
RTVSPropertyOp8
 70
     1
102
RTVSPropertyOp9
 70
     1
102
RTVSPropertyOp10
 70
     1
102
RTVSPropertyOp11
 70
     1
102
RTVSPropertyOp12
 70
     1
102
RTVSPropertyOp13
 70
     1
102
RTVSPropertyOp14
 70
     1
102
RTVSPropertyOp15
 70
     1
102
RTVSPropertyOp16
 70
     1
102
RTVSPropertyOp17
 70
     1
102
RTVSPropertyOp18
 70
     1
102
RTVSPropertyOp19
 70
     1
102
RTVSPropertyOp20
 70
     1
102
RTVSPropertyOp21
 70
     1
102
RTVSPropertyOp22
 70
     1
102
RTVSPropertyOp23
 70
     1
102
RTVSPropertyOp24
 70
     1
102
RTVSPropertyOp25
 70
     1
102
RTVSPropertyOp26
 70
     1
102
RTVSPropertyOp27
 70
     1
102
RTVSPropertyOp28
 70
     1
102
RTVSPropertyOp29
 70
     1
102
RTVSPropertyOp30
 70
     1
102
RTVSPropertyOp31
 70
     1
102
RTVSPropertyOp32
 70
     1
  0
XRECORD
  5
193E
102
{ACAD_REACTORS
330
193D
102
}
330
193D
100
AcDbXrecord
280
     1
102
RTVSPropertyOp0
 70
     1
102
RTVSPropertyOp1
 70
     1
102
RTVSPropertyOp2
 70
     1
102
RTVSPropertyOp3
 70
     1
102
RTVSPropertyOp4
 70
     1
102
RTVSPropertyOp5
 70
     1
102
RTVSPropertyOp6
 70
     1
102
RTVSPropertyOp7
 70
     1
102
RTVSPropertyOp8
 70
     1
102
RTVSPropertyOp9
 70
     1
102
RTVSPropertyOp10
 70
     1
102
RTVSPropertyOp11
 70
     1
102
RTVSPropertyOp12
 70
     1
102
RTVSPropertyOp13
 70
     1
102
RTVSPropertyOp14
 70
     1
102
RTVSPropertyOp15
 70
     1
102
RTVSPropertyOp16
 70
     1
102
RTVSPropertyOp17
 70
     1
102
RTVSPropertyOp18
 70
     1
102
RTVSPropertyOp19
 70
     1
102
RTVSPropertyOp20
 70
     1
102
RTVSPropertyOp21
 70
     1
102
RTVSPropertyOp22
 70
     1
102
RTVSPropertyOp23
 70
     1
102
RTVSPropertyOp24
 70
     1
102
RTVSPropertyOp25
 70
     1
102
RTVSPropertyOp26
 70
     1
102
RTVSPropertyOp27
 70
     1
102
RTVSPropertyOp28
 70
     1
102
RTVSPropertyOp29
 70
     1
102
RTVSPropertyOp30
 70
     1
102
RTVSPropertyOp31
 70
     1
102
RTVSPropertyOp32
 70
     1
  0
XRECORD
  5
1958
102
{ACAD_REACTORS
330
1957
102
}
330
1957
100
AcDbXrecord
280
     1
102
RTVSPropertyOp0
 70
     0
102
RTVSPropertyOp1
 70
     0
102
RTVSPropertyOp2
 70
     0
102
RTVSPropertyOp3
 70
     0
102
RTVSPropertyOp4
 70
     0
102
RTVSPropertyOp5
 70
     0
102
RTVSPropertyOp6
 70
     0
102
RTVSPropertyOp7
 70
     0
102
RTVSPropertyOp8
 70
     0
102
RTVSPropertyOp9
 70
     0
102
RTVSPropertyOp10
 70
     0
102
RTVSPropertyOp11
 70
     0
102
RTVSPropertyOp12
 70
     0
102
RTVSPropertyOp13
 70
     0
102
RTVSPropertyOp14
 70
     2
102
RTVSPropertyOp15
 70
     0
102
RTVSPropertyOp16
 70
     0
102
RTVSPropertyOp17
 70
     0
102
RTVSPropertyOp18
 70
     0
102
RTVSPropertyOp19
 70
     0
102
RTVSPropertyOp20
 70
     0
102
RTVSPropertyOp21
 70
     0
102
RTVSPropertyOp22
 70
     0
102
RTVSPropertyOp23
 70
     0
102
RTVSPropertyOp24
 70
     0
102
RTVSPropertyOp25
 70
     0
102
RTVSPropertyOp26
 70
     0
102
RTVSPropertyOp27
 70
     0
102
RTVSPropertyOp28
 70
     0
102
RTVSPropertyOp29
 70
     0
102
RTVSPropertyOp30
 70
     0
102
RTVSPropertyOp31
 70
     0
102
RTVSPropertyOp32
 70
     0
  0
XRECORD
  5
1946
102
{ACAD_REACTORS
330
1945
102
}
330
1945
100
AcDbXrecord
280
     1
102
RTVSPropertyOp0
 70
     1
102
RTVSPropertyOp1
 70
     1
102
RTVSPropertyOp2
 70
     1
102
RTVSPropertyOp3
 70
     1
102
RTVSPropertyOp4
 70
     1
102
RTVSPropertyOp5
 70
     1
102
RTVSPropertyOp6
 70
     1
102
RTVSPropertyOp7
 70
     1
102
RTVSPropertyOp8
 70
     1
102
RTVSPropertyOp9
 70
     1
102
RTVSPropertyOp10
 70
     1
102
RTVSPropertyOp11
 70
     1
102
RTVSPropertyOp12
 70
     1
102
RTVSPropertyOp13
 70
     1
102
RTVSPropertyOp14
 70
     1
102
RTVSPropertyOp15
 70
     1
102
RTVSPropertyOp16
 70
     1
102
RTVSPropertyOp17
 70
     1
102
RTVSPropertyOp18
 70
     1
102
RTVSPropertyOp19
 70
     1
102
RTVSPropertyOp20
 70
     1
102
RTVSPropertyOp21
 70
     1
102
RTVSPropertyOp22
 70
     1
102
RTVSPropertyOp23
 70
     1
102
RTVSPropertyOp24
 70
     1
102
RTVSPropertyOp25
 70
     1
102
RTVSPropertyOp26
 70
     1
102
RTVSPropertyOp27
 70
     1
102
RTVSPropertyOp28
 70
     1
102
RTVSPropertyOp29
 70
     1
102
RTVSPropertyOp30
 70
     1
102
RTVSPropertyOp31
 70
     1
102
RTVSPropertyOp32
 70
     1
  0
XRECORD
  5
192A
102
{ACAD_REACTORS
330
1929
102
}
330
1929
100
AcDbXrecord
280
     1
102
RTVSPropertyOp0
 70
     1
102
RTVSPropertyOp1
 70
     1
102
RTVSPropertyOp2
 70
     1
102
RTVSPropertyOp3
 70
     1
102
RTVSPropertyOp4
 70
     1
102
RTVSPropertyOp5
 70
     1
102
RTVSPropertyOp6
 70
     1
102
RTVSPropertyOp7
 70
     1
102
RTVSPropertyOp8
 70
     1
102
RTVSPropertyOp9
 70
     1
102
RTVSPropertyOp10
 70
     1
102
RTVSPropertyOp11
 70
     1
102
RTVSPropertyOp12
 70
     1
102
RTVSPropertyOp13
 70
     1
102
RTVSPropertyOp14
 70
     1
102
RTVSPropertyOp15
 70
     1
102
RTVSPropertyOp16
 70
     1
102
RTVSPropertyOp17
 70
     1
102
RTVSPropertyOp18
 70
     1
102
RTVSPropertyOp19
 70
     1
102
RTVSPropertyOp20
 70
     1
102
RTVSPropertyOp21
 70
     1
102
RTVSPropertyOp22
 70
     1
102
RTVSPropertyOp23
 70
     1
102
RTVSPropertyOp24
 70
     1
102
RTVSPropertyOp25
 70
     1
102
RTVSPropertyOp26
 70
     1
102
RTVSPropertyOp27
 70
     1
102
RTVSPropertyOp28
 70
     1
102
RTVSPropertyOp29
 70
     1
102
RTVSPropertyOp30
 70
     1
102
RTVSPropertyOp31
 70
     1
102
RTVSPropertyOp32
 70
     1
  0
XRECORD
  5
192C
102
{ACAD_REACTORS
330
192B
102
}
330
192B
100
AcDbXrecord
280
     1
102
RTVSPropertyOp0
 70
     1
102
RTVSPropertyOp1
 70
     1
102
RTVSPropertyOp2
 70
     1
102
RTVSPropertyOp3
 70
     1
102
RTVSPropertyOp4
 70
     1
102
RTVSPropertyOp5
 70
     1
102
RTVSPropertyOp6
 70
     1
102
RTVSPropertyOp7
 70
     1
102
RTVSPropertyOp8
 70
     1
102
RTVSPropertyOp9
 70
     1
102
RTVSPropertyOp10
 70
     1
102
RTVSPropertyOp11
 70
     1
102
RTVSPropertyOp12
 70
     1
102
RTVSPropertyOp13
 70
     1
102
RTVSPropertyOp14
 70
     1
102
RTVSPropertyOp15
 70
     1
102
RTVSPropertyOp16
 70
     1
102
RTVSPropertyOp17
 70
     1
102
RTVSPropertyOp18
 70
     1
102
RTVSPropertyOp19
 70
     1
102
RTVSPropertyOp20
 70
     1
102
RTVSPropertyOp21
 70
     1
102
RTVSPropertyOp22
 70
     1
102
RTVSPropertyOp23
 70
     1
102
RTVSPropertyOp24
 70
     1
102
RTVSPropertyOp25
 70
     1
102
RTVSPropertyOp26
 70
     1
102
RTVSPropertyOp27
 70
     1
102
RTVSPropertyOp28
 70
     1
102
RTVSPropertyOp29
 70
     1
102
RTVSPropertyOp30
 70
     1
102
RTVSPropertyOp31
 70
     1
102
RTVSPropertyOp32
 70
     1
  0
XRECORD
  5
192E
102
{ACAD_REACTORS
330
192D
102
}
330
192D
100
AcDbXrecord
280
     1
102
RTVSPropertyOp0
 70
     1
102
RTVSPropertyOp1
 70
     1
102
RTVSPropertyOp2
 70
     1
102
RTVSPropertyOp3
 70
     1
102
RTVSPropertyOp4
 70
     1
102
RTVSPropertyOp5
 70
     1
102
RTVSPropertyOp6
 70
     1
102
RTVSPropertyOp7
 70
     1
102
RTVSPropertyOp8
 70
     1
102
RTVSPropertyOp9
 70
     1
102
RTVSPropertyOp10
 70
     1
102
RTVSPropertyOp11
 70
     1
102
RTVSPropertyOp12
 70
     1
102
RTVSPropertyOp13
 70
     1
102
RTVSPropertyOp14
 70
     1
102
RTVSPropertyOp15
 70
     1
102
RTVSPropertyOp16
 70
     1
102
RTVSPropertyOp17
 70
     1
102
RTVSPropertyOp18
 70
     1
102
RTVSPropertyOp19
 70
     1
102
RTVSPropertyOp20
 70
     1
102
RTVSPropertyOp21
 70
     1
102
RTVSPropertyOp22
 70
     1
102
RTVSPropertyOp23
 70
     1
102
RTVSPropertyOp24
 70
     1
102
RTVSPropertyOp25
 70
     1
102
RTVSPropertyOp26
 70
     1
102
RTVSPropertyOp27
 70
     1
102
RTVSPropertyOp28
 70
     1
102
RTVSPropertyOp29
 70
     1
102
RTVSPropertyOp30
 70
     1
102
RTVSPropertyOp31
 70
     1
102
RTVSPropertyOp32
 70
     1
  0
XRECORD
  5
1930
102
{ACAD_REACTORS
330
192F
102
}
330
192F
100
AcDbXrecord
280
     1
102
RTVSPropertyOp0
 70
     1
102
RTVSPropertyOp1
 70
     1
102
RTVSPropertyOp2
 70
     1
102
RTVSPropertyOp3
 70
     1
102
RTVSPropertyOp4
 70
     1
102
RTVSPropertyOp5
 70
     1
102
RTVSPropertyOp6
 70
     1
102
RTVSPropertyOp7
 70
     1
102
RTVSPropertyOp8
 70
     1
102
RTVSPropertyOp9
 70
     1
102
RTVSPropertyOp10
 70
     1
102
RTVSPropertyOp11
 70
     1
102
RTVSPropertyOp12
 70
     1
102
RTVSPropertyOp13
 70
     1
102
RTVSPropertyOp14
 70
     1
102
RTVSPropertyOp15
 70
     1
102
RTVSPropertyOp16
 70
     1
102
RTVSPropertyOp17
 70
     1
102
RTVSPropertyOp18
 70
     1
102
RTVSPropertyOp19
 70
     1
102
RTVSPropertyOp20
 70
     1
102
RTVSPropertyOp21
 70
     1
102
RTVSPropertyOp22
 70
     1
102
RTVSPropertyOp23
 70
     1
102
RTVSPropertyOp24
 70
     1
102
RTVSPropertyOp25
 70
     1
102
RTVSPropertyOp26
 70
     1
102
RTVSPropertyOp27
 70
     1
102
RTVSPropertyOp28
 70
     1
102
RTVSPropertyOp29
 70
     1
102
RTVSPropertyOp30
 70
     1
102
RTVSPropertyOp31
 70
     1
102
RTVSPropertyOp32
 70
     1
  0
XRECORD
  5
1938
102
{ACAD_REACTORS
330
1937
102
}
330
1937
100
AcDbXrecord
280
     1
102
RTVSPropertyOp0
 70
     1
102
RTVSPropertyOp1
 70
     1
102
RTVSPropertyOp2
 70
     1
102
RTVSPropertyOp3
 70
     1
102
RTVSPropertyOp4
 70
     1
102
RTVSPropertyOp5
 70
     1
102
RTVSPropertyOp6
 70
     1
102
RTVSPropertyOp7
 70
     1
102
RTVSPropertyOp8
 70
     1
102
RTVSPropertyOp9
 70
     1
102
RTVSPropertyOp10
 70
     1
102
RTVSPropertyOp11
 70
     1
102
RTVSPropertyOp12
 70
     1
102
RTVSPropertyOp13
 70
     1
102
RTVSPropertyOp14
 70
     1
102
RTVSPropertyOp15
 70
     1
102
RTVSPropertyOp16
 70
     1
102
RTVSPropertyOp17
 70
     1
102
RTVSPropertyOp18
 70
     1
102
RTVSPropertyOp19
 70
     1
102
RTVSPropertyOp20
 70
     1
102
RTVSPropertyOp21
 70
     1
102
RTVSPropertyOp22
 70
     1
102
RTVSPropertyOp23
 70
     1
102
RTVSPropertyOp24
 70
     1
102
RTVSPropertyOp25
 70
     1
102
RTVSPropertyOp26
 70
     1
102
RTVSPropertyOp27
 70
     1
102
RTVSPropertyOp28
 70
     1
102
RTVSPropertyOp29
 70
     1
102
RTVSPropertyOp30
 70
     1
102
RTVSPropertyOp31
 70
     1
102
RTVSPropertyOp32
 70
     1
  0
XRECORD
  5
1954
102
{ACAD_REACTORS
330
1953
102
}
330
1953
100
AcDbXrecord
280
     1
102
RTVSPropertyOp0
 70
     0
102
RTVSPropertyOp1
 70
     0
102
RTVSPropertyOp2
 70
     0
102
RTVSPropertyOp3
 70
     0
102
RTVSPropertyOp4
 70
     0
102
RTVSPropertyOp5
 70
     0
102
RTVSPropertyOp6
 70
     0
102
RTVSPropertyOp7
 70
     0
102
RTVSPropertyOp8
 70
     0
102
RTVSPropertyOp9
 70
     0
102
RTVSPropertyOp10
 70
     0
102
RTVSPropertyOp11
 70
     0
102
RTVSPropertyOp12
 70
     0
102
RTVSPropertyOp13
 70
     0
102
RTVSPropertyOp14
 70
     2
102
RTVSPropertyOp15
 70
     0
102
RTVSPropertyOp16
 70
     0
102
RTVSPropertyOp17
 70
     0
102
RTVSPropertyOp18
 70
     0
102
RTVSPropertyOp19
 70
     0
102
RTVSPropertyOp20
 70
     0
102
RTVSPropertyOp21
 70
     0
102
RTVSPropertyOp22
 70
     0
102
RTVSPropertyOp23
 70
     0
102
RTVSPropertyOp24
 70
     0
102
RTVSPropertyOp25
 70
     0
102
RTVSPropertyOp26
 70
     0
102
RTVSPropertyOp27
 70
     0
102
RTVSPropertyOp28
 70
     0
102
RTVSPropertyOp29
 70
     0
102
RTVSPropertyOp30
 70
     0
102
RTVSPropertyOp31
 70
     0
102
RTVSPropertyOp32
 70
     0
  0
XRECORD
  5
1944
102
{ACAD_REACTORS
330
1943
102
}
330
1943
100
AcDbXrecord
280
     1
102
RTVSPropertyOp0
 70
     1
102
RTVSPropertyOp1
 70
     1
102
RTVSPropertyOp2
 70
     1
102
RTVSPropertyOp3
 70
     1
102
RTVSPropertyOp4
 70
     1
102
RTVSPropertyOp5
 70
     1
102
RTVSPropertyOp6
 70
     1
102
RTVSPropertyOp7
 70
     1
102
RTVSPropertyOp8
 70
     1
102
RTVSPropertyOp9
 70
     1
102
RTVSPropertyOp10
 70
     1
102
RTVSPropertyOp11
 70
     1
102
RTVSPropertyOp12
 70
     1
102
RTVSPropertyOp13
 70
     1
102
RTVSPropertyOp14
 70
     1
102
RTVSPropertyOp15
 70
     1
102
RTVSPropertyOp16
 70
     1
102
RTVSPropertyOp17
 70
     1
102
RTVSPropertyOp18
 70
     1
102
RTVSPropertyOp19
 70
     1
102
RTVSPropertyOp20
 70
     1
102
RTVSPropertyOp21
 70
     1
102
RTVSPropertyOp22
 70
     1
102
RTVSPropertyOp23
 70
     1
102
RTVSPropertyOp24
 70
     1
102
RTVSPropertyOp25
 70
     1
102
RTVSPropertyOp26
 70
     1
102
RTVSPropertyOp27
 70
     1
102
RTVSPropertyOp28
 70
     1
102
RTVSPropertyOp29
 70
     1
102
RTVSPropertyOp30
 70
     1
102
RTVSPropertyOp31
 70
     1
102
RTVSPropertyOp32
 70
     1
  0
XRECORD
  5
1956
102
{ACAD_REACTORS
330
1955
102
}
330
1955
100
AcDbXrecord
280
     1
102
RTVSPropertyOp0
 70
     0
102
RTVSPropertyOp1
 70
     0
102
RTVSPropertyOp2
 70
     0
102
RTVSPropertyOp3
 70
     0
102
RTVSPropertyOp4
 70
     0
102
RTVSPropertyOp5
 70
     0
102
RTVSPropertyOp6
 70
     0
102
RTVSPropertyOp7
 70
     0
102
RTVSPropertyOp8
 70
     0
102
RTVSPropertyOp9
 70
     0
102
RTVSPropertyOp10
 70
     0
102
RTVSPropertyOp11
 70
     0
102
RTVSPropertyOp12
 70
     0
102
RTVSPropertyOp13
 70
     0
102
RTVSPropertyOp14
 70
     2
102
RTVSPropertyOp15
 70
     0
102
RTVSPropertyOp16
 70
     0
102
RTVSPropertyOp17
 70
     0
102
RTVSPropertyOp18
 70
     0
102
RTVSPropertyOp19
 70
     0
102
RTVSPropertyOp20
 70
     0
102
RTVSPropertyOp21
 70
     0
102
RTVSPropertyOp22
 70
     0
102
RTVSPropertyOp23
 70
     0
102
RTVSPropertyOp24
 70
     0
102
RTVSPropertyOp25
 70
     0
102
RTVSPropertyOp26
 70
     0
102
RTVSPropertyOp27
 70
     0
102
RTVSPropertyOp28
 70
     0
102
RTVSPropertyOp29
 70
     0
102
RTVSPropertyOp30
 70
     0
102
RTVSPropertyOp31
 70
     0
102
RTVSPropertyOp32
 70
     0
  0
XRECORD
  5
193C
102
{ACAD_REACTORS
330
193B
102
}
330
193B
100
AcDbXrecord
280
     1
102
RTVSPropertyOp0
 70
     1
102
RTVSPropertyOp1
 70
     1
102
RTVSPropertyOp2
 70
     1
102
RTVSPropertyOp3
 70
     1
102
RTVSPropertyOp4
 70
     1
102
RTVSPropertyOp5
 70
     1
102
RTVSPropertyOp6
 70
     1
102
RTVSPropertyOp7
 70
     1
102
RTVSPropertyOp8
 70
     1
102
RTVSPropertyOp9
 70
     1
102
RTVSPropertyOp10
 70
     1
102
RTVSPropertyOp11
 70
     1
102
RTVSPropertyOp12
 70
     1
102
RTVSPropertyOp13
 70
     1
102
RTVSPropertyOp14
 70
     1
102
RTVSPropertyOp15
 70
     1
102
RTVSPropertyOp16
 70
     1
102
RTVSPropertyOp17
 70
     1
102
RTVSPropertyOp18
 70
     1
102
RTVSPropertyOp19
 70
     1
102
RTVSPropertyOp20
 70
     1
102
RTVSPropertyOp21
 70
     1
102
RTVSPropertyOp22
 70
     1
102
RTVSPropertyOp23
 70
     1
102
RTVSPropertyOp24
 70
     1
102
RTVSPropertyOp25
 70
     1
102
RTVSPropertyOp26
 70
     1
102
RTVSPropertyOp27
 70
     1
102
RTVSPropertyOp28
 70
     1
102
RTVSPropertyOp29
 70
     1
102
RTVSPropertyOp30
 70
     1
102
RTVSPropertyOp31
 70
     1
102
RTVSPropertyOp32
 70
     1
  0
XRECORD
  5
1952
102
{ACAD_REACTORS
330
1951
102
}
330
1951
100
AcDbXrecord
280
     1
102
RTVSPropertyOp0
 70
     1
102
RTVSPropertyOp1
 70
     1
102
RTVSPropertyOp2
 70
     1
102
RTVSPropertyOp3
 70
     1
102
RTVSPropertyOp4
 70
     1
102
RTVSPropertyOp5
 70
     1
102
RTVSPropertyOp6
 70
     1
102
RTVSPropertyOp7
 70
     1
102
RTVSPropertyOp8
 70
     1
102
RTVSPropertyOp9
 70
     1
102
RTVSPropertyOp10
 70
     1
102
RTVSPropertyOp11
 70
     1
102
RTVSPropertyOp12
 70
     1
102
RTVSPropertyOp13
 70
     1
102
RTVSPropertyOp14
 70
     1
102
RTVSPropertyOp15
 70
     1
102
RTVSPropertyOp16
 70
     1
102
RTVSPropertyOp17
 70
     1
102
RTVSPropertyOp18
 70
     1
102
RTVSPropertyOp19
 70
     1
102
RTVSPropertyOp20
 70
     1
102
RTVSPropertyOp21
 70
     1
102
RTVSPropertyOp22
 70
     1
102
RTVSPropertyOp23
 70
     1
102
RTVSPropertyOp24
 70
     1
102
RTVSPropertyOp25
 70
     1
102
RTVSPropertyOp26
 70
     1
102
RTVSPropertyOp27
 70
     1
102
RTVSPropertyOp28
 70
     1
102
RTVSPropertyOp29
 70
     1
102
RTVSPropertyOp30
 70
     1
102
RTVSPropertyOp31
 70
     1
102
RTVSPropertyOp32
 70
     1
  0
XRECORD
  5
1950
102
{ACAD_REACTORS
330
194F
102
}
330
194F
100
AcDbXrecord
280
     1
102
RTVSPropertyOp0
 70
     1
102
RTVSPropertyOp1
 70
     1
102
RTVSPropertyOp2
 70
     1
102
RTVSPropertyOp3
 70
     1
102
RTVSPropertyOp4
 70
     1
102
RTVSPropertyOp5
 70
     1
102
RTVSPropertyOp6
 70
     1
102
RTVSPropertyOp7
 70
     1
102
RTVSPropertyOp8
 70
     1
102
RTVSPropertyOp9
 70
     1
102
RTVSPropertyOp10
 70
     1
102
RTVSPropertyOp11
 70
     1
102
RTVSPropertyOp12
 70
     1
102
RTVSPropertyOp13
 70
     1
102
RTVSPropertyOp14
 70
     1
102
RTVSPropertyOp15
 70
     1
102
RTVSPropertyOp16
 70
     1
102
RTVSPropertyOp17
 70
     1
102
RTVSPropertyOp18
 70
     1
102
RTVSPropertyOp19
 70
     1
102
RTVSPropertyOp20
 70
     1
102
RTVSPropertyOp21
 70
     1
102
RTVSPropertyOp22
 70
     1
102
RTVSPropertyOp23
 70
     1
102
RTVSPropertyOp24
 70
     1
102
RTVSPropertyOp25
 70
     1
102
RTVSPropertyOp26
 70
     1
102
RTVSPropertyOp27
 70
     1
102
RTVSPropertyOp28
 70
     1
102
RTVSPropertyOp29
 70
     1
102
RTVSPropertyOp30
 70
     1
102
RTVSPropertyOp31
 70
     1
102
RTVSPropertyOp32
 70
     1
  0
XRECORD
  5
194A
102
{ACAD_REACTORS
330
1949
102
}
330
1949
100
AcDbXrecord
280
     1
102
RTVSPropertyOp0
 70
     1
102
RTVSPropertyOp1
 70
     1
102
RTVSPropertyOp2
 70
     1
102
RTVSPropertyOp3
 70
     1
102
RTVSPropertyOp4
 70
     1
102
RTVSPropertyOp5
 70
     1
102
RTVSPropertyOp6
 70
     1
102
RTVSPropertyOp7
 70
     1
102
RTVSPropertyOp8
 70
     1
102
RTVSPropertyOp9
 70
     1
102
RTVSPropertyOp10
 70
     1
102
RTVSPropertyOp11
 70
     1
102
RTVSPropertyOp12
 70
     1
102
RTVSPropertyOp13
 70
     1
102
RTVSPropertyOp14
 70
     1
102
RTVSPropertyOp15
 70
     1
102
RTVSPropertyOp16
 70
     1
102
RTVSPropertyOp17
 70
     1
102
RTVSPropertyOp18
 70
     1
102
RTVSPropertyOp19
 70
     1
102
RTVSPropertyOp20
 70
     1
102
RTVSPropertyOp21
 70
     1
102
RTVSPropertyOp22
 70
     1
102
RTVSPropertyOp23
 70
     1
102
RTVSPropertyOp24
 70
     1
102
RTVSPropertyOp25
 70
     1
102
RTVSPropertyOp26
 70
     1
102
RTVSPropertyOp27
 70
     1
102
RTVSPropertyOp28
 70
     1
102
RTVSPropertyOp29
 70
     1
102
RTVSPropertyOp30
 70
     1
102
RTVSPropertyOp31
 70
     1
102
RTVSPropertyOp32
 70
     1
  0
XRECORD
  5
194C
102
{ACAD_REACTORS
330
194B
102
}
330
194B
100
AcDbXrecord
280
     1
102
RTVSPropertyOp0
 70
     1
102
RTVSPropertyOp1
 70
     1
102
RTVSPropertyOp2
 70
     1
102
RTVSPropertyOp3
 70
     1
102
RTVSPropertyOp4
 70
     1
102
RTVSPropertyOp5
 70
     1
102
RTVSPropertyOp6
 70
     1
102
RTVSPropertyOp7
 70
     1
102
RTVSPropertyOp8
 70
     1
102
RTVSPropertyOp9
 70
     1
102
RTVSPropertyOp10
 70
     1
102
RTVSPropertyOp11
 70
     1
102
RTVSPropertyOp12
 70
     1
102
RTVSPropertyOp13
 70
     1
102
RTVSPropertyOp14
 70
     1
102
RTVSPropertyOp15
 70
     1
102
RTVSPropertyOp16
 70
     1
102
RTVSPropertyOp17
 70
     1
102
RTVSPropertyOp18
 70
     1
102
RTVSPropertyOp19
 70
     1
102
RTVSPropertyOp20
 70
     1
102
RTVSPropertyOp21
 70
     1
102
RTVSPropertyOp22
 70
     1
102
RTVSPropertyOp23
 70
     1
102
RTVSPropertyOp24
 70
     1
102
RTVSPropertyOp25
 70
     1
102
RTVSPropertyOp26
 70
     1
102
RTVSPropertyOp27
 70
     1
102
RTVSPropertyOp28
 70
     1
102
RTVSPropertyOp29
 70
     1
102
RTVSPropertyOp30
 70
     1
102
RTVSPropertyOp31
 70
     1
102
RTVSPropertyOp32
 70
     1
  0
XRECORD
  5
1942
102
{ACAD_REACTORS
330
1941
102
}
330
1941
100
AcDbXrecord
280
     1
102
RTVSPropertyOp0
 70
     1
102
RTVSPropertyOp1
 70
     1
102
RTVSPropertyOp2
 70
     1
102
RTVSPropertyOp3
 70
     1
102
RTVSPropertyOp4
 70
     1
102
RTVSPropertyOp5
 70
     1
102
RTVSPropertyOp6
 70
     1
102
RTVSPropertyOp7
 70
     1
102
RTVSPropertyOp8
 70
     1
102
RTVSPropertyOp9
 70
     1
102
RTVSPropertyOp10
 70
     1
102
RTVSPropertyOp11
 70
     1
102
RTVSPropertyOp12
 70
     1
102
RTVSPropertyOp13
 70
     1
102
RTVSPropertyOp14
 70
     1
102
RTVSPropertyOp15
 70
     1
102
RTVSPropertyOp16
 70
     1
102
RTVSPropertyOp17
 70
     1
102
RTVSPropertyOp18
 70
     1
102
RTVSPropertyOp19
 70
     1
102
RTVSPropertyOp20
 70
     1
102
RTVSPropertyOp21
 70
     1
102
RTVSPropertyOp22
 70
     1
102
RTVSPropertyOp23
 70
     1
102
RTVSPropertyOp24
 70
     1
102
RTVSPropertyOp25
 70
     1
102
RTVSPropertyOp26
 70
     1
102
RTVSPropertyOp27
 70
     1
102
RTVSPropertyOp28
 70
     1
102
RTVSPropertyOp29
 70
     1
102
RTVSPropertyOp30
 70
     1
102
RTVSPropertyOp31
 70
     1
102
RTVSPropertyOp32
 70
     1
  0
XRECORD
  5
1936
102
{ACAD_REACTORS
330
1935
102
}
330
1935
100
AcDbXrecord
280
     1
102
RTVSPropertyOp0
 70
     1
102
RTVSPropertyOp1
 70
     1
102
RTVSPropertyOp2
 70
     1
102
RTVSPropertyOp3
 70
     1
102
RTVSPropertyOp4
 70
     1
102
RTVSPropertyOp5
 70
     1
102
RTVSPropertyOp6
 70
     1
102
RTVSPropertyOp7
 70
     1
102
RTVSPropertyOp8
 70
     1
102
RTVSPropertyOp9
 70
     1
102
RTVSPropertyOp10
 70
     1
102
RTVSPropertyOp11
 70
     1
102
RTVSPropertyOp12
 70
     1
102
RTVSPropertyOp13
 70
     1
102
RTVSPropertyOp14
 70
     1
102
RTVSPropertyOp15
 70
     1
102
RTVSPropertyOp16
 70
     1
102
RTVSPropertyOp17
 70
     1
102
RTVSPropertyOp18
 70
     1
102
RTVSPropertyOp19
 70
     1
102
RTVSPropertyOp20
 70
     1
102
RTVSPropertyOp21
 70
     1
102
RTVSPropertyOp22
 70
     1
102
RTVSPropertyOp23
 70
     1
102
RTVSPropertyOp24
 70
     1
102
RTVSPropertyOp25
 70
     1
102
RTVSPropertyOp26
 70
     1
102
RTVSPropertyOp27
 70
     1
102
RTVSPropertyOp28
 70
     1
102
RTVSPropertyOp29
 70
     1
102
RTVSPropertyOp30
 70
     1
102
RTVSPropertyOp31
 70
     1
102
RTVSPropertyOp32
 70
     1
  0
XRECORD
  5
194E
102
{ACAD_REACTORS
330
194D
102
}
330
194D
100
AcDbXrecord
280
     1
102
RTVSPropertyOp0
 70
     1
102
RTVSPropertyOp1
 70
     1
102
RTVSPropertyOp2
 70
     1
102
RTVSPropertyOp3
 70
     1
102
RTVSPropertyOp4
 70
     1
102
RTVSPropertyOp5
 70
     1
102
RTVSPropertyOp6
 70
     1
102
RTVSPropertyOp7
 70
     1
102
RTVSPropertyOp8
 70
     1
102
RTVSPropertyOp9
 70
     1
102
RTVSPropertyOp10
 70
     1
102
RTVSPropertyOp11
 70
     1
102
RTVSPropertyOp12
 70
     1
102
RTVSPropertyOp13
 70
     1
102
RTVSPropertyOp14
 70
     1
102
RTVSPropertyOp15
 70
     1
102
RTVSPropertyOp16
 70
     1
102
RTVSPropertyOp17
 70
     1
102
RTVSPropertyOp18
 70
     1
102
RTVSPropertyOp19
 70
     1
102
RTVSPropertyOp20
 70
     1
102
RTVSPropertyOp21
 70
     1
102
RTVSPropertyOp22
 70
     1
102
RTVSPropertyOp23
 70
     1
102
RTVSPropertyOp24
 70
     1
102
RTVSPropertyOp25
 70
     1
102
RTVSPropertyOp26
 70
     1
102
RTVSPropertyOp27
 70
     1
102
RTVSPropertyOp28
 70
     1
102
RTVSPropertyOp29
 70
     1
102
RTVSPropertyOp30
 70
     1
102
RTVSPropertyOp31
 70
     1
102
RTVSPropertyOp32
 70
     1
  0
ENDSEC
  0
EOF
