  0
SECTION
  2
HEADER
  9
$ACADVER
  1
AC1018
  9
$ACADMAINTVER
 70
   104
  9
$DWGCODEPAGE
  3
ANSI_1250
  9
$AUTHOR
  1
onovak
  9
$LASTSAVEDBY
  1
tkotlas
  9
$REVISIONNUMBER
  1
000
  9
$CUSTOMPROPERTYTAG
  1
Vedoucí
  9
$CUSTOMPROPERTY
  1

  9
$CUSTOMPROPERTYTAG
  1
Společnost
  9
$CUSTOMPROPERTY
  1

  9
$CUSTOMPROPERTYTAG
  1
Kategorie
  9
$CUSTOMPROPERTY
  1

  9
$CUSTOMPROPERTYTAG
  1
Číslo součásti
  9
$CUSTOMPROPERTY
  1
408021
  9
$CUSTOMPROPERTYTAG
  1
Popis
  9
$CUSTOMPROPERTY
  1

  9
$CUSTOMPROPERTYTAG
  1
Projekt
  9
$CUSTOMPROPERTY
  1

  9
$CUSTOMPROPERTYTAG
  1
Kreslil
  9
$CUSTOMPROPERTY
  1
onovak
  9
$CUSTOMPROPERTYTAG
  1
Schválil
  9
$CUSTOMPROPERTY
  1

  9
$CUSTOMPROPERTYTAG
  1
Zodpovídá
  9
$CUSTOMPROPERTY
  1

  9
$CUSTOMPROPERTYTAG
  1
Nákladové středisko
  9
$CUSTOMPROPERTY
  1

  9
$CUSTOMPROPERTYTAG
  1
Dodavatel
  9
$CUSTOMPROPERTY
  1

  9
$CUSTOMPROPERTYTAG
  1
Uživatelský stav
  9
$CUSTOMPROPERTY
  1

  9
$CUSTOMPROPERTYTAG
  1
Stav návrhu
  9
$CUSTOMPROPERTY
  1
Rozpracováno
  9
$CUSTOMPROPERTYTAG
  1
Zkontroloval
  9
$CUSTOMPROPERTY
  1

  9
$CUSTOMPROPERTYTAG
  1
Techn. kontr. schválil
  9
$CUSTOMPROPERTY
  1

  9
$CUSTOMPROPERTYTAG
  1
Výrobu schválil
  9
$CUSTOMPROPERTY
  1

  9
$CUSTOMPROPERTYTAG
  1
VS_First
  9
$CUSTOMPROPERTY
  1

  9
$CUSTOMPROPERTYTAG
  1
VS_All
  9
$CUSTOMPROPERTY
  1
1:1,
  9
$CUSTOMPROPERTYTAG
  1
Model_Mass_Value
  9
$CUSTOMPROPERTY
  1
,0
  9
$CUSTOMPROPERTYTAG
  1
Model_Mass_Units
  9
$CUSTOMPROPERTY
  1
kg
  9
$CUSTOMPROPERTYTAG
  1
Model_Area_Value
  9
$CUSTOMPROPERTY
  1
2694,0
  9
$CUSTOMPROPERTYTAG
  1
Model_Area_Units
  9
$CUSTOMPROPERTY
  1
mm˛
  9
$CUSTOMPROPERTYTAG
  1
Model_Volume_Value
  9
$CUSTOMPROPERTY
  1
5471,0
  9
$CUSTOMPROPERTYTAG
  1
Model_Volume_Units
  9
$CUSTOMPROPERTY
  1
mmł
  9
$CUSTOMPROPERTYTAG
  1
Model_CogX_Value
  9
$CUSTOMPROPERTY
  1
,0
  9
$CUSTOMPROPERTYTAG
  1
Model_CogY_Value
  9
$CUSTOMPROPERTY
  1
,0
  9
$CUSTOMPROPERTYTAG
  1
Model_CogZ_Value
  9
$CUSTOMPROPERTY
  1
,0
  9
$CUSTOMPROPERTYTAG
  1
Model_Cog_Units
  9
$CUSTOMPROPERTY
  1
mm
  9
$CUSTOMPROPERTYTAG
  1
Model_Ixx_Value
  9
$CUSTOMPROPERTY
  1
,0
  9
$CUSTOMPROPERTYTAG
  1
Model_Iyy_Value
  9
$CUSTOMPROPERTY
  1
,0
  9
$CUSTOMPROPERTYTAG
  1
Model_Izz_Value
  9
$CUSTOMPROPERTY
  1
,0
  9
$CUSTOMPROPERTYTAG
  1
Model_Ixy_Value
  9
$CUSTOMPROPERTY
  1
,0
  9
$CUSTOMPROPERTYTAG
  1
Model_Iyz_Value
  9
$CUSTOMPROPERTY
  1
,0
  9
$CUSTOMPROPERTYTAG
  1
Model_Ixz_Value
  9
$CUSTOMPROPERTY
  1
,0
  9
$CUSTOMPROPERTYTAG
  1
Model_MassMom_Units
  9
$CUSTOMPROPERTY
  1
kg mm˛
  9
$CUSTOMPROPERTYTAG
  1
FirstViewScale
  9
$CUSTOMPROPERTY
  1

  9
$CUSTOMPROPERTYTAG
  1
AllViewScales
  9
$CUSTOMPROPERTY
  1

  9
$CUSTOMPROPERTYTAG
  1
SaveDate
  9
$CUSTOMPROPERTY
  1
09/12/2007
  9
$CUSTOMPROPERTYTAG
  1
SaveTime
  9
$CUSTOMPROPERTY
  1
10:32
  9
$CUSTOMPROPERTYTAG
  1
PaperSize
  9
$CUSTOMPROPERTY
  1
A3
  9
$CUSTOMPROPERTYTAG
  1
DateSaved
  9
$CUSTOMPROPERTY
  1
12.09.2007
  9
$CUSTOMPROPERTYTAG
  1
TimeSaved
  9
$CUSTOMPROPERTY
  1
10:32 dop.
  9
$INSBASE
 10
0.0
 20
0.0
 30
0.0
  9
$EXTMIN
 10
-179.1492624227389
 20
170.077434563066
 30
0.0
  9
$EXTMAX
 10
246.1528669078876
 20
513.8569672515947
 30
0.0
  9
$LIMMIN
 10
0.0
 20
0.0
  9
$LIMMAX
 10
630.0
 20
445.5
  9
$ORTHOMODE
 70
     1
  9
$REGENMODE
 70
     1
  9
$FILLMODE
 70
     1
  9
$QTEXTMODE
 70
     0
  9
$MIRRTEXT
 70
     0
  9
$LTSCALE
 40
1.5
  9
$ATTMODE
 70
     1
  9
$TEXTSIZE
 40
0.2
  9
$TRACEWID
 40
0.05
  9
$TEXTSTYLE
  7
Standard
  9
$CLAYER
  8
0
  9
$CELTYPE
  6
ByLayer
  9
$CECOLOR
 62
   256
  9
$CELTSCALE
 40
1.0
  9
$DISPSILH
 70
     0
  9
$DIMSCALE
 40
1.0
  9
$DIMASZ
 40
3.5
  9
$DIMEXO
 40
1.0
  9
$DIMDLI
 40
10.0
  9
$DIMRND
 40
0.0
  9
$DIMDLE
 40
0.0
  9
$DIMEXE
 40
1.0
  9
$DIMTP
 40
0.1
  9
$DIMTM
 40
0.1
  9
$DIMTXT
 40
3.5
  9
$DIMCEN
 40
0.0
  9
$DIMTSZ
 40
0.0
  9
$DIMTOL
 70
     0
  9
$DIMLIM
 70
     0
  9
$DIMTIH
 70
     0
  9
$DIMTOH
 70
     0
  9
$DIMSE1
 70
     0
  9
$DIMSE2
 70
     0
  9
$DIMTAD
 70
     1
  9
$DIMZIN
 70
     8
  9
$DIMBLK
  1

  9
$DIMASO
 70
     1
  9
$DIMSHO
 70
     1
  9
$DIMPOST
  1

  9
$DIMAPOST
  1
"
  9
$DIMALT
 70
     0
  9
$DIMALTD
 70
     2
  9
$DIMALTF
 40
0.0393701
  9
$DIMLFAC
 40
1.0
  9
$DIMTOFL
 70
     1
  9
$DIMTVP
 40
0.0
  9
$DIMTIX
 70
     0
  9
$DIMSOXD
 70
     0
  9
$DIMSAH
 70
     0
  9
$DIMBLK1
  1

  9
$DIMBLK2
  1

  9
$DIMSTYLE
  2
AM_ISO
  9
$DIMCLRD
 70
   256
  9
$DIMCLRE
 70
   256
  9
$DIMCLRT
 70
   140
  9
$DIMTFAC
 40
0.71
  9
$DIMGAP
 40
1.5
  9
$DIMJUST
 70
     0
  9
$DIMSD1
 70
     0
  9
$DIMSD2
 70
     0
  9
$DIMTOLJ
 70
     0
  9
$DIMTZIN
 70
     8
  9
$DIMALTZ
 70
     0
  9
$DIMALTTZ
 70
     0
  9
$DIMUPT
 70
     0
  9
$DIMDEC
 70
     2
  9
$DIMTDEC
 70
     3
  9
$DIMALTU
 70
     2
  9
$DIMALTTD
 70
     4
  9
$DIMTXSTY
  7
Standard
  9
$DIMAUNIT
 70
     0
  9
$DIMADEC
 70
     0
  9
$DIMALTRND
 40
0.0
  9
$DIMAZIN
 70
     2
  9
$DIMDSEP
 70
    46
  9
$DIMATFIT
 70
     3
  9
$DIMFRAC
 70
     0
  9
$DIMLDRBLK
  1

  9
$DIMLUNIT
 70
     2
  9
$DIMLWD
 70
    -1
  9
$DIMLWE
 70
    -1
  9
$DIMTMOVE
 70
     0
  9
$LUNITS
 70
     2
  9
$LUPREC
 70
     2
  9
$SKETCHINC
 40
0.1
  9
$FILLETRAD
 40
0.0
  9
$AUNITS
 70
     0
  9
$AUPREC
 70
     0
  9
$MENU
  1
.
  9
$ELEVATION
 40
0.0
  9
$PELEVATION
 40
0.0
  9
$THICKNESS
 40
0.0
  9
$LIMCHECK
 70
     0
  9
$CHAMFERA
 40
0.0
  9
$CHAMFERB
 40
0.0
  9
$CHAMFERC
 40
0.0
  9
$CHAMFERD
 40
0.0
  9
$SKPOLY
 70
     0
  9
$TDCREATE
 40
2455709.414840683
  9
$TDUCREATE
 40
2455709.331507350
  9
$TDUPDATE
 40
2455762.451685174
  9
$TDUUPDATE
 40
2455762.368351841
  9
$TDINDWG
 40
0.0140408449
  9
$TDUSRTIMER
 40
0.0140406597
  9
$USRTIMER
 70
     1
  9
$ANGBASE
 50
0.0
  9
$ANGDIR
 70
     0
  9
$PDMODE
 70
     0
  9
$PDSIZE
 40
0.0
  9
$PLINEWID
 40
0.0
  9
$SPLFRAME
 70
     0
  9
$SPLINETYPE
 70
     6
  9
$SPLINESEGS
 70
     8
  9
$HANDSEED
  5
1C2D
  9
$SURFTAB1
 70
     6
  9
$SURFTAB2
 70
     6
  9
$SURFTYPE
 70
     6
  9
$SURFU
 70
     6
  9
$SURFV
 70
     6
  9
$UCSBASE
  2

  9
$UCSNAME
  2

  9
$UCSORG
 10
0.0
 20
0.0
 30
0.0
  9
$UCSXDIR
 10
1.0
 20
0.0
 30
0.0
  9
$UCSYDIR
 10
0.0
 20
1.0
 30
0.0
  9
$UCSORTHOREF
  2

  9
$UCSORTHOVIEW
 70
     0
  9
$UCSORGTOP
 10
0.0
 20
0.0
 30
0.0
  9
$UCSORGBOTTOM
 10
0.0
 20
0.0
 30
0.0
  9
$UCSORGLEFT
 10
0.0
 20
0.0
 30
0.0
  9
$UCSORGRIGHT
 10
0.0
 20
0.0
 30
0.0
  9
$UCSORGFRONT
 10
0.0
 20
0.0
 30
0.0
  9
$UCSORGBACK
 10
0.0
 20
0.0
 30
0.0
  9
$PUCSBASE
  2

  9
$PUCSNAME
  2

  9
$PUCSORG
 10
0.0
 20
0.0
 30
0.0
  9
$PUCSXDIR
 10
1.0
 20
0.0
 30
0.0
  9
$PUCSYDIR
 10
0.0
 20
1.0
 30
0.0
  9
$PUCSORTHOREF
  2

  9
$PUCSORTHOVIEW
 70
     0
  9
$PUCSORGTOP
 10
0.0
 20
0.0
 30
0.0
  9
$PUCSORGBOTTOM
 10
0.0
 20
0.0
 30
0.0
  9
$PUCSORGLEFT
 10
0.0
 20
0.0
 30
0.0
  9
$PUCSORGRIGHT
 10
0.0
 20
0.0
 30
0.0
  9
$PUCSORGFRONT
 10
0.0
 20
0.0
 30
0.0
  9
$PUCSORGBACK
 10
0.0
 20
0.0
 30
0.0
  9
$USERI1
 70
     0
  9
$USERI2
 70
     0
  9
$USERI3
 70
     0
  9
$USERI4
 70
     0
  9
$USERI5
 70
     0
  9
$USERR1
 40
0.0
  9
$USERR2
 40
0.0
  9
$USERR3
 40
0.0
  9
$USERR4
 40
0.0
  9
$USERR5
 40
0.0
  9
$WORLDVIEW
 70
     1
  9
$SHADEDGE
 70
     3
  9
$SHADEDIF
 70
    70
  9
$TILEMODE
 70
     1
  9
$MAXACTVP
 70
    64
  9
$PINSBASE
 10
0.0
 20
0.0
 30
0.0
  9
$PLIMCHECK
 70
     0
  9
$PEXTMIN
 10
0.0
 20
0.0
 30
0.0
  9
$PEXTMAX
 10
630.0
 20
445.5
 30
0.0
  9
$PLIMMIN
 10
0.0
 20
0.0
  9
$PLIMMAX
 10
630.0
 20
445.5
  9
$UNITMODE
 70
     0
  9
$VISRETAIN
 70
     1
  9
$PLINEGEN
 70
     0
  9
$PSLTSCALE
 70
     1
  9
$TREEDEPTH
 70
  3020
  9
$CMLSTYLE
  2
Standard
  9
$CMLJUST
 70
     0
  9
$CMLSCALE
 40
1.0
  9
$PROXYGRAPHICS
 70
     1
  9
$MEASUREMENT
 70
     1
  9
$CELWEIGHT
370
    -1
  9
$ENDCAPS
280
     0
  9
$JOINSTYLE
280
     0
  9
$LWDISPLAY
290
     0
  9
$INSUNITS
 70
     4
  9
$HYPERLINKBASE
  1

  9
$STYLESHEET
  1

  9
$XEDIT
290
     1
  9
$CEPSNTYPE
380
     0
  9
$PSTYLEMODE
290
     1
  9
$FINGERPRINTGUID
  2
{E582FEAB-B3EE-47D0-81E2-EC2AC58C4B8A}
  9
$VERSIONGUID
  2
{314CDB28-5E73-4323-A459-36D3B6B849C4}
  9
$EXTNAMES
290
     1
  9
$PSVPSCALE
 40
0.0
  9
$OLESTARTUP
290
     0
  9
$SORTENTS
280
   127
  9
$INDEXCTL
280
     0
  9
$HIDETEXT
280
     1
  9
$XCLIPFRAME
290
     0
  9
$HALOGAP
280
     0
  9
$OBSCOLOR
 70
   257
  9
$OBSLTYPE
280
     0
  9
$INTERSECTIONDISPLAY
280
     0
  9
$INTERSECTIONCOLOR
 70
   257
  9
$DIMASSOC
280
     1
  9
$PROJECTNAME
  1

  0
ENDSEC
  0
SECTION
  2
CLASSES
  0
CLASS
  1
ACDBDICTIONARYWDFLT
  2
AcDbDictionaryWithDefault
  3
ObjectDBX Classes
 90
        0
 91
        1
280
     0
281
     0
  0
CLASS
  1
MATERIAL
  2
AcDbMaterial
  3
ObjectDBX Classes
 90
     1153
 91
        3
280
     0
281
     0
  0
CLASS
  1
VISUALSTYLE
  2
AcDbVisualStyle
  3
ObjectDBX Classes
 90
     4095
 91
       26
280
     0
281
     0
  0
CLASS
  1
SCALE
  2
AcDbScale
  3
ObjectDBX Classes
 90
     1153
 91
       17
280
     0
281
     0
  0
CLASS
  1
TABLESTYLE
  2
AcDbTableStyle
  3
ObjectDBX Classes
 90
     4095
 91
        1
280
     0
281
     0
  0
CLASS
  1
MLEADERSTYLE
  2
AcDbMLeaderStyle
  3
ACDB_MLEADERSTYLE_CLASS
 90
     4095
 91
        1
280
     0
281
     0
  0
CLASS
  1
CELLSTYLEMAP
  2
AcDbCellStyleMap
  3
ObjectDBX Classes
 90
     1152
 91
        2
280
     0
281
     0
  0
CLASS
  1
DICTIONARYVAR
  2
AcDbDictionaryVar
  3
ObjectDBX Classes
 90
        0
 91
        8
280
     0
281
     0
  0
CLASS
  1
ACME_DOCUMENT
  2
AcMeDbDoc
  3
AcMeServices
 90
     1024
 91
        1
280
     0
281
     0
  0
CLASS
  1
AMGSETTINGSOBJ
  2
AmgSettingsObj
  3
"AcadM|Product Description: AutoCAD Mechanical|Company: Autodesk, Inc."
 90
     1024
 91
        2
280
     0
281
     0
  0
CLASS
  1
ACMESCOPE
  2
AcMeScope
  3
AcMeServices
 90
     1024
 91
        1
280
     0
281
     0
  0
CLASS
  1
ACMECOMMANDHISTORY
  2
AcMeCommandHistory
  3
AcMeServices
 90
     1024
 91
        1
280
     0
281
     0
  0
CLASS
  1
ACIMSYSVARMAN
  2
AcImSysVarManager
  3
AcMeServices
 90
     1024
 91
        4
280
     0
281
     0
  0
CLASS
  1
ACIMINTSYSVAR
  2
AcImIntSysVar
  3
AcMeServices
 90
     1024
 91
       27
280
     0
281
     0
  0
CLASS
  1
ACMEDRAWINGMAN
  2
AcMeDrawingMan
  3
AcMeServices
 90
     1024
 91
        1
280
     0
281
     0
  0
CLASS
  1
ACMEVIEW
  2
AcMeView
  3
AcMeServices
 90
     1024
 91
        1
280
     0
281
     0
  0
CLASS
  1
ACDBENTITYCACHE
  2
AcMeEntityCache
  3
AcMeServices
 90
     1024
 91
        1
280
     0
281
     0
  0
CLASS
  1
GSMANAGER
  2
AcMeGSManager
  3
AcMeServices
 90
     1024
 91
        1
280
     0
281
     0
  0
CLASS
  1
AMDTINTERNALREACTOR
  2
AmdtInternalReactor
  3
AcMeServices
 90
     1024
 91
        2
280
     0
281
     0
  0
CLASS
  1
ACMESTATEMGR
  2
AcMeStateMgr
  3
AcMeServices
 90
     1024
 91
        1
280
     0
281
     0
  0
CLASS
  1
ACGREFMASTER
  2
AcGrefMaster
  3
AcAttribServices
 90
     1024
 91
        1
280
     0
281
     0
  0
CLASS
  1
AM_DRAWING_MGR
  2
AcDmDwgMgr
  3
AcMechDwgViewMgmt
 90
     1024
 91
        1
280
     0
281
     0
  0
CLASS
  1
AM_DWG_DOCUMENT
  2
AcDmDwgDocument
  3
AcMechDwgViewMgmt
 90
     1024
 91
        1
280
     0
281
     0
  0
CLASS
  1
AM_DWG_SHEET
  2
AcDmSheet
  3
AcMechDwgViewMgmt
 90
     1024
 91
        2
280
     0
281
     0
  0
CLASS
  1
AM_VIEWDIMPARMAP
  2
AcDmViewDimParMap
  3
AcMechDwgViewMgmt
 90
     1024
 91
        2
280
     0
281
     0
  0
CLASS
  1
ACIMREALSYSVAR
  2
AcImRealSysVar
  3
AcMeServices
 90
     1024
 91
        1
280
     0
281
     0
  0
CLASS
  1
AM_DWGMGR_NAME
  2
AcDmDwgMgrName
  3
AcMechDwgViewMgmt
 90
     1024
 91
        1
280
     0
281
     0
  0
CLASS
  1
ACME_DATABASE
  2
AcMeDbDatabase
  3
AcMeServices
 90
     1024
 91
        3
280
     0
281
     0
  0
CLASS
  1
ACRFINSADJUSTERMGR
  2
AcRfInsAdjusterMgr
  3
AcMeServices
 90
     1024
 91
        1
280
     0
281
     0
  0
CLASS
  1
ACGREFACADMASTER
  2
AcGrefacadMaster
  3
AcGrefServices
 90
     1024
 91
        1
280
     0
281
     0
  0
CLASS
  1
AMDTMENUSTATEMGR
  2
AmdtMenuStateMgr
  3
McadcomServices
 90
     1024
 91
        1
280
     0
281
     0
  0
CLASS
  1
AMDTMCOMMENUSTATE
  2
AmdtMcomMenuState
  3
McadcomServices
 90
     1024
 91
        1
280
     0
281
     0
  0
CLASS
  1
AMIMASTER
  2
AmiMaster
  3
AmiServices
 90
     1024
 91
        1
280
     0
281
     0
  0
CLASS
  1
MAPIAMMOUDLE
  2
MApiAmModule
  3
MApiAmServices
 90
     1024
 91
        1
280
     0
281
     0
  0
CLASS
  1
ACIMSTRSYSVAR
  2
AcImStrSysVar
  3
AcMeServices
 90
     1024
 91
        4
280
     0
281
     0
  0
CLASS
  1
AMDTADMENUSTATE
  2
AmdtAdMenuState
  3
DesignerServices
 90
     1024
 91
        1
280
     0
281
     0
  0
CLASS
  1
ADAPPL
  2
AcAdAppl
  3
DesignerServices
 90
     1024
 91
        1
280
     0
281
     0
  0
CLASS
  1
DEPMGR
  2
AcAdDepMgr
  3
DesignerServices
 90
     1024
 91
        1
280
     0
281
     0
  0
CLASS
  1
PARAMMGR
  2
AcAdParamMgr
  3
DesignerServices
 90
     1024
 91
        1
280
     0
281
     0
  0
CLASS
  1
PARAMSCOPE
  2
AcAdParamScope
  3
DesignerServices
 90
     1024
 91
        1
280
     0
281
     0
  0
CLASS
  1
NAMEDAPPL
  2
AcAdNamedAppl
  3
DesignerServices
 90
     1024
 91
        1
280
     0
281
     0
  0
CLASS
  1
AMDTDMMENUSTATE
  2
AmdtDmMenuState
  3
AcMechDwgViewMgmt
 90
     1024
 91
        1
280
     0
281
     0
  0
CLASS
  1
AMDTAMMENUSTATE
  2
AmdtAmMenuState
  3
DesignerAssemblies
 90
     1024
 91
        1
280
     0
281
     0
  0
CLASS
  1
ACAMPROJECT
  2
AcAmProject
  3
DesignerAssemblies
 90
     1024
 91
        1
280
     0
281
     0
  0
CLASS
  1
ACAMGRCOMPDEF
  2
AcAmGrCompDef
  3
DesignerAssemblies
 90
     1024
 91
        1
280
     0
281
     0
  0
CLASS
  1
ACCMCONTEXT
  2
AcCmContext
  3
DesignerAssemblies
 90
     1024
 91
        1
280
     0
281
     0
  0
CLASS
  1
ACAMCOMPDEF
  2
AcAmCompDef
  3
DesignerAssemblies
 90
     1024
 91
        1
280
     0
281
     0
  0
CLASS
  1
ACAMCOMPDEFMGR
  2
AcAmCompDefMgr
  3
DesignerAssemblies
 90
     1024
 91
        1
280
     0
281
     0
  0
CLASS
  1
AMCONTEXTMGR
  2
AcAmContextMgr
  3
DesignerAssemblies
 90
     1024
 91
        1
280
     0
281
     0
  0
CLASS
  1
ACAMCONTEXTMODELER
  2
AcAmContextModeler
  3
DesignerAssemblies
 90
     1024
 91
        1
280
     0
281
     0
  0
CLASS
  1
ACMDATADICTIONARY
  2
AcmDataDictionary
  3
"AcmSymBB|Product Description: AutoCAD Mechanical|Company: Autodesk, Inc."
 90
     1024
 91
        1
280
     0
281
     0
  0
CLASS
  1
CATALOGSTATE
  2
AcAmCatalogState
  3
DesignerAssemblies
 90
     1024
 91
        1
280
     0
281
     0
  0
CLASS
  1
ACAMGRCOMPDEFSET
  2
AcAmGrCompDefSet
  3
DesignerAssemblies
 90
     1024
 91
        1
280
     0
281
     0
  0
CLASS
  1
AMDTBROWSERDBTAB
  2
AmdtBrowserDbTab
  3
McadcomServices
 90
     1024
 91
        1
280
     0
281
     0
  0
CLASS
  1
CBROWSERAPPOBJECT
  2
CBrowserAppObject
  3
McadcomServices
 90
     1024
 91
        3
280
     0
281
     0
  0
CLASS
  1
DM_PLACEHOLDER
  2
AcDmSelsetPlaceholder
  3
AcMechDwgViewMgmt
 90
     1024
 91
        1
280
     0
281
     0
  0
CLASS
  1
EXACXREFPANELOBJECT
  2
ExAcXREFPanelObject
  3
EXAC_ESW
 90
     1025
 91
        0
280
     0
281
     0
  0
CLASS
  1
NPOCOLLECTION
  2
AcDbImpNonPersistentObjectsCollection
  3
ObjectDBX Classes
 90
     1153
 91
        1
280
     0
281
     0
  0
CLASS
  1
ACMSTANDARDISO
  2
AcmStandardISO
  3
"Amdt_StdImp|Product Description: AutoCAD Mechanical|Company: Autodesk, Inc."
 90
     1024
 91
        1
280
     0
281
     0
  0
CLASS
  1
AMDTEDGESTANDARDISO13715
  2
AmdtEdgeStdISO13715
  3
"Amdt_StdImp|Product Description: AutoCAD Mechanical|Company: Autodesk, Inc."
 90
     1024
 91
        1
280
     0
281
     0
  0
CLASS
  1
ACMSURFSTANDARDISO2002
  2
AcmSurfTextStdISO2002
  3
"Amdt_StdImp|Product Description: AutoCAD Mechanical|Company: Autodesk, Inc."
 90
     1024
 91
        1
280
     0
281
     0
  0
CLASS
  1
ACMFCFSTANDARDISO
  2
AcmFCFStdISO
  3
"Amdt_StdImp|Product Description: AutoCAD Mechanical|Company: Autodesk, Inc."
 90
     1024
 91
        1
280
     0
281
     0
  0
CLASS
  1
ACMWELDSTANDARDISO
  2
AcmWeldingStdISO
  3
"Amdt_StdImp|Product Description: AutoCAD Mechanical|Company: Autodesk, Inc."
 90
     1024
 91
        1
280
     0
281
     0
  0
CLASS
  1
ACMIDSTANDARDISO
  2
AcmIdStdISO
  3
"Amdt_StdImp|Product Description: AutoCAD Mechanical|Company: Autodesk, Inc."
 90
     1024
 91
        1
280
     0
281
     0
  0
CLASS
  1
ACMDATUMSTANDARDISO
  2
AcmDatumStdISO
  3
"Amdt_StdImp|Product Description: AutoCAD Mechanical|Company: Autodesk, Inc."
 90
     1024
 91
        1
280
     0
281
     0
  0
CLASS
  1
ACMBOMSTANDARDISO
  2
AcmBOMStdISO
  3
"Amdt_StdImp|Product Description: AutoCAD Mechanical|Company: Autodesk, Inc."
 90
     1024
 91
        1
280
     0
281
     0
  0
CLASS
  1
ACMDETAILSTANDARDISO
  2
AmdtDetailSymStdISO
  3
"Amdt_StdImp|Product Description: AutoCAD Mechanical|Company: Autodesk, Inc."
 90
     1024
 91
        1
280
     0
281
     0
  0
CLASS
  1
ACMSECTIONSTANDARDISO2001
  2
AmdtSectionSymStdISO2001
  3
"Amdt_StdImp|Product Description: AutoCAD Mechanical|Company: Autodesk, Inc."
 90
     1024
 91
        1
280
     0
281
     0
  0
CLASS
  1
ACMCENTERLINESTANDARDISO
  2
AmdtCenterLineStdISO
  3
"Amdt_StdImp|Product Description: AutoCAD Mechanical|Company: Autodesk, Inc."
 90
     1024
 91
        1
280
     0
281
     0
  0
CLASS
  1
ACMTHREADLINESTANDARDISO
  2
AmdtThreadLineStdISO
  3
"Amdt_StdImp|Product Description: AutoCAD Mechanical|Company: Autodesk, Inc."
 90
     1024
 91
        1
280
     0
281
     0
  0
CLASS
  1
ACMNOTESTANDARDISO
  2
AmdtNoteStdISO
  3
"Amdt_StdImp|Product Description: AutoCAD Mechanical|Company: Autodesk, Inc."
 90
     1024
 91
        1
280
     0
281
     0
  0
CLASS
  1
ACMTAPERSTANDARDISO
  2
AcmTaperStdISO
  3
"Amdt_StdImp|Product Description: AutoCAD Mechanical|Company: Autodesk, Inc."
 90
     1024
 91
        1
280
     0
281
     0
  0
CLASS
  1
ACMANOOTATIONVIEWSTANDARDISO
  2
AmdtAnViewStdISO
  3
"Amdt_StdImp|Product Description: AutoCAD Mechanical|Company: Autodesk, Inc."
 90
     1024
 91
        1
280
     0
281
     0
  0
CLASS
  1
ACAMGLAYSTD
  2
AcAmgLayStd
  3
"AmgLay|Product Description: AutoCAD Mechanical|Company: Autodesk, Inc."
 90
     1024
 91
        1
280
     0
281
     0
  0
CLASS
  1
ACAMGDIMSTD
  2
AcAmgDimStd
  3
"AmgDim|Product Description: AutoCAD Mechanical|Company: Autodesk, Inc."
 90
     1024
 91
        1
280
     0
281
     0
  0
CLASS
  1
AMGOBJPROPCFG
  2
AmgObjPropCfg
  3
"AmgLay|Product Description: AutoCAD Mechanical|Company: Autodesk, Inc."
 90
     1025
 91
        1
280
     0
281
     0
  0
CLASS
  1
ACAMGHOLECHARTSTDISO
  2
AcAmgHoleChartStdISO
  3
AmgDim|Product Description: AutoCAD Mechanical|Company: Autodesk, Inc.
 90
     1024
 91
        1
280
     0
281
     0
  0
CLASS
  1
ACAMGTITLESTD
  2
AcAmgTitleStd
  3
"AmgTitle|Product Description: AutoCAD Mechanical|Company: Autodesk, Inc."
 90
     4095
 91
        1
280
     0
281
     0
  0
CLASS
  1
AMDTNOTETEMPLATEDB
  2
AmdtNoteTemplateDB
  3
AcmSymBB|Product Description: AutoCAD Mechanical|Company: Autodesk, Inc.
 90
     1024
 91
        6
280
     0
281
     0
  0
CLASS
  1
ACAMGFILTERDAT
  2
AcAmgFilterDat
  3
"AcadM|Product Description: AutoCAD Mechanical|Company: Autodesk, Inc."
 90
     1024
 91
        0
280
     0
281
     0
  0
CLASS
  1
AEC_REFEDIT_STATUS_TRACKER
  2
AecDbRefEditStatusTracker
  3
AecArchBase50|Product Desc: Autodesk Architectural Desktop 2007 |Company: Autodesk,Inc. |WEB Address: www.autodesk.com
 90
      129
 91
        1
280
     0
281
     0
  0
CLASS
  1
SORTENTSTABLE
  2
AcDbSortentsTable
  3
ObjectDBX Classes
 90
        0
 91
        1
280
     0
281
     0
  0
ENDSEC
  0
SECTION
  2
TABLES
  0
TABLE
  2
VPORT
  5
8
102
{ACAD_XDICTIONARY
360
164E
102
}
330
0
100
AcDbSymbolTable
 70
     1
  0
VPORT
  5
57
330
8
100
AcDbSymbolTableRecord
100
AcDbViewportTableRecord
  2
*Active
 70
     0
 10
0.0
 20
0.0
 11
1.0
 21
1.0
 12
105.6486960081107
 22
373.7693214313623
 13
0.0
 23
0.0
 14
1.0
 24
1.0
 15
0.0
 25
0.0
 16
0.0
 26
0.0
 36
1.0
 17
0.0
 27
0.0
 37
0.0
 40
968.9721004485283
 41
1.351097178683385
 42
50.0
 43
0.0
 44
0.0
 50
0.0
 51
0.0
 71
     0
 72
   100
 73
     1
 74
     1
 75
     0
 76
     0
 77
     0
 78
     0
281
     0
 65
     0
110
0.0
120
0.0
130
0.0
111
1.0
121
0.0
131
0.0
112
0.0
122
1.0
132
0.0
 79
     0
146
0.0
  0
ENDTAB
  0
TABLE
  2
LTYPE
  5
5
330
0
100
AcDbSymbolTable
 70
    15
  0
LTYPE
  5
5B
330
5
100
AcDbSymbolTableRecord
100
AcDbLinetypeTableRecord
  2
ByBlock
 70
     0
  3

 72
    65
 73
     0
 40
0.0
  0
LTYPE
  5
5C
330
5
100
AcDbSymbolTableRecord
100
AcDbLinetypeTableRecord
  2
ByLayer
 70
     0
  3

 72
    65
 73
     0
 40
0.0
  0
LTYPE
  5
5D
330
5
100
AcDbSymbolTableRecord
100
AcDbLinetypeTableRecord
  2
Continuous
 70
     0
  3
Solid line
 72
    65
 73
     0
 40
0.0
  0
LTYPE
  5
15CE
330
5
100
AcDbSymbolTableRecord
100
AcDbLinetypeTableRecord
  2
HIDDEN
 70
     0
  3
Skrytá __ __ __ __ __ __ __ __ __ __ __ __ __ __
 72
    65
 73
     2
 40
9.525
 49
6.349999999999997
 74
     0
 49
-3.174999999999998
 74
     0
  0
LTYPE
  5
15CF
330
5
100
AcDbSymbolTableRecord
100
AcDbLinetypeTableRecord
  2
PHANTOM2
 70
     0
  3
Sdružená (.5x) ___ _ _ ___ _ _ ___ _ _ ___ _ _
 72
    65
 73
     6
 40
31.75
 49
15.875
 74
     0
 49
-3.174999999999998
 74
     0
 49
3.174999999999998
 74
     0
 49
-3.174999999999998
 74
     0
 49
3.174999999999998
 74
     0
 49
-3.174999999999998
 74
     0
  0
LTYPE
  5
15D0
330
5
100
AcDbSymbolTableRecord
100
AcDbLinetypeTableRecord
  2
CENTER
 70
     0
  3
Středová ____ _ ____ _ ____ _ ____ _ ____ _ ____
 72
    65
 73
     4
 40
50.8
 49
31.75
 74
     0
 49
-6.349999999999997
 74
     0
 49
6.349999999999997
 74
     0
 49
-6.349999999999997
 74
     0
  0
LTYPE
  5
1618
330
5
100
AcDbSymbolTableRecord
100
AcDbLinetypeTableRecord
  2
AM_ISO02W050
 70
     0
  3
__ __ __ __ __ __ __ __ __ __ __ __ __ __ __
 72
    65
 73
     2
 40
7.5
 49
6.0
 74
     0
 49
-1.5
 74
     0
  0
LTYPE
  5
1619
330
5
100
AcDbSymbolTableRecord
100
AcDbLinetypeTableRecord
  2
AM_ISO08W050
 70
     0
  3
____ . ____ . ____ . ____ . ____ . ____ . ____
 72
    65
 73
     4
 40
18.0
 49
12.0
 74
     0
 49
-1.5
 74
     0
 49
3.0
 74
     0
 49
-1.5
 74
     0
  0
LTYPE
  5
161A
330
5
100
AcDbSymbolTableRecord
100
AcDbLinetypeTableRecord
  2
AM_ISO09W050
 70
     0
  3
_____ . . _____ . . _____ . . ____ .. ____
 72
    65
 73
     6
 40
22.5
 49
12.0
 74
     0
 49
-1.5
 74
     0
 49
3.0
 74
     0
 49
-1.5
 74
     0
 49
3.0
 74
     0
 49
-1.5
 74
     0
  0
LTYPE
  5
161B
330
5
100
AcDbSymbolTableRecord
100
AcDbLinetypeTableRecord
  2
Amconstr
 70
     0
  3
_______________________
 72
    65
 73
     2
 40
9999.0
 49
9999.0
 74
     0
 49
0.0
 74
     0
  0
LTYPE
  5
161C
330
5
100
AcDbSymbolTableRecord
100
AcDbLinetypeTableRecord
  2
AM_ISO08W050x2
 70
     0
  3
__ . __ . __ . __ . __ . __
 72
    65
 73
     4
 40
9.0
 49
6.0
 74
     0
 49
-0.75
 74
     0
 49
1.5
 74
     0
 49
-0.75
 74
     0
  0
LTYPE
  5
161D
330
5
100
AcDbSymbolTableRecord
100
AcDbLinetypeTableRecord
  2
AM_ISO02W050x2
 70
     0
  3
 _ _ _ _ _ _ _ _ _ _ _ _
 72
    65
 73
     2
 40
3.75
 49
3.0
 74
     0
 49
-0.75
 74
     0
  0
LTYPE
  5
1620
330
5
100
AcDbSymbolTableRecord
100
AcDbLinetypeTableRecord
  2
Amzigzag
 70
     0
  3
/\/-/\/-/\/-/\/-/\/-/\/
 72
    65
 73
     2
 40
11.0001
 49
0.0001
 74
     4
 75
   136
340
161F
 46
0.04
 50
0.0
 44
0.0
 45
0.0
 49
-11.0
 74
     0
  0
LTYPE
  5
162F
330
5
100
AcDbSymbolTableRecord
100
AcDbLinetypeTableRecord
  2
ACISOWELD
 70
     0
  3
_ _ _ _ _
 72
    65
 73
     2
 40
2.0
 49
2.0
 74
     0
 49
-1.0
 74
     0
  0
LTYPE
  5
1630
330
5
100
AcDbSymbolTableRecord
100
AcDbLinetypeTableRecord
  2
ACISOTGB
 70
     0
  3
__ . . __ . .
 72
    65
 73
     6
 40
9.0
 49
4.0
 74
     0
 49
-1.0
 74
     0
 49
1.0
 74
     0
 49
-1.0
 74
     0
 49
1.0
 74
     0
 49
-1.0
 74
     0
  0
LTYPE
  5
1631
330
5
100
AcDbSymbolTableRecord
100
AcDbLinetypeTableRecord
  2
ACISOTGL
 70
     0
  3
_ _ _ _ _
 72
    65
 73
     2
 40
3.0
 49
2.0
 74
     0
 49
-1.0
 74
     0
  0
LTYPE
  5
1A65
330
5
100
AcDbSymbolTableRecord
100
AcDbLinetypeTableRecord
  2
ACAD_ISO10W100
 70
     0
  3
ISO dash dot __ . __ . __ . __ . __ . __ . __ .
 72
    65
 73
     4
 40
18.0
 49
12.0
 74
     0
 49
-3.0
 74
     0
 49
0.0
 74
     0
 49
-3.0
 74
     0
  0
ENDTAB
  0
TABLE
  2
LAYER
  5
2
330
0
100
AcDbSymbolTable
 70
    20
  0
LAYER
  5
54
330
2
100
AcDbSymbolTableRecord
100
AcDbLayerTableRecord
  2
0
 70
     0
 62
     7
  6
Continuous
370
    -3
390
F
  0
LAYER
  5
76
330
2
100
AcDbSymbolTableRecord
100
AcDbLayerTableRecord
  2
Čára řezu (ISO)
 70
     0
 62
     3
420
    65280
  6
Continuous
370
    18
390
F
  0
LAYER
  5
78
330
2
100
AcDbSymbolTableRecord
100
AcDbLayerTableRecord
  2
Geometrie náčrtu (ISO)
 70
     0
 62
     7
  6
Continuous
370
     9
390
F
  0
LAYER
  5
79
330
2
100
AcDbSymbolTableRecord
100
AcDbLayerTableRecord
  2
KOPF
 70
     0
 62
     8
420
  8421504
  6
Continuous
370
     9
390
F
  0
LAYER
  5
7A
330
2
100
AcDbSymbolTableRecord
100
AcDbLayerTableRecord
  2
Kóta (ISO)
 70
     0
 62
     5
420
      255
  6
Continuous
370
     9
390
F
  0
LAYER
  5
7B
330
2
100
AcDbSymbolTableRecord
100
AcDbLayerTableRecord
  2
Nadpis (ISO)
 70
     0
 62
     7
  6
Continuous
370
    18
390
F
  0
LAYER
  5
7D
330
2
100
AcDbSymbolTableRecord
100
AcDbLayerTableRecord
  2
Osa (ISO)
 70
     0
 62
     1
420
 16711680
  6
Continuous
370
     9
390
F
  0
LAYER
  5
85
330
2
100
AcDbSymbolTableRecord
100
AcDbLayerTableRecord
  2
Rámeček (ISO)
 70
     0
 62
     7
  6
Continuous
370
    35
390
F
  0
LAYER
  5
88
330
2
100
AcDbSymbolTableRecord
100
AcDbLayerTableRecord
  2
Skrytá (ISO)
 70
     0
 62
   142
420
    32960
  6
Continuous
370
     9
390
F
  0
LAYER
  5
89
330
2
100
AcDbSymbolTableRecord
100
AcDbLayerTableRecord
  2
Středová značka (ISO)
 70
     0
 62
     1
420
 16711680
  6
Continuous
370
     9
390
F
  0
LAYER
  5
8A
330
2
100
AcDbSymbolTableRecord
100
AcDbLayerTableRecord
  2
Šrafy (ISO)
 70
     0
 62
     6
420
 16711935
  6
Continuous
370
     9
390
F
  0
LAYER
  5
8B
330
2
100
AcDbSymbolTableRecord
100
AcDbLayerTableRecord
  2
TEXT35
 70
     0
 62
    12
420
 13369344
  6
Continuous
370
    20
390
F
  0
LAYER
  5
8C
330
2
100
AcDbSymbolTableRecord
100
AcDbLayerTableRecord
  2
TEXT50
 70
     0
 62
     7
  6
Continuous
370
    20
390
F
  0
LAYER
  5
8D
330
2
100
AcDbSymbolTableRecord
100
AcDbLayerTableRecord
  2
Viditelná (ISO)
 70
     0
 62
     7
  6
Continuous
370
    35
390
F
  0
LAYER
  5
8E
330
2
100
AcDbSymbolTableRecord
100
AcDbLayerTableRecord
  2
Viditelná tenká (ISO)
 70
     0
 62
     7
  6
Continuous
370
     9
390
F
  0
LAYER
  5
8F
330
2
100
AcDbSymbolTableRecord
100
AcDbLayerTableRecord
  2
Značka (ISO)
 70
     0
 62
     5
420
      255
  6
Continuous
370
     9
390
F
  0
LAYER
  5
2B3
330
2
100
AcDbSymbolTableRecord
100
AcDbLayerTableRecord
  2
Defpoints
 70
     0
 62
     7
  6
Continuous
290
     0
370
    -3
390
F
  0
LAYER
  5
16F5
102
{ACAD_XDICTIONARY
360
16F6
102
}
330
2
100
AcDbSymbolTableRecord
100
AcDbLayerTableRecord
  2
KOTY_GULLY
 70
     0
 62
   250
  6
Continuous
370
    -3
390
F
  0
LAYER
  5
16F7
102
{ACAD_XDICTIONARY
360
16F8
102
}
330
2
100
AcDbSymbolTableRecord
100
AcDbLayerTableRecord
  2
GULLY
 70
     0
 62
   250
  6
Continuous
370
    -3
390
F
  0
LAYER
  5
1A66
330
2
100
AcDbSymbolTableRecord
100
AcDbLayerTableRecord
  2
Osa_GULLY
 70
     0
 62
     1
420
 16711680
  6
ACAD_ISO10W100
370
     9
390
F
1001
AcAecLayerStandard
1000

1000

  0
ENDTAB
  0
TABLE
  2
STYLE
  5
3
330
0
100
AcDbSymbolTable
 70
    21
  0
STYLE
  5
55
330
3
100
AcDbSymbolTableRecord
100
AcDbTextStyleTableRecord
  2
Standard
 70
     0
 40
0.0
 41
1.0
 50
0.0
 71
     0
 42
0.2
  3
TAHOMA.TTF
  4

1001
ACAD
1000
Tahoma
1071
      256
  0
STYLE
  5
5A
330
3
100
AcDbSymbolTableRecord
100
AcDbTextStyleTableRecord
  2
Annotative
 70
     0
 40
0.0
 41
1.0
 50
0.0
 71
     0
 42
0.2
  3
txt
  4

1001
AcadAnnotative
1000
AnnotativeData
1002
{
1070
     1
1070
     1
1002
}
  0
STYLE
  5
90
330
3
100
AcDbSymbolTableRecord
100
AcDbTextStyleTableRecord
  2
ITALICC8_57
 70
     0
 40
0.0
 41
1.0
 50
0.0
 71
     0
 42
0.2
  3
TAHOMA.TTF
  4

1001
ACAD
1000
Tahoma
1071
      256
  0
STYLE
  5
91
330
3
100
AcDbSymbolTableRecord
100
AcDbTextStyleTableRecord
  2
kusovnik
 70
     0
 40
0.0
 41
1.0
 50
0.0
 71
     0
 42
0.2
  3
ARIAL.TTF
  4

1001
ACAD
1000
Arial
1071
      256
  0
STYLE
  5
92
330
3
100
AcDbSymbolTableRecord
100
AcDbTextStyleTableRecord
  2
ROMANS8_69
 70
     0
 40
0.0
 41
1.0
 50
0.0
 71
     0
 42
0.2
  3
TAHOMA.TTF
  4

1001
ACAD
1000
Tahoma
1071
      256
  0
STYLE
  5
93
330
3
100
AcDbSymbolTableRecord
100
AcDbTextStyleTableRecord
  2
Text popisu (ISO)
 70
     0
 40
0.0
 41
1.0
 50
0.0
 71
     0
 42
0.2
  3
TAHOMA.TTF
  4

1001
ACAD
1000
Tahoma
1071
      256
  0
STYLE
  5
94
330
3
100
AcDbSymbolTableRecord
100
AcDbTextStyleTableRecord
  2
Text poznámky (DIN)
 70
     0
 40
0.0
 41
1.0
 50
0.0
 71
     0
 42
0.2
  3
isocpeur.ttf
  4

1001
ACAD
1000
ISOCPEUR
1071
      256
  0
STYLE
  5
95
330
3
100
AcDbSymbolTableRecord
100
AcDbTextStyleTableRecord
  2
Text poznámky (ISO)
 70
     0
 40
0.0
 41
1.0
 50
0.0
 71
     0
 42
0.2
  3
TAHOMA.TTF
  4

1001
ACAD
1000
Tahoma
1071
      256
  0
STYLE
  5
96
330
3
100
AcDbSymbolTableRecord
100
AcDbTextStyleTableRecord
  2
TEXT20_41
 70
     0
 40
0.0
 41
1.0
 50
0.0
 71
     0
 42
0.2
  3
TAHOMA.TTF
  4

1001
ACAD
1000
Tahoma
1071
      256
  0
STYLE
  5
97
330
3
100
AcDbSymbolTableRecord
100
AcDbTextStyleTableRecord
  2
TEXT20_59
 70
     0
 40
0.0
 41
1.0
 50
0.0
 71
     0
 42
0.2
  3
TAHOMA.TTF
  4

1001
ACAD
1000
Tahoma
1071
      256
  0
STYLE
  5
1B6
330
3
100
AcDbSymbolTableRecord
100
AcDbTextStyleTableRecord
  2
Styl textu62
 70
     0
 40
0.0
 41
0.8000000119209289
 50
0.0
 71
     0
 42
0.2
  3
TAHOMA.TTF
  4

1001
ACAD
1000
Tahoma
1071
      256
  0
STYLE
  5
1BD
330
3
100
AcDbSymbolTableRecord
100
AcDbTextStyleTableRecord
  2
Styl textu58
 70
     0
 40
0.0
 41
0.8000000119209289
 50
0.0
 71
     0
 42
0.2
  3
TAHOMA.TTF
  4

1001
ACAD
1000
Tahoma
1071
      256
  0
STYLE
  5
1BF
330
3
100
AcDbSymbolTableRecord
100
AcDbTextStyleTableRecord
  2
Styl textu63
 70
     0
 40
0.0
 41
0.75
 50
0.0
 71
     0
 42
0.2
  3
TAHOMA.TTF
  4

1001
ACAD
1000
Tahoma
1071
      256
  0
STYLE
  5
1C2
330
3
100
AcDbSymbolTableRecord
100
AcDbTextStyleTableRecord
  2
Styl textu72
 70
     0
 40
0.0
 41
0.6999999880790711
 50
0.0
 71
     0
 42
0.2
  3
TAHOMA.TTF
  4

1001
ACAD
1000
Tahoma
1071
      256
  0
STYLE
  5
1C5
330
3
100
AcDbSymbolTableRecord
100
AcDbTextStyleTableRecord
  2
Styl textu75
 70
     0
 40
0.0
 41
0.8000000119209289
 50
0.0
 71
     0
 42
0.2
  3
TAHOMA.TTF
  4

1001
ACAD
1000
Tahoma
1071
      256
  0
STYLE
  5
1E0
330
3
100
AcDbSymbolTableRecord
100
AcDbTextStyleTableRecord
  2
Styl textu9
 70
     0
 40
0.0
 41
1.0
 50
0.0
 71
     0
 42
0.2
  3
ARIAL.TTF
  4

1001
ACAD
1000
Arial
1071
      256
  0
STYLE
  5
1E4
330
3
100
AcDbSymbolTableRecord
100
AcDbTextStyleTableRecord
  2
Styl textu40
 70
     0
 40
0.0
 41
1.0
 50
0.0
 71
     0
 42
0.2
  3
ARIAL.TTF
  4

1001
ACAD
1000
Arial
1071
      256
  0
STYLE
  5
1E9
330
3
100
AcDbSymbolTableRecord
100
AcDbTextStyleTableRecord
  2
Styl textu94
 70
     0
 40
0.0
 41
1.0
 50
0.0
 71
     0
 42
0.2
  3
TAHOMA.TTF
  4

1001
ACAD
1000
Tahoma
1071
      256
  0
STYLE
  5
161F
330
3
100
AcDbSymbolTableRecord
100
AcDbTextStyleTableRecord
  2

 70
     1
 40
0.0
 41
1.0
 50
0.0
 71
     0
 42
0.2
  3
genltshp.shx
  4

  0
STYLE
  5
162D
330
3
100
AcDbSymbolTableRecord
100
AcDbTextStyleTableRecord
  2
ACISOTS
 70
     0
 40
1.0
 41
1.0
 50
0.0
 71
     0
 42
0.2
  3
isocp.shx
  4

  0
STYLE
  5
162E
330
3
100
AcDbSymbolTableRecord
100
AcDbTextStyleTableRecord
  2
ACISOGDT
 70
     0
 40
0.0
 41
1.0
 50
0.0
 71
     0
 42
0.2
  3
amgdt.shx
  4

  0
ENDTAB
  0
TABLE
  2
VIEW
  5
6
330
0
100
AcDbSymbolTable
 70
     0
  0
ENDTAB
  0
TABLE
  2
UCS
  5
7
330
0
100
AcDbSymbolTable
 70
     0
  0
ENDTAB
  0
TABLE
  2
APPID
  5
9
330
0
100
AcDbSymbolTable
 70
    18
  0
APPID
  5
56
330
9
100
AcDbSymbolTableRecord
100
AcDbRegAppTableRecord
  2
ACAD
 70
     0
  0
APPID
  5
5E
330
9
100
AcDbSymbolTableRecord
100
AcDbRegAppTableRecord
  2
AcadAnnotative
 70
     0
  0
APPID
  5
1E3
330
9
100
AcDbSymbolTableRecord
100
AcDbRegAppTableRecord
  2
AcadAnnoPO
 70
     0
  0
APPID
  5
5FD
330
9
100
AcDbSymbolTableRecord
100
AcDbRegAppTableRecord
  2
ACAD_DSTYLE_DIMRADIAL_EXTENSION
 70
     0
  0
APPID
  5
1587
330
9
100
AcDbSymbolTableRecord
100
AcDbRegAppTableRecord
  2
ACAD_MLEADERVER
 70
     0
  0
APPID
  5
159F
330
9
100
AcDbSymbolTableRecord
100
AcDbRegAppTableRecord
  2
MCAD_NO_VIS
 70
     0
  0
APPID
  5
15A0
330
9
100
AcDbSymbolTableRecord
100
AcDbRegAppTableRecord
  2
ACAD_TEMP_GRAPHIC
 70
     0
  0
APPID
  5
15D2
330
9
100
AcDbSymbolTableRecord
100
AcDbRegAppTableRecord
  2
AD_DRAW
 70
     0
  0
APPID
  5
15D5
330
9
100
AcDbSymbolTableRecord
100
AcDbRegAppTableRecord
  2
ACATTRIBSERVICES
 70
     0
  0
APPID
  5
15F6
330
9
100
AcDbSymbolTableRecord
100
AcDbRegAppTableRecord
  2
DESIGNERASSEMBLIES
 70
     0
  0
APPID
  5
15FC
330
9
100
AcDbSymbolTableRecord
100
AcDbRegAppTableRecord
  2
ACADM_DIM_EDIT
 70
     0
  0
APPID
  5
15FD
330
9
100
AcDbSymbolTableRecord
100
AcDbRegAppTableRecord
  2
AMDT_DM_ADJ
 70
     0
  0
APPID
  5
166A
330
9
100
AcDbSymbolTableRecord
100
AcDbRegAppTableRecord
  2
ACAD_DSTYLE_DIMARC_LENGTH_SYMBOL
 70
     0
  0
APPID
  5
166B
330
9
100
AcDbSymbolTableRecord
100
AcDbRegAppTableRecord
  2
ACAD_DSTYLE_DIM_LINETYPE
 70
     0
  0
APPID
  5
166C
330
9
100
AcDbSymbolTableRecord
100
AcDbRegAppTableRecord
  2
ACAD_DSTYLE_DIM_EXT1_LINETYPE
 70
     0
  0
APPID
  5
166D
330
9
100
AcDbSymbolTableRecord
100
AcDbRegAppTableRecord
  2
ACAD_DSTYLE_DIM_EXT2_LINETYPE
 70
     0
  0
APPID
  5
16FB
330
9
100
AcDbSymbolTableRecord
100
AcDbRegAppTableRecord
  2
ACAD_DSTYLE_DIMINSPECT
 70
     0
  0
APPID
  5
1A67
330
9
100
AcDbSymbolTableRecord
100
AcDbRegAppTableRecord
  2
AcAecLayerStandard
 70
     0
  0
ENDTAB
  0
TABLE
  2
DIMSTYLE
  5
A
330
0
100
AcDbSymbolTable
 70
    25
100
AcDbDimStyleTable
 71
     3
340
1616
340
B0
340
58
  0
DIMSTYLE
105
58
330
A
100
AcDbSymbolTableRecord
100
AcDbDimStyleTableRecord
  2
Standard
 70
     0
340
55
  0
DIMSTYLE
105
59
330
A
100
AcDbSymbolTableRecord
100
AcDbDimStyleTableRecord
  2
Annotative
 70
     0
340
55
1001
AcadAnnotative
1000
AnnotativeData
1002
{
1070
     1
1070
     1
1002
}
  0
DIMSTYLE
105
A6
330
A
100
AcDbSymbolTableRecord
100
AcDbDimStyleTableRecord
  2
Různé objekty (ISO)
 70
     0
 40
1.5
 41
2.5
 42
0.0
 43
5.999999999999999
 44
1.0
 45
0.00000001
 46
10.0
 73
     0
 74
     0
 77
     1
 78
     8
 79
     2
140
5.25
143
0.03937
146
0.6676571709769112
147
0.762
171
     3
172
     1
176
   256
177
   256
178
   256
179
     2
271
     2
272
     2
274
     3
278
    44
284
     8
340
93
341
98
371
    -1
372
    -1
  0
DIMSTYLE
105
A7
330
A
100
AcDbSymbolTableRecord
100
AcDbDimStyleTableRecord
  2
Různé objekty (ISO)$7
 70
     0
 40
1.5
 41
5.0
 42
0.0
 43
5.999999999999999
 44
1.0
 45
0.00000001
 46
10.0
 73
     0
 74
     0
 77
     1
 78
     8
 79
     2
140
5.25
143
0.03937
146
0.6676571709769112
147
0.762
171
     3
172
     1
176
   256
177
   256
178
   256
179
     2
271
     2
272
     2
274
     3
278
    44
284
     8
340
93
341
98
371
    25
372
    -1
  0
DIMSTYLE
105
A8
330
A
100
AcDbSymbolTableRecord
100
AcDbDimStyleTableRecord
  2
Výchozí - Metoda 1b (ISO)
 70
     0
 40
1.5
 41
2.5
 42
0.0
 43
5.999999999999999
 44
1.0
 45
0.00000001
 46
10.0
 73
     0
 77
     1
 78
     8
 79
     2
140
3.5
143
0.03937
147
0.762
171
     3
172
     1
176
   256
177
   256
178
   256
179
     2
271
     2
272
     2
274
     3
278
    44
284
     8
286
     8
340
95
371
    -1
372
    -1
  0
DIMSTYLE
105
A9
330
A
100
AcDbSymbolTableRecord
100
AcDbDimStyleTableRecord
  2
Výchozí - Metoda 1b (ISO)$7
 70
     0
 40
1.5
 41
2.5
 42
0.0
 43
5.999999999999999
 44
1.0
 45
0.00000001
 46
10.0
 73
     0
 77
     1
 78
     8
 79
     2
140
3.5
143
0.03937
147
0.762
171
     3
172
     1
176
   256
177
   256
178
   256
179
     2
271
     2
272
     2
274
     3
278
    44
284
     8
286
     8
340
95
371
    -1
372
    -1
  0
DIMSTYLE
105
AA
330
A
100
AcDbSymbolTableRecord
100
AcDbDimStyleTableRecord
  2
Výchozí - Metoda 2a (ISO)
 70
     0
 40
1.5
 41
2.5
 42
0.0
 43
5.999999999999999
 44
1.0
 45
0.00000001
 46
10.0
 77
     1
 78
     8
 79
     2
140
3.5
143
0.03937
147
0.762
171
     3
172
     1
176
   256
177
   256
178
   256
179
     2
271
     2
272
     2
274
     3
278
    44
284
     8
286
     8
340
95
371
    -1
372
    -1
  0
DIMSTYLE
105
AB
330
A
100
AcDbSymbolTableRecord
100
AcDbDimStyleTableRecord
  2
Výchozí - Metoda 2a (ISO)$7
 70
     0
 40
1.5
 41
2.5
 42
0.0
 43
5.999999999999999
 44
1.0
 45
0.00000001
 46
10.0
 77
     1
 78
     8
 79
     2
140
3.5
143
0.03937
147
0.762
171
     3
172
     1
176
   256
177
   256
178
   256
179
     2
271
     2
272
     2
274
     3
278
    44
284
     8
286
     8
340
95
371
    -1
372
    -1
  0
DIMSTYLE
105
AC
330
A
100
AcDbSymbolTableRecord
100
AcDbDimStyleTableRecord
  2
Výchozí - Metoda 2b (ISO)
 70
     0
 40
1.5
 41
2.5
 42
0.0
 43
5.999999999999999
 44
1.0
 45
0.00000001
 46
10.0
 77
     1
 78
     8
 79
     2
140
3.5
143
0.03937
147
0.762
171
     3
172
     1
176
   256
177
   256
178
   256
179
     2
271
     2
272
     2
274
     3
278
    44
284
     8
286
     8
340
95
371
    -1
372
    -1
  0
DIMSTYLE
105
AD
330
A
100
AcDbSymbolTableRecord
100
AcDbDimStyleTableRecord
  2
Výchozí - Metoda 2b (ISO)$7
 70
     0
 40
1.5
 41
2.5
 42
0.0
 43
5.999999999999999
 44
1.0
 45
0.00000001
 46
10.0
 77
     1
 78
     8
 79
     2
140
3.5
143
0.03937
147
0.762
171
     3
172
     1
176
   256
177
   256
178
   256
179
     2
271
     2
272
     2
274
     3
278
    44
284
     8
286
     8
340
95
371
    -1
372
    -1
  0
DIMSTYLE
105
AE
330
A
100
AcDbSymbolTableRecord
100
AcDbDimStyleTableRecord
  2
Výchozí - mm [palce] (ISO)
 70
     0
  4
 in
 40
1.5
 41
2.5
 42
0.0
 43
5.999999999999999
 44
3.174999999999998
 45
0.00000001
 46
10.0
 73
     0
 74
     0
 77
     1
 78
     8
 79
     2
140
3.5
143
0.03937
147
0.762
170
     1
171
     3
172
     1
176
   256
177
   256
178
   256
179
     3
271
     3
272
     2
274
     3
275
     1
278
    44
284
     8
285
     8
286
     8
340
95
371
    -1
372
    -1
  0
DIMSTYLE
105
AF
330
A
100
AcDbSymbolTableRecord
100
AcDbDimStyleTableRecord
  2
Výchozí - mm [palce] (ISO)$7
 70
     0
  4
 in
 40
1.5
 41
2.5
 42
0.0
 43
5.999999999999999
 44
3.174999999999998
 45
0.00000001
 46
10.0
 73
     0
 74
     0
 77
     1
 78
     8
 79
     2
140
3.5
143
0.03937
147
0.762
170
     1
171
     3
172
     1
176
   256
177
   256
178
   256
179
     3
271
     3
272
     2
274
     3
275
     1
278
    44
284
     8
285
     8
286
     8
340
95
371
    -1
372
    -1
  0
DIMSTYLE
105
B0
330
A
100
AcDbSymbolTableRecord
100
AcDbDimStyleTableRecord
  2
Výchozí (ISO)
 70
     0
 40
1.5
 41
2.5
 42
0.0
 43
5.999999999999999
 44
1.0
 45
0.00000001
 46
10.0
 73
     0
 74
     0
 77
     1
 78
     8
 79
     2
140
3.5
143
0.03937
146
1.001485756465366
147
0.762
171
     3
172
     1
176
   256
177
   256
178
   256
179
     2
271
     2
272
     2
274
     3
278
    44
284
     8
340
95
371
    -1
372
    -1
  0
DIMSTYLE
105
B1
330
A
100
AcDbSymbolTableRecord
100
AcDbDimStyleTableRecord
  2
Výchozí (ISO)$7
 70
     0
 40
1.5
 41
2.5
 42
0.0
 43
5.999999999999999
 44
1.0
 45
0.00000001
 46
10.0
 73
     0
 74
     0
 77
     1
 78
     8
 79
     2
140
3.5
143
0.03937
146
1.001485756465366
147
0.762
171
     3
172
     1
176
   256
177
   256
178
   256
179
     2
271
     2
272
     2
274
     3
278
    44
284
     8
340
95
371
    -1
372
    -1
  0
DIMSTYLE
105
B2
330
A
100
AcDbSymbolTableRecord
100
AcDbDimStyleTableRecord
  2
Alternativní (ISO)
 70
     0
 40
1.5
 41
2.5
340
55
342
B3
  0
DIMSTYLE
105
C4
330
A
100
AcDbSymbolTableRecord
100
AcDbDimStyleTableRecord
  2
Základny (ISO)
 70
     0
 40
1.5
 41
2.5
340
55
342
B3
  0
DIMSTYLE
105
1616
330
A
100
AcDbSymbolTableRecord
100
AcDbDimStyleTableRecord
  2
AM_ISO
 70
     0
  4
"
 41
3.5
 42
1.0
 43
10.0
 44
1.0
 47
0.1
 48
0.1
 73
     0
 74
     0
 77
     1
 78
     8
 79
     2
140
3.5
141
0.0
143
0.0393701
146
0.71
147
1.5
172
     1
176
   256
177
   256
178
   140
271
     2
272
     3
274
     4
283
     0
284
     8
340
55
371
    -1
372
    -1
1001
ACAD_DSTYLE_DIMARC_LENGTH_SYMBOL
1070
   379
1070
     1
1001
ACAD_DSTYLE_DIM_LINETYPE
1070
   380
1005
5B
1001
ACAD_DSTYLE_DIM_EXT1_LINETYPE
1070
   381
1005
5B
1001
ACAD_DSTYLE_DIM_EXT2_LINETYPE
1070
   382
1005
5B
  0
DIMSTYLE
105
1621
330
A
100
AcDbSymbolTableRecord
100
AcDbDimStyleTableRecord
  2
AM_ISO$3
 70
     0
  4
"
 41
3.5
 42
1.0
 43
10.0
 44
1.0
 47
0.1
 48
0.1
 73
     0
 77
     1
 78
     8
 79
     2
140
3.5
141
0.0
143
0.0393701
146
0.71
147
1.5
176
   256
177
   256
178
   140
271
     2
272
     3
274
     4
283
     0
284
     8
288
     1
289
     0
340
55
371
    -1
372
    -1
1001
ACAD_DSTYLE_DIMARC_LENGTH_SYMBOL
1070
   379
1070
     1
1001
ACAD_DSTYLE_DIM_LINETYPE
1070
   380
1005
5B
1001
ACAD_DSTYLE_DIM_EXT1_LINETYPE
1070
   381
1005
5B
1001
ACAD_DSTYLE_DIM_EXT2_LINETYPE
1070
   382
1005
5B
  0
DIMSTYLE
105
1622
330
A
100
AcDbSymbolTableRecord
100
AcDbDimStyleTableRecord
  2
AM_ISO$4
 70
     0
  4
"
 41
3.5
 42
1.0
 43
10.0
 44
1.0
 47
0.1
 48
0.1
 73
     0
 74
     0
 77
     1
 78
     8
 79
     2
140
3.5
141
0.0
143
0.0393701
146
0.71
147
1.5
172
     1
176
   256
177
   256
178
   140
271
     2
272
     3
274
     4
283
     0
284
     8
340
55
371
    -1
372
    -1
1001
ACAD_DSTYLE_DIMARC_LENGTH_SYMBOL
1070
   379
1070
     1
1001
ACAD_DSTYLE_DIM_LINETYPE
1070
   380
1005
5B
1001
ACAD_DSTYLE_DIM_EXT1_LINETYPE
1070
   381
1005
5B
1001
ACAD_DSTYLE_DIM_EXT2_LINETYPE
1070
   382
1005
5B
  0
DIMSTYLE
105
1623
330
A
100
AcDbSymbolTableRecord
100
AcDbDimStyleTableRecord
  2
AM_ISO$6
 70
     0
  4
"
 41
3.5
 42
1.0
 43
10.0
 44
1.0
 47
0.1
 48
0.1
 73
     0
 74
     0
 78
     8
 79
     2
140
3.5
141
0.0
143
0.0393701
146
0.71
147
1.5
172
     1
176
   256
177
   256
178
   140
271
     2
272
     3
274
     4
283
     0
284
     8
340
55
371
    -1
372
    -1
1001
ACAD_DSTYLE_DIMARC_LENGTH_SYMBOL
1070
   379
1070
     1
1001
ACAD_DSTYLE_DIM_LINETYPE
1070
   380
1005
5B
1001
ACAD_DSTYLE_DIM_EXT1_LINETYPE
1070
   381
1005
5B
1001
ACAD_DSTYLE_DIM_EXT2_LINETYPE
1070
   382
1005
5B
  0
DIMSTYLE
105
1624
330
A
100
AcDbSymbolTableRecord
100
AcDbDimStyleTableRecord
  2
AM_ISO$7
 70
     0
  4
"
 41
3.5
 42
1.0
 43
10.0
 44
1.0
 47
0.1
 48
0.1
 73
     0
 74
     0
 77
     1
 78
     8
 79
     2
140
3.5
141
0.0
143
0.0393701
146
0.71
147
1.5
172
     1
176
   256
177
   256
178
   140
271
     2
272
     3
274
     4
283
     0
284
     8
340
55
371
    -1
372
    -1
1001
ACAD_DSTYLE_DIMARC_LENGTH_SYMBOL
1070
   379
1070
     1
1001
ACAD_DSTYLE_DIM_LINETYPE
1070
   380
1005
5B
1001
ACAD_DSTYLE_DIM_EXT1_LINETYPE
1070
   381
1005
5B
1001
ACAD_DSTYLE_DIM_EXT2_LINETYPE
1070
   382
1005
5B
  0
DIMSTYLE
105
1625
330
A
100
AcDbSymbolTableRecord
100
AcDbDimStyleTableRecord
  2
AM_ISO$SF
 70
     0
  4
"
 41
3.5
 42
1.0
 43
10.0
 44
1.0
 47
0.1
 48
0.1
 73
     0
 74
     0
 75
     1
 76
     1
 77
     1
 78
     8
 79
     2
140
3.5
141
0.0
143
0.0393701
146
0.71
147
1.5
172
     1
176
   256
177
   256
178
   140
271
     2
272
     3
274
     4
283
     0
284
     8
340
55
371
    -1
372
    -1
1001
ACAD_DSTYLE_DIMARC_LENGTH_SYMBOL
1070
   379
1070
     1
1001
ACAD_DSTYLE_DIM_LINETYPE
1070
   380
1005
5B
1001
ACAD_DSTYLE_DIM_EXT1_LINETYPE
1070
   381
1005
5B
1001
ACAD_DSTYLE_DIM_EXT2_LINETYPE
1070
   382
1005
5B
  0
DIMSTYLE
105
162A
330
A
100
AcDbSymbolTableRecord
100
AcDbDimStyleTableRecord
  2
AM_ISO$SH
 70
     0
  4
"
 41
3.5
 42
1.0
 43
10.0
 44
1.0
 47
0.1
 48
0.1
 73
     0
 74
     0
 75
     1
 76
     1
 77
     1
 78
     8
 79
     2
140
3.5
141
0.0
143
0.0393701
144
2.0
146
0.71
147
1.5
172
     1
173
     1
176
   256
177
   256
178
   140
271
     2
272
     3
274
     4
283
     0
284
     8
340
55
343
1626
371
    -1
372
    -1
1001
ACAD_DSTYLE_DIMARC_LENGTH_SYMBOL
1070
   379
1070
     1
1001
ACAD_DSTYLE_DIM_LINETYPE
1070
   380
1005
5B
1001
ACAD_DSTYLE_DIM_EXT1_LINETYPE
1070
   381
1005
5B
1001
ACAD_DSTYLE_DIM_EXT2_LINETYPE
1070
   382
1005
5B
  0
DIMSTYLE
105
16F9
102
{ACAD_REACTORS
330
1A88
330
1AE5
102
}
330
A
100
AcDbSymbolTableRecord
100
AcDbDimStyleTableRecord
  2
GULLY
 70
     0
 40
2.0
 41
1.5
 42
0.0
 43
5.999999999999999
 44
1.0
 45
0.00000001
 46
10.0
 47
1.0
 48
1.0
 73
     0
 74
     0
 77
     1
 78
     8
140
6.0
143
0.03937
146
1.001485756465366
147
0.762
171
     3
176
   256
177
   256
178
   256
279
     2
340
55
  0
DIMSTYLE
105
16FA
102
{ACAD_REACTORS
330
1A87
330
1AE4
102
}
330
A
100
AcDbSymbolTableRecord
100
AcDbDimStyleTableRecord
  2
GULLY 1
 70
     0
 40
2.0
 41
1.5
 42
0.0
 43
5.999999999999999
 44
1.0
 45
1.0
 46
10.0
 47
1.0
 48
1.0
 73
     0
 74
     0
 77
     1
 78
     8
140
6.0
143
0.03937
146
1.001485756465366
147
0.762
171
     3
176
   256
177
   256
178
   256
279
     2
284
     8
285
     8
286
     8
340
55
  0
ENDTAB
  0
TABLE
  2
BLOCK_RECORD
  5
1
330
0
100
AcDbSymbolTable
 70
    48
  0
BLOCK_RECORD
  5
6C
102
{ACAD_XDICTIONARY
360
1A1A
102
}
330
1
100
AcDbSymbolTableRecord
100
AcDbBlockTableRecord
  2
*Model_Space
340
6F
  0
BLOCK_RECORD
  5
68
330
1
100
AcDbSymbolTableRecord
100
AcDbBlockTableRecord
  2
*Paper_Space
340
6B
  0
BLOCK_RECORD
  5
70
330
1
100
AcDbSymbolTableRecord
100
AcDbBlockTableRecord
  2
*Paper_Space0
340
73
  0
BLOCK_RECORD
  5
98
330
1
100
AcDbSymbolTableRecord
100
AcDbBlockTableRecord
  2
Filled-1
340
0
  0
BLOCK_RECORD
  5
B3
330
1
100
AcDbSymbolTableRecord
100
AcDbBlockTableRecord
  2
_Closed
340
0
  0
BLOCK_RECORD
  5
BA
330
1
100
AcDbSymbolTableRecord
100
AcDbBlockTableRecord
  2
DatumFilled45
340
0
  0
BLOCK_RECORD
  5
C5
330
1
100
AcDbSymbolTableRecord
100
AcDbBlockTableRecord
  2
WIG-svarovani
340
0
  0
BLOCK_RECORD
  5
CF
330
1
100
AcDbSymbolTableRecord
100
AcDbBlockTableRecord
  2
Popis kotvy_srouby
340
0
  0
BLOCK_RECORD
  5
D3
330
1
100
AcDbSymbolTableRecord
100
AcDbBlockTableRecord
  2
Mater. provedeni Art.
340
0
  0
BLOCK_RECORD
  5
F5
330
1
100
AcDbSymbolTableRecord
100
AcDbBlockTableRecord
  2
Art. s popisy
340
0
  0
BLOCK_RECORD
  5
117
330
1
100
AcDbSymbolTableRecord
100
AcDbBlockTableRecord
  2
Tryskat
340
0
  0
BLOCK_RECORD
  5
11B
330
1
100
AcDbSymbolTableRecord
100
AcDbBlockTableRecord
  2
Morit
340
0
  0
BLOCK_RECORD
  5
11F
330
1
100
AcDbSymbolTableRecord
100
AcDbBlockTableRecord
  2
zinkovat
340
0
  0
BLOCK_RECORD
  5
123
330
1
100
AcDbSymbolTableRecord
100
AcDbBlockTableRecord
  2
Nater
340
0
  0
BLOCK_RECORD
  5
127
330
1
100
AcDbSymbolTableRecord
100
AcDbBlockTableRecord
  2
Brus
340
0
  0
BLOCK_RECORD
  5
12B
330
1
100
AcDbSymbolTableRecord
100
AcDbBlockTableRecord
  2
Elektroliticky lestit
340
0
  0
BLOCK_RECORD
  5
130
330
1
100
AcDbSymbolTableRecord
100
AcDbBlockTableRecord
  2
Rámečky Default Border
340
0
  0
BLOCK_RECORD
  5
177
330
1
100
AcDbSymbolTableRecord
100
AcDbBlockTableRecord
  2
Rohová razítka ACO-razitko
340
0
  0
BLOCK_RECORD
  5
276
330
1
100
AcDbSymbolTableRecord
100
AcDbBlockTableRecord
  2
KUSOVNÍK
340
0
  0
BLOCK_RECORD
  5
2B4
330
1
100
AcDbSymbolTableRecord
100
AcDbBlockTableRecord
  2
*D17
340
0
  0
BLOCK_RECORD
  5
6EF
330
1
100
AcDbSymbolTableRecord
100
AcDbBlockTableRecord
  2
*D18
340
0
  0
BLOCK_RECORD
  5
7CB
330
1
100
AcDbSymbolTableRecord
100
AcDbBlockTableRecord
  2
*D19
340
0
  0
BLOCK_RECORD
  5
8A7
330
1
100
AcDbSymbolTableRecord
100
AcDbBlockTableRecord
  2
*D20
340
0
  0
BLOCK_RECORD
  5
105F
330
1
100
AcDbSymbolTableRecord
100
AcDbBlockTableRecord
  2
Pozice1
340
0
  0
BLOCK_RECORD
  5
1071
330
1
100
AcDbSymbolTableRecord
100
AcDbBlockTableRecord
  2
Pozice2
340
0
  0
BLOCK_RECORD
  5
1083
330
1
100
AcDbSymbolTableRecord
100
AcDbBlockTableRecord
  2
Pozice3
340
0
  0
BLOCK_RECORD
  5
109F
330
1
100
AcDbSymbolTableRecord
100
AcDbBlockTableRecord
  2
Identifikátor značky svaru1
340
0
  0
BLOCK_RECORD
  5
10B3
330
1
100
AcDbSymbolTableRecord
100
AcDbBlockTableRecord
  2
Identifikátor značky svaru2
340
0
  0
BLOCK_RECORD
  5
11A9
330
1
100
AcDbSymbolTableRecord
100
AcDbBlockTableRecord
  2
2dPrevedenyRez0
340
0
  0
BLOCK_RECORD
  5
11E3
330
1
100
AcDbSymbolTableRecord
100
AcDbBlockTableRecord
  2
2dPrevedenyRez1
340
0
  0
BLOCK_RECORD
  5
1626
330
1
100
AcDbSymbolTableRecord
100
AcDbBlockTableRecord
  2
GENAXEH
340
0
  0
BLOCK_RECORD
  5
16DD
330
1
100
AcDbSymbolTableRecord
100
AcDbBlockTableRecord
  2
*D29
340
0
  0
BLOCK_RECORD
  5
16E9
330
1
100
AcDbSymbolTableRecord
100
AcDbBlockTableRecord
  2
*D30
340
0
  0
BLOCK_RECORD
  5
1722
330
1
100
AcDbSymbolTableRecord
100
AcDbBlockTableRecord
  2
*D31
340
0
  0
BLOCK_RECORD
  5
172E
330
1
100
AcDbSymbolTableRecord
100
AcDbBlockTableRecord
  2
*D32
340
0
  0
BLOCK_RECORD
  5
175F
330
1
100
AcDbSymbolTableRecord
100
AcDbBlockTableRecord
  2
*D33
340
0
  0
BLOCK_RECORD
  5
176B
330
1
100
AcDbSymbolTableRecord
100
AcDbBlockTableRecord
  2
*D34
340
0
  0
BLOCK_RECORD
  5
1781
330
1
100
AcDbSymbolTableRecord
100
AcDbBlockTableRecord
  2
*D35
340
0
  0
BLOCK_RECORD
  5
178D
330
1
100
AcDbSymbolTableRecord
100
AcDbBlockTableRecord
  2
*D36
340
0
  0
BLOCK_RECORD
  5
1A4D
330
1
100
AcDbSymbolTableRecord
100
AcDbBlockTableRecord
  2
*D38
340
0
  0
BLOCK_RECORD
  5
1A59
330
1
100
AcDbSymbolTableRecord
100
AcDbBlockTableRecord
  2
*D39
340
0
  0
BLOCK_RECORD
  5
1A89
330
1
100
AcDbSymbolTableRecord
100
AcDbBlockTableRecord
  2
*D41
340
0
  0
BLOCK_RECORD
  5
1A95
330
1
100
AcDbSymbolTableRecord
100
AcDbBlockTableRecord
  2
*D42
340
0
  0
BLOCK_RECORD
  5
1AC6
330
1
100
AcDbSymbolTableRecord
100
AcDbBlockTableRecord
  2
*D43
340
0
  0
BLOCK_RECORD
  5
1AD2
330
1
100
AcDbSymbolTableRecord
100
AcDbBlockTableRecord
  2
*D44
340
0
  0
BLOCK_RECORD
  5
1AE6
330
1
100
AcDbSymbolTableRecord
100
AcDbBlockTableRecord
  2
*D46
340
0
  0
BLOCK_RECORD
  5
1AF2
330
1
100
AcDbSymbolTableRecord
100
AcDbBlockTableRecord
  2
*D47
340
0
  0
ENDTAB
  0
ENDSEC
  0
SECTION
  2
BLOCKS
  0
BLOCK
  5
6D
330
6C
100
AcDbEntity
  8
0
100
AcDbBlockBegin
  2
*Model_Space
 70
     0
 10
0.0
 20
0.0
 30
0.0
  3
*Model_Space
  1

  0
ENDBLK
  5
6E
330
6C
100
AcDbEntity
  8
0
100
AcDbBlockEnd
  0
BLOCK
  5
69
330
68
100
AcDbEntity
 67
     1
  8
0
100
AcDbBlockBegin
  2
*Paper_Space
 70
     0
 10
0.0
 20
0.0
 30
0.0
  3
*Paper_Space
  1

  0
ENDBLK
  5
6A
330
68
100
AcDbEntity
 67
     1
  8
0
100
AcDbBlockEnd
  0
BLOCK
  5
71
330
70
100
AcDbEntity
 67
     1
  8
0
100
AcDbBlockBegin
  2
*Paper_Space0
 70
     0
 10
0.0
 20
0.0
 30
0.0
  3
*Paper_Space0
  1

  0
ENDBLK
  5
72
330
70
100
AcDbEntity
 67
     1
  8
0
100
AcDbBlockEnd
  0
BLOCK
  5
99
330
98
100
AcDbEntity
  8
0
100
AcDbBlockBegin
  2
Filled-1
 70
     0
 10
0.0
 20
0.0
 30
0.0
  3
Filled-1
  1

  0
LINE
  5
9B
330
98
100
AcDbEntity
  8
0
 62
     0
100
AcDbLine
 10
-1.0
 20
0.0
 30
0.0
 11
0.0
 21
0.0
 31
0.0
  0
POLYLINE
  5
9C
330
98
100
AcDbEntity
  8
0
 62
     0
100
AcDb2dPolyline
 66
     1
 10
0.0
 20
0.0
 30
0.0
 70
   128
  0
VERTEX
  5
9D
330
9C
100
AcDbEntity
  8
0
 62
     0
100
AcDbVertex
100
AcDb2dVertex
 10
-1.0
 20
-0.1
 30
0.0
  0
VERTEX
  5
9E
330
9C
100
AcDbEntity
  8
0
 62
     0
100
AcDbVertex
100
AcDb2dVertex
 10
0.0
 20
0.0
 30
0.0
  0
VERTEX
  5
A0
330
9C
100
AcDbEntity
  8
0
 62
     0
100
AcDbVertex
100
AcDb2dVertex
 10
-1.0
 20
0.1
 30
0.0
  0
VERTEX
  5
A1
330
9C
100
AcDbEntity
  8
0
 62
     0
100
AcDbVertex
100
AcDb2dVertex
 10
-1.0
 20
-0.1
 30
0.0
  0
SEQEND
  5
9F
330
9C
100
AcDbEntity
  8
0
 62
     0
  0
SOLID
  5
A2
330
98
100
AcDbEntity
  8
0
 62
     0
100
AcDbTrace
 10
-1.0
 20
-0.1
 30
0.0
 11
0.0
 21
0.0
 31
0.0
 12
-1.0
 22
0.1
 32
0.0
 13
-1.0
 23
-0.1
 33
0.0
  0
LINE
  5
A3
330
98
100
AcDbEntity
  8
0
 62
     0
100
AcDbLine
 10
-1.0
 20
-0.1
 30
0.0
 11
0.0
 21
0.0
 31
0.0
  0
LINE
  5
A4
330
98
100
AcDbEntity
  8
0
 62
     0
100
AcDbLine
 10
0.0
 20
0.0
 30
0.0
 11
-1.0
 21
0.1
 31
0.0
  0
LINE
  5
A5
330
98
100
AcDbEntity
  8
0
 62
     0
100
AcDbLine
 10
-1.0
 20
0.1
 30
0.0
 11
-1.0
 21
-0.1
 31
0.0
  0
ENDBLK
  5
9A
330
98
100
AcDbEntity
  8
0
100
AcDbBlockEnd
  0
BLOCK
  5
B8
330
B3
100
AcDbEntity
  8
0
100
AcDbBlockBegin
  2
_Closed
 70
     0
 10
0.0
 20
0.0
 30
0.0
  3
_Closed
  1

  0
LINE
  5
B4
330
B3
100
AcDbEntity
  8
0
  6
ByBlock
 62
     0
370
    -2
100
AcDbLine
 10
-1.0
 20
0.1666666666666666
 30
0.0
 11
0.0
 21
0.0
 31
0.0
  0
LINE
  5
B5
330
B3
100
AcDbEntity
  8
0
  6
ByBlock
 62
     0
370
    -2
100
AcDbLine
 10
0.0
 20
0.0
 30
0.0
 11
-1.0
 21
-0.1666666666666666
 31
0.0
  0
LINE
  5
B6
330
B3
100
AcDbEntity
  8
0
  6
ByBlock
 62
     0
370
    -2
100
AcDbLine
 10
-1.0
 20
0.1666666666666666
 30
0.0
 11
-1.0
 21
-0.1666666666666666
 31
0.0
  0
LINE
  5
B7
330
B3
100
AcDbEntity
  8
0
  6
ByBlock
 62
     0
370
    -2
100
AcDbLine
 10
0.0
 20
0.0
 30
0.0
 11
-1.0
 21
0.0
 31
0.0
  0
ENDBLK
  5
B9
330
B3
100
AcDbEntity
  8
0
100
AcDbBlockEnd
  0
BLOCK
  5
BB
330
BA
100
AcDbEntity
  8
0
100
AcDbBlockBegin
  2
DatumFilled45
 70
     0
 10
0.0
 20
0.0
 30
0.0
  3
DatumFilled45
  1

  0
POLYLINE
  5
BD
330
BA
100
AcDbEntity
  8
0
 62
     0
100
AcDb2dPolyline
 66
     1
 10
0.0
 20
0.0
 30
0.0
 70
   128
  0
VERTEX
  5
BE
330
BD
100
AcDbEntity
  8
0
 62
     0
100
AcDbVertex
100
AcDb2dVertex
 10
0.0
 20
1.0
 30
0.0
  0
VERTEX
  5
BF
330
BD
100
AcDbEntity
  8
0
 62
     0
100
AcDbVertex
100
AcDb2dVertex
 10
0.0
 20
-1.0
 30
0.0
  0
VERTEX
  5
C1
330
BD
100
AcDbEntity
  8
0
 62
     0
100
AcDbVertex
100
AcDb2dVertex
 10
-1.0
 20
0.0
 30
0.0
  0
VERTEX
  5
C2
330
BD
100
AcDbEntity
  8
0
 62
     0
100
AcDbVertex
100
AcDb2dVertex
 10
0.0
 20
1.0
 30
0.0
  0
SEQEND
  5
C0
330
BD
100
AcDbEntity
  8
0
 62
     0
  0
SOLID
  5
C3
330
BA
100
AcDbEntity
  8
0
 62
     0
100
AcDbTrace
 10
0.0
 20
1.0
 30
0.0
 11
0.0
 21
-1.0
 31
0.0
 12
-1.0
 22
0.0
 32
0.0
 13
0.0
 23
1.0
 33
0.0
  0
ENDBLK
  5
BC
330
BA
100
AcDbEntity
  8
0
100
AcDbBlockEnd
  0
BLOCK
  5
C6
330
C5
100
AcDbEntity
  8
0
100
AcDbBlockBegin
  2
WIG-svarovani
 70
     0
 10
0.0
 20
0.0
 30
0.0
  3
WIG-svarovani
  1

  0
MTEXT
  5
C8
330
C5
100
AcDbEntity
  8
Značka (ISO)
100
AcDbMText
 10
-57.87338256835937
 20
16.31795931607484
 30
0.0
 40
3.499999940395355
 41
115.7467651367187
 71
     1
 72
     1
  1
\fTahoma|b0|i0;WIG Schweisung, Nahte sauber geschliffen und poliert
  7
Text poznámky (ISO)
 73
     1
 44
1.0
  0
MTEXT
  5
CA
330
C5
100
AcDbEntity
  8
Značka (ISO)
100
AcDbMText
 10
-57.87338256835937
 20
10.55530179291963
 30
0.0
 40
3.499999940395355
 41
108.1851768493652
 71
     1
 72
     1
  1
\fTahoma|b0|i0;Sichtstege geschliffen mit 240 Korn und abgeklebt.
  7
Text poznámky (ISO)
 73
     1
 44
1.0
  0
MTEXT
  5
CB
330
C5
100
AcDbEntity
  8
Značka (ISO)
100
AcDbMText
 10
-57.87338256835937
 20
4.744246490299699
 30
0.0
 40
3.000000119209288
 41
0.0
 71
     1
 72
     1
  1
\fTahoma|b0|i0; 
  7
Text poznámky (ISO)
 73
     1
 44
1.0
  0
MTEXT
  5
CC
330
C5
100
AcDbEntity
  8
Značka (ISO)
100
AcDbMText
 10
-57.87338256835937
 20
-0.1694674417376518
 30
0.0
 40
3.499999940395355
 41
93.11872482299804
 71
     1
 72
     1
  1
\fTahoma|b0|i0;WIG svarovani- svary dle potreby zabrousit.
  7
Text poznámky (ISO)
 73
     1
 44
1.0
  0
MTEXT
  5
CD
330
C5
100
AcDbEntity
  8
Značka (ISO)
100
AcDbMText
 10
-57.87338256835937
 20
-5.932125560939311
 30
0.0
 40
3.499999940395355
 41
103.8512992858886
 71
     1
 72
     1
  1
\fTahoma|b0|i0;Pohledove plochy brousit (vel. brusnych zrn 240)
  7
Text poznámky (ISO)
 73
     1
 44
1.0
  0
MTEXT
  5
CE
330
C5
100
AcDbEntity
  8
Značka (ISO)
100
AcDbMText
 10
-57.87338256835937
 20
-11.69478368014097
 30
0.0
 40
3.499999940395355
 41
34.83833074569702
 71
     1
 72
     1
  1
\fTahoma|b0|i0;a polepit paskou
  7
Text poznámky (ISO)
 73
     1
 44
1.0
  0
ENDBLK
  5
C7
330
C5
100
AcDbEntity
  8
0
100
AcDbBlockEnd
  0
BLOCK
  5
D0
330
CF
100
AcDbEntity
  8
0
100
AcDbBlockBegin
  2
Popis kotvy_srouby
 70
     0
 10
0.0
 20
0.0
 30
0.0
  3
Popis kotvy_srouby
  1

  0
MTEXT
  5
D2
330
CF
100
AcDbEntity
  8
Značka (ISO)
100
AcDbMText
 10
-39.79761123657226
 20
21.84130281209946
 30
0.0
 40
3.499999940395355
 41
0.0
 71
     1
 72
     1
  1
Vzdalenost nivel. sroubu ca. 1500\PVzdalenost kotev ca. 400\PVzdalenost dist. koliku ca. 250\P\PAbstand der Nivellieschraben ca.1500\PAbstand der Maueranker ca.400\PAbstand der Distanzstege ca.250\P
  7
Text poznámky (ISO)
 73
     2
 44
0.9878841638565063
  0
ENDBLK
  5
D1
330
CF
100
AcDbEntity
  8
0
100
AcDbBlockEnd
  0
BLOCK
  5
D4
330
D3
100
AcDbEntity
  8
0
100
AcDbBlockBegin
  2
Mater. provedeni Art.
 70
     0
 10
0.0
 20
0.0
 30
0.0
  3
Mater. provedeni Art.
  1

  0
LINE
  5
D6
330
D3
100
AcDbEntity
  8
Geometrie náčrtu (ISO)
100
AcDbLine
 10
-35.0
 20
-22.5
 30
0.0
 11
35.0
 21
-22.5
 31
0.0
  0
LINE
  5
D7
330
D3
100
AcDbEntity
  8
Geometrie náčrtu (ISO)
100
AcDbLine
 10
35.0
 20
-22.5
 30
0.0
 11
34.99999999999996
 21
-13.49999999999998
 31
0.0
  0
LINE
  5
D8
330
D3
100
AcDbEntity
  8
Geometrie náčrtu (ISO)
100
AcDbLine
 10
34.99999999999996
 20
-13.49999999999998
 30
0.0
 11
-35.00000000000003
 21
-13.49999999999998
 31
0.0
  0
LINE
  5
D9
330
D3
100
AcDbEntity
  8
Geometrie náčrtu (ISO)
100
AcDbLine
 10
-35.00000000000003
 20
-13.49999999999998
 30
0.0
 11
-35.0
 21
-22.5
 31
0.0
  0
LINE
  5
DA
330
D3
100
AcDbEntity
  8
Geometrie náčrtu (ISO)
100
AcDbLine
 10
-35.00000000000003
 20
-13.49999999999998
 30
0.0
 11
34.99999999999996
 21
-13.49999999999998
 31
0.0
  0
LINE
  5
DB
330
D3
100
AcDbEntity
  8
Geometrie náčrtu (ISO)
100
AcDbLine
 10
34.99999999999996
 20
-13.49999999999998
 30
0.0
 11
34.99999999999996
 21
-4.499999999999992
 31
0.0
  0
LINE
  5
DC
330
D3
100
AcDbEntity
  8
Geometrie náčrtu (ISO)
100
AcDbLine
 10
34.99999999999996
 20
-4.499999999999992
 30
0.0
 11
-35.00000000000003
 21
-4.499999999999992
 31
0.0
  0
LINE
  5
DD
330
D3
100
AcDbEntity
  8
Geometrie náčrtu (ISO)
100
AcDbLine
 10
-35.00000000000003
 20
-4.499999999999992
 30
0.0
 11
-35.00000000000003
 21
-13.49999999999998
 31
0.0
  0
LINE
  5
DE
330
D3
100
AcDbEntity
  8
Geometrie náčrtu (ISO)
100
AcDbLine
 10
-35.00000000000003
 20
-4.499999999999992
 30
0.0
 11
34.99999999999996
 21
-4.499999999999992
 31
0.0
  0
LINE
  5
DF
330
D3
100
AcDbEntity
  8
Geometrie náčrtu (ISO)
100
AcDbLine
 10
34.99999999999996
 20
-4.499999999999992
 30
0.0
 11
34.99999999999996
 21
4.499999999999992
 31
0.0
  0
LINE
  5
E0
330
D3
100
AcDbEntity
  8
Geometrie náčrtu (ISO)
100
AcDbLine
 10
34.99999999999996
 20
4.499999999999992
 30
0.0
 11
-35.00000000000003
 21
4.499999999999992
 31
0.0
  0
LINE
  5
E1
330
D3
100
AcDbEntity
  8
Geometrie náčrtu (ISO)
100
AcDbLine
 10
-35.00000000000003
 20
4.499999999999992
 30
0.0
 11
-35.00000000000003
 21
-4.499999999999992
 31
0.0
  0
LINE
  5
E2
330
D3
100
AcDbEntity
  8
Geometrie náčrtu (ISO)
100
AcDbLine
 10
-35.00000000000003
 20
4.499999999999992
 30
0.0
 11
34.99999999999996
 21
4.499999999999992
 31
0.0
  0
LINE
  5
E3
330
D3
100
AcDbEntity
  8
Geometrie náčrtu (ISO)
100
AcDbLine
 10
34.99999999999996
 20
4.499999999999992
 30
0.0
 11
34.99999999999996
 21
13.50000000000001
 31
0.0
  0
LINE
  5
E4
330
D3
100
AcDbEntity
  8
Geometrie náčrtu (ISO)
100
AcDbLine
 10
34.99999999999996
 20
13.50000000000001
 30
0.0
 11
-35.00000000000003
 21
13.50000000000001
 31
0.0
  0
LINE
  5
E5
330
D3
100
AcDbEntity
  8
Geometrie náčrtu (ISO)
100
AcDbLine
 10
-35.00000000000003
 20
13.50000000000001
 30
0.0
 11
-35.00000000000003
 21
4.499999999999992
 31
0.0
  0
LINE
  5
E6
330
D3
100
AcDbEntity
  8
Geometrie náčrtu (ISO)
100
AcDbLine
 10
-35.00000000000003
 20
13.50000000000001
 30
0.0
 11
34.99999999999996
 21
13.50000000000001
 31
0.0
  0
LINE
  5
E7
330
D3
100
AcDbEntity
  8
Geometrie náčrtu (ISO)
100
AcDbLine
 10
34.99999999999996
 20
13.50000000000001
 30
0.0
 11
34.99999999999996
 21
22.5
 31
0.0
  0
LINE
  5
E8
330
D3
100
AcDbEntity
  8
Geometrie náčrtu (ISO)
100
AcDbLine
 10
34.99999999999996
 20
22.5
 30
0.0
 11
-35.00000000000003
 21
22.5
 31
0.0
  0
LINE
  5
E9
330
D3
100
AcDbEntity
  8
Geometrie náčrtu (ISO)
100
AcDbLine
 10
-35.00000000000003
 20
22.5
 30
0.0
 11
-35.00000000000003
 21
13.50000000000001
 31
0.0
  0
LINE
  5
EA
330
D3
100
AcDbEntity
  8
Geometrie náčrtu (ISO)
100
AcDbLine
 10
-6.999999999999992
 20
22.5
 30
0.0
 11
-6.999999999999992
 21
-22.5
 31
0.0
  0
MTEXT
  5
EB
330
D3
100
AcDbEntity
  8
Značka (ISO)
100
AcDbMText
 10
-5.126613448311374
 20
11.7684641726084
 30
0.0
 40
5.0
 41
37.43922233581543
 71
     1
 72
     1
  1
\fTahoma|b0|i0;xxxxxxxxxxx
  7
Text poznámky (ISO)
 73
     1
 44
1.0
  0
MTEXT
  5
EC
330
D3
100
AcDbEntity
  8
Značka (ISO)
100
AcDbMText
 10
-33.0130165251342
 20
11.7684641726084
 30
0.0
 40
5.0
 41
20.42139291763306
 71
     1
 72
     1
  1
\fTahoma|b0|i0;xxxxxx
  7
Text poznámky (ISO)
 73
     1
 44
1.0
  0
MTEXT
  5
ED
330
D3
100
AcDbEntity
  8
Značka (ISO)
100
AcDbMText
 10
-32.07756235018873
 20
20.30710993714994
 30
0.0
 40
5.0
 41
10.98865509033203
 71
     1
 72
     1
  1
\fTahoma|b0|i0;Art.
  7
Text poznámky (ISO)
 73
     1
 44
1.0
  0
MTEXT
  5
EE
330
D3
100
AcDbEntity
  8
Značka (ISO)
100
AcDbMText
 10
4.291672002492318
 20
20.30710993714994
 30
0.0
 40
5.0
 41
13.29416513442993
 71
     1
 72
     1
  1
\fTahoma|b0|i0;Mat.
  7
Text poznámky (ISO)
 73
     1
 44
1.0
  0
MTEXT
  5
EF
330
D3
100
AcDbEntity
  8
Značka (ISO)
100
AcDbMText
 10
-33.0130165251342
 20
2.473781856899818
 30
0.0
 40
5.0
 41
20.42139291763306
 71
     1
 72
     1
  1
\fTahoma|b0|i0;xxxxxx
  7
Text poznámky (ISO)
 73
     1
 44
1.0
  0
MTEXT
  5
F0
330
D3
100
AcDbEntity
  8
Značka (ISO)
100
AcDbMText
 10
-5.126613448311374
 20
2.473781856899818
 30
0.0
 40
5.0
 41
37.43922233581543
 71
     1
 72
     1
  1
\fTahoma|b0|i0;xxxxxxxxxxx
  7
Text poznámky (ISO)
 73
     1
 44
1.0
  0
MTEXT
  5
F1
330
D3
100
AcDbEntity
  8
Značka (ISO)
100
AcDbMText
 10
-33.0130165251342
 20
-6.862452441171491
 30
0.0
 40
5.0
 41
20.42139291763306
 71
     1
 72
     1
  1
\fTahoma|b0|i0;xxxxxx
  7
Text poznámky (ISO)
 73
     1
 44
1.0
  0
MTEXT
  5
F2
330
D3
100
AcDbEntity
  8
Značka (ISO)
100
AcDbMText
 10
-5.126613448311374
 20
-6.862452441171491
 30
0.0
 40
5.0
 41
37.43922233581543
 71
     1
 72
     1
  1
\fTahoma|b0|i0;xxxxxxxxxxx
  7
Text poznámky (ISO)
 73
     1
 44
1.0
  0
MTEXT
  5
F3
330
D3
100
AcDbEntity
  8
Značka (ISO)
100
AcDbMText
 10
-33.0130165251342
 20
-15.52177565039578
 30
0.0
 40
5.0
 41
20.42139291763306
 71
     1
 72
     1
  1
\fTahoma|b0|i0;xxxxxx
  7
Text poznámky (ISO)
 73
     1
 44
1.0
  0
MTEXT
  5
F4
330
D3
100
AcDbEntity
  8
Značka (ISO)
100
AcDbMText
 10
-5.126613448311374
 20
-15.52177565039578
 30
0.0
 40
5.0
 41
37.43922233581543
 71
     1
 72
     1
  1
\fTahoma|b0|i0;xxxxxxxxxxx
  7
Text poznámky (ISO)
 73
     1
 44
1.0
  0
ENDBLK
  5
D5
330
D3
100
AcDbEntity
  8
0
100
AcDbBlockEnd
  0
BLOCK
  5
F6
330
F5
100
AcDbEntity
  8
0
100
AcDbBlockBegin
  2
Art. s popisy
 70
     0
 10
0.0
 20
0.0
 30
0.0
  3
Art. s popisy
  1

  0
LINE
  5
F8
330
F5
100
AcDbEntity
  8
Geometrie náčrtu (ISO)
100
AcDbLine
 10
-60.00000000000081
 20
-22.5
 30
0.0
 11
59.99999999999911
 21
-22.5
 31
0.0
  0
LINE
  5
F9
330
F5
100
AcDbEntity
  8
Geometrie náčrtu (ISO)
100
AcDbLine
 10
59.99999999999911
 20
-22.5
 30
0.0
 11
60.00000000000081
 21
-13.50000000000001
 31
0.0
  0
LINE
  5
FA
330
F5
100
AcDbEntity
  8
Geometrie náčrtu (ISO)
100
AcDbLine
 10
60.00000000000081
 20
-13.50000000000001
 30
0.0
 11
-60.00000000000081
 21
-13.49999999999998
 31
0.0
  0
LINE
  5
FB
330
F5
100
AcDbEntity
  8
Geometrie náčrtu (ISO)
100
AcDbLine
 10
-60.00000000000081
 20
-13.49999999999998
 30
0.0
 11
-60.00000000000081
 21
-22.5
 31
0.0
  0
LINE
  5
FC
330
F5
100
AcDbEntity
  8
Geometrie náčrtu (ISO)
100
AcDbLine
 10
-60.00000000000081
 20
-13.49999999999998
 30
0.0
 11
60.00000000000081
 21
-13.50000000000001
 31
0.0
  0
LINE
  5
FD
330
F5
100
AcDbEntity
  8
Geometrie náčrtu (ISO)
100
AcDbLine
 10
60.00000000000081
 20
-13.50000000000001
 30
0.0
 11
59.99999999999911
 21
-4.500000000000028
 31
0.0
  0
LINE
  5
FE
330
F5
100
AcDbEntity
  8
Geometrie náčrtu (ISO)
100
AcDbLine
 10
59.99999999999911
 20
-4.500000000000028
 30
0.0
 11
-60.00000000000081
 21
-4.499999999999992
 31
0.0
  0
LINE
  5
FF
330
F5
100
AcDbEntity
  8
Geometrie náčrtu (ISO)
100
AcDbLine
 10
-60.00000000000081
 20
-4.499999999999992
 30
0.0
 11
-60.00000000000081
 21
-13.49999999999998
 31
0.0
  0
LINE
  5
100
330
F5
100
AcDbEntity
  8
Geometrie náčrtu (ISO)
100
AcDbLine
 10
-60.00000000000081
 20
-4.499999999999992
 30
0.0
 11
59.99999999999911
 21
-4.500000000000028
 31
0.0
  0
LINE
  5
101
330
F5
100
AcDbEntity
  8
Geometrie náčrtu (ISO)
100
AcDbLine
 10
59.99999999999911
 20
-4.500000000000028
 30
0.0
 11
59.99999999999911
 21
4.499999999999957
 31
0.0
  0
LINE
  5
102
330
F5
100
AcDbEntity
  8
Geometrie náčrtu (ISO)
100
AcDbLine
 10
59.99999999999911
 20
4.499999999999957
 30
0.0
 11
-60.00000000000081
 21
4.499999999999992
 31
0.0
  0
LINE
  5
103
330
F5
100
AcDbEntity
  8
Geometrie náčrtu (ISO)
100
AcDbLine
 10
-60.00000000000081
 20
4.499999999999992
 30
0.0
 11
-60.00000000000081
 21
-4.499999999999992
 31
0.0
  0
LINE
  5
104
330
F5
100
AcDbEntity
  8
Geometrie náčrtu (ISO)
100
AcDbLine
 10
-60.00000000000081
 20
4.499999999999992
 30
0.0
 11
59.99999999999911
 21
4.499999999999957
 31
0.0
  0
LINE
  5
105
330
F5
100
AcDbEntity
  8
Geometrie náčrtu (ISO)
100
AcDbLine
 10
59.99999999999911
 20
4.499999999999957
 30
0.0
 11
59.99999999999911
 21
13.49999999999998
 31
0.0
  0
LINE
  5
106
330
F5
100
AcDbEntity
  8
Geometrie náčrtu (ISO)
100
AcDbLine
 10
59.99999999999911
 20
13.49999999999998
 30
0.0
 11
-60.00000000000081
 21
13.50000000000001
 31
0.0
  0
LINE
  5
107
330
F5
100
AcDbEntity
  8
Geometrie náčrtu (ISO)
100
AcDbLine
 10
-60.00000000000081
 20
13.50000000000001
 30
0.0
 11
-60.00000000000081
 21
4.499999999999992
 31
0.0
  0
LINE
  5
108
330
F5
100
AcDbEntity
  8
Geometrie náčrtu (ISO)
100
AcDbLine
 10
-60.00000000000081
 20
13.50000000000001
 30
0.0
 11
59.99999999999911
 21
13.49999999999998
 31
0.0
  0
LINE
  5
109
330
F5
100
AcDbEntity
  8
Geometrie náčrtu (ISO)
100
AcDbLine
 10
59.99999999999911
 20
13.49999999999998
 30
0.0
 11
59.99999999999911
 21
22.49999999999996
 31
0.0
  0
LINE
  5
10A
330
F5
100
AcDbEntity
  8
Geometrie náčrtu (ISO)
100
AcDbLine
 10
59.99999999999911
 20
22.49999999999996
 30
0.0
 11
-60.00000000000081
 21
22.5
 31
0.0
  0
LINE
  5
10B
330
F5
100
AcDbEntity
  8
Geometrie náčrtu (ISO)
100
AcDbLine
 10
-60.00000000000081
 20
22.5
 30
0.0
 11
-60.00000000000081
 21
13.50000000000001
 31
0.0
  0
LINE
  5
10C
330
F5
100
AcDbEntity
  8
Geometrie náčrtu (ISO)
100
AcDbLine
 10
-32.00000000000081
 20
22.5
 30
0.0
 11
-32.00000000000081
 21
-22.5
 31
0.0
  0
MTEXT
  5
10D
330
F5
100
AcDbEntity
  8
Značka (ISO)
100
AcDbMText
 10
-27.63552601875791
 20
11.7684641726084
 30
0.0
 40
5.0
 41
37.43922233581543
 71
     1
 72
     1
  1
\fTahoma|b0|i0;xxxxxxxxxxx
  7
Text poznámky (ISO)
 73
     1
 44
1.0
  0
MTEXT
  5
10E
330
F5
100
AcDbEntity
  8
Značka (ISO)
100
AcDbMText
 10
-55.52192909558073
 20
11.7684641726084
 30
0.0
 40
5.0
 41
20.42139291763306
 71
     1
 72
     1
  1
\fTahoma|b0|i0;xxxxxx
  7
Text poznámky (ISO)
 73
     1
 44
1.0
  0
MTEXT
  5
10F
330
F5
100
AcDbEntity
  8
Značka (ISO)
100
AcDbMText
 10
-54.58647492063526
 20
20.30710993714994
 30
0.0
 40
5.0
 41
10.98865509033203
 71
     1
 72
     1
  1
\fTahoma|b0|i0;Art.
  7
Text poznámky (ISO)
 73
     1
 44
1.0
  0
MTEXT
  5
110
330
F5
100
AcDbEntity
  8
Značka (ISO)
100
AcDbMText
 10
-18.21724056795421
 20
20.30710993714994
 30
0.0
 40
5.0
 41
18.04700136184692
 71
     1
 72
     1
  1
\fTahoma|b0|i0;Popis.
  7
Text poznámky (ISO)
 73
     1
 44
1.0
  0
MTEXT
  5
111
330
F5
100
AcDbEntity
  8
Značka (ISO)
100
AcDbMText
 10
-55.52192909558073
 20
2.473781856899818
 30
0.0
 40
5.0
 41
20.42139291763306
 71
     1
 72
     1
  1
\fTahoma|b0|i0;xxxxxx
  7
Text poznámky (ISO)
 73
     1
 44
1.0
  0
MTEXT
  5
112
330
F5
100
AcDbEntity
  8
Značka (ISO)
100
AcDbMText
 10
-27.63552601875791
 20
2.473781856899818
 30
0.0
 40
5.0
 41
37.43922233581543
 71
     1
 72
     1
  1
\fTahoma|b0|i0;xxxxxxxxxxx
  7
Text poznámky (ISO)
 73
     1
 44
1.0
  0
MTEXT
  5
113
330
F5
100
AcDbEntity
  8
Značka (ISO)
100
AcDbMText
 10
-55.52192909558073
 20
-6.862452441171491
 30
0.0
 40
5.0
 41
20.42139291763306
 71
     1
 72
     1
  1
\fTahoma|b0|i0;xxxxxx
  7
Text poznámky (ISO)
 73
     1
 44
1.0
  0
MTEXT
  5
114
330
F5
100
AcDbEntity
  8
Značka (ISO)
100
AcDbMText
 10
-27.63552601875791
 20
-6.862452441171491
 30
0.0
 40
5.0
 41
37.43922233581543
 71
     1
 72
     1
  1
\fTahoma|b0|i0;xxxxxxxxxxx
  7
Text poznámky (ISO)
 73
     1
 44
1.0
  0
MTEXT
  5
115
330
F5
100
AcDbEntity
  8
Značka (ISO)
100
AcDbMText
 10
-55.52192909558073
 20
-15.52177565039578
 30
0.0
 40
5.0
 41
20.42139291763306
 71
     1
 72
     1
  1
\fTahoma|b0|i0;xxxxxx
  7
Text poznámky (ISO)
 73
     1
 44
1.0
  0
MTEXT
  5
116
330
F5
100
AcDbEntity
  8
Značka (ISO)
100
AcDbMText
 10
-27.63552601875791
 20
-15.52177565039578
 30
0.0
 40
5.0
 41
37.43922233581543
 71
     1
 72
     1
  1
\fTahoma|b0|i0;xxxxxxxxxxx
  7
Text poznámky (ISO)
 73
     1
 44
1.0
  0
ENDBLK
  5
F7
330
F5
100
AcDbEntity
  8
0
100
AcDbBlockEnd
  0
BLOCK
  5
118
330
117
100
AcDbEntity
  8
0
100
AcDbBlockBegin
  2
Tryskat
 70
     0
 10
0.0
 20
0.0
 30
0.0
  3
Tryskat
  1

  0
MTEXT
  5
11A
330
117
100
AcDbEntity
  8
Značka (ISO)
100
AcDbMText
 10
-30.20239114761352
 20
5.036920197308063
 30
0.0
 40
3.499999940395355
 41
0.0
 71
     1
 72
     1
  1
Tryskat \P( Blasted , Glasperlstrahken)
  7
Text poznámky (ISO)
 73
     2
 44
0.9878841638565063
  0
ENDBLK
  5
119
330
117
100
AcDbEntity
  8
0
100
AcDbBlockEnd
  0
BLOCK
  5
11C
330
11B
100
AcDbEntity
  8
0
100
AcDbBlockBegin
  2
Morit
 70
     0
 10
0.0
 20
0.0
 30
0.0
  3
Morit
  1

  0
MTEXT
  5
11E
330
11B
100
AcDbEntity
  8
Značka (ISO)
100
AcDbMText
 10
-19.08124089241028
 20
5.11633675545454
 30
0.0
 40
3.499999940395355
 41
0.0
 71
     1
 72
     1
  1
Morit a pasivovat\P(Pickled, gebeitzt)
  7
Text poznámky (ISO)
 73
     2
 44
0.9878841638565063
  0
ENDBLK
  5
11D
330
11B
100
AcDbEntity
  8
0
100
AcDbBlockEnd
  0
BLOCK
  5
120
330
11F
100
AcDbEntity
  8
0
100
AcDbBlockBegin
  2
zinkovat
 70
     0
 10
0.0
 20
0.0
 30
0.0
  3
zinkovat
  1

  0
MTEXT
  5
122
330
11F
100
AcDbEntity
  8
Značka (ISO)
100
AcDbMText
 10
-27.74189710617065
 20
5.049683563411233
 30
0.0
 40
3.499999940395355
 41
0.0
 71
     1
 72
     1
  1
Zarove zinkovat\P(hot galvanized, verzinkt )
  7
Text poznámky (ISO)
 73
     2
 44
0.9878841638565063
  0
ENDBLK
  5
121
330
11F
100
AcDbEntity
  8
0
100
AcDbBlockEnd
  0
BLOCK
  5
124
330
123
100
AcDbEntity
  8
0
100
AcDbBlockBegin
  2
Nater
 70
     0
 10
0.0
 20
0.0
 30
0.0
  3
Nater
  1

  0
MTEXT
  5
126
330
123
100
AcDbEntity
  8
Značka (ISO)
100
AcDbMText
 10
-25.88411808013916
 20
1.864870421122757
 30
0.0
 40
3.499999940395355
 41
0.0
 71
     1
 72
     1
  1
Lackiert Farbe RAL 5002
  7
Text poznámky (ISO)
 73
     1
 44
1.0
  0
ENDBLK
  5
125
330
123
100
AcDbEntity
  8
0
100
AcDbBlockEnd
  0
BLOCK
  5
128
330
127
100
AcDbEntity
  8
0
100
AcDbBlockBegin
  2
Brus
 70
     0
 10
0.0
 20
0.0
 30
0.0
  3
Brus
  1

  0
MTEXT
  5
12A
330
127
100
AcDbEntity
  8
Značka (ISO)
100
AcDbMText
 10
-23.46616744995117
 20
5.11633675545454
 30
0.0
 40
3.499999940395355
 41
0.0
 71
     1
 72
     1
  1
Brousit\P(geburstet , brushed )
  7
Text poznámky (ISO)
 73
     2
 44
0.9878841638565063
  0
ENDBLK
  5
129
330
127
100
AcDbEntity
  8
0
100
AcDbBlockEnd
  0
BLOCK
  5
12C
330
12B
100
AcDbEntity
  8
0
100
AcDbBlockBegin
  2
Elektroliticky lestit
 70
     0
 10
0.0
 20
0.0
 30
0.0
  3
Elektroliticky lestit
  1

  0
MTEXT
  5
12E
330
12B
100
AcDbEntity
  8
Značka (ISO)
100
AcDbMText
 10
-18.68841171264648
 20
5.036920197308063
 30
0.0
 40
3.499999940395355
 41
0.0
 71
     1
 72
     1
  1
Elektrolit. lestit\P(Elektropolished )
  7
Text poznámky (ISO)
 73
     2
 44
0.9878841638565063
  0
ENDBLK
  5
12D
330
12B
100
AcDbEntity
  8
0
100
AcDbBlockEnd
  0
BLOCK
  5
131
330
130
100
AcDbEntity
  8
0
100
AcDbBlockBegin
  2
Rámečky Default Border
 70
     0
 10
0.0
 20
0.0
 30
0.0
  3
Rámečky Default Border
  1

  0
POLYLINE
  5
133
330
130
100
AcDbEntity
  8
Rámeček (ISO)
100
AcDb2dPolyline
 66
     1
 10
0.0
 20
0.0
 30
0.0
 70
   128
  0
VERTEX
  5
134
330
133
100
AcDbEntity
  8
Rámeček (ISO)
100
AcDbVertex
100
AcDb2dVertex
 10
10.0
 20
10.0
 30
0.0
  0
VERTEX
  5
135
330
133
100
AcDbEntity
  8
Rámeček (ISO)
100
AcDbVertex
100
AcDb2dVertex
 10
10.0
 20
287.0000076293946
 30
0.0
  0
VERTEX
  5
137
330
133
100
AcDbEntity
  8
Rámeček (ISO)
100
AcDbVertex
100
AcDb2dVertex
 10
410.0
 20
287.0000076293946
 30
0.0
  0
VERTEX
  5
138
330
133
100
AcDbEntity
  8
Rámeček (ISO)
100
AcDbVertex
100
AcDb2dVertex
 10
410.0
 20
10.0
 30
0.0
  0
VERTEX
  5
139
330
133
100
AcDbEntity
  8
Rámeček (ISO)
100
AcDbVertex
100
AcDb2dVertex
 10
10.0
 20
10.0
 30
0.0
  0
SEQEND
  5
136
330
133
100
AcDbEntity
  8
Rámeček (ISO)
  0
POLYLINE
  5
13A
330
130
100
AcDbEntity
  8
Rámeček (ISO)
100
AcDb2dPolyline
 66
     1
 10
0.0
 20
0.0
 30
0.0
 70
   128
  0
VERTEX
  5
13B
330
13A
100
AcDbEntity
  8
Rámeček (ISO)
100
AcDbVertex
100
AcDb2dVertex
 10
210.0
 20
0.0
 30
0.0
  0
VERTEX
  5
13C
330
13A
100
AcDbEntity
  8
Rámeček (ISO)
100
AcDbVertex
100
AcDb2dVertex
 10
210.0
 20
10.0
 30
0.0
  0
VERTEX
  5
13E
330
13A
100
AcDbEntity
  8
Rámeček (ISO)
100
AcDbVertex
100
AcDb2dVertex
 10
207.1132469177246
 20
5.0
 30
0.0
  0
VERTEX
  5
13F
330
13A
100
AcDbEntity
  8
Rámeček (ISO)
100
AcDbVertex
100
AcDb2dVertex
 10
212.8867530822754
 20
5.0
 30
0.0
  0
VERTEX
  5
140
330
13A
100
AcDbEntity
  8
Rámeček (ISO)
100
AcDbVertex
100
AcDb2dVertex
 10
210.0
 20
10.0
 30
0.0
  0
SEQEND
  5
13D
330
13A
100
AcDbEntity
  8
Rámeček (ISO)
  0
POLYLINE
  5
141
330
130
100
AcDbEntity
  8
Rámeček (ISO)
100
AcDb2dPolyline
 66
     1
 10
0.0
 20
0.0
 30
0.0
 70
   128
  0
VERTEX
  5
142
330
141
100
AcDbEntity
  8
Rámeček (ISO)
100
AcDbVertex
100
AcDb2dVertex
 10
210.0
 20
297.0000076293946
 30
0.0
  0
VERTEX
  5
143
330
141
100
AcDbEntity
  8
Rámeček (ISO)
100
AcDbVertex
100
AcDb2dVertex
 10
210.0
 20
287.0000076293946
 30
0.0
  0
VERTEX
  5
145
330
141
100
AcDbEntity
  8
Rámeček (ISO)
100
AcDbVertex
100
AcDb2dVertex
 10
207.1132469177246
 20
292.0000076293945
 30
0.0
  0
VERTEX
  5
146
330
141
100
AcDbEntity
  8
Rámeček (ISO)
100
AcDbVertex
100
AcDb2dVertex
 10
212.8867530822754
 20
292.0000076293945
 30
0.0
  0
VERTEX
  5
147
330
141
100
AcDbEntity
  8
Rámeček (ISO)
100
AcDbVertex
100
AcDb2dVertex
 10
210.0
 20
287.0000076293946
 30
0.0
  0
SEQEND
  5
144
330
141
100
AcDbEntity
  8
Rámeček (ISO)
  0
POLYLINE
  5
148
330
130
100
AcDbEntity
  8
Rámeček (ISO)
100
AcDb2dPolyline
 66
     1
 10
0.0
 20
0.0
 30
0.0
 70
   128
  0
VERTEX
  5
149
330
148
100
AcDbEntity
  8
Rámeček (ISO)
100
AcDbVertex
100
AcDb2dVertex
 10
0.0
 20
148.5000038146973
 30
0.0
  0
VERTEX
  5
14A
330
148
100
AcDbEntity
  8
Rámeček (ISO)
100
AcDbVertex
100
AcDb2dVertex
 10
10.0
 20
148.5000038146973
 30
0.0
  0
VERTEX
  5
14C
330
148
100
AcDbEntity
  8
Rámeček (ISO)
100
AcDbVertex
100
AcDb2dVertex
 10
5.0
 20
151.3867473602295
 30
0.0
  0
VERTEX
  5
14D
330
148
100
AcDbEntity
  8
Rámeček (ISO)
100
AcDbVertex
100
AcDb2dVertex
 10
5.0
 20
145.6132507324219
 30
0.0
  0
VERTEX
  5
14E
330
148
100
AcDbEntity
  8
Rámeček (ISO)
100
AcDbVertex
100
AcDb2dVertex
 10
10.0
 20
148.5000038146973
 30
0.0
  0
SEQEND
  5
14B
330
148
100
AcDbEntity
  8
Rámeček (ISO)
  0
POLYLINE
  5
14F
330
130
100
AcDbEntity
  8
Rámeček (ISO)
100
AcDb2dPolyline
 66
     1
 10
0.0
 20
0.0
 30
0.0
 70
   128
  0
VERTEX
  5
150
330
14F
100
AcDbEntity
  8
Rámeček (ISO)
100
AcDbVertex
100
AcDb2dVertex
 10
420.0
 20
148.5000038146973
 30
0.0
  0
VERTEX
  5
151
330
14F
100
AcDbEntity
  8
Rámeček (ISO)
100
AcDbVertex
100
AcDb2dVertex
 10
410.0
 20
148.5000038146973
 30
0.0
  0
VERTEX
  5
153
330
14F
100
AcDbEntity
  8
Rámeček (ISO)
100
AcDbVertex
100
AcDb2dVertex
 10
415.0
 20
151.3867473602295
 30
0.0
  0
VERTEX
  5
154
330
14F
100
AcDbEntity
  8
Rámeček (ISO)
100
AcDbVertex
100
AcDb2dVertex
 10
415.0
 20
145.6132507324219
 30
0.0
  0
VERTEX
  5
155
330
14F
100
AcDbEntity
  8
Rámeček (ISO)
100
AcDbVertex
100
AcDb2dVertex
 10
410.0
 20
148.5000038146973
 30
0.0
  0
SEQEND
  5
152
330
14F
100
AcDbEntity
  8
Rámeček (ISO)
  0
LINE
  5
156
330
130
100
AcDbEntity
  8
Rámeček (ISO)
100
AcDbLine
 10
70.0
 20
10.0
 30
0.0
 11
70.0
 21
6.100000143051147
 31
0.0
  0
LINE
  5
157
330
130
100
AcDbEntity
  8
Rámeček (ISO)
100
AcDbLine
 10
70.0
 20
287.0000076293946
 30
0.0
 11
70.0
 21
290.9000015258789
 31
0.0
  0
LINE
  5
158
330
130
100
AcDbEntity
  8
Rámeček (ISO)
100
AcDbLine
 10
140.0
 20
10.0
 30
0.0
 11
140.0
 21
6.100000143051147
 31
0.0
  0
LINE
  5
159
330
130
100
AcDbEntity
  8
Rámeček (ISO)
100
AcDbLine
 10
140.0
 20
287.0000076293946
 30
0.0
 11
140.0
 21
290.9000015258789
 31
0.0
  0
LINE
  5
15A
330
130
100
AcDbEntity
  8
Rámeček (ISO)
100
AcDbLine
 10
280.0
 20
10.0
 30
0.0
 11
280.0
 21
6.100000143051147
 31
0.0
  0
LINE
  5
15B
330
130
100
AcDbEntity
  8
Rámeček (ISO)
100
AcDbLine
 10
280.0
 20
287.0000076293946
 30
0.0
 11
280.0
 21
290.9000015258789
 31
0.0
  0
LINE
  5
15C
330
130
100
AcDbEntity
  8
Rámeček (ISO)
100
AcDbLine
 10
350.0
 20
10.0
 30
0.0
 11
350.0
 21
6.100000143051147
 31
0.0
  0
LINE
  5
15D
330
130
100
AcDbEntity
  8
Rámeček (ISO)
100
AcDbLine
 10
350.0
 20
287.0000076293946
 30
0.0
 11
350.0
 21
290.9000015258789
 31
0.0
  0
MTEXT
  5
15E
330
130
100
AcDbEntity
  8
Rámeček (ISO)
100
AcDbMText
 10
384.2103922448459
 20
287.4
 30
0.0
 40
3.499999940395355
 41
0.0
 71
     7
 72
     1
  1
1
  7
Text poznámky (ISO)
 73
     1
 44
1.0
  0
MTEXT
  5
15F
330
130
100
AcDbEntity
  8
Rámeček (ISO)
100
AcDbMText
 10
384.2103922448459
 20
6.100000059604642
 30
0.0
 40
3.499999940395355
 41
0.0
 71
     7
 72
     1
  1
1
  7
Text poznámky (ISO)
 73
     1
 44
1.0
  0
MTEXT
  5
160
330
130
100
AcDbEntity
  8
Rámeček (ISO)
100
AcDbMText
 10
313.9387915541735
 20
287.4
 30
0.0
 40
3.499999940395355
 41
0.0
 71
     7
 72
     1
  1
2
  7
Text poznámky (ISO)
 73
     1
 44
1.0
  0
MTEXT
  5
161
330
130
100
AcDbEntity
  8
Rámeček (ISO)
100
AcDbMText
 10
313.9387915541735
 20
6.100000059604642
 30
0.0
 40
3.499999940395355
 41
0.0
 71
     7
 72
     1
  1
2
  7
Text poznámky (ISO)
 73
     1
 44
1.0
  0
MTEXT
  5
162
330
130
100
AcDbEntity
  8
Rámeček (ISO)
100
AcDbMText
 10
243.9107914829702
 20
287.3262560764327
 30
0.0
 40
3.499999940395355
 41
0.0
 71
     7
 72
     1
  1
3
  7
Text poznámky (ISO)
 73
     1
 44
1.0
  0
MTEXT
  5
163
330
130
100
AcDbEntity
  8
Rámeček (ISO)
100
AcDbMText
 10
243.9107914829702
 20
6.026256136037407
 30
0.0
 40
3.499999940395355
 41
0.0
 71
     7
 72
     1
  1
3
  7
Text poznámky (ISO)
 73
     1
 44
1.0
  0
MTEXT
  5
164
330
130
100
AcDbEntity
  8
Rámeček (ISO)
100
AcDbMText
 10
173.7791911483144
 20
287.4
 30
0.0
 40
3.499999940395355
 41
0.0
 71
     7
 72
     1
  1
4
  7
Text poznámky (ISO)
 73
     1
 44
1.0
  0
MTEXT
  5
165
330
130
100
AcDbEntity
  8
Rámeček (ISO)
100
AcDbMText
 10
173.7791911483144
 20
6.100000059604642
 30
0.0
 40
3.499999940395355
 41
0.0
 71
     7
 72
     1
  1
4
  7
Text poznámky (ISO)
 73
     1
 44
1.0
  0
MTEXT
  5
166
330
130
100
AcDbEntity
  8
Rámeček (ISO)
100
AcDbMText
 10
103.9751916467378
 20
287.3262560764327
 30
0.0
 40
3.499999940395355
 41
0.0
 71
     7
 72
     1
  1
5
  7
Text poznámky (ISO)
 73
     1
 44
1.0
  0
MTEXT
  5
167
330
130
100
AcDbEntity
  8
Rámeček (ISO)
100
AcDbMText
 10
103.9751916467378
 20
6.026256136037407
 30
0.0
 40
3.499999940395355
 41
0.0
 71
     7
 72
     1
  1
5
  7
Text poznámky (ISO)
 73
     1
 44
1.0
  0
MTEXT
  5
168
330
130
100
AcDbEntity
  8
Rámeček (ISO)
100
AcDbMText
 10
33.88279141176685
 20
287.3262560764327
 30
0.0
 40
3.499999940395355
 41
0.0
 71
     7
 72
     1
  1
6
  7
Text poznámky (ISO)
 73
     1
 44
1.0
  0
MTEXT
  5
169
330
130
100
AcDbEntity
  8
Rámeček (ISO)
100
AcDbMText
 10
33.88279141176685
 20
6.026256136037407
 30
0.0
 40
3.499999940395355
 41
0.0
 71
     7
 72
     1
  1
6
  7
Text poznámky (ISO)
 73
     1
 44
1.0
  0
LINE
  5
16A
330
130
100
AcDbEntity
  8
Rámeček (ISO)
100
AcDbLine
 10
10.0
 20
74.25000190734862
 30
0.0
 11
6.100000143051147
 21
74.25000190734862
 31
0.0
  0
LINE
  5
16B
330
130
100
AcDbEntity
  8
Rámeček (ISO)
100
AcDbLine
 10
410.0
 20
74.25000190734862
 30
0.0
 11
413.8999938964841
 21
74.25000190734862
 31
0.0
  0
LINE
  5
16C
330
130
100
AcDbEntity
  8
Rámeček (ISO)
100
AcDbLine
 10
10.0
 20
222.7499961853027
 30
0.0
 11
6.100000143051147
 21
222.7499961853027
 31
0.0
  0
LINE
  5
16D
330
130
100
AcDbEntity
  8
Rámeček (ISO)
100
AcDbLine
 10
410.0
 20
222.7499961853027
 30
0.0
 11
413.8999938964841
 21
222.7499961853027
 31
0.0
  0
MTEXT
  5
16E
330
130
100
AcDbEntity
  8
Rámeček (ISO)
100
AcDbMText
 10
6.361230343933396
 20
35.37500002980233
 30
0.0
 40
3.499999940395355
 41
0.0
 71
     7
 72
     1
  1
A
  7
Text poznámky (ISO)
 73
     1
 44
1.0
  0
MTEXT
  5
16F
330
130
100
AcDbEntity
  8
Rámeček (ISO)
100
AcDbMText
 10
410.6612302843286
 20
35.37500002980233
 30
0.0
 40
3.499999940395355
 41
0.0
 71
     7
 72
     1
  1
A
  7
Text poznámky (ISO)
 73
     1
 44
1.0
  0
MTEXT
  5
170
330
130
100
AcDbEntity
  8
Rámeček (ISO)
100
AcDbMText
 10
6.781848468328937
 20
109.6250000298023
 30
0.0
 40
3.499999940395355
 41
0.0
 71
     7
 72
     1
  1
B
  7
Text poznámky (ISO)
 73
     1
 44
1.0
  0
MTEXT
  5
171
330
130
100
AcDbEntity
  8
Rámeček (ISO)
100
AcDbMText
 10
411.0818484087242
 20
109.6250000298023
 30
0.0
 40
3.499999940395355
 41
0.0
 71
     7
 72
     1
  1
B
  7
Text poznámky (ISO)
 73
     1
 44
1.0
  0
MTEXT
  5
172
330
130
100
AcDbEntity
  8
Rámeček (ISO)
100
AcDbMText
 10
6.558903094188357
 20
183.8126013241708
 30
0.0
 40
3.499999940395355
 41
0.0
 71
     7
 72
     1
  1
C
  7
Text poznámky (ISO)
 73
     1
 44
1.0
  0
MTEXT
  5
173
330
130
100
AcDbEntity
  8
Rámeček (ISO)
100
AcDbMText
 10
410.8589030345836
 20
183.8126013241708
 30
0.0
 40
3.499999940395355
 41
0.0
 71
     7
 72
     1
  1
C
  7
Text poznámky (ISO)
 73
     1
 44
1.0
  0
MTEXT
  5
174
330
130
100
AcDbEntity
  8
Rámeček (ISO)
100
AcDbMText
 10
6.56770745709084
 20
258.1250000298023
 30
0.0
 40
3.499999940395355
 41
0.0
 71
     7
 72
     1
  1
D
  7
Text poznámky (ISO)
 73
     1
 44
1.0
  0
MTEXT
  5
175
330
130
100
AcDbEntity
  8
Rámeček (ISO)
100
AcDbMText
 10
410.8677073974861
 20
258.1250000298023
 30
0.0
 40
3.499999940395355
 41
0.0
 71
     7
 72
     1
  1
D
  7
Text poznámky (ISO)
 73
     1
 44
1.0
  0
ENDBLK
  5
132
330
130
100
AcDbEntity
  8
0
100
AcDbBlockEnd
  0
BLOCK
  5
178
330
177
100
AcDbEntity
  8
0
100
AcDbBlockBegin
  2
Rohová razítka ACO-razitko
 70
     2
 10
0.0
 20
0.0
 30
0.0
  3
Rohová razítka ACO-razitko
  1

  0
LINE
  5
17A
330
177
100
AcDbEntity
  8
KOPF
  6
Continuous
370
    25
100
AcDbLine
 10
264.0
 20
94.01203200000001
 30
0.0
 11
264.0
 21
74.00000000000003
 31
0.0
  0
LINE
  5
17B
330
177
100
AcDbEntity
  8
KOPF
  6
Continuous
370
    25
100
AcDbLine
 10
264.0
 20
94.01203200000001
 30
0.0
 11
264.0
 21
74.00000000000003
 31
0.0
  0
CIRCLE
  5
17C
330
177
100
AcDbEntity
  8
TEXT50
  6
Continuous
370
    25
100
AcDbCircle
 10
247.5054493575618
 20
83.04852954632861
 30
0.0
 40
1.979948192651899
  0
LINE
  5
17D
330
177
100
AcDbEntity
  8
TEXT50
  6
Continuous
370
    25
100
AcDbLine
 10
262.4910595621649
 20
85.02847773898061
 30
0.0
 11
262.4910595621649
 21
81.06858135367653
 31
0.0
  0
LINE
  5
17E
330
177
100
AcDbEntity
  8
TEXT50
  6
Continuous
370
    25
100
AcDbLine
 10
253.9413433929653
 20
87.07146289795376
 30
0.0
 11
253.9413433929653
 21
79.02559619470344
 31
0.0
  0
LINE
  5
17F
330
177
100
AcDbEntity
  8
TEXT50
  6
Continuous
370
    25
100
AcDbLine
 10
262.4910595621649
 20
85.02847773898061
 30
0.0
 11
253.9413433929653
 21
87.07146289795376
 31
0.0
  0
CIRCLE
  5
180
330
177
100
AcDbEntity
  8
TEXT50
  6
Continuous
370
    25
100
AcDbCircle
 10
247.5054493575618
 20
83.04852954632861
 30
0.0
 40
4.022933351625178
  0
LINE
  5
181
330
177
100
AcDbEntity
  8
TEXT50
  6
Continuous
370
    25
100
AcDbLine
 10
253.9413433929653
 20
79.02559619470344
 30
0.0
 11
262.4910595621649
 21
81.06858135367653
 31
0.0
  0
CIRCLE
  5
182
330
177
100
AcDbEntity
  8
TEXT35
  6
Continuous
370
    25
100
AcDbCircle
 10
221.0936673107637
 20
101.9131972309053
 30
0.0
 40
2.281499999999998
  0
CIRCLE
  5
183
330
177
100
AcDbEntity
  8
TEXT35
  6
Continuous
370
    25
100
AcDbCircle
 10
221.0936673107637
 20
101.9131972309053
 30
0.0
 40
1.579499999999999
  0
ARC
  5
184
330
177
100
AcDbEntity
  8
TEXT35
  6
Continuous
370
    25
100
AcDbCircle
 10
214.6291610736662
 20
101.9131972309054
 30
0.0
 40
1.57950000000007
100
AcDbArc
 50
31.05580049908738
 51
329.9999999999987
  0
LINE
  5
185
330
177
100
AcDbEntity
  8
TEXT35
  6
Continuous
370
    25
100
AcDbLine
 10
215.9822639109751
 20
102.7280180465864
 30
0.0
 11
216.5902852082589
 21
103.0790593062462
 31
0.0
  0
ARC
  5
186
330
177
100
AcDbEntity
  8
TEXT35
  6
Continuous
370
    25
100
AcDbCircle
 10
214.6291610736662
 20
101.9131972309052
 30
0.0
 40
2.281500000000015
100
AcDbArc
 50
30.73091726592628
 51
330.0000000000017
  0
LINE
  5
187
330
177
100
AcDbEntity
  8
TEXT35
  6
Continuous
370
    25
100
AcDbLine
 10
216.6049980324005
 20
100.7724472309053
 30
0.0
 11
215.9970481989438
 21
101.1234472309053
 31
0.0
  0
LINE
  5
188
330
177
100
AcDbEntity
  8
TEXT35
  6
Continuous
370
    25
100
AcDbLine
 10
211.8347763192409
 20
111.6789659312995
 30
0.0
 11
211.8347763192409
 21
98.44416361029551
 31
0.0
  0
LINE
  5
189
330
177
100
AcDbEntity
  8
TEXT35
  6
Continuous
370
    25
100
AcDbLine
 10
211.8347763192409
 20
98.44416361029551
 30
0.0
 11
217.4235458280916
 21
98.44416361029551
 31
0.0
  0
LINE
  5
18A
330
177
100
AcDbEntity
  8
TEXT35
  6
Continuous
370
    25
100
AcDbLine
 10
217.4235458280916
 20
98.44416361029551
 30
0.0
 11
217.4235458280916
 21
111.6789659312995
 31
0.0
  0
LINE
  5
18B
330
177
100
AcDbEntity
  8
TEXT35
  6
Continuous
370
    25
100
AcDbLine
 10
217.4235458280916
 20
111.6789659312995
 30
0.0
 11
211.8347763192409
 21
111.6789659312995
 31
0.0
  0
LINE
  5
18C
330
177
100
AcDbEntity
  8
TEXT35
  6
Continuous
370
    25
100
AcDbLine
 10
223.888052065189
 20
111.6789659312995
 30
0.0
 11
223.888052065189
 21
98.44416361029551
 31
0.0
  0
LINE
  5
18D
330
177
100
AcDbEntity
  8
TEXT35
  6
Continuous
370
    25
100
AcDbLine
 10
223.888052065189
 20
98.44416361029551
 30
0.0
 11
218.2992825563384
 21
98.44416361029551
 31
0.0
  0
LINE
  5
18E
330
177
100
AcDbEntity
  8
TEXT35
  6
Continuous
370
    25
100
AcDbLine
 10
218.2992825563384
 20
98.44416361029551
 30
0.0
 11
218.2992825563384
 21
111.6789659312995
 31
0.0
  0
LINE
  5
18F
330
177
100
AcDbEntity
  8
TEXT35
  6
Continuous
370
    25
100
AcDbLine
 10
218.2992825563384
 20
111.6789659312995
 30
0.0
 11
223.888052065189
 21
111.6789659312995
 31
0.0
  0
ARC
  5
190
330
177
100
AcDbEntity
  8
TEXT35
  6
Continuous
370
    25
100
AcDbCircle
 10
211.499154836569
 20
99.57623034270234
 30
0.0
 40
4.914000000000251
100
AcDbArc
 50
172.305837035409
 51
179.7113029220757
  0
LINE
  5
191
330
177
100
AcDbEntity
  8
TEXT35
  6
Continuous
370
    25
100
AcDbLine
 10
206.6293963427935
 20
100.2341423522474
 30
0.0
 11
209.6999133303443
 21
100.2341423522474
 31
0.0
  0
ARC
  5
192
330
177
100
AcDbEntity
  8
TEXT35
  6
Continuous
370
    25
100
AcDbCircle
 10
204.8301548365688
 20
99.57623034270323
 30
0.0
 40
4.914000000000132
100
AcDbArc
 50
0.2886970779141535
 51
7.694162964580896
  0
LINE
  5
193
330
177
100
AcDbEntity
  8
TEXT35
  6
Continuous
370
    25
100
AcDbLine
 10
209.7440924568018
 20
99.60099048123304
 30
0.0
 11
210.4461002543538
 21
99.60099048123304
 31
0.0
  0
ARC
  5
194
330
177
100
AcDbEntity
  8
TEXT35
  6
Continuous
370
    25
100
AcDbCircle
 10
204.8301548365688
 20
99.5762303427033
 30
0.0
 40
5.616000000000016
100
AcDbArc
 50
0.2526096926473688
 51
53.57642635766914
  0
ARC
  5
195
330
177
100
AcDbEntity
  8
TEXT35
  6
Continuous
370
    25
100
AcDbCircle
 10
211.4991548365688
 20
99.57623034270323
 30
0.0
 40
5.616000000000023
100
AcDbArc
 50
126.4235736423304
 51
179.7473903073512
  0
LINE
  5
196
330
177
100
AcDbEntity
  8
TEXT35
  6
Continuous
370
    25
100
AcDbLine
 10
205.8832094187838
 20
99.60099048123304
 30
0.0
 11
206.5852172163358
 21
99.60099048123304
 31
0.0
  0
LINE
  5
197
330
177
100
AcDbEntity
  8
TEXT35
  6
Continuous
370
    25
100
AcDbLine
 10
205.3702700821435
 20
111.6789659312995
 30
0.0
 11
205.3702700821435
 21
98.44416361029551
 31
0.0
  0
LINE
  5
198
330
177
100
AcDbEntity
  8
TEXT35
  6
Continuous
370
    25
100
AcDbLine
 10
205.3702700821435
 20
98.44416361029551
 30
0.0
 11
210.9590395909941
 21
98.44416361029551
 31
0.0
  0
LINE
  5
199
330
177
100
AcDbEntity
  8
TEXT35
  6
Continuous
370
    25
100
AcDbLine
 10
210.9590395909941
 20
98.44416361029551
 30
0.0
 11
210.9590395909941
 21
111.6789659312995
 31
0.0
  0
LINE
  5
19A
330
177
100
AcDbEntity
  8
TEXT35
  6
Continuous
370
    25
100
AcDbLine
 10
210.9590395909941
 20
111.6789659312995
 30
0.0
 11
205.3702700821435
 21
111.6789659312995
 31
0.0
  0
ARC
  5
19B
330
177
100
AcDbEntity
  8
TEXT35
  6
Continuous
370
    25
100
AcDbCircle
 10
204.830154836569
 20
99.57623034270341
 30
0.0
 40
4.913999999999818
100
AcDbArc
 50
16.0658750272321
 51
47.26788995739759
  0
LINE
  5
19C
330
177
100
AcDbEntity
  8
TEXT35
  6
Continuous
370
    25
100
AcDbLine
 10
209.5522343918387
 20
100.9361423522474
 30
0.0
 11
206.7770752812989
 21
100.9361423522474
 31
0.0
  0
ARC
  5
19D
330
177
100
AcDbEntity
  8
TEXT35
  6
Continuous
370
    25
100
AcDbCircle
 10
211.4991548365683
 20
99.57623034270341
 30
0.0
 40
4.913999999999566
100
AcDbArc
 50
132.7321100425983
 51
163.9341249727667
  0
LINE
  5
19E
330
177
100
AcDbEntity
  8
Nadpis (ISO)
100
AcDbLine
 10
299.0
 20
114.0
 30
0.0
 11
299.0
 21
45.0
 31
0.0
  0
LINE
  5
19F
330
177
100
AcDbEntity
  8
Nadpis (ISO)
100
AcDbLine
 10
299.0
 20
45.0
 30
0.0
 11
117.0
 21
44.99999999999999
 31
0.0
  0
LINE
  5
1A0
330
177
100
AcDbEntity
  8
Nadpis (ISO)
100
AcDbLine
 10
117.0
 20
44.99999999999999
 30
0.0
 11
117.0
 21
114.0
 31
0.0
  0
LINE
  5
1A1
330
177
100
AcDbEntity
  8
Nadpis (ISO)
100
AcDbLine
 10
117.0
 20
114.0
 30
0.0
 11
299.0
 21
114.0
 31
0.0
  0
LINE
  5
1A2
330
177
100
AcDbEntity
  8
Nadpis (ISO)
100
AcDbLine
 10
199.0
 20
114.0
 30
0.0
 11
199.0
 21
93.99999999999998
 31
0.0
  0
LINE
  5
1A3
330
177
100
AcDbEntity
  8
KOPF
100
AcDbLine
 10
199.0
 20
104.0
 30
0.0
 11
117.0
 21
104.0
 31
0.0
  0
LINE
  5
1A4
330
177
100
AcDbEntity
  8
Nadpis (ISO)
100
AcDbLine
 10
199.0
 20
93.99999999999998
 30
0.0
 11
117.0
 21
93.99999999999996
 31
0.0
  0
LINE
  5
1A5
330
177
100
AcDbEntity
  8
KOPF
100
AcDbLine
 10
158.0
 20
93.99999999999998
 30
0.0
 11
158.0
 21
114.0
 31
0.0
  0
LINE
  5
1A6
330
177
100
AcDbEntity
  8
Nadpis (ISO)
100
AcDbLine
 10
199.0
 20
93.99999999999998
 30
0.0
 11
299.0
 21
93.99999999999998
 31
0.0
  0
LINE
  5
1A7
330
177
100
AcDbEntity
  8
Nadpis (ISO)
100
AcDbLine
 10
216.0
 20
94.00000000000003
 30
0.0
 11
216.0
 21
44.99999999999999
 31
0.0
  0
LINE
  5
1A8
330
177
100
AcDbEntity
  8
Nadpis (ISO)
100
AcDbLine
 10
299.0
 20
74.00000000000004
 30
0.0
 11
117.0
 21
73.99999999999998
 31
0.0
  0
LINE
  5
1A9
330
177
100
AcDbEntity
  8
Nadpis (ISO)
100
AcDbLine
 10
186.0
 20
94.0
 30
0.0
 11
186.0
 21
74.00000000000002
 31
0.0
  0
LINE
  5
1AA
330
177
100
AcDbEntity
  8
KOPF
100
AcDbLine
 10
137.0
 20
93.99999999999998
 30
0.0
 11
137.0
 21
74.0
 31
0.0
  0
LINE
  5
1AB
330
177
100
AcDbEntity
  8
KOPF
100
AcDbLine
 10
162.0
 20
93.99999999999998
 30
0.0
 11
162.0
 21
74.0
 31
0.0
  0
LINE
  5
1AC
330
177
100
AcDbEntity
  8
KOPF
100
AcDbLine
 10
186.0
 20
84.0
 30
0.0
 11
117.0
 21
83.99999999999996
 31
0.0
  0
LINE
  5
1AD
330
177
100
AcDbEntity
  8
KOPF
100
AcDbLine
 10
186.0
 20
79.0
 30
0.0
 11
117.0
 21
78.99999999999997
 31
0.0
  0
LINE
  5
1AE
330
177
100
AcDbEntity
  8
KOPF
100
AcDbLine
 10
186.0
 20
89.0
 30
0.0
 11
117.0
 21
88.99999999999996
 31
0.0
  0
LINE
  5
1AF
330
177
100
AcDbEntity
  8
KOPF
100
AcDbLine
 10
216.0
 20
50.0
 30
0.0
 11
299.0
 21
50.0
 31
0.0
  0
LINE
  5
1B0
330
177
100
AcDbEntity
  8
Nadpis (ISO)
100
AcDbLine
 10
216.0
 20
55.0
 30
0.0
 11
299.0
 21
55.0
 31
0.0
  0
LINE
  5
1B1
330
177
100
AcDbEntity
  8
KOPF
100
AcDbLine
 10
238.0000000000001
 20
93.99999999999998
 30
0.0
 11
238.0000000000001
 21
74.00000000000003
 31
0.0
  0
LINE
  5
1B2
330
177
100
AcDbEntity
  8
KOPF
100
AcDbLine
 10
238.0000000000001
 20
84.00000000000003
 30
0.0
 11
216.0
 21
84.00000000000003
 31
0.0
  0
LINE
  5
1B3
330
177
100
AcDbEntity
  8
Nadpis (ISO)
100
AcDbLine
 10
287.0
 20
74.00000000000004
 30
0.0
 11
287.0
 21
55.0
 31
0.0
  0
LINE
  5
1B4
330
177
100
AcDbEntity
  8
KOPF
100
AcDbLine
 10
289.0
 20
50.0
 30
0.0
 11
289.0
 21
45.0
 31
0.0
  0
LINE
  5
1B5
330
177
100
AcDbEntity
  8
Nadpis (ISO)
100
AcDbLine
 10
260.9160465310349
 20
50.0
 30
0.0
 11
260.9160465310349
 21
45.0
 31
0.0
  0
TEXT
  5
1B7
330
177
100
AcDbEntity
  8
Viditelná tenká (ISO)
100
AcDbText
 10
266.0
 20
84.97994933403729
 30
0.0
 40
1.539999991655349
  1
zum Zweck anderweitiger Benutzung
 41
0.7999999523162842
  7
Styl textu62
100
AcDbText
  0
TEXT
  5
1B9
330
177
100
AcDbEntity
  8
Viditelná tenká (ISO)
100
AcDbText
 10
266.0
 20
82.63814072439631
 30
0.0
 40
1.539999991655349
  1
mitgeteilt werden und bleibt unser
 41
0.7999999523162842
  7
Styl textu62
100
AcDbText
  0
TEXT
  5
1BA
330
177
100
AcDbEntity
  8
Viditelná tenká (ISO)
100
AcDbText
 10
266.0
 20
87.26106040199921
 30
0.0
 40
1.539999991655349
  1
noch dritten Personen, insbesondere
 41
0.7999999523162842
  7
Styl textu62
100
AcDbText
  0
TEXT
  5
1BB
330
177
100
AcDbEntity
  8
Viditelná tenká (ISO)
100
AcDbText
 10
266.0
 20
89.6282322587214
 30
0.0
 40
1.539999991655349
  1
Diese Zeichnung darf weder kopiert
 41
0.7999999523162842
  7
Styl textu62
100
AcDbText
  0
TEXT
  5
1BC
330
177
100
AcDbEntity
  8
Viditelná tenká (ISO)
100
AcDbText
 10
266.0
 20
80.37532604459597
 30
0.0
 40
1.539999991655349
  1
Eigentum.
 41
0.7999999523162842
  7
Styl textu62
100
AcDbText
  0
TEXT
  5
1BE
330
177
100
AcDbEntity
  8
Viditelná tenká (ISO)
100
AcDbText
 10
241.877559521167
 20
90.82431699999998
 30
0.0
 40
2.000000029802321
  1
Projektion: ISO-E
 41
0.7999999523162842
  7
Styl textu58
100
AcDbText
  0
TEXT
  5
1C0
330
177
100
AcDbEntity
  8
Viditelná tenká (ISO)
100
AcDbText
 10
266.0
 20
77.30982488917627
 30
0.0
 40
1.539999991655349
  1
Schutzvermerk nach DIN 34 beachten
 41
0.75
  7
Styl textu63
100
AcDbText
  0
TEXT
  5
1C1
330
177
100
AcDbEntity
  8
Viditelná tenká (ISO)
100
AcDbText
 10
236.2487793316645
 20
99.38243367792949
 30
0.0
 40
2.000000029802321
  1
582 22 Přibyslav
 41
0.7999999523162842
  7
Styl textu58
100
AcDbText
  0
TEXT
  5
1C3
330
177
100
AcDbEntity
  8
Viditelná tenká (ISO)
100
AcDbText
 10
261.6984261202779
 20
99.57784645000472
 30
0.0
 40
2.099999934434889
  1
Fax: 0451 / 482529
 41
0.7000000476837159
  7
Styl textu72
100
AcDbText
  0
TEXT
  5
1C4
330
177
100
AcDbEntity
  8
Viditelná tenká (ISO)
100
AcDbText
 10
236.5351154208068
 20
103.0087314099309
 30
0.0
 40
2.000000029802321
  1
Havličkova 260
 41
0.7999999523162842
  7
Styl textu58
100
AcDbText
  0
TEXT
  5
1C6
330
177
100
AcDbEntity
  8
TEXT35
100
AcDbText
 10
235.9801354774567
 20
108.2018007493417
 30
0.0
 40
3.000000119209288
  1
ACO Industries
 41
0.7999999523162842
  7
Styl textu75
100
AcDbText
  0
TEXT
  5
1C7
330
177
100
AcDbEntity
  8
Viditelná tenká (ISO)
100
AcDbText
 10
261.6456899832647
 20
102.9064533471121
 30
0.0
 40
2.099999934434889
  1
Tel.: 0451 / 491660
 41
0.7000000476837159
  7
Styl textu72
100
AcDbText
  0
MTEXT
  5
1C8
330
177
100
AcDbEntity
  8
Viditelná tenká (ISO)
100
AcDbMText
 10
217.3570092483237
 20
73.27889989032858
 30
0.0
 40
2.000000029802321
 41
17.54573225975036
 71
     1
 72
     1
  1
\fArial|b0|i0;Zeichnung Nr.
  7
Text poznámky (ISO)
 73
     1
 44
1.0
  0
MTEXT
  5
1C9
330
177
100
AcDbEntity
  8
Viditelná tenká (ISO)
100
AcDbMText
 10
287.9433731401013
 20
72.84063462326732
 30
0.0
 40
2.000000029802321
 41
6.833841204643249
 71
     1
 72
     1
  1
\fArial|b0|i0;Index
  7
Text poznámky (ISO)
 73
     1
 44
1.0
  0
MTEXT
  5
1CA
330
177
100
AcDbEntity
  8
Viditelná tenká (ISO)
100
AcDbMText
 10
217.1230582952341
 20
52.66864072161396
 30
0.0
 40
2.000000029802321
 41
11.95426821708679
 71
     1
 72
     1
  1
\fArial|b0|i0;Ersatz fur
  7
Text poznámky (ISO)
 73
     1
 44
1.0
  0
MTEXT
  5
1CB
330
177
100
AcDbEntity
  8
Viditelná tenká (ISO)
100
AcDbMText
 10
217.1230582952341
 20
49.48769937830647
 30
0.0
 40
2.000000029802321
 41
15.68292737007141
 71
     1
 72
     1
  1
\fArial|b0|i0;Ersatz durch
  7
Text poznámky (ISO)
 73
     1
 44
1.0
  0
MTEXT
  5
1CC
330
177
100
AcDbEntity
  8
Viditelná tenká (ISO)
100
AcDbMText
 10
188.9161081342839
 20
93.0
 30
0.0
 40
2.000000029802321
 41
11.9573175907135
 71
     1
 72
     1
  1
\fArial|b0|i0;Massstab
  7
Text poznámky (ISO)
 73
     1
 44
1.0
  0
MTEXT
  5
1CD
330
177
100
AcDbEntity
  8
Viditelná tenká (ISO)
100
AcDbMText
 10
217.0
 20
93.0
 30
0.0
 40
2.000000029802321
 41
14.90701198577881
 71
     1
 72
     1
  1
\fArial|b0|i0;Masseinheit
  7
Text poznámky (ISO)
 73
     1
 44
1.0
  0
MTEXT
  5
1CE
330
177
100
AcDbEntity
  8
Viditelná tenká (ISO)
100
AcDbMText
 10
118.0
 20
113.0
 30
0.0
 40
2.000000029802321
 41
12.57317066192627
 71
     1
 72
     1
  1
\fArial|b0|i0;Werkstoff.
  7
Text poznámky (ISO)
 73
     1
 44
1.0
  0
MTEXT
  5
1CF
330
177
100
AcDbEntity
  8
Viditelná tenká (ISO)
100
AcDbMText
 10
159.0
 20
113.0
 30
0.0
 40
2.000000029802321
 41
11.95579290390014
 71
     1
 72
     1
  1
\fArial|b0|i0;Hmotnost
  7
Text poznámky (ISO)
 73
     1
 44
1.0
  0
MTEXT
  5
1D0
330
177
100
AcDbEntity
  8
Viditelná tenká (ISO)
100
AcDbMText
 10
118.0
 20
103.0
 30
0.0
 40
2.000000029802321
 41
15.68445086479187
 71
     1
 72
     1
  1
\fArial|b0|i0;zul.Abweich.
  7
Text poznámky (ISO)
 73
     1
 44
1.0
  0
MTEXT
  5
1D1
330
177
100
AcDbEntity
  8
Viditelná tenká (ISO)
100
AcDbMText
 10
159.0
 20
103.0
 30
0.0
 40
2.000000029802321
 41
13.66463422775268
 71
     1
 72
     1
  1
\fArial|b0|i0;Oberflache
  7
Text poznámky (ISO)
 73
     1
 44
1.0
  0
MTEXT
  5
1D2
330
177
100
AcDbEntity
  8
Viditelná tenká (ISO)
100
AcDbMText
 10
118.2064366962235
 20
87.52498463872976
 30
0.0
 40
2.000000029802321
 41
14.13262248039245
 71
     1
 72
     1
  1
\fArial|b0|i0;Gezeichnet
  7
Text poznámky (ISO)
 73
     1
 44
1.0
  0
MTEXT
  5
1D3
330
177
100
AcDbEntity
  8
Viditelná tenká (ISO)
100
AcDbMText
 10
118.2064366962235
 20
82.79398756785594
 30
0.0
 40
2.000000029802321
 41
9.315548539161682
 71
     1
 72
     1
  1
\fArial|b0|i0;Gepruft
  7
Text poznámky (ISO)
 73
     1
 44
1.0
  0
MTEXT
  5
1D4
330
177
100
AcDbEntity
  8
Viditelná tenká (ISO)
100
AcDbMText
 10
118.2064366962235
 20
77.59713566222233
 30
0.0
 40
2.000000029802321
 41
9.007622003555296
 71
     1
 72
     1
  1
\fArial|b0|i0;Update
  7
Text poznámky (ISO)
 73
     1
 44
1.0
  0
MTEXT
  5
1D5
330
177
100
AcDbEntity
  8
Viditelná tenká (ISO)
100
AcDbMText
 10
143.0
 20
93.0
 30
0.0
 40
2.000000029802321
 41
8.22865843772888
 71
     1
 72
     1
  1
\fArial|b0|i0;Datum
  7
Text poznámky (ISO)
 73
     1
 44
1.0
  0
MTEXT
  5
1D6
330
177
100
AcDbEntity
  8
Viditelná tenká (ISO)
100
AcDbMText
 10
170.0
 20
93.0
 30
0.0
 40
2.000000029802321
 41
7.452743649482727
 71
     1
 72
     1
  1
\fArial|b0|i0;Name
  7
Text poznámky (ISO)
 73
     1
 44
1.0
  0
MTEXT
  5
1D7
102
{ACAD_XDICTIONARY
360
1C1F
102
}
330
177
100
AcDbEntity
  8
Nadpis (ISO)
100
AcDbMText
 10
118.0
 20
71.0
 30
0.0
 40
3.499999940395355
 41
0.0
 71
     1
 72
     1
  1
Ro\U+0161t slot 168x168-25
  7
Text poznámky (ISO)
 73
     1
 44
1.0
  0
MTEXT
  5
1D8
330
177
100
AcDbEntity
  8
Nadpis (ISO)
100
AcDbMText
 10
138.6542642016321
 20
87.78242706242744
 30
0.0
 40
2.000000029802321
 41
13.67261052131653
 71
     1
 72
     1
  1
\fTahoma|b0|i0;14.10.2010
  7
Text poznámky (ISO)
 73
     1
 44
1.0
  0
MTEXT
  5
1D9
330
177
100
AcDbEntity
  8
Nadpis (ISO)
100
AcDbMText
 10
118.9147684950603
 20
98.79632878646518
 30
0.0
 40
3.499999940395355
 41
0.0
 71
     1
 72
     1
  1
ISO 2768-m
  7
Text poznámky (ISO)
 73
     1
 44
1.0
  0
MTEXT
  5
1DA
330
177
100
AcDbEntity
  8
Nadpis (ISO)
100
AcDbMText
 10
162.5831033854
 20
99.20167780246003
 30
0.0
 40
3.499999940395355
 41
0.0
 71
     1
 72
     1
  1
DIN ISO 1302
  7
Text poznámky (ISO)
 73
     1
 44
1.0
  0
MTEXT
  5
1DB
330
177
100
AcDbEntity
  8
Nadpis (ISO)
100
AcDbMText
 10
262.4743825961981
 20
49.11909359328863
 30
0.0
 40
3.499999940395355
 41
8.96608233451843
 71
     1
 72
     1
  1
\fArial|b0|i0;List:
  7
Text poznámky (ISO)
 73
     1
 44
1.0
  0
MTEXT
  5
1DC
330
177
100
AcDbEntity
  8
Nadpis (ISO)
100
AcDbMText
 10
271.4404649307165
 20
49.13243192069646
 30
0.0
 40
3.499999940395355
 41
0.0
 71
     1
 72
     1
  1
\fArial|b0|i0;1 
  7
Text poznámky (ISO)
 73
     1
 44
1.0
  0
MTEXT
  5
1DD
330
177
100
AcDbEntity
  8
Nadpis (ISO)
100
AcDbMText
 10
275.5166847278509
 20
49.17778241269704
 30
0.0
 40
3.499999940395355
 41
0.0
 71
     1
 72
     1
  1
\fArial|b0|i0;/
  7
Text poznámky (ISO)
 73
     1
 44
1.0
  0
MTEXT
  5
1DE
330
177
100
AcDbEntity
  8
Nadpis (ISO)
100
AcDbMText
 10
276.8772036601934
 20
49.13243192069646
 30
0.0
 40
3.499999940395355
 41
0.0
 71
     1
 72
     1
  1
\fArial|b0|i0;1 
  7
Text poznámky (ISO)
 73
     1
 44
1.0
  0
MTEXT
  5
1DF
330
177
100
AcDbEntity
  8
Nadpis (ISO)
100
AcDbMText
 10
159.4396788094336
 20
109.6756657996811
 30
0.0
 40
3.499999940395355
 41
29.10098367733216
 71
     1
 72
     1
  1
2,25 kg
  7
Text poznámky (ISO)
 73
     1
 44
1.0
  0
ATTDEF
  5
1E1
102
{ACAD_XDICTIONARY
360
1520
102
}
330
177
100
AcDbEntity
  8
Nadpis (ISO)
100
AcDbText
 10
287.4393862219839
 20
62.4856753668063
 30
0.0
 40
3.499999940395355
  1
000
  7
Styl textu9
100
AcDbAttributeDefinition
  3
ČÍSLO REVIZE
  2
ČÍSLO_REVIZE_001
 70
     0
  0
ATTDEF
  5
1E5
102
{ACAD_XDICTIONARY
360
1523
102
}
330
177
100
AcDbEntity
  8
Nadpis (ISO)
100
AcDbText
 10
289.7753402652471
 20
46.32882590415592
 30
0.0
 40
2.000000029802321
  1
A3
  7
Styl textu40
100
AcDbAttributeDefinition
  3
Sheet Size
  2
Sheet_Size_001
 70
     0
  0
ATTDEF
  5
1E6
102
{ACAD_XDICTIONARY
360
1526
102
}
330
177
100
AcDbEntity
  8
Nadpis (ISO)
100
AcDbText
 10
230.1305737493188
 20
51.10091360311345
 30
0.0
 40
2.000000029802321
  1
C:\Inventor_DATA\Projekty\FloorDrain B\Rošty\Rošty InDrain pro Guly\Rošt slot\Rošt slot 168x168-25 V2A.iam
  7
Styl textu40
100
AcDbAttributeDefinition
  3
FILENAME AND PATH
  2
FILENAME_AND_PATH_001
 70
     0
  0
ATTDEF
  5
1E7
102
{ACAD_XDICTIONARY
360
1529
102
}
330
177
100
AcDbEntity
  8
Nadpis (ISO)
100
AcDbText
 10
217.9059771674843
 20
62.42008065196634
 30
0.0
 40
3.499999940395355
  1
408021
  7
Text poznámky (ISO)
100
AcDbAttributeDefinition
  3
PART NUMBER
  2
PART_NUMBER_001
 70
     0
  0
ATTDEF
  5
1E8
102
{ACAD_XDICTIONARY
360
152C
102
}
330
177
100
AcDbEntity
  8
Nadpis (ISO)
100
AcDbText
 10
118.0
 20
56.50000005960464
 30
0.0
 40
3.499999940395355
  1

  7
Text poznámky (ISO)
 11
118.0
 21
60.0
 31
0.0
100
AcDbAttributeDefinition
  3
PROJECT
  2
PROJECT
 70
     0
 74
     3
  0
ATTDEF
  5
1EA
102
{ACAD_XDICTIONARY
360
152F
102
}
330
177
100
AcDbEntity
  8
Nadpis (ISO)
100
AcDbText
 10
117.8119543349687
 20
47.73407435882505
 30
0.0
 40
6.99999988079071
  1
408021
  7
Styl textu94
100
AcDbAttributeDefinition
  3
SKLADOVÉ ČÍSLO
  2
SKLADOVÉ_ČÍSLO_001
 70
     0
  0
ATTDEF
  5
1EB
102
{ACAD_XDICTIONARY
360
1532
102
}
330
177
100
AcDbEntity
  8
Nadpis (ISO)
100
AcDbText
 10
117.5939056808251
 20
105.1756658592857
 30
0.0
 40
3.499999940395355
  1

  7
Text poznámky (ISO)
 11
117.5939056808251
 21
108.6756657996811
 31
0.0
100
AcDbAttributeDefinition
  3
MATERIAL
  2
MATERIAL
 70
     0
 74
     3
  0
ATTDEF
  5
1EC
102
{ACAD_XDICTIONARY
360
1535
102
}
330
177
100
AcDbEntity
  8
Nadpis (ISO)
100
AcDbText
 10
165.1384565388202
 20
85.78242703262512
 30
0.0
 40
2.000000029802321
  1
onovak
  7
Styl textu40
100
AcDbAttributeDefinition
  3
AUTHOR
  2
AUTHOR_001
 70
     0
  0
ATTDEF
  5
1ED
102
{ACAD_XDICTIONARY
360
1538
102
}
330
177
100
AcDbEntity
  8
Nadpis (ISO)
100
AcDbText
 10
189.1855699863978
 20
82.50038826992808
 30
0.0
 40
3.499999940395355
  1

  7
Text poznámky (ISO)
 11
189.1855699863978
 21
86.00038821032343
 31
0.0
100
AcDbAttributeDefinition
  3
VS_First
  2
VS_First
 70
     0
 74
     3
  0
ENDBLK
  5
179
330
177
100
AcDbEntity
  8
0
100
AcDbBlockEnd
  0
BLOCK
  5
277
330
276
100
AcDbEntity
  8
0
100
AcDbBlockBegin
  2
KUSOVNÍK
 70
     0
 10
0.0
 20
0.0
 30
0.0
  3
KUSOVNÍK
  1

  0
LINE
  5
279
330
276
100
AcDbEntity
  8
Značka (ISO)
100
AcDbLine
 10
410.0
 20
110.7435059845448
 30
0.0
 11
228.0005417041145
 21
110.7435059845448
 31
0.0
  0
LINE
  5
27A
330
276
100
AcDbEntity
  8
Značka (ISO)
100
AcDbLine
 10
410.0
 20
110.7435059845448
 30
0.0
 11
410.0
 21
104.3948047876358
 31
0.0
  0
LINE
  5
27B
330
276
100
AcDbEntity
  8
Značka (ISO)
100
AcDbLine
 10
228.0005417041145
 20
110.7435059845448
 30
0.0
 11
228.0005417041145
 21
104.3948047876358
 31
0.0
  0
MTEXT
  5
27C
102
{ACAD_XDICTIONARY
360
1C21
102
}
330
276
100
AcDbEntity
  8
Značka (ISO)
100
AcDbMText
 10
308.4568924405267
 20
105.119480034709
 30
0.0
 40
3.499999940395355
 41
0.0
 71
     7
 72
     1
  1
KUSOVN\U+00CDK
  7
Text poznámky (DIN)
 73
     1
 44
1.0
  0
LINE
  5
27E
330
276
100
AcDbEntity
  8
Značka (ISO)
100
AcDbLine
 10
410.0
 20
104.3948047876358
 30
0.0
 11
228.0005417041145
 21
104.3948047876358
 31
0.0
  0
LINE
  5
27F
330
276
100
AcDbEntity
  8
Značka (ISO)
100
AcDbLine
 10
410.0
 20
104.3948047876358
 30
0.0
 11
410.0
 21
98.04610359072693
 31
0.0
  0
MTEXT
  5
280
102
{ACAD_XDICTIONARY
360
1C23
102
}
330
276
100
AcDbEntity
  8
Značka (ISO)
100
AcDbMText
 10
387.1072709453114
 20
98.7707788378001
 30
0.0
 40
3.499999940395355
 41
0.0
 71
     7
 72
     1
  1
MATERI\U+00C1L
  7
Text poznámky (DIN)
 73
     1
 44
1.0
  0
LINE
  5
281
330
276
100
AcDbEntity
  8
Značka (ISO)
100
AcDbLine
 10
384.6
 20
104.3948047876358
 30
0.0
 11
384.6
 21
98.04610359072693
 31
0.0
  0
MTEXT
  5
282
330
276
100
AcDbEntity
  8
Značka (ISO)
100
AcDbMText
 10
360.83227118373
 20
99.47045421898373
 30
0.0
 40
3.499999940395355
 41
0.0
 71
     7
 72
     1
  1
HMOTNOST
  7
Text poznámky (DIN)
 73
     1
 44
1.0
  0
LINE
  5
283
330
276
100
AcDbEntity
  8
Značka (ISO)
100
AcDbLine
 10
359.2
 20
104.3948047876358
 30
0.0
 11
359.2
 21
98.04610359072693
 31
0.0
  0
MTEXT
  5
284
102
{ACAD_XDICTIONARY
360
1C25
102
}
330
276
100
AcDbEntity
  8
Značka (ISO)
100
AcDbMText
 10
335.6075958621511
 20
98.7707788378001
 30
0.0
 40
3.499999940395355
 41
0.0
 71
     7
 72
     1
  1
SKLADOV\U+00C9
  7
Text poznámky (DIN)
 73
     1
 44
1.0
  0
LINE
  5
285
330
276
100
AcDbEntity
  8
Značka (ISO)
100
AcDbLine
 10
333.8
 20
104.3948047876358
 30
0.0
 11
333.8
 21
98.04610359072693
 31
0.0
  0
MTEXT
  5
286
330
276
100
AcDbEntity
  8
Značka (ISO)
100
AcDbMText
 10
286.8500742532898
 20
99.47045421898373
 30
0.0
 40
3.499999940395355
 41
0.0
 71
     7
 72
     1
  1
POPIS
  7
Text poznámky (DIN)
 73
     1
 44
1.0
  0
LINE
  5
287
330
276
100
AcDbEntity
  8
Značka (ISO)
100
AcDbLine
 10
251.5388526849113
 20
104.3948047876358
 30
0.0
 11
251.5388526849113
 21
98.04610359072693
 31
0.0
  0
MTEXT
  5
288
330
276
100
AcDbEntity
  8
Značka (ISO)
100
AcDbMText
 10
245.3438510004849
 20
99.47045421898373
 30
0.0
 40
3.499999940395355
 41
0.0
 71
     7
 72
     1
  1
KS
  7
Text poznámky (DIN)
 73
     1
 44
1.0
  0
LINE
  5
289
330
276
100
AcDbEntity
  8
Značka (ISO)
100
AcDbLine
 10
244.1414502314888
 20
104.3948047876358
 30
0.0
 11
244.1414502314888
 21
98.04610359072693
 31
0.0
  0
MTEXT
  5
28A
330
276
100
AcDbEntity
  8
Značka (ISO)
100
AcDbMText
 10
229.2029424731107
 20
99.47045421898373
 30
0.0
 40
3.499999940395355
 41
0.0
 71
     7
 72
     1
  1
POZICE
  7
Text poznámky (DIN)
 73
     1
 44
1.0
  0
LINE
  5
28B
330
276
100
AcDbEntity
  8
Značka (ISO)
100
AcDbLine
 10
228.0005417041145
 20
104.3948047876358
 30
0.0
 11
228.0005417041145
 21
98.04610359072693
 31
0.0
  0
MTEXT
  5
28C
330
276
100
AcDbEntity
  8
Značka (ISO)
100
AcDbMText
 10
385.8024007689961
 20
93.12175302207476
 30
0.0
 40
3.499999940395355
 41
0.0
 71
     7
 72
     1
  1
AISI 304
  7
Text poznámky (DIN)
 73
     1
 44
1.0
  0
MTEXT
  5
28D
330
276
100
AcDbEntity
  8
Značka (ISO)
100
AcDbMText
 10
360.3996007618758
 20
92.07305176556117
 30
0.0
 40
3.499999940395355
 41
0.0
 71
     7
 72
     1
  1
1,715 kg
  7
Text poznámky (DIN)
 73
     1
 44
1.0
  0
MTEXT
  5
28E
330
276
100
AcDbEntity
  8
Značka (ISO)
100
AcDbMText
 10
335.0024007689961
 20
93.12175302207476
 30
0.0
 40
3.499999940395355
 41
0.0
 71
     7
 72
     1
  1
E53861
  7
Text poznámky (DIN)
 73
     1
 44
1.0
  0
MTEXT
  5
28F
102
{ACAD_XDICTIONARY
360
1C27
102
}
330
276
100
AcDbEntity
  8
Značka (ISO)
100
AcDbMText
 10
252.7412534539075
 20
91.8993504196406
 30
0.0
 40
3.499999940395355
 41
0.0
 71
     7
 72
     1
  1
Deska pro ro\U+0161t slot 148x148-10
  7
Text poznámky (DIN)
 73
     1
 44
1.0
  0
MTEXT
  5
290
330
276
100
AcDbEntity
  8
Značka (ISO)
100
AcDbMText
 10
247.264752234977
 20
93.12175302207476
 30
0.0
 40
3.499999940395355
 41
0.0
 71
     7
 72
     1
  1
1
  7
Text poznámky (DIN)
 73
     1
 44
1.0
  0
MTEXT
  5
291
330
276
100
AcDbEntity
  8
Značka (ISO)
100
AcDbMText
 10
235.4955967445786
 20
93.12175302207476
 30
0.0
 40
3.499999940395355
 41
0.0
 71
     7
 72
     1
  1
1
  7
Text poznámky (DIN)
 73
     1
 44
1.0
  0
LINE
  5
292
330
276
100
AcDbEntity
  8
Značka (ISO)
100
AcDbLine
 10
410.0
 20
98.04610359072693
 30
0.0
 11
228.0005417041145
 21
98.04610359072693
 31
0.0
  0
MTEXT
  5
293
330
276
100
AcDbEntity
  8
Značka (ISO)
100
AcDbMText
 10
385.8024007689961
 20
86.77305182516581
 30
0.0
 40
3.499999940395355
 41
0.0
 71
     7
 72
     1
  1
AISI 304
  7
Text poznámky (DIN)
 73
     1
 44
1.0
  0
MTEXT
  5
294
330
276
100
AcDbEntity
  8
Značka (ISO)
100
AcDbMText
 10
360.4024007689961
 20
85.72435056865222
 30
0.0
 40
3.499999940395355
 41
0.0
 71
     7
 72
     1
  1
0,273 kg
  7
Text poznámky (DIN)
 73
     1
 44
1.0
  0
MTEXT
  5
295
330
276
100
AcDbEntity
  8
Značka (ISO)
100
AcDbMText
 10
335.0024007689961
 20
86.77305182516581
 30
0.0
 40
3.499999940395355
 41
0.0
 71
     7
 72
     1
  1
E53867
  7
Text poznámky (DIN)
 73
     1
 44
1.0
  0
MTEXT
  5
296
102
{ACAD_XDICTIONARY
360
1C29
102
}
330
276
100
AcDbEntity
  8
Značka (ISO)
100
AcDbMText
 10
252.7412534539075
 20
85.55064922273166
 30
0.0
 40
3.499999940395355
 41
0.0
 71
     7
 72
     1
  1
Nosn\U+00E1 p\U+0159\U+00ED\U+010Dka dlouh\U+00E1 15x10-229,2
  7
Text poznámky (DIN)
 73
     1
 44
1.0
  0
MTEXT
  5
297
330
276
100
AcDbEntity
  8
Značka (ISO)
100
AcDbMText
 10
247.264752234977
 20
86.77305182516581
 30
0.0
 40
3.499999940395355
 41
0.0
 71
     7
 72
     1
  1
1
  7
Text poznámky (DIN)
 73
     1
 44
1.0
  0
MTEXT
  5
298
330
276
100
AcDbEntity
  8
Značka (ISO)
100
AcDbMText
 10
235.1493708018632
 20
86.77305182516581
 30
0.0
 40
3.499999940395355
 41
0.0
 71
     7
 72
     1
  1
2
  7
Text poznámky (DIN)
 73
     1
 44
1.0
  0
LINE
  5
299
330
276
100
AcDbEntity
  8
Značka (ISO)
100
AcDbLine
 10
410.0
 20
91.69740239381795
 30
0.0
 11
228.0005417041145
 21
91.69740239381795
 31
0.0
  0
MTEXT
  5
29A
330
276
100
AcDbEntity
  8
Značka (ISO)
100
AcDbMText
 10
385.8024007689961
 20
80.42435062825687
 30
0.0
 40
3.499999940395355
 41
0.0
 71
     7
 72
     1
  1
AISI 304
  7
Text poznámky (DIN)
 73
     1
 44
1.0
  0
MTEXT
  5
29B
330
276
100
AcDbEntity
  8
Značka (ISO)
100
AcDbMText
 10
360.4024007689961
 20
79.37564937174328
 30
0.0
 40
3.499999940395355
 41
0.0
 71
     7
 72
     1
  1
0,130 kg
  7
Text poznámky (DIN)
 73
     1
 44
1.0
  0
MTEXT
  5
29C
330
276
100
AcDbEntity
  8
Značka (ISO)
100
AcDbMText
 10
335.0024007689961
 20
80.42435062825687
 30
0.0
 40
3.499999940395355
 41
0.0
 71
     7
 72
     1
  1
E53873
  7
Text poznámky (DIN)
 73
     1
 44
1.0
  0
MTEXT
  5
29D
102
{ACAD_XDICTIONARY
360
1C2B
102
}
330
276
100
AcDbEntity
  8
Značka (ISO)
100
AcDbMText
 10
252.7412534539075
 20
79.20194802582272
 30
0.0
 40
3.499999940395355
 41
0.0
 71
     7
 72
     1
  1
Nosn\U+00E1 p\U+0159\U+00ED\U+010Dka kr\U+00E1tk\U+00E1 15x10-109,6
  7
Text poznámky (DIN)
 73
     1
 44
1.0
  0
MTEXT
  5
29E
330
276
100
AcDbEntity
  8
Značka (ISO)
100
AcDbMText
 10
246.9185262922616
 20
80.42435062825687
 30
0.0
 40
3.499999940395355
 41
0.0
 71
     7
 72
     1
  1
2
  7
Text poznámky (DIN)
 73
     1
 44
1.0
  0
MTEXT
  5
29F
330
276
100
AcDbEntity
  8
Značka (ISO)
100
AcDbMText
 10
235.1493708018632
 20
80.42435062825687
 30
0.0
 40
3.499999940395355
 41
0.0
 71
     7
 72
     1
  1
3
  7
Text poznámky (DIN)
 73
     1
 44
1.0
  0
LINE
  5
2A0
330
276
100
AcDbEntity
  8
Značka (ISO)
100
AcDbLine
 10
410.0
 20
85.34870119690902
 30
0.0
 11
228.0005417041145
 21
85.34870119690902
 31
0.0
  0
LINE
  5
2A1
330
276
100
AcDbEntity
  8
Značka (ISO)
100
AcDbLine
 10
410.0
 20
79.00000000000007
 30
0.0
 11
228.0005417041145
 21
79.00000000000007
 31
0.0
  0
LINE
  5
2A2
330
276
100
AcDbEntity
  8
Značka (ISO)
100
AcDbLine
 10
410.0
 20
98.04610359072693
 30
0.0
 11
410.0
 21
79.00000000000007
 31
0.0
  0
LINE
  5
2A3
330
276
100
AcDbEntity
  8
Značka (ISO)
100
AcDbLine
 10
384.6
 20
98.04610359072693
 30
0.0
 11
384.6
 21
79.00000000000007
 31
0.0
  0
LINE
  5
2A4
330
276
100
AcDbEntity
  8
Značka (ISO)
100
AcDbLine
 10
359.2
 20
98.04610359072693
 30
0.0
 11
359.2
 21
79.00000000000007
 31
0.0
  0
LINE
  5
2A5
330
276
100
AcDbEntity
  8
Značka (ISO)
100
AcDbLine
 10
333.8
 20
98.04610359072693
 30
0.0
 11
333.8
 21
79.00000000000007
 31
0.0
  0
LINE
  5
2A6
330
276
100
AcDbEntity
  8
Značka (ISO)
100
AcDbLine
 10
251.5388526849113
 20
98.04610359072693
 30
0.0
 11
251.5388526849113
 21
79.00000000000007
 31
0.0
  0
LINE
  5
2A7
330
276
100
AcDbEntity
  8
Značka (ISO)
100
AcDbLine
 10
244.1414502314888
 20
98.04610359072693
 30
0.0
 11
244.1414502314888
 21
79.00000000000007
 31
0.0
  0
LINE
  5
2A8
330
276
100
AcDbEntity
  8
Značka (ISO)
100
AcDbLine
 10
228.0005417041145
 20
98.04610359072693
 30
0.0
 11
228.0005417041145
 21
79.00000000000007
 31
0.0
  0
ENDBLK
  5
278
330
276
100
AcDbEntity
  8
0
100
AcDbBlockEnd
  0
BLOCK
  5
2B5
330
2B4
100
AcDbEntity
  8
0
100
AcDbBlockBegin
  2
*D17
 70
     1
 10
0.0
 20
0.0
 30
0.0
  3
*D17
  1

  0
LINE
  5
386
330
2B4
100
AcDbEntity
  8
Kóta (ISO)
440
 16777216
100
AcDbLine
 10
231.4113230027226
 20
327.8189784682309
 30
0.0
 11
281.7919254966512
 21
327.8189784682309
 31
0.0
  0
LINE
  5
387
330
2B4
100
AcDbEntity
  8
Kóta (ISO)
440
 16777216
100
AcDbLine
 10
231.4113230027227
 20
179.8189784682309
 30
0.0
 11
281.7919254966512
 21
179.8189784682309
 31
0.0
  0
LINE
  5
388
330
2B4
100
AcDbEntity
  8
Kóta (ISO)
440
 16777216
100
AcDbLine
 10
280.2919254966512
 20
324.0689784682309
 30
0.0
 11
280.2919254966512
 21
183.5689784682309
 31
0.0
  0
SOLID
  5
389
330
2B4
100
AcDbEntity
  8
Kóta (ISO)
440
 16777216
100
AcDbTrace
 10
279.6669254966512
 20
324.0689784682309
 30
0.0
 11
280.9169254966512
 21
324.0689784682309
 31
0.0
 12
280.2919254966512
 22
327.8189784682309
 32
0.0
 13
280.2919254966512
 23
327.8189784682309
 33
0.0
  0
SOLID
  5
38A
330
2B4
100
AcDbEntity
  8
Kóta (ISO)
440
 16777216
100
AcDbTrace
 10
279.6669254966512
 20
183.5689784682309
 30
0.0
 11
280.9169254966512
 21
183.5689784682309
 31
0.0
 12
280.2919254966512
 22
179.8189784682309
 32
0.0
 13
280.2919254966512
 23
179.8189784682309
 33
0.0
  0
MTEXT
  5
38B
330
2B4
100
AcDbEntity
  8
Kóta (ISO)
440
 16777216
100
AcDbMText
 10
273.6591672696532
 20
248.4349959296144
 30
0.0
 40
5.25
 41
0.0
 71
     1
 72
     1
  1
\A1;148
  7
Text poznámky (ISO)
 11
0.0000000000000001
 21
1.0
 31
0.0
 73
     1
 44
1.0
  0
POINT
  5
38C
330
2B4
100
AcDbEntity
  8
Defpoints
 62
     0
440
 16777216
100
AcDbPoint
 10
231.4113230027226
 20
327.8189784682309
 30
0.0
  0
POINT
  5
38D
330
2B4
100
AcDbEntity
  8
Defpoints
 62
     0
440
 16777216
100
AcDbPoint
 10
231.4113230027227
 20
179.8189784682309
 30
0.0
  0
POINT
  5
38E
330
2B4
100
AcDbEntity
  8
Defpoints
 62
     0
440
 16777216
100
AcDbPoint
 10
280.2919254966512
 20
179.8189784682309
 30
0.0
  0
ENDBLK
  5
2B6
330
2B4
100
AcDbEntity
  8
0
100
AcDbBlockEnd
  0
BLOCK
  5
6F0
330
6EF
100
AcDbEntity
  8
0
100
AcDbBlockBegin
  2
*D18
 70
     1
 10
0.0
 20
0.0
 30
0.0
  3
*D18
  1

  0
LINE
  5
7C1
330
6EF
100
AcDbEntity
  8
Kóta (ISO)
440
 16777216
100
AcDbLine
 10
239.9102262207682
 20
337.5605223733958
 30
0.0
 11
302.5538358671621
 21
337.5605223733958
 31
0.0
  0
LINE
  5
7C2
330
6EF
100
AcDbEntity
  8
Kóta (ISO)
440
 16777216
100
AcDbLine
 10
239.9102262207682
 20
170.077434563066
 30
0.0
 11
302.5538358671621
 21
170.077434563066
 31
0.0
  0
LINE
  5
7C3
330
6EF
100
AcDbEntity
  8
Kóta (ISO)
440
 16777216
100
AcDbLine
 10
301.0538358671622
 20
333.8105223733958
 30
0.0
 11
301.0538358671622
 21
173.827434563066
 31
0.0
  0
SOLID
  5
7C4
330
6EF
100
AcDbEntity
  8
Kóta (ISO)
440
 16777216
100
AcDbTrace
 10
300.4288358671622
 20
333.8105223733958
 30
0.0
 11
301.6788358671622
 21
333.8105223733958
 31
0.0
 12
301.0538358671622
 22
337.5605223733958
 32
0.0
 13
301.0538358671622
 23
337.5605223733958
 33
0.0
  0
SOLID
  5
7C5
330
6EF
100
AcDbEntity
  8
Kóta (ISO)
440
 16777216
100
AcDbTrace
 10
300.4288358671622
 20
173.827434563066
 30
0.0
 11
301.6788358671622
 21
173.827434563066
 31
0.0
 12
301.0538358671622
 22
170.077434563066
 32
0.0
 13
301.0538358671622
 23
170.077434563066
 33
0.0
  0
MTEXT
  5
7C6
330
6EF
100
AcDbEntity
  8
Kóta (ISO)
440
 16777216
100
AcDbMText
 10
293.257545067968
 20
245.4292034514411
 30
0.0
 40
5.25
 41
0.0
 71
     1
 72
     1
  1
\A1;167,5
  7
Text poznámky (ISO)
 11
0.0000000000000001
 21
1.0
 31
0.0
 73
     1
 44
1.0
  0
POINT
  5
7C7
330
6EF
100
AcDbEntity
  8
Defpoints
 62
     0
440
 16777216
100
AcDbPoint
 10
239.9102262207682
 20
337.5605223733958
 30
0.0
  0
POINT
  5
7C8
330
6EF
100
AcDbEntity
  8
Defpoints
 62
     0
440
 16777216
100
AcDbPoint
 10
239.9102262207682
 20
170.077434563066
 30
0.0
  0
POINT
  5
7C9
330
6EF
100
AcDbEntity
  8
Defpoints
 62
     0
440
 16777216
100
AcDbPoint
 10
301.0538358671622
 20
170.077434563066
 30
0.0
  0
ENDBLK
  5
6F1
330
6EF
100
AcDbEntity
  8
0
100
AcDbBlockEnd
  0
BLOCK
  5
7CC
330
7CB
100
AcDbEntity
  8
0
100
AcDbBlockBegin
  2
*D19
 70
     1
 10
0.0
 20
0.0
 30
0.0
  3
*D19
  1

  0
LINE
  5
89D
330
7CB
100
AcDbEntity
  8
Kóta (ISO)
440
 16777216
100
AcDbLine
 10
88.41132300272267
 20
184.8189784682309
 30
0.0
 11
88.41132300272267
 21
146.5490118644062
 31
0.0
  0
LINE
  5
89E
330
7CB
100
AcDbEntity
  8
Kóta (ISO)
440
 16777216
100
AcDbLine
 10
236.4113230027227
 20
184.8189784682309
 30
0.0
 11
236.4113230027227
 21
146.5490118644062
 31
0.0
  0
LINE
  5
89F
330
7CB
100
AcDbEntity
  8
Kóta (ISO)
440
 16777216
100
AcDbLine
 10
92.16132300272263
 20
148.0490118644062
 30
0.0
 11
232.6613230027227
 21
148.0490118644062
 31
0.0
  0
SOLID
  5
8A0
330
7CB
100
AcDbEntity
  8
Kóta (ISO)
440
 16777216
100
AcDbTrace
 10
92.16132300272263
 20
148.6740118644062
 30
0.0
 11
92.16132300272263
 21
147.4240118644062
 31
0.0
 12
88.41132300272267
 22
148.0490118644062
 32
0.0
 13
88.41132300272267
 23
148.0490118644062
 33
0.0
  0
SOLID
  5
8A1
330
7CB
100
AcDbEntity
  8
Kóta (ISO)
440
 16777216
100
AcDbTrace
 10
232.6613230027227
 20
148.6740118644062
 30
0.0
 11
232.6613230027227
 21
147.4240118644062
 31
0.0
 12
236.4113230027227
 22
148.0490118644062
 32
0.0
 13
236.4113230027227
 23
148.0490118644062
 33
0.0
  0
MTEXT
  5
8A2
330
7CB
100
AcDbEntity
  8
Kóta (ISO)
440
 16777216
100
AcDbMText
 10
157.0273404641061
 20
154.6817700914042
 30
0.0
 40
5.25
 41
0.0
 71
     1
 72
     1
  1
\A1;148
  7
Text poznámky (ISO)
 73
     1
 44
1.0
  0
POINT
  5
8A3
330
7CB
100
AcDbEntity
  8
Defpoints
 62
     0
440
 16777216
100
AcDbPoint
 10
88.41132300272267
 20
184.8189784682309
 30
0.0
  0
POINT
  5
8A4
330
7CB
100
AcDbEntity
  8
Defpoints
 62
     0
440
 16777216
100
AcDbPoint
 10
236.4113230027227
 20
184.8189784682309
 30
0.0
  0
POINT
  5
8A5
330
7CB
100
AcDbEntity
  8
Defpoints
 62
     0
440
 16777216
100
AcDbPoint
 10
236.4113230027227
 20
148.0490118644062
 30
0.0
  0
ENDBLK
  5
7CD
330
7CB
100
AcDbEntity
  8
0
100
AcDbBlockEnd
  0
BLOCK
  5
8A8
330
8A7
100
AcDbEntity
  8
0
100
AcDbBlockBegin
  2
*D20
 70
     1
 10
0.0
 20
0.0
 30
0.0
  3
*D20
  1

  0
LINE
  5
979
330
8A7
100
AcDbEntity
  8
Kóta (ISO)
440
 16777216
100
AcDbLine
 10
246.1528669078876
 20
176.3200752501853
 30
0.0
 11
246.1528669078876
 21
123.0455364224644
 31
0.0
  0
LINE
  5
97A
330
8A7
100
AcDbEntity
  8
Kóta (ISO)
440
 16777216
100
AcDbLine
 10
78.66977909755778
 20
176.3200752501852
 30
0.0
 11
78.66977909755778
 21
123.0455364224644
 31
0.0
  0
LINE
  5
97B
330
8A7
100
AcDbEntity
  8
Kóta (ISO)
440
 16777216
100
AcDbLine
 10
242.4028669078876
 20
124.5455364224644
 30
0.0
 11
82.41977909755778
 21
124.5455364224644
 31
0.0
  0
SOLID
  5
97C
330
8A7
100
AcDbEntity
  8
Kóta (ISO)
440
 16777216
100
AcDbTrace
 10
242.4028669078876
 20
125.1705364224644
 30
0.0
 11
242.4028669078876
 21
123.9205364224644
 31
0.0
 12
246.1528669078876
 22
124.5455364224644
 32
0.0
 13
246.1528669078876
 23
124.5455364224644
 33
0.0
  0
SOLID
  5
97D
330
8A7
100
AcDbEntity
  8
Kóta (ISO)
440
 16777216
100
AcDbTrace
 10
82.41977909755778
 20
125.1705364224644
 30
0.0
 11
82.41977909755778
 21
123.9205364224644
 31
0.0
 12
78.66977909755778
 22
124.5455364224644
 32
0.0
 13
78.66977909755778
 23
124.5455364224644
 33
0.0
  0
MTEXT
  5
97E
330
8A7
100
AcDbEntity
  8
Kóta (ISO)
440
 16777216
100
AcDbMText
 10
154.0215479859329
 20
132.3418272216585
 30
0.0
 40
5.25
 41
0.0
 71
     1
 72
     1
  1
\A1;167,5
  7
Text poznámky (ISO)
 73
     1
 44
1.0
  0
POINT
  5
97F
330
8A7
100
AcDbEntity
  8
Defpoints
 62
     0
440
 16777216
100
AcDbPoint
 10
246.1528669078876
 20
176.3200752501853
 30
0.0
  0
POINT
  5
980
330
8A7
100
AcDbEntity
  8
Defpoints
 62
     0
440
 16777216
100
AcDbPoint
 10
78.66977909755778
 20
176.3200752501852
 30
0.0
  0
POINT
  5
981
330
8A7
100
AcDbEntity
  8
Defpoints
 62
     0
440
 16777216
100
AcDbPoint
 10
78.66977909755778
 20
124.5455364224644
 30
0.0
  0
ENDBLK
  5
8A9
330
8A7
100
AcDbEntity
  8
0
100
AcDbBlockEnd
  0
BLOCK
  5
1060
330
105F
100
AcDbEntity
  8
0
100
AcDbBlockBegin
  2
Pozice1
 70
     0
 10
0.0
 20
0.0
 30
0.0
  3
Pozice1
  1

  0
LINE
  5
1062
330
105F
100
AcDbEntity
  8
Značka (ISO)
100
AcDbLine
 10
70.42188076685865
 20
123.2312090264925
 30
0.0
 11
69.17188076685821
 21
125.3962725359534
 31
0.0
  0
POLYLINE
  5
1063
330
105F
100
AcDbEntity
  8
Značka (ISO)
100
AcDb2dPolyline
 66
     1
 10
0.0
 20
0.0
 30
0.0
 70
   128
  0
VERTEX
  5
1064
330
1063
100
AcDbEntity
  8
Značka (ISO)
100
AcDbVertex
100
AcDb2dVertex
 10
70.85489273071289
 20
123.4812068939209
 30
0.0
  0
VERTEX
  5
1065
330
1063
100
AcDbEntity
  8
Značka (ISO)
100
AcDbVertex
100
AcDb2dVertex
 10
69.17188167572021
 20
125.396270751953
 30
0.0
  0
VERTEX
  5
1067
330
1063
100
AcDbEntity
  8
Značka (ISO)
100
AcDbVertex
100
AcDb2dVertex
 10
69.98886585235595
 20
122.9812049865723
 30
0.0
  0
VERTEX
  5
1068
330
1063
100
AcDbEntity
  8
Značka (ISO)
100
AcDbVertex
100
AcDb2dVertex
 10
70.85489273071289
 20
123.4812068939209
 30
0.0
  0
SEQEND
  5
1066
330
1063
100
AcDbEntity
  8
Značka (ISO)
  0
SOLID
  5
1069
330
105F
100
AcDbEntity
  8
Značka (ISO)
100
AcDbTrace
 10
70.85489273071289
 20
123.4812068939209
 30
0.0
 11
69.17188167572021
 21
125.396270751953
 31
0.0
 12
69.98886585235595
 22
122.9812049865723
 32
0.0
 13
70.85489273071289
 23
123.4812068939209
 33
0.0
  0
LINE
  5
106A
330
105F
100
AcDbEntity
  8
Značka (ISO)
100
AcDbLine
 10
70.85489346875082
 20
123.4812090264926
 30
0.0
 11
69.17188076685821
 21
125.3962725359534
 31
0.0
  0
LINE
  5
106B
330
105F
100
AcDbEntity
  8
Značka (ISO)
100
AcDbLine
 10
69.17188076685821
 20
125.3962725359534
 30
0.0
 11
69.98886806496648
 21
122.9812090264924
 31
0.0
  0
LINE
  5
106C
330
105F
100
AcDbEntity
  8
Značka (ISO)
100
AcDbLine
 10
69.98886806496648
 20
122.9812090264924
 30
0.0
 11
70.85489346875082
 21
123.4812090264926
 31
0.0
  0
LINE
  5
106D
330
105F
100
AcDbEntity
  8
Značka (ISO)
100
AcDbLine
 10
70.42188076685865
 20
123.2312090264925
 30
0.0
 11
79.91571078150613
 21
106.7874130827082
 31
0.0
  0
MTEXT
  5
106E
330
105F
100
AcDbEntity
  8
Značka (ISO)
100
AcDbMText
 10
87.79071042387826
 20
113.4052205306185
 30
0.0
 40
5.24999976158142
 41
0.0
 71
     5
 72
     1
  1
2
  7
Text popisu (ISO)
 73
     1
 44
1.0
  0
LINE
  5
106F
330
105F
100
AcDbEntity
  8
Značka (ISO)
100
AcDbLine
 10
79.91571078150613
 20
106.7874130827082
 30
0.0
 11
95.66571006625039
 21
106.7874130827082
 31
0.0
  0
ENDBLK
  5
1061
330
105F
100
AcDbEntity
  8
0
100
AcDbBlockEnd
  0
BLOCK
  5
1072
330
1071
100
AcDbEntity
  8
0
100
AcDbBlockBegin
  2
Pozice2
 70
     0
 10
0.0
 20
0.0
 30
0.0
  3
Pozice2
  1

  0
LINE
  5
1074
330
1071
100
AcDbEntity
  8
Značka (ISO)
100
AcDbLine
 10
77.50788290802073
 20
208.1717753228343
 30
0.0
 11
76.08407741250859
 21
206.1168354427041
 31
0.0
  0
POLYLINE
  5
1075
330
1071
100
AcDbEntity
  8
Značka (ISO)
100
AcDb2dPolyline
 66
     1
 10
0.0
 20
0.0
 30
0.0
 70
   128
  0
VERTEX
  5
1076
330
1075
100
AcDbEntity
  8
Značka (ISO)
100
AcDbVertex
100
AcDb2dVertex
 10
77.09689617156981
 20
208.4565353393555
 30
0.0
  0
VERTEX
  5
1077
330
1075
100
AcDbEntity
  8
Značka (ISO)
100
AcDbVertex
100
AcDb2dVertex
 10
76.08407974243164
 20
206.116828918457
 30
0.0
  0
VERTEX
  5
1079
330
1075
100
AcDbEntity
  8
Značka (ISO)
100
AcDbVertex
100
AcDb2dVertex
 10
77.91887283325195
 20
207.887020111084
 30
0.0
  0
VERTEX
  5
107A
330
1075
100
AcDbEntity
  8
Značka (ISO)
100
AcDbVertex
100
AcDb2dVertex
 10
77.09689617156981
 20
208.4565353393555
 30
0.0
  0
SEQEND
  5
1078
330
1075
100
AcDbEntity
  8
Značka (ISO)
  0
SOLID
  5
107B
330
1071
100
AcDbEntity
  8
Značka (ISO)
100
AcDbTrace
 10
77.09689617156981
 20
208.4565353393555
 30
0.0
 11
76.08407974243164
 21
206.116828918457
 31
0.0
 12
77.91887283325195
 22
207.887020111084
 32
0.0
 13
77.09689617156981
 23
208.4565353393555
 33
0.0
  0
LINE
  5
107C
330
1071
100
AcDbEntity
  8
Značka (ISO)
100
AcDbLine
 10
77.09689493199468
 20
208.4565364219367
 30
0.0
 11
76.08407741250859
 21
206.1168354427041
 31
0.0
  0
LINE
  5
107D
330
1071
100
AcDbEntity
  8
Značka (ISO)
100
AcDbLine
 10
76.08407741250859
 20
206.1168354427041
 30
0.0
 11
77.91887088404677
 21
207.8870142237318
 31
0.0
  0
LINE
  5
107E
330
1071
100
AcDbEntity
  8
Značka (ISO)
100
AcDbLine
 10
77.91887088404677
 20
207.8870142237318
 30
0.0
 11
77.09689493199468
 21
208.4565364219367
 31
0.0
  0
LINE
  5
107F
330
1071
100
AcDbEntity
  8
Značka (ISO)
100
AcDbLine
 10
77.50788290802073
 20
208.1717753228343
 30
0.0
 11
88.16666010737987
 21
223.5552995537943
 31
0.0
  0
MTEXT
  5
1080
330
1071
100
AcDbEntity
  8
Značka (ISO)
100
AcDbMText
 10
96.04165974975201
 20
230.3390308122686
 30
0.0
 40
5.24999976158142
 41
0.0
 71
     5
 72
     1
  1
3
  7
Text popisu (ISO)
 73
     1
 44
1.0
  0
LINE
  5
1081
330
1071
100
AcDbEntity
  8
Značka (ISO)
100
AcDbLine
 10
88.16666010737987
 20
223.5552995537943
 30
0.0
 11
103.9166593921241
 21
223.5552995537943
 31
0.0
  0
ENDBLK
  5
1073
330
1071
100
AcDbEntity
  8
0
100
AcDbBlockEnd
  0
BLOCK
  5
1084
330
1083
100
AcDbEntity
  8
0
100
AcDbBlockBegin
  2
Pozice3
 70
     0
 10
0.0
 20
0.0
 30
0.0
  3
Pozice3
  1

  0
LINE
  5
1086
330
1083
100
AcDbEntity
  8
Značka (ISO)
100
AcDbLine
 10
57.17311504884847
 20
177.5476285601257
 30
0.0
 11
58.9408820018151
 21
179.3153955130918
 31
0.0
  0
POLYLINE
  5
1087
330
1083
100
AcDbEntity
  8
Značka (ISO)
100
AcDb2dPolyline
 66
     1
 10
0.0
 20
0.0
 30
0.0
 70
   128
  0
VERTEX
  5
1088
330
1087
100
AcDbEntity
  8
Značka (ISO)
100
AcDbVertex
100
AcDb2dVertex
 10
57.5266695022583
 20
177.1940803527832
 30
0.0
  0
VERTEX
  5
1089
330
1087
100
AcDbEntity
  8
Značka (ISO)
100
AcDbVertex
100
AcDb2dVertex
 10
58.94088268280029
 20
179.3153953552246
 30
0.0
  0
VERTEX
  5
108B
330
1087
100
AcDbEntity
  8
Značka (ISO)
100
AcDbVertex
100
AcDb2dVertex
 10
56.8195629119873
 20
177.9011726379394
 30
0.0
  0
VERTEX
  5
108C
330
1087
100
AcDbEntity
  8
Značka (ISO)
100
AcDbVertex
100
AcDb2dVertex
 10
57.5266695022583
 20
177.1940803527832
 30
0.0
  0
SEQEND
  5
108A
330
1087
100
AcDbEntity
  8
Značka (ISO)
  0
SOLID
  5
108D
330
1083
100
AcDbEntity
  8
Značka (ISO)
100
AcDbTrace
 10
57.5266695022583
 20
177.1940803527832
 30
0.0
 11
58.94088268280029
 21
179.3153953552246
 31
0.0
 12
56.8195629119873
 22
177.9011726379394
 32
0.0
 13
57.5266695022583
 23
177.1940803527832
 33
0.0
  0
LINE
  5
108E
330
1083
100
AcDbEntity
  8
Značka (ISO)
100
AcDbLine
 10
57.52666843944169
 20
177.1940751695323
 30
0.0
 11
58.9408820018151
 21
179.3153955130918
 31
0.0
  0
LINE
  5
108F
330
1083
100
AcDbEntity
  8
Značka (ISO)
100
AcDbLine
 10
58.9408820018151
 20
179.3153955130918
 30
0.0
 11
56.81956165825525
 21
177.901181950719
 31
0.0
  0
LINE
  5
1090
330
1083
100
AcDbEntity
  8
Značka (ISO)
100
AcDbLine
 10
56.81956165825525
 20
177.901181950719
 30
0.0
 11
57.52666843944169
 21
177.1940751695323
 31
0.0
  0
LINE
  5
1091
330
1083
100
AcDbEntity
  8
Značka (ISO)
100
AcDbLine
 10
57.17311504884847
 20
177.5476285601257
 30
0.0
 11
49.42861016118695
 21
169.8031236724665
 31
0.0
  0
MTEXT
  5
1092
330
1083
100
AcDbEntity
  8
Značka (ISO)
100
AcDbMText
 10
41.55361051881482
 20
176.3741322355081
 30
0.0
 40
5.24999976158142
 41
0.0
 71
     5
 72
     1
  1
1
  7
Text popisu (ISO)
 73
     1
 44
1.0
  0
LINE
  5
1093
330
1083
100
AcDbEntity
  8
Značka (ISO)
100
AcDbLine
 10
49.42861016118695
 20
169.8031236724665
 30
0.0
 11
33.67861087644269
 21
169.8031236724665
 31
0.0
  0
ENDBLK
  5
1085
330
1083
100
AcDbEntity
  8
0
100
AcDbBlockEnd
  0
BLOCK
  5
10A0
330
109F
100
AcDbEntity
  8
0
100
AcDbBlockBegin
  2
Identifikátor značky svaru1
 70
     0
 10
0.0
 20
0.0
 30
0.0
  3
Identifikátor značky svaru1
  1

  0
LINE
  5
10A2
330
109F
100
AcDbEntity
  8
Značka (ISO)
100
AcDbLine
 10
96.01011133434454
 20
258.9317643398262
 30
0.0
 11
97.76895225978988
 21
260.7084124757774
 31
0.0
  0
POLYLINE
  5
10A3
330
109F
100
AcDbEntity
  8
Značka (ISO)
100
AcDb2dPolyline
 66
     1
 10
0.0
 20
0.0
 30
0.0
 70
   128
  0
VERTEX
  5
10A4
330
10A3
100
AcDbEntity
  8
Značka (ISO)
100
AcDbVertex
100
AcDb2dVertex
 10
96.36544227600097
 20
258.5799980163574
 30
0.0
  0
VERTEX
  5
10A5
330
10A3
100
AcDbEntity
  8
Značka (ISO)
100
AcDbVertex
100
AcDb2dVertex
 10
97.76895523071289
 20
260.7084083557129
 30
0.0
  0
VERTEX
  5
10A7
330
10A3
100
AcDbEntity
  8
Značka (ISO)
100
AcDbVertex
100
AcDb2dVertex
 10
95.65478324890136
 20
259.2835235595703
 30
0.0
  0
VERTEX
  5
10A8
330
10A3
100
AcDbEntity
  8
Značka (ISO)
100
AcDbVertex
100
AcDb2dVertex
 10
96.36544227600097
 20
258.5799980163574
 30
0.0
  0
SEQEND
  5
10A6
330
10A3
100
AcDbEntity
  8
Značka (ISO)
  0
SOLID
  5
10A9
330
109F
100
AcDbEntity
  8
Značka (ISO)
100
AcDbTrace
 10
96.36544227600097
 20
258.5799980163574
 30
0.0
 11
97.76895523071289
 21
260.7084083557129
 31
0.0
 12
95.65478324890136
 22
259.2835235595703
 32
0.0
 13
96.36544227600097
 23
258.5799980163574
 33
0.0
  0
LINE
  5
10AA
330
109F
100
AcDbEntity
  8
Značka (ISO)
100
AcDbLine
 10
96.36544096153478
 20
258.5799961547372
 30
0.0
 11
97.76895225978988
 21
260.7084124757774
 31
0.0
  0
LINE
  5
10AB
330
109F
100
AcDbEntity
  8
Značka (ISO)
100
AcDbLine
 10
97.76895225978988
 20
260.7084124757774
 30
0.0
 11
95.65478170715431
 21
259.2835325249153
 31
0.0
  0
LINE
  5
10AC
330
109F
100
AcDbEntity
  8
Značka (ISO)
100
AcDbLine
 10
95.65478170715431
 20
259.2835325249153
 30
0.0
 11
96.36544096153478
 21
258.5799961547372
 31
0.0
  0
LINE
  5
10AD
330
109F
100
AcDbEntity
  8
Značka (ISO)
100
AcDbLine
 10
96.01011133434454
 20
258.9317643398262
 30
0.0
 11
89.60383090834339
 21
252.4606241630342
 31
0.0
  0
LINE
  5
10AE
330
109F
100
AcDbEntity
  8
Značka (ISO)
100
AcDbLine
 10
77.60383066842479
 20
252.4606241630342
 30
0.0
 11
83.60383090684337
 21
252.4606241630342
 31
0.0
  0
LINE
  5
10AF
330
109F
100
AcDbEntity
  8
Značka (ISO)
100
AcDbLine
 10
83.60383090684337
 20
252.4606241630342
 30
0.0
 11
77.60383066842479
 21
258.4606244014528
 31
0.0
  0
LINE
  5
10B0
330
109F
100
AcDbEntity
  8
Značka (ISO)
100
AcDbLine
 10
77.60383066842479
 20
258.4606244014528
 30
0.0
 11
77.60383066842479
 21
252.4606241630342
 31
0.0
  0
LINE
  5
10B1
330
109F
100
AcDbEntity
  8
Značka (ISO)
100
AcDbLine
 10
89.60383090684336
 20
252.4606241630342
 30
0.0
 11
71.60383066842482
 21
252.4606241630342
 31
0.0
  0
ENDBLK
  5
10A1
330
109F
100
AcDbEntity
  8
0
100
AcDbBlockEnd
  0
BLOCK
  5
10B4
330
10B3
100
AcDbEntity
  8
0
100
AcDbBlockBegin
  2
Identifikátor značky svaru2
 70
     0
 10
0.0
 20
0.0
 30
0.0
  3
Identifikátor značky svaru2
  1

  0
LINE
  5
10B6
330
10B3
100
AcDbEntity
  8
Značka (ISO)
100
AcDbLine
 10
118.627926001488
 20
258.7980541941087
 30
0.0
 11
117.0153097310566
 21
260.7084124757774
 31
0.0
  0
POLYLINE
  5
10B7
330
10B3
100
AcDbEntity
  8
Značka (ISO)
100
AcDb2dPolyline
 66
     1
 10
0.0
 20
0.0
 30
0.0
 70
   128
  0
VERTEX
  5
10B8
330
10B7
100
AcDbEntity
  8
Značka (ISO)
100
AcDbVertex
100
AcDb2dVertex
 10
119.0100002288818
 20
259.1205787658692
 30
0.0
  0
VERTEX
  5
10B9
330
10B7
100
AcDbEntity
  8
Značka (ISO)
100
AcDbVertex
100
AcDb2dVertex
 10
117.0153141021728
 20
260.7084083557129
 30
0.0
  0
VERTEX
  5
10BB
330
10B7
100
AcDbEntity
  8
Značka (ISO)
100
AcDbVertex
100
AcDb2dVertex
 10
118.245849609375
 20
258.4755325317384
 30
0.0
  0
VERTEX
  5
10BC
330
10B7
100
AcDbEntity
  8
Značka (ISO)
100
AcDbVertex
100
AcDb2dVertex
 10
119.0100002288818
 20
259.1205787658692
 30
0.0
  0
SEQEND
  5
10BA
330
10B7
100
AcDbEntity
  8
Značka (ISO)
  0
SOLID
  5
10BD
330
10B3
100
AcDbEntity
  8
Značka (ISO)
100
AcDbTrace
 10
119.0100002288818
 20
259.1205787658692
 30
0.0
 11
117.0153141021728
 21
260.7084083557129
 31
0.0
 12
118.245849609375
 22
258.4755325317384
 32
0.0
 13
119.0100002288818
 23
259.1205787658692
 33
0.0
  0
LINE
  5
10BE
330
10B3
100
AcDbEntity
  8
Značka (ISO)
100
AcDbLine
 10
119.0099976578217
 20
259.120577448195
 30
0.0
 11
117.0153097310566
 21
260.7084124757774
 31
0.0
  0
LINE
  5
10BF
330
10B3
100
AcDbEntity
  8
Značka (ISO)
100
AcDbLine
 10
117.0153097310566
 20
260.7084124757774
 30
0.0
 11
118.2458543451542
 21
258.4755309400224
 31
0.0
  0
LINE
  5
10C0
330
10B3
100
AcDbEntity
  8
Značka (ISO)
100
AcDbLine
 10
118.2458543451542
 20
258.4755309400224
 30
0.0
 11
119.0099976578217
 21
259.120577448195
 31
0.0
  0
LINE
  5
10C1
330
10B3
100
AcDbEntity
  8
Značka (ISO)
100
AcDbLine
 10
118.627926001488
 20
258.7980541941087
 30
0.0
 11
123.7806959936837
 21
252.6939133587368
 31
0.0
  0
LINE
  5
10C2
330
10B3
100
AcDbEntity
  8
Značka (ISO)
100
AcDbLine
 10
129.7806959951837
 20
252.6939133587368
 30
0.0
 11
135.7806962336023
 21
252.6939133587368
 31
0.0
  0
LINE
  5
10C3
330
10B3
100
AcDbEntity
  8
Značka (ISO)
100
AcDbLine
 10
135.7806962336023
 20
252.6939133587368
 30
0.0
 11
129.7806959951837
 21
258.6939135971554
 31
0.0
  0
LINE
  5
10C4
330
10B3
100
AcDbEntity
  8
Značka (ISO)
100
AcDbLine
 10
129.7806959951837
 20
258.6939135971554
 30
0.0
 11
129.7806959951837
 21
252.6939133587368
 31
0.0
  0
LINE
  5
10C5
330
10B3
100
AcDbEntity
  8
Značka (ISO)
100
AcDbLine
 10
123.7806959951837
 20
252.6939133587368
 30
0.0
 11
141.7806962336023
 21
252.6939133587368
 31
0.0
  0
ENDBLK
  5
10B5
330
10B3
100
AcDbEntity
  8
0
100
AcDbBlockEnd
  0
BLOCK
  5
11AA
330
11A9
100
AcDbEntity
  8
0
100
AcDbBlockBegin
  2
2dPrevedenyRez0
 70
     0
 10
0.0
 20
0.0
 30
0.0
  3
2dPrevedenyRez0
  1

  0
LINE
  5
11AC
330
11A9
100
AcDbEntity
  8
Čára řezu (ISO)
  6
Continuous
100
AcDbLine
 10
54.25125725249621
 20
115.1896942295017
 30
0.0
 11
162.2971734178006
 21
223.2356103948061
 31
0.0
  0
LINE
  5
11AD
330
11A9
100
AcDbEntity
  8
Čára řezu (ISO)
  6
Continuous
370
    35
100
AcDbLine
 10
54.25125725249621
 20
115.1896942295017
 30
0.0
 11
56.26258320787127
 21
117.2010201848768
 31
0.0
  0
LINE
  5
11AE
330
11A9
100
AcDbEntity
  8
Čára řezu (ISO)
  6
Continuous
370
    35
100
AcDbLine
 10
160.2858474624255
 20
221.2242844394311
 30
0.0
 11
162.2971734178006
 21
223.2356103948061
 31
0.0
  0
LINE
  5
11AF
330
11A9
100
AcDbEntity
  8
Čára řezu (ISO)
  6
Continuous
100
AcDbLine
 10
57.0246871831501
 20
114.4275902542229
 30
0.0
 11
55.25692023018375
 21
116.1953572071892
 31
0.0
  0
POLYLINE
  5
11B0
330
11A9
100
AcDbEntity
  8
Čára řezu (ISO)
  6
Continuous
100
AcDb2dPolyline
 66
     1
 10
0.0
 20
0.0
 30
0.0
 70
   128
  0
VERTEX
  5
11B1
330
11B0
100
AcDbEntity
  8
Čára řezu (ISO)
  6
Continuous
100
AcDbVertex
100
AcDb2dVertex
 10
57.37824149379918
 20
114.7811439299925
 30
0.0
  0
VERTEX
  5
11B2
330
11B0
100
AcDbEntity
  8
Čára řezu (ISO)
  6
Continuous
100
AcDbVertex
100
AcDb2dVertex
 10
55.25692013352898
 20
116.1953571105345
 30
0.0
  0
VERTEX
  5
11B4
330
11B0
100
AcDbEntity
  8
Čára řezu (ISO)
  6
Continuous
100
AcDbVertex
100
AcDb2dVertex
 10
56.67113331407097
 20
114.0740389291787
 30
0.0
  0
VERTEX
  5
11B5
330
11B0
100
AcDbEntity
  8
Čára řezu (ISO)
  6
Continuous
100
AcDbVertex
100
AcDb2dVertex
 10
57.37824149379918
 20
114.7811439299925
 30
0.0
  0
SEQEND
  5
11B3
330
11B0
100
AcDbEntity
  8
Čára řezu (ISO)
  6
Continuous
  0
SOLID
  5
11B6
330
11A9
100
AcDbEntity
  8
Čára řezu (ISO)
100
AcDbTrace
 10
57.37824149379918
 20
114.7811439299925
 30
0.0
 11
55.25692013352898
 21
116.1953571105345
 31
0.0
 12
56.67113331407097
 22
114.0740389291787
 32
0.0
 13
57.37824149379918
 23
114.7811439299925
 33
0.0
  0
LINE
  5
11B7
330
11A9
100
AcDbEntity
  8
Čára řezu (ISO)
  6
Continuous
100
AcDbLine
 10
57.37824057374339
 20
114.7811436448161
 30
0.0
 11
55.25692023018375
 21
116.1953572071892
 31
0.0
  0
LINE
  5
11B8
330
11A9
100
AcDbEntity
  8
Čára řezu (ISO)
  6
Continuous
100
AcDbLine
 10
55.25692023018375
 20
116.1953572071892
 30
0.0
 11
56.67113379255685
 21
114.0740368636296
 31
0.0
  0
LINE
  5
11B9
330
11A9
100
AcDbEntity
  8
Čára řezu (ISO)
  6
Continuous
100
AcDbLine
 10
56.67113379255685
 20
114.0740368636296
 30
0.0
 11
57.37824057374339
 21
114.7811436448161
 31
0.0
  0
LINE
  5
11BA
330
11A9
100
AcDbEntity
  8
Čára řezu (ISO)
  6
Continuous
100
AcDbLine
 10
58.93270015078446
 20
112.5195772865885
 30
0.0
 11
57.0246871831501
 21
114.4275902542229
 31
0.0
  0
LINE
  5
11BB
330
11A9
100
AcDbEntity
  8
Čára řezu (ISO)
  6
Continuous
100
AcDbLine
 10
163.0592773930795
 20
220.4621804641523
 30
0.0
 11
161.2915104401131
 21
222.2299474171186
 31
0.0
  0
POLYLINE
  5
11BC
330
11A9
100
AcDbEntity
  8
Čára řezu (ISO)
  6
Continuous
100
AcDb2dPolyline
 66
     1
 10
0.0
 20
0.0
 30
0.0
 70
   128
  0
VERTEX
  5
11BD
330
11BC
100
AcDbEntity
  8
Čára řezu (ISO)
  6
Continuous
100
AcDbVertex
100
AcDb2dVertex
 10
163.4128287181237
 20
220.8157343332314
 30
0.0
  0
VERTEX
  5
11BE
330
11BC
100
AcDbEntity
  8
Čára řezu (ISO)
  6
Continuous
100
AcDbVertex
100
AcDb2dVertex
 10
161.2915105367679
 20
222.2299475137734
 30
0.0
  0
VERTEX
  5
11C0
330
11BC
100
AcDbEntity
  8
Čára řezu (ISO)
  6
Continuous
100
AcDbVertex
100
AcDb2dVertex
 10
162.7057237173099
 20
220.1086261535032
 30
0.0
  0
VERTEX
  5
11C1
330
11BC
100
AcDbEntity
  8
Čára řezu (ISO)
  6
Continuous
100
AcDbVertex
100
AcDb2dVertex
 10
163.4128287181237
 20
220.8157343332314
 30
0.0
  0
SEQEND
  5
11BF
330
11BC
100
AcDbEntity
  8
Čára řezu (ISO)
  6
Continuous
  0
SOLID
  5
11C2
330
11A9
100
AcDbEntity
  8
Čára řezu (ISO)
100
AcDbTrace
 10
163.4128287181237
 20
220.8157343332314
 30
0.0
 11
161.2915105367679
 21
222.2299475137734
 31
0.0
 12
162.7057237173099
 22
220.1086261535032
 32
0.0
 13
163.4128287181237
 23
220.8157343332314
 33
0.0
  0
LINE
  5
11C3
330
11A9
100
AcDbEntity
  8
Čára řezu (ISO)
  6
Continuous
100
AcDbLine
 10
163.4128307836727
 20
220.8157338547455
 30
0.0
 11
161.2915104401131
 21
222.2299474171186
 31
0.0
  0
LINE
  5
11C4
330
11A9
100
AcDbEntity
  8
Čára řezu (ISO)
  6
Continuous
100
AcDbLine
 10
161.2915104401131
 20
222.2299474171186
 30
0.0
 11
162.7057240024862
 21
220.108627073559
 31
0.0
  0
LINE
  5
11C5
330
11A9
100
AcDbEntity
  8
Čára řezu (ISO)
  6
Continuous
100
AcDbLine
 10
162.7057240024862
 20
220.108627073559
 30
0.0
 11
163.4128307836727
 21
220.8157338547455
 31
0.0
  0
LINE
  5
11C6
330
11A9
100
AcDbEntity
  8
Čára řezu (ISO)
  6
Continuous
100
AcDbLine
 10
164.9672903607138
 20
218.5541674965179
 30
0.0
 11
163.0592773930795
 21
220.4621804641523
 31
0.0
  0
MTEXT
  5
11C7
330
11A9
100
AcDbEntity
  8
Čára řezu (ISO)
100
AcDbMText
 10
61.23372778577905
 20
107.5599496863129
 30
0.0
 40
5.24999976158142
 41
0.0
 71
     7
 72
     1
  1
A
  7
Text popisu (ISO)
 73
     1
 44
1.0
  0
MTEXT
  5
11C8
330
11A9
100
AcDbEntity
  8
Čára řezu (ISO)
100
AcDbMText
 10
167.2683179957084
 20
213.5945398962423
 30
0.0
 40
5.24999976158142
 41
0.0
 71
     7
 72
     1
  1
A
  7
Text popisu (ISO)
 73
     1
 44
1.0
  0
ENDBLK
  5
11AB
330
11A9
100
AcDbEntity
  8
0
100
AcDbBlockEnd
  0
BLOCK
  5
11E4
330
11E3
100
AcDbEntity
  8
0
100
AcDbBlockBegin
  2
2dPrevedenyRez1
 70
     0
 10
0.0
 20
0.0
 30
0.0
  3
2dPrevedenyRez1
  1

  0
LINE
  5
11E6
330
11E3
100
AcDbEntity
  8
Čára řezu (ISO)
  6
Continuous
100
AcDbLine
 10
105.9171927311932
 20
171.5696749161091
 30
0.0
 11
162.2971734178006
 21
115.1896942295017
 31
0.0
  0
LINE
  5
11E7
330
11E3
100
AcDbEntity
  8
Čára řezu (ISO)
  6
Continuous
370
    35
100
AcDbLine
 10
105.9171927311932
 20
171.5696749161091
 30
0.0
 11
107.9199176216276
 21
169.5669500256746
 31
0.0
  0
LINE
  5
11E8
330
11E3
100
AcDbEntity
  8
Čára řezu (ISO)
  6
Continuous
370
    35
100
AcDbLine
 10
160.2944485273663
 20
117.192419119936
 30
0.0
 11
162.2971734178006
 21
115.1896942295017
 31
0.0
  0
LINE
  5
11E9
330
11E3
100
AcDbEntity
  8
Čára řezu (ISO)
  6
Continuous
100
AcDbLine
 10
105.150788223444
 20
168.8005455179256
 30
0.0
 11
106.9185551764104
 21
170.5683124708919
 31
0.0
  0
POLYLINE
  5
11EA
330
11E3
100
AcDbEntity
  8
Čára řezu (ISO)
  6
Continuous
100
AcDb2dPolyline
 66
     1
 10
0.0
 20
0.0
 30
0.0
 70
   128
  0
VERTEX
  5
11EB
330
11EA
100
AcDbEntity
  8
Čára řezu (ISO)
  6
Continuous
100
AcDbVertex
100
AcDb2dVertex
 10
105.5043415968595
 20
168.4469921056771
 30
0.0
  0
VERTEX
  5
11EC
330
11EA
100
AcDbEntity
  8
Čára řezu (ISO)
  6
Continuous
100
AcDbVertex
100
AcDb2dVertex
 10
106.9185551747658
 20
170.5683124725365
 30
0.0
  0
VERTEX
  5
11EE
330
11EA
100
AcDbEntity
  8
Čára řezu (ISO)
  6
Continuous
100
AcDbVertex
100
AcDb2dVertex
 10
104.7972348079064
 20
169.1540989070478
 30
0.0
  0
VERTEX
  5
11EF
330
11EA
100
AcDbEntity
  8
Čára řezu (ISO)
  6
Continuous
100
AcDbVertex
100
AcDb2dVertex
 10
105.5043415968595
 20
168.4469921056771
 30
0.0
  0
SEQEND
  5
11ED
330
11EA
100
AcDbEntity
  8
Čára řezu (ISO)
  6
Continuous
  0
SOLID
  5
11F0
330
11E3
100
AcDbEntity
  8
Čára řezu (ISO)
100
AcDbTrace
 10
105.5043415968595
 20
168.4469921056771
 30
0.0
 11
106.9185551747658
 21
170.5683124725365
 31
0.0
 12
104.7972348079064
 22
169.1540989070478
 32
0.0
 13
105.5043415968595
 23
168.4469921056771
 33
0.0
  0
LINE
  5
11F1
330
11E3
100
AcDbEntity
  8
Čára řezu (ISO)
  6
Continuous
100
AcDbLine
 10
105.5043416140373
 20
168.4469921273323
 30
0.0
 11
106.9185551764104
 21
170.5683124708919
 31
0.0
  0
LINE
  5
11F2
330
11E3
100
AcDbEntity
  8
Čára řezu (ISO)
  6
Continuous
100
AcDbLine
 10
106.9185551764104
 20
170.5683124708919
 30
0.0
 11
104.7972348328508
 21
169.1540989085188
 31
0.0
  0
LINE
  5
11F3
330
11E3
100
AcDbEntity
  8
Čára řezu (ISO)
  6
Continuous
100
AcDbLine
 10
104.7972348328508
 20
169.1540989085188
 30
0.0
 11
105.5043416140373
 21
168.4469921273323
 31
0.0
  0
LINE
  5
11F4
330
11E3
100
AcDbEntity
  8
Čára řezu (ISO)
  6
Continuous
100
AcDbLine
 10
103.2439495177456
 20
166.8937068122271
 30
0.0
 11
105.150788223444
 21
168.8005455179256
 31
0.0
  0
LINE
  5
11F5
330
11E3
100
AcDbEntity
  8
Čára řezu (ISO)
  6
Continuous
100
AcDbLine
 10
159.5280440196171
 20
114.4232897217525
 30
0.0
 11
161.2958109725835
 21
116.1910566747188
 31
0.0
  0
POLYLINE
  5
11F6
330
11E3
100
AcDbEntity
  8
Čára řezu (ISO)
  6
Continuous
100
AcDb2dPolyline
 66
     1
 10
0.0
 20
0.0
 30
0.0
 70
   128
  0
VERTEX
  5
11F7
330
11F6
100
AcDbEntity
  8
Čára řezu (ISO)
  6
Continuous
100
AcDbVertex
100
AcDb2dVertex
 10
159.8815984273929
 20
114.0697346790973
 30
0.0
  0
VERTEX
  5
11F8
330
11F6
100
AcDbEntity
  8
Čára řezu (ISO)
  6
Continuous
100
AcDbVertex
100
AcDb2dVertex
 10
161.2958116079349
 20
116.1910560393675
 30
0.0
  0
VERTEX
  5
11FA
330
11F6
100
AcDbEntity
  8
Čára řezu (ISO)
  6
Continuous
100
AcDbVertex
100
AcDb2dVertex
 10
159.1744902476647
 20
114.7768460377398
 30
0.0
  0
VERTEX
  5
11FB
330
11F6
100
AcDbEntity
  8
Čára řezu (ISO)
  6
Continuous
100
AcDbVertex
100
AcDb2dVertex
 10
159.8815984273929
 20
114.0697346790973
 30
0.0
  0
SEQEND
  5
11F9
330
11F6
100
AcDbEntity
  8
Čára řezu (ISO)
  6
Continuous
  0
SOLID
  5
11FC
330
11E3
100
AcDbEntity
  8
Čára řezu (ISO)
100
AcDbTrace
 10
159.8815984273929
 20
114.0697346790973
 30
0.0
 11
161.2958116079349
 21
116.1910560393675
 31
0.0
 12
159.1744902476647
 22
114.7768460377398
 32
0.0
 13
159.8815984273929
 23
114.0697346790973
 33
0.0
  0
LINE
  5
11FD
330
11E3
100
AcDbEntity
  8
Čára řezu (ISO)
  6
Continuous
100
AcDbLine
 10
159.8815974102104
 20
114.0697363311592
 30
0.0
 11
161.2958109725835
 21
116.1910566747188
 31
0.0
  0
LINE
  5
11FE
330
11E3
100
AcDbEntity
  8
Čára řezu (ISO)
  6
Continuous
100
AcDbLine
 10
161.2958109725835
 20
116.1910566747188
 30
0.0
 11
159.1744906290238
 21
114.7768431123457
 31
0.0
  0
LINE
  5
11FF
330
11E3
100
AcDbEntity
  8
Čára řezu (ISO)
  6
Continuous
100
AcDbLine
 10
159.1744906290238
 20
114.7768431123457
 30
0.0
 11
159.8815974102104
 21
114.0697363311592
 31
0.0
  0
LINE
  5
1200
330
11E3
100
AcDbEntity
  8
Čára řezu (ISO)
  6
Continuous
100
AcDbLine
 10
157.6212053139187
 20
112.516451016054
 30
0.0
 11
159.5280440196171
 21
114.4232897217524
 31
0.0
  0
MTEXT
  5
1201
330
11E3
100
AcDbEntity
  8
Čára řezu (ISO)
100
AcDbMText
 10
97.17869209798715
 20
161.9329049500155
 30
0.0
 40
5.24999976158142
 41
0.0
 71
     7
 72
     1
  1
B
  7
Text popisu (ISO)
 73
     1
 44
1.0
  0
MTEXT
  5
1202
330
11E3
100
AcDbEntity
  8
Čára řezu (ISO)
100
AcDbMText
 10
151.5559478941602
 20
107.5556491538425
 30
0.0
 40
5.24999976158142
 41
0.0
 71
     7
 72
     1
  1
B
  7
Text popisu (ISO)
 73
     1
 44
1.0
  0
ENDBLK
  5
11E5
330
11E3
100
AcDbEntity
  8
0
100
AcDbBlockEnd
  0
BLOCK
  5
1628
330
1626
100
AcDbEntity
  8
0
100
AcDbBlockBegin
  2
GENAXEH
 70
     0
 10
0.0
 20
0.0
 30
0.0
  3
GENAXEH
  1

  0
LINE
  5
1627
330
1626
100
AcDbEntity
  8
0
100
AcDbLine
 10
-1.0
 20
0.0
 30
0.0
 11
1.0
 21
0.0
 31
0.0
  0
ENDBLK
  5
1629
330
1626
100
AcDbEntity
  8
0
100
AcDbBlockEnd
  0
BLOCK
  5
16DE
330
16DD
100
AcDbEntity
  8
0
100
AcDbBlockBegin
  2
*D29
 70
     1
 10
0.0
 20
0.0
 30
0.0
  3
*D29
  1

  0
LINE
  5
16DF
330
16DD
100
AcDbEntity
  8
KOTY_GULLY
370
    -2
100
AcDbLine
 10
236.4368884576717
 20
308.2258366989143
 30
0.0
 11
236.4368884576717
 21
338.5976782899102
 31
0.0
  0
LINE
  5
16E0
330
16DD
100
AcDbEntity
  8
KOTY_GULLY
370
    -2
100
AcDbLine
 10
68.43688845767179
 20
308.2258366989137
 30
0.0
 11
68.43688845767179
 21
338.5976782899102
 31
0.0
  0
LINE
  5
16E1
330
16DD
100
AcDbEntity
  8
KOTY_GULLY
370
    -2
100
AcDbLine
 10
233.4368884576717
 20
336.5976782899102
 30
0.0
 11
71.43688845767178
 21
336.5976782899102
 31
0.0
  0
SOLID
  5
16E2
330
16DD
100
AcDbEntity
  8
KOTY_GULLY
100
AcDbTrace
 10
233.4368884576717
 20
337.0976782899102
 30
0.0
 11
233.4368884576717
 21
336.0976782899102
 31
0.0
 12
236.4368884576717
 22
336.5976782899102
 32
0.0
 13
236.4368884576717
 23
336.5976782899102
 33
0.0
  0
SOLID
  5
16E3
330
16DD
100
AcDbEntity
  8
KOTY_GULLY
100
AcDbTrace
 10
71.43688845767178
 20
337.0976782899102
 30
0.0
 11
71.43688845767178
 21
336.0976782899102
 31
0.0
 12
68.43688845767179
 22
336.5976782899102
 32
0.0
 13
68.43688845767179
 23
336.5976782899102
 33
0.0
  0
MTEXT
  5
16E4
330
16DD
100
AcDbEntity
  8
KOTY_GULLY
100
AcDbMText
 10
152.4368884576715
 20
344.1216782899102
 30
0.0
 40
12.0
 41
0.0
 71
     5
 72
     1
  1
\A1;168
  7
Annotative
 73
     1
 44
1.0
  0
POINT
  5
16E5
330
16DD
100
AcDbEntity
  8
Defpoints
 62
     0
100
AcDbPoint
 10
236.4368884576717
 20
308.2258366989143
 30
0.0
  0
POINT
  5
16E6
330
16DD
100
AcDbEntity
  8
Defpoints
 62
     0
100
AcDbPoint
 10
68.43688845767179
 20
308.2258366989137
 30
0.0
  0
POINT
  5
16E7
330
16DD
100
AcDbEntity
  8
Defpoints
 62
     0
100
AcDbPoint
 10
68.43688845767179
 20
336.5976782899102
 30
0.0
  0
ENDBLK
  5
16E8
330
16DD
100
AcDbEntity
  8
0
100
AcDbBlockEnd
  0
BLOCK
  5
16EA
330
16E9
100
AcDbEntity
  8
0
100
AcDbBlockBegin
  2
*D30
 70
     1
 10
0.0
 20
0.0
 30
0.0
  3
*D30
  1

  0
LINE
  5
16EB
330
16E9
100
AcDbEntity
  8
KOTY_GULLY
370
    -2
100
AcDbLine
 10
72.43688845767178
 20
312.2258366989137
 30
0.0
 11
30.7123120318818
 21
312.2258366989137
 31
0.0
  0
LINE
  5
16EC
330
16E9
100
AcDbEntity
  8
KOTY_GULLY
370
    -2
100
AcDbLine
 10
72.43688845767214
 20
144.2258366989134
 30
0.0
 11
30.71231203188176
 21
144.2258366989134
 31
0.0
  0
LINE
  5
16ED
330
16E9
100
AcDbEntity
  8
KOTY_GULLY
370
    -2
100
AcDbLine
 10
32.7123120318818
 20
309.2258366989137
 30
0.0
 11
32.71231203188178
 21
147.2258366989134
 31
0.0
  0
SOLID
  5
16EE
330
16E9
100
AcDbEntity
  8
KOTY_GULLY
100
AcDbTrace
 10
32.2123120318818
 20
309.2258366989137
 30
0.0
 11
33.2123120318818
 21
309.2258366989137
 31
0.0
 12
32.7123120318818
 22
312.2258366989137
 32
0.0
 13
32.7123120318818
 23
312.2258366989137
 33
0.0
  0
SOLID
  5
16EF
330
16E9
100
AcDbEntity
  8
KOTY_GULLY
100
AcDbTrace
 10
32.21231203188177
 20
147.2258366989134
 30
0.0
 11
33.21231203188176
 21
147.2258366989134
 31
0.0
 12
32.71231203188178
 22
144.2258366989134
 32
0.0
 13
32.71231203188178
 23
144.2258366989134
 33
0.0
  0
MTEXT
  5
16F0
330
16E9
100
AcDbEntity
  8
KOTY_GULLY
100
AcDbMText
 10
25.18831203188174
 20
228.2258366989136
 30
0.0
 40
12.0
 41
0.0
 71
     5
 72
     1
  1
\A1;168
  7
Annotative
 11
0.0000000000000001
 21
1.0
 31
0.0
 73
     1
 44
1.0
  0
POINT
  5
16F1
330
16E9
100
AcDbEntity
  8
Defpoints
 62
     0
100
AcDbPoint
 10
72.43688845767178
 20
312.2258366989137
 30
0.0
  0
POINT
  5
16F2
330
16E9
100
AcDbEntity
  8
Defpoints
 62
     0
100
AcDbPoint
 10
72.43688845767214
 20
144.2258366989134
 30
0.0
  0
POINT
  5
16F3
330
16E9
100
AcDbEntity
  8
Defpoints
 62
     0
100
AcDbPoint
 10
32.71231203188178
 20
144.2258366989134
 30
0.0
  0
ENDBLK
  5
16F4
330
16E9
100
AcDbEntity
  8
0
100
AcDbBlockEnd
  0
BLOCK
  5
1723
330
1722
100
AcDbEntity
  8
0
100
AcDbBlockBegin
  2
*D31
 70
     1
 10
0.0
 20
0.0
 30
0.0
  3
*D31
  1

  0
LINE
  5
197A
330
1722
100
AcDbEntity
  8
KOTY_GULLY
370
    -2
100
AcDbLine
 10
246.1528669078876
 20
331.3178816862766
 30
0.0
 11
246.1528669078876
 21
374.4187882659965
 31
0.0
  0
LINE
  5
197B
330
1722
100
AcDbEntity
  8
KOTY_GULLY
370
    -2
100
AcDbLine
 10
78.64979720739444
 20
331.3170307658925
 30
0.0
 11
78.64979720739444
 21
374.4187882659965
 31
0.0
  0
LINE
  5
197C
330
1722
100
AcDbEntity
  8
KOTY_GULLY
370
    -2
100
AcDbLine
 10
243.1528669078876
 20
372.4187882659965
 30
0.0
 11
81.64979720739443
 21
372.4187882659965
 31
0.0
  0
SOLID
  5
197D
330
1722
100
AcDbEntity
  8
KOTY_GULLY
100
AcDbTrace
 10
243.1528669078876
 20
372.9187882659965
 30
0.0
 11
243.1528669078876
 21
371.9187882659964
 31
0.0
 12
246.1528669078876
 22
372.4187882659965
 32
0.0
 13
246.1528669078876
 23
372.4187882659965
 33
0.0
  0
SOLID
  5
197E
330
1722
100
AcDbEntity
  8
KOTY_GULLY
100
AcDbTrace
 10
81.64979720739443
 20
372.9187882659965
 30
0.0
 11
81.64979720739443
 21
371.9187882659964
 31
0.0
 12
78.64979720739444
 22
372.4187882659965
 32
0.0
 13
78.64979720739444
 23
372.4187882659965
 33
0.0
  0
MTEXT
  5
197F
330
1722
100
AcDbEntity
  8
KOTY_GULLY
100
AcDbMText
 10
162.401332057641
 20
379.9427882659965
 30
0.0
 40
12.0
 41
0.0
 71
     5
 72
     1
  1
\A1;168
  7
Annotative
 73
     1
 44
1.0
  0
POINT
  5
1980
330
1722
100
AcDbEntity
  8
Defpoints
 62
     0
100
AcDbPoint
 10
246.1528669078876
 20
331.3178816862766
 30
0.0
  0
POINT
  5
1981
330
1722
100
AcDbEntity
  8
Defpoints
 62
     0
100
AcDbPoint
 10
78.64979720739444
 20
331.3170307658925
 30
0.0
  0
POINT
  5
1982
330
1722
100
AcDbEntity
  8
Defpoints
 62
     0
100
AcDbPoint
 10
78.64979720739444
 20
372.4187882659965
 30
0.0
  0
ENDBLK
  5
1724
330
1722
100
AcDbEntity
  8
0
100
AcDbBlockEnd
  0
BLOCK
  5
172F
330
172E
100
AcDbEntity
  8
0
100
AcDbBlockBegin
  2
*D32
 70
     1
 10
0.0
 20
0.0
 30
0.0
  3
*D32
  1

  0
LINE
  5
1985
330
172E
100
AcDbEntity
  8
KOTY_GULLY
370
    -2
100
AcDbLine
 10
84.91366091384543
 20
337.6031251829218
 30
0.0
 11
30.04206065949624
 21
337.6031251829218
 31
0.0
  0
LINE
  5
1986
330
172E
100
AcDbEntity
  8
KOTY_GULLY
370
    -2
100
AcDbLine
 10
84.91241978467703
 20
170.077434563066
 30
0.0
 11
30.04206065949621
 21
170.077434563066
 31
0.0
  0
LINE
  5
1987
330
172E
100
AcDbEntity
  8
KOTY_GULLY
370
    -2
100
AcDbLine
 10
32.04206065949624
 20
334.6031251829217
 30
0.0
 11
32.0420606594962
 21
173.077434563066
 31
0.0
  0
SOLID
  5
1988
330
172E
100
AcDbEntity
  8
KOTY_GULLY
100
AcDbTrace
 10
31.54206065949624
 20
334.6031251829217
 30
0.0
 11
32.54206065949624
 21
334.6031251829217
 31
0.0
 12
32.04206065949624
 22
337.6031251829218
 32
0.0
 13
32.04206065949624
 23
337.6031251829218
 33
0.0
  0
SOLID
  5
1989
330
172E
100
AcDbEntity
  8
KOTY_GULLY
100
AcDbTrace
 10
31.54206065949621
 20
173.077434563066
 30
0.0
 11
32.5420606594962
 21
173.077434563066
 31
0.0
 12
32.0420606594962
 22
170.077434563066
 32
0.0
 13
32.0420606594962
 23
170.077434563066
 33
0.0
  0
MTEXT
  5
198A
330
172E
100
AcDbEntity
  8
KOTY_GULLY
100
AcDbMText
 10
24.51806065949618
 20
253.8402798729939
 30
0.0
 40
12.0
 41
0.0
 71
     5
 72
     1
  1
\A1;168
  7
Annotative
 11
0.0000000000000001
 21
1.0
 31
0.0
 73
     1
 44
1.0
  0
POINT
  5
198B
330
172E
100
AcDbEntity
  8
Defpoints
 62
     0
100
AcDbPoint
 10
84.91366091384543
 20
337.6031251829218
 30
0.0
  0
POINT
  5
198C
330
172E
100
AcDbEntity
  8
Defpoints
 62
     0
100
AcDbPoint
 10
84.91241978467703
 20
170.077434563066
 30
0.0
  0
POINT
  5
198D
330
172E
100
AcDbEntity
  8
Defpoints
 62
     0
100
AcDbPoint
 10
32.0420606594962
 20
170.077434563066
 30
0.0
  0
ENDBLK
  5
1730
330
172E
100
AcDbEntity
  8
0
100
AcDbBlockEnd
  0
BLOCK
  5
1760
330
175F
100
AcDbEntity
  8
0
100
AcDbBlockBegin
  2
*D33
 70
     1
 10
0.0
 20
0.0
 30
0.0
  3
*D33
  1

  0
LINE
  5
1761
330
175F
100
AcDbEntity
  8
KOTY_GULLY
370
    -2
100
AcDbLine
 10
202.5016559126099
 20
344.4762947806062
 30
0.0
 11
202.5016559126099
 21
374.848136371602
 31
0.0
  0
LINE
  5
1762
330
175F
100
AcDbEntity
  8
KOTY_GULLY
370
    -2
100
AcDbLine
 10
34.50165591260998
 20
344.4762947806055
 30
0.0
 11
34.50165591260998
 21
374.848136371602
 31
0.0
  0
LINE
  5
1763
330
175F
100
AcDbEntity
  8
KOTY_GULLY
370
    -2
100
AcDbLine
 10
199.5016559126098
 20
372.848136371602
 30
0.0
 11
37.50165591260998
 21
372.848136371602
 31
0.0
  0
SOLID
  5
1764
330
175F
100
AcDbEntity
  8
KOTY_GULLY
100
AcDbTrace
 10
199.5016559126098
 20
373.348136371602
 30
0.0
 11
199.5016559126098
 21
372.348136371602
 31
0.0
 12
202.5016559126099
 22
372.848136371602
 32
0.0
 13
202.5016559126099
 23
372.848136371602
 33
0.0
  0
SOLID
  5
1765
330
175F
100
AcDbEntity
  8
KOTY_GULLY
100
AcDbTrace
 10
37.50165591260998
 20
373.348136371602
 30
0.0
 11
37.50165591260998
 21
372.348136371602
 31
0.0
 12
34.50165591260998
 22
372.848136371602
 32
0.0
 13
34.50165591260998
 23
372.848136371602
 33
0.0
  0
MTEXT
  5
1766
330
175F
100
AcDbEntity
  8
KOTY_GULLY
100
AcDbMText
 10
118.5016559126099
 20
380.372136371602
 30
0.0
 40
12.0
 41
0.0
 71
     5
 72
     1
  1
\A1;168
  7
Annotative
 73
     1
 44
1.0
  0
POINT
  5
1767
330
175F
100
AcDbEntity
  8
Defpoints
 62
     0
100
AcDbPoint
 10
202.5016559126099
 20
344.4762947806062
 30
0.0
  0
POINT
  5
1768
330
175F
100
AcDbEntity
  8
Defpoints
 62
     0
100
AcDbPoint
 10
34.50165591260998
 20
344.4762947806055
 30
0.0
  0
POINT
  5
1769
330
175F
100
AcDbEntity
  8
Defpoints
 62
     0
100
AcDbPoint
 10
34.50165591260998
 20
372.848136371602
 30
0.0
  0
ENDBLK
  5
176A
330
175F
100
AcDbEntity
  8
0
100
AcDbBlockEnd
  0
BLOCK
  5
176C
330
176B
100
AcDbEntity
  8
0
100
AcDbBlockBegin
  2
*D34
 70
     1
 10
0.0
 20
0.0
 30
0.0
  3
*D34
  1

  0
LINE
  5
176D
330
176B
100
AcDbEntity
  8
KOTY_GULLY
370
    -2
100
AcDbLine
 10
38.50165591260998
 20
348.4762947806055
 30
0.0
 11
-3.222920513180008
 21
348.4762947806055
 31
0.0
  0
LINE
  5
176E
330
176B
100
AcDbEntity
  8
KOTY_GULLY
370
    -2
100
AcDbLine
 10
38.50165591261033
 20
180.4762947806052
 30
0.0
 11
-3.222920513180043
 21
180.4762947806052
 31
0.0
  0
LINE
  5
176F
330
176B
100
AcDbEntity
  8
KOTY_GULLY
370
    -2
100
AcDbLine
 10
-1.222920513180004
 20
345.4762947806055
 30
0.0
 11
-1.222920513180042
 21
183.4762947806052
 31
0.0
  0
SOLID
  5
1770
330
176B
100
AcDbEntity
  8
KOTY_GULLY
100
AcDbTrace
 10
-1.722920513180004
 20
345.4762947806055
 30
0.0
 11
-0.7229205131800061
 21
345.4762947806055
 31
0.0
 12
-1.222920513180004
 22
348.4762947806055
 32
0.0
 13
-1.222920513180004
 23
348.4762947806055
 33
0.0
  0
SOLID
  5
1771
330
176B
100
AcDbEntity
  8
KOTY_GULLY
100
AcDbTrace
 10
-1.72292051318004
 20
183.4762947806052
 30
0.0
 11
-0.7229205131800419
 21
183.4762947806052
 31
0.0
 12
-1.222920513180042
 22
180.4762947806052
 32
0.0
 13
-1.222920513180042
 23
180.4762947806052
 33
0.0
  0
MTEXT
  5
1772
330
176B
100
AcDbEntity
  8
KOTY_GULLY
100
AcDbMText
 10
-8.746920513180066
 20
264.4762947806054
 30
0.0
 40
12.0
 41
0.0
 71
     5
 72
     1
  1
\A1;168
  7
Annotative
 11
0.0000000000000001
 21
1.0
 31
0.0
 73
     1
 44
1.0
  0
POINT
  5
1773
330
176B
100
AcDbEntity
  8
Defpoints
 62
     0
100
AcDbPoint
 10
38.50165591260998
 20
348.4762947806055
 30
0.0
  0
POINT
  5
1774
330
176B
100
AcDbEntity
  8
Defpoints
 62
     0
100
AcDbPoint
 10
38.50165591261033
 20
180.4762947806052
 30
0.0
  0
POINT
  5
1775
330
176B
100
AcDbEntity
  8
Defpoints
 62
     0
100
AcDbPoint
 10
-1.222920513180042
 20
180.4762947806052
 30
0.0
  0
ENDBLK
  5
1776
330
176B
100
AcDbEntity
  8
0
100
AcDbBlockEnd
  0
BLOCK
  5
1782
330
1781
100
AcDbEntity
  8
0
100
AcDbBlockBegin
  2
*D35
 70
     1
 10
0.0
 20
0.0
 30
0.0
  3
*D35
  1

  0
LINE
  5
189E
330
1781
100
AcDbEntity
  8
KOTY_GULLY
370
    -2
100
AcDbLine
 10
236.4113230027227
 20
322.8189784682308
 30
0.0
 11
236.4113230027227
 21
347.4352522068309
 31
0.0
  0
LINE
  5
189F
330
1781
100
AcDbEntity
  8
KOTY_GULLY
370
    -2
100
AcDbLine
 10
88.41132300272267
 20
320.7479106563654
 30
0.0
 11
88.41132300272267
 21
347.4352522068309
 31
0.0
  0
LINE
  5
18A0
330
1781
100
AcDbEntity
  8
KOTY_GULLY
370
    -2
100
AcDbLine
 10
233.4113230027227
 20
345.4352522068309
 30
0.0
 11
91.41132300272266
 21
345.4352522068309
 31
0.0
  0
SOLID
  5
18A1
330
1781
100
AcDbEntity
  8
KOTY_GULLY
100
AcDbTrace
 10
233.4113230027227
 20
345.9352522068309
 30
0.0
 11
233.4113230027227
 21
344.9352522068309
 31
0.0
 12
236.4113230027227
 22
345.4352522068309
 32
0.0
 13
236.4113230027227
 23
345.4352522068309
 33
0.0
  0
SOLID
  5
18A2
330
1781
100
AcDbEntity
  8
KOTY_GULLY
100
AcDbTrace
 10
91.41132300272266
 20
345.9352522068309
 30
0.0
 11
91.41132300272266
 21
344.9352522068309
 31
0.0
 12
88.41132300272267
 22
345.4352522068309
 32
0.0
 13
88.41132300272267
 23
345.4352522068309
 33
0.0
  0
MTEXT
  5
18A3
330
1781
100
AcDbEntity
  8
KOTY_GULLY
100
AcDbMText
 10
162.4113230027226
 20
352.9592522068309
 30
0.0
 40
12.0
 41
0.0
 71
     5
 72
     1
  1
\A1;148
  7
Annotative
 73
     1
 44
1.0
  0
POINT
  5
18A4
330
1781
100
AcDbEntity
  8
Defpoints
 62
     0
100
AcDbPoint
 10
236.4113230027227
 20
322.8189784682308
 30
0.0
  0
POINT
  5
18A5
330
1781
100
AcDbEntity
  8
Defpoints
 62
     0
100
AcDbPoint
 10
88.41132300272267
 20
320.7479106563654
 30
0.0
  0
POINT
  5
18A6
330
1781
100
AcDbEntity
  8
Defpoints
 62
     0
100
AcDbPoint
 10
88.41132300272267
 20
345.4352522068309
 30
0.0
  0
ENDBLK
  5
1783
330
1781
100
AcDbEntity
  8
0
100
AcDbBlockEnd
  0
BLOCK
  5
178E
330
178D
100
AcDbEntity
  8
0
100
AcDbBlockBegin
  2
*D36
 70
     1
 10
0.0
 20
0.0
 30
0.0
  3
*D36
  1

  0
LINE
  5
18B9
330
178D
100
AcDbEntity
  8
KOTY_GULLY
370
    -2
100
AcDbLine
 10
95.48239081458817
 20
327.8189784682309
 30
0.0
 11
61.84190243822198
 21
327.8189784682309
 31
0.0
  0
LINE
  5
18BA
330
178D
100
AcDbEntity
  8
KOTY_GULLY
370
    -2
100
AcDbLine
 10
95.48239081458817
 20
179.8189784682309
 30
0.0
 11
61.84190243822195
 21
179.8189784682309
 31
0.0
  0
LINE
  5
18BB
330
178D
100
AcDbEntity
  8
KOTY_GULLY
370
    -2
100
AcDbLine
 10
63.84190243822198
 20
324.8189784682308
 30
0.0
 11
63.84190243822195
 21
182.8189784682309
 31
0.0
  0
SOLID
  5
18BC
330
178D
100
AcDbEntity
  8
KOTY_GULLY
100
AcDbTrace
 10
63.34190243822198
 20
324.8189784682308
 30
0.0
 11
64.34190243822198
 21
324.8189784682308
 31
0.0
 12
63.84190243822198
 22
327.8189784682309
 32
0.0
 13
63.84190243822198
 23
327.8189784682309
 33
0.0
  0
SOLID
  5
18BD
330
178D
100
AcDbEntity
  8
KOTY_GULLY
100
AcDbTrace
 10
63.34190243822195
 20
182.8189784682309
 30
0.0
 11
64.34190243822195
 21
182.8189784682309
 31
0.0
 12
63.84190243822195
 22
179.8189784682309
 32
0.0
 13
63.84190243822195
 23
179.8189784682309
 33
0.0
  0
MTEXT
  5
18BE
330
178D
100
AcDbEntity
  8
KOTY_GULLY
100
AcDbMText
 10
56.31790243822192
 20
253.8189784682309
 30
0.0
 40
12.0
 41
0.0
 71
     5
 72
     1
  1
\A1;148
  7
Annotative
 11
0.0000000000000001
 21
1.0
 31
0.0
 73
     1
 44
1.0
  0
POINT
  5
18BF
330
178D
100
AcDbEntity
  8
Defpoints
 62
     0
100
AcDbPoint
 10
95.48239081458817
 20
327.8189784682309
 30
0.0
  0
POINT
  5
18C0
330
178D
100
AcDbEntity
  8
Defpoints
 62
     0
100
AcDbPoint
 10
95.48239081458817
 20
179.8189784682309
 30
0.0
  0
POINT
  5
18C1
330
178D
100
AcDbEntity
  8
Defpoints
 62
     0
100
AcDbPoint
 10
63.84190243822195
 20
179.8189784682309
 30
0.0
  0
ENDBLK
  5
178F
330
178D
100
AcDbEntity
  8
0
100
AcDbBlockEnd
  0
BLOCK
  5
1A4E
330
1A4D
100
AcDbEntity
  8
0
100
AcDbBlockBegin
  2
*D38
 70
     1
 10
0.0
 20
0.0
 30
0.0
  3
*D38
  1

  0
LINE
  5
1A4F
330
1A4D
100
AcDbEntity
  8
KOTY_GULLY
370
    -2
100
AcDbLine
 10
403.1065989985478
 20
663.9819329037234
 30
0.0
 11
403.1065989985478
 21
696.5190591294038
 31
0.0
  0
LINE
  5
1A50
330
1A4D
100
AcDbEntity
  8
KOTY_GULLY
370
    -2
100
AcDbLine
 10
103.1065989985478
 20
663.9819328739208
 30
0.0
 11
103.1065989985478
 21
696.5190591294038
 31
0.0
  0
LINE
  5
1A51
330
1A4D
100
AcDbEntity
  8
KOTY_GULLY
370
    -2
100
AcDbLine
 10
400.1065989985478
 20
694.5190591294037
 30
0.0
 11
106.1065989985478
 21
694.5190591294037
 31
0.0
  0
SOLID
  5
1A52
330
1A4D
100
AcDbEntity
  8
KOTY_GULLY
100
AcDbTrace
 10
400.1065989985478
 20
695.0190591294037
 30
0.0
 11
400.1065989985478
 21
694.0190591294038
 31
0.0
 12
403.1065989985478
 22
694.5190591294037
 32
0.0
 13
403.1065989985478
 23
694.5190591294037
 33
0.0
  0
SOLID
  5
1A53
330
1A4D
100
AcDbEntity
  8
KOTY_GULLY
100
AcDbTrace
 10
106.1065989985478
 20
695.0190591294037
 30
0.0
 11
106.1065989985478
 21
694.0190591294038
 31
0.0
 12
103.1065989985478
 22
694.5190591294037
 32
0.0
 13
103.1065989985478
 23
694.5190591294037
 33
0.0
  0
MTEXT
  5
1A54
330
1A4D
100
AcDbEntity
  8
KOTY_GULLY
100
AcDbMText
 10
253.1065989985478
 20
702.0430591294037
 30
0.0
 40
12.0
 41
0.0
 71
     5
 72
     1
  1
\A1;300
  7
Annotative
 73
     1
 44
1.0
  0
POINT
  5
1A55
330
1A4D
100
AcDbEntity
  8
Defpoints
 62
     0
100
AcDbPoint
 10
403.1065989985478
 20
663.9819329037234
 30
0.0
  0
POINT
  5
1A56
330
1A4D
100
AcDbEntity
  8
Defpoints
 62
     0
100
AcDbPoint
 10
103.1065989985478
 20
663.9819328739208
 30
0.0
  0
POINT
  5
1A57
330
1A4D
100
AcDbEntity
  8
Defpoints
 62
     0
100
AcDbPoint
 10
103.1065989985478
 20
694.5190591294037
 30
0.0
  0
ENDBLK
  5
1A58
330
1A4D
100
AcDbEntity
  8
0
100
AcDbBlockEnd
  0
BLOCK
  5
1A5A
330
1A59
100
AcDbEntity
  8
0
100
AcDbBlockBegin
  2
*D39
 70
     1
 10
0.0
 20
0.0
 30
0.0
  3
*D39
  1

  0
LINE
  5
1A5B
330
1A59
100
AcDbEntity
  8
KOTY_GULLY
370
    -2
100
AcDbLine
 10
103.7837233430155
 20
665.4819329037234
 30
0.0
 11
32.8850390255441
 21
665.4819329037234
 31
0.0
  0
LINE
  5
1A5C
330
1A59
100
AcDbEntity
  8
KOTY_GULLY
370
    -2
100
AcDbLine
 10
153.6065989985478
 20
563.5099450171221
 30
0.0
 11
32.88503902554406
 21
563.5099450171221
 31
0.0
  0
LINE
  5
1A5D
330
1A59
100
AcDbEntity
  8
KOTY_GULLY
370
    -2
100
AcDbLine
 10
34.88503902554409
 20
662.4819329037234
 30
0.0
 11
34.88503902554407
 21
566.5099450171221
 31
0.0
  0
SOLID
  5
1A5E
330
1A59
100
AcDbEntity
  8
KOTY_GULLY
100
AcDbTrace
 10
34.38503902554409
 20
662.4819329037234
 30
0.0
 11
35.38503902554409
 21
662.4819329037234
 31
0.0
 12
34.88503902554409
 22
665.4819329037234
 32
0.0
 13
34.88503902554409
 23
665.4819329037234
 33
0.0
  0
SOLID
  5
1A5F
330
1A59
100
AcDbEntity
  8
KOTY_GULLY
100
AcDbTrace
 10
34.38503902554407
 20
566.5099450171221
 30
0.0
 11
35.38503902554407
 21
566.5099450171221
 31
0.0
 12
34.88503902554407
 22
563.5099450171221
 32
0.0
 13
34.88503902554407
 23
563.5099450171221
 33
0.0
  0
MTEXT
  5
1A60
330
1A59
100
AcDbEntity
  8
KOTY_GULLY
100
AcDbMText
 10
27.36103902554398
 20
614.4959389604228
 30
0.0
 40
12.0
 41
0.0
 71
     5
 72
     1
  1
\A1;102
  7
Annotative
 11
0.0000000000000001
 21
1.0
 31
0.0
 73
     1
 44
1.0
  0
POINT
  5
1A61
330
1A59
100
AcDbEntity
  8
Defpoints
 62
     0
100
AcDbPoint
 10
103.7837233430155
 20
665.4819329037234
 30
0.0
  0
POINT
  5
1A62
330
1A59
100
AcDbEntity
  8
Defpoints
 62
     0
100
AcDbPoint
 10
153.6065989985478
 20
563.5099450171221
 30
0.0
  0
POINT
  5
1A63
330
1A59
100
AcDbEntity
  8
Defpoints
 62
     0
100
AcDbPoint
 10
34.88503902554407
 20
563.5099450171221
 30
0.0
  0
ENDBLK
  5
1A64
330
1A59
100
AcDbEntity
  8
0
100
AcDbBlockEnd
  0
BLOCK
  5
1A8A
330
1A89
100
AcDbEntity
  8
0
100
AcDbBlockBegin
  2
*D41
 70
     1
 10
0.0
 20
0.0
 30
0.0
  3
*D41
  1

  0
LINE
  5
1BF3
330
1A89
100
AcDbEntity
  8
KOTY_GULLY
370
    -2
100
AcDbLine
 10
246.1528669078876
 20
431.3178816862763
 30
0.0
 11
246.1528669078876
 21
502.3329672515947
 31
0.0
  0
LINE
  5
1BF4
330
1A89
100
AcDbEntity
  8
KOTY_GULLY
370
    -2
100
AcDbLine
 10
-21.77741145798291
 20
431.3178816862763
 30
0.0
 11
-21.7774114579829
 21
502.3329672515947
 31
0.0
  0
LINE
  5
1BF5
330
1A89
100
AcDbEntity
  8
KOTY_GULLY
370
    -2
100
AcDbLine
 10
243.1528669078876
 20
500.3329672515946
 30
0.0
 11
-18.7774114579829
 21
500.3329672515946
 31
0.0
  0
SOLID
  5
1BF6
330
1A89
100
AcDbEntity
  8
KOTY_GULLY
100
AcDbTrace
 10
243.1528669078876
 20
500.8329672515947
 30
0.0
 11
243.1528669078876
 21
499.8329672515946
 31
0.0
 12
246.1528669078876
 22
500.3329672515946
 32
0.0
 13
246.1528669078876
 23
500.3329672515946
 33
0.0
  0
SOLID
  5
1BF7
330
1A89
100
AcDbEntity
  8
KOTY_GULLY
100
AcDbTrace
 10
-18.7774114579829
 20
500.8329672515947
 30
0.0
 11
-18.7774114579829
 21
499.8329672515946
 31
0.0
 12
-21.7774114579829
 22
500.3329672515946
 32
0.0
 13
-21.7774114579829
 23
500.3329672515946
 33
0.0
  0
MTEXT
  5
1BF8
330
1A89
100
AcDbEntity
  8
KOTY_GULLY
100
AcDbMText
 10
112.1877277249523
 20
507.8569672515946
 30
0.0
 40
12.0
 41
0.0
 71
     5
 72
     1
  1
\A1;268
  7
Annotative
 73
     1
 44
1.0
  0
POINT
  5
1BF9
330
1A89
100
AcDbEntity
  8
Defpoints
 62
     0
100
AcDbPoint
 10
246.1528669078876
 20
431.3178816862763
 30
0.0
  0
POINT
  5
1BFA
330
1A89
100
AcDbEntity
  8
Defpoints
 62
     0
100
AcDbPoint
 10
-21.77741145798291
 20
431.3178816862763
 30
0.0
  0
POINT
  5
1BFB
330
1A89
100
AcDbEntity
  8
Defpoints
 62
     0
100
AcDbPoint
 10
-21.7774114579829
 20
500.3329672515946
 30
0.0
  0
ENDBLK
  5
1A8B
330
1A89
100
AcDbEntity
  8
0
100
AcDbBlockEnd
  0
BLOCK
  5
1A96
330
1A95
100
AcDbEntity
  8
0
100
AcDbBlockBegin
  2
*D42
 70
     1
 10
0.0
 20
0.0
 30
0.0
  3
*D42
  1

  0
LINE
  5
1C05
330
1A95
100
AcDbEntity
  8
KOTY_GULLY
370
    -2
100
AcDbLine
 10
-15.08758021532292
 20
437.6896097071332
 30
0.0
 11
-117.4137776047381
 21
437.6896097071332
 31
0.0
  0
LINE
  5
1C06
330
1A95
100
AcDbEntity
  8
KOTY_GULLY
370
    -2
100
AcDbLine
 10
-15.08758021532292
 20
170.077434563066
 30
0.0
 11
-117.4137776047382
 21
170.077434563066
 31
0.0
  0
LINE
  5
1C07
330
1A95
100
AcDbEntity
  8
KOTY_GULLY
370
    -2
100
AcDbLine
 10
-115.4137776047382
 20
434.6896097071333
 30
0.0
 11
-115.4137776047382
 21
173.077434563066
 31
0.0
  0
SOLID
  5
1C08
330
1A95
100
AcDbEntity
  8
KOTY_GULLY
100
AcDbTrace
 10
-115.9137776047382
 20
434.6896097071333
 30
0.0
 11
-114.9137776047382
 21
434.6896097071333
 31
0.0
 12
-115.4137776047382
 22
437.6896097071332
 32
0.0
 13
-115.4137776047382
 23
437.6896097071332
 33
0.0
  0
SOLID
  5
1C09
330
1A95
100
AcDbEntity
  8
KOTY_GULLY
100
AcDbTrace
 10
-115.9137776047382
 20
173.077434563066
 30
0.0
 11
-114.9137776047382
 21
173.077434563066
 31
0.0
 12
-115.4137776047382
 22
170.077434563066
 32
0.0
 13
-115.4137776047382
 23
170.077434563066
 33
0.0
  0
MTEXT
  5
1C0A
330
1A95
100
AcDbEntity
  8
KOTY_GULLY
100
AcDbMText
 10
-122.9377776047382
 20
303.8835221350997
 30
0.0
 40
12.0
 41
0.0
 71
     5
 72
     1
  1
\A1;268
  7
Annotative
 11
0.0000000000000001
 21
1.0
 31
0.0
 73
     1
 44
1.0
  0
POINT
  5
1C0B
330
1A95
100
AcDbEntity
  8
Defpoints
 62
     0
100
AcDbPoint
 10
-15.08758021532292
 20
437.6896097071332
 30
0.0
  0
POINT
  5
1C0C
330
1A95
100
AcDbEntity
  8
Defpoints
 62
     0
100
AcDbPoint
 10
-15.08758021532292
 20
170.077434563066
 30
0.0
  0
POINT
  5
1C0D
330
1A95
100
AcDbEntity
  8
Defpoints
 62
     0
100
AcDbPoint
 10
-115.4137776047382
 20
170.077434563066
 30
0.0
  0
ENDBLK
  5
1A97
330
1A95
100
AcDbEntity
  8
0
100
AcDbBlockEnd
  0
BLOCK
  5
1AC7
330
1AC6
100
AcDbEntity
  8
0
100
AcDbBlockBegin
  2
*D43
 70
     1
 10
0.0
 20
0.0
 30
0.0
  3
*D43
  1

  0
LINE
  5
1AC8
330
1AC6
100
AcDbEntity
  8
KOTY_GULLY
370
    -2
100
AcDbLine
 10
403.1065989985478
 20
663.9819329037234
 30
0.0
 11
403.1065989985478
 21
696.5190591294038
 31
0.0
  0
LINE
  5
1AC9
330
1AC6
100
AcDbEntity
  8
KOTY_GULLY
370
    -2
100
AcDbLine
 10
103.1065989985478
 20
663.9819328739208
 30
0.0
 11
103.1065989985478
 21
696.5190591294038
 31
0.0
  0
LINE
  5
1ACA
330
1AC6
100
AcDbEntity
  8
KOTY_GULLY
370
    -2
100
AcDbLine
 10
400.1065989985478
 20
694.5190591294037
 30
0.0
 11
106.1065989985478
 21
694.5190591294037
 31
0.0
  0
SOLID
  5
1ACB
330
1AC6
100
AcDbEntity
  8
KOTY_GULLY
100
AcDbTrace
 10
400.1065989985478
 20
695.0190591294037
 30
0.0
 11
400.1065989985478
 21
694.0190591294038
 31
0.0
 12
403.1065989985478
 22
694.5190591294037
 32
0.0
 13
403.1065989985478
 23
694.5190591294037
 33
0.0
  0
SOLID
  5
1ACC
330
1AC6
100
AcDbEntity
  8
KOTY_GULLY
100
AcDbTrace
 10
106.1065989985478
 20
695.0190591294037
 30
0.0
 11
106.1065989985478
 21
694.0190591294038
 31
0.0
 12
103.1065989985478
 22
694.5190591294037
 32
0.0
 13
103.1065989985478
 23
694.5190591294037
 33
0.0
  0
MTEXT
  5
1ACD
330
1AC6
100
AcDbEntity
  8
KOTY_GULLY
100
AcDbMText
 10
253.1065989985478
 20
702.0430591294037
 30
0.0
 40
12.0
 41
0.0
 71
     5
 72
     1
  1
\A1;300
  7
Annotative
 73
     1
 44
1.0
  0
POINT
  5
1ACE
330
1AC6
100
AcDbEntity
  8
Defpoints
 62
     0
100
AcDbPoint
 10
403.1065989985478
 20
663.9819329037234
 30
0.0
  0
POINT
  5
1ACF
330
1AC6
100
AcDbEntity
  8
Defpoints
 62
     0
100
AcDbPoint
 10
103.1065989985478
 20
663.9819328739208
 30
0.0
  0
POINT
  5
1AD0
330
1AC6
100
AcDbEntity
  8
Defpoints
 62
     0
100
AcDbPoint
 10
103.1065989985478
 20
694.5190591294037
 30
0.0
  0
ENDBLK
  5
1AD1
330
1AC6
100
AcDbEntity
  8
0
100
AcDbBlockEnd
  0
BLOCK
  5
1AD3
330
1AD2
100
AcDbEntity
  8
0
100
AcDbBlockBegin
  2
*D44
 70
     1
 10
0.0
 20
0.0
 30
0.0
  3
*D44
  1

  0
LINE
  5
1AD4
330
1AD2
100
AcDbEntity
  8
KOTY_GULLY
370
    -2
100
AcDbLine
 10
103.7837233430155
 20
665.4819329037234
 30
0.0
 11
32.8850390255441
 21
665.4819329037234
 31
0.0
  0
LINE
  5
1AD5
330
1AD2
100
AcDbEntity
  8
KOTY_GULLY
370
    -2
100
AcDbLine
 10
153.6065989985478
 20
563.5099450171221
 30
0.0
 11
32.88503902554406
 21
563.5099450171221
 31
0.0
  0
LINE
  5
1AD6
330
1AD2
100
AcDbEntity
  8
KOTY_GULLY
370
    -2
100
AcDbLine
 10
34.88503902554409
 20
662.4819329037234
 30
0.0
 11
34.88503902554407
 21
566.5099450171221
 31
0.0
  0
SOLID
  5
1AD7
330
1AD2
100
AcDbEntity
  8
KOTY_GULLY
100
AcDbTrace
 10
34.38503902554409
 20
662.4819329037234
 30
0.0
 11
35.38503902554409
 21
662.4819329037234
 31
0.0
 12
34.88503902554409
 22
665.4819329037234
 32
0.0
 13
34.88503902554409
 23
665.4819329037234
 33
0.0
  0
SOLID
  5
1AD8
330
1AD2
100
AcDbEntity
  8
KOTY_GULLY
100
AcDbTrace
 10
34.38503902554407
 20
566.5099450171221
 30
0.0
 11
35.38503902554407
 21
566.5099450171221
 31
0.0
 12
34.88503902554407
 22
563.5099450171221
 32
0.0
 13
34.88503902554407
 23
563.5099450171221
 33
0.0
  0
MTEXT
  5
1AD9
330
1AD2
100
AcDbEntity
  8
KOTY_GULLY
100
AcDbMText
 10
27.36103902554398
 20
614.4959389604228
 30
0.0
 40
12.0
 41
0.0
 71
     5
 72
     1
  1
\A1;102
  7
Annotative
 11
0.0000000000000001
 21
1.0
 31
0.0
 73
     1
 44
1.0
  0
POINT
  5
1ADA
330
1AD2
100
AcDbEntity
  8
Defpoints
 62
     0
100
AcDbPoint
 10
103.7837233430155
 20
665.4819329037234
 30
0.0
  0
POINT
  5
1ADB
330
1AD2
100
AcDbEntity
  8
Defpoints
 62
     0
100
AcDbPoint
 10
153.6065989985478
 20
563.5099450171221
 30
0.0
  0
POINT
  5
1ADC
330
1AD2
100
AcDbEntity
  8
Defpoints
 62
     0
100
AcDbPoint
 10
34.88503902554407
 20
563.5099450171221
 30
0.0
  0
ENDBLK
  5
1ADD
330
1AD2
100
AcDbEntity
  8
0
100
AcDbBlockEnd
  0
BLOCK
  5
1AE7
330
1AE6
100
AcDbEntity
  8
0
100
AcDbBlockBegin
  2
*D46
 70
     1
 10
0.0
 20
0.0
 30
0.0
  3
*D46
  1

  0
LINE
  5
1BEA
330
1AE6
100
AcDbEntity
  8
KOTY_GULLY
370
    -2
100
AcDbLine
 10
234.9468569086554
 20
426.3545123741635
 30
0.0
 11
234.9468569086554
 21
469.3498109633696
 31
0.0
  0
LINE
  5
1BEB
330
1AE6
100
AcDbEntity
  8
KOTY_GULLY
370
    -2
100
AcDbLine
 10
-10.12421090321004
 20
426.3545123741635
 30
0.0
 11
-10.12421090321004
 21
469.3498109633696
 31
0.0
  0
LINE
  5
1BEC
330
1AE6
100
AcDbEntity
  8
KOTY_GULLY
370
    -2
100
AcDbLine
 10
231.9468569086554
 20
467.3498109633697
 30
0.0
 11
-7.124210903210039
 21
467.3498109633697
 31
0.0
  0
SOLID
  5
1BED
330
1AE6
100
AcDbEntity
  8
KOTY_GULLY
100
AcDbTrace
 10
231.9468569086554
 20
467.8498109633697
 30
0.0
 11
231.9468569086554
 21
466.8498109633697
 31
0.0
 12
234.9468569086554
 22
467.3498109633697
 32
0.0
 13
234.9468569086554
 23
467.3498109633697
 33
0.0
  0
SOLID
  5
1BEE
330
1AE6
100
AcDbEntity
  8
KOTY_GULLY
100
AcDbTrace
 10
-7.124210903210039
 20
467.8498109633697
 30
0.0
 11
-7.124210903210039
 21
466.8498109633697
 31
0.0
 12
-10.12421090321004
 22
467.3498109633697
 32
0.0
 13
-10.12421090321004
 23
467.3498109633697
 33
0.0
  0
MTEXT
  5
1BEF
330
1AE6
100
AcDbEntity
  8
KOTY_GULLY
100
AcDbMText
 10
112.4113230027227
 20
474.8738109633697
 30
0.0
 40
12.0
 41
0.0
 71
     5
 72
     1
  1
\A1;245
  7
Annotative
 73
     1
 44
1.0
  0
POINT
  5
1BF0
330
1AE6
100
AcDbEntity
  8
Defpoints
 62
     0
100
AcDbPoint
 10
234.9468569086554
 20
426.3545123741635
 30
0.0
  0
POINT
  5
1BF1
330
1AE6
100
AcDbEntity
  8
Defpoints
 62
     0
100
AcDbPoint
 10
-10.12421090321004
 20
426.3545123741635
 30
0.0
  0
POINT
  5
1BF2
330
1AE6
100
AcDbEntity
  8
Defpoints
 62
     0
100
AcDbPoint
 10
-10.12421090321004
 20
467.3498109633697
 30
0.0
  0
ENDBLK
  5
1AE8
330
1AE6
100
AcDbEntity
  8
0
100
AcDbBlockEnd
  0
BLOCK
  5
1AF3
330
1AF2
100
AcDbEntity
  8
0
100
AcDbBlockBegin
  2
*D47
 70
     1
 10
0.0
 20
0.0
 30
0.0
  3
*D47
  1

  0
LINE
  5
1BFC
330
1AF2
100
AcDbEntity
  8
KOTY_GULLY
370
    -2
100
AcDbLine
 10
-10.12421090321004
 20
426.3545123741635
 30
0.0
 11
-72.89776492697018
 21
426.3545123741635
 31
0.0
  0
LINE
  5
1BFD
330
1AF2
100
AcDbEntity
  8
KOTY_GULLY
370
    -2
100
AcDbLine
 10
-10.12421090321004
 20
181.2834445622981
 30
0.0
 11
-72.89776492697024
 21
181.2834445622982
 31
0.0
  0
LINE
  5
1BFE
330
1AF2
100
AcDbEntity
  8
KOTY_GULLY
370
    -2
100
AcDbLine
 10
-70.89776492697018
 20
423.3545123741635
 30
0.0
 11
-70.89776492697024
 21
184.2834445622982
 31
0.0
  0
SOLID
  5
1BFF
330
1AF2
100
AcDbEntity
  8
KOTY_GULLY
100
AcDbTrace
 10
-71.39776492697018
 20
423.3545123741635
 30
0.0
 11
-70.39776492697018
 21
423.3545123741635
 31
0.0
 12
-70.89776492697018
 22
426.3545123741635
 32
0.0
 13
-70.89776492697018
 23
426.3545123741635
 33
0.0
  0
SOLID
  5
1C00
330
1AF2
100
AcDbEntity
  8
KOTY_GULLY
100
AcDbTrace
 10
-71.39776492697023
 20
184.2834445622982
 30
0.0
 11
-70.39776492697024
 21
184.2834445622982
 31
0.0
 12
-70.89776492697024
 22
181.2834445622982
 32
0.0
 13
-70.89776492697024
 23
181.2834445622982
 33
0.0
  0
MTEXT
  5
1C01
330
1AF2
100
AcDbEntity
  8
KOTY_GULLY
100
AcDbMText
 10
-78.42176492697027
 20
303.8189784682308
 30
0.0
 40
12.0
 41
0.0
 71
     5
 72
     1
  1
\A1;248
  7
Annotative
 11
0.0000000000000001
 21
1.0
 31
0.0
 73
     1
 44
1.0
  0
POINT
  5
1C02
330
1AF2
100
AcDbEntity
  8
Defpoints
 62
     0
100
AcDbPoint
 10
-10.12421090321004
 20
426.3545123741635
 30
0.0
  0
POINT
  5
1C03
330
1AF2
100
AcDbEntity
  8
Defpoints
 62
     0
100
AcDbPoint
 10
-10.12421090321004
 20
181.2834445622981
 30
0.0
  0
POINT
  5
1C04
330
1AF2
100
AcDbEntity
  8
Defpoints
 62
     0
100
AcDbPoint
 10
-70.89776492697024
 20
181.2834445622982
 30
0.0
  0
ENDBLK
  5
1AF4
330
1AF2
100
AcDbEntity
  8
0
100
AcDbBlockEnd
  0
ENDSEC
  0
SECTION
  2
ENTITIES
  0
ARC
  5
1FC
330
6C
100
AcDbEntity
  8
GULLY
100
AcDbCircle
 10
231.4113230027227
 20
184.8189784682309
 30
0.0
 40
5.0
100
AcDbArc
 50
270.0
 51
0.0
  0
CIRCLE
  5
1FF
330
6C
100
AcDbEntity
  8
GULLY
100
AcDbCircle
 10
199.4113230027226
 20
303.8189784682308
 30
0.0
 40
12.0
  0
LINE
  5
201
330
6C
100
AcDbEntity
  8
GULLY
100
AcDbLine
 10
231.4113230027227
 20
179.8189784682309
 30
0.0
 11
162.4113230027227
 21
179.8189784682309
 31
0.0
  0
ARC
  5
21A
330
6C
100
AcDbEntity
  8
GULLY
100
AcDbCircle
 10
239.9102262207683
 20
172.077434563066
 30
0.0
 40
1.999999999999981
100
AcDbArc
 50
224.9999999999989
 51
315.0
  0
ARC
  5
21B
330
6C
100
AcDbEntity
  8
GULLY
100
AcDbCircle
 10
244.1528669078876
 20
176.3200752501853
 30
0.0
 40
1.999999999999988
100
AcDbArc
 50
315.0000000000006
 51
45.00000000000157
  0
LINE
  5
21C
330
6C
100
AcDbEntity
  8
GULLY
100
AcDbLine
 10
241.3244397831414
 20
170.6632210006929
 30
0.0
 11
245.5670804702606
 21
174.9058616878122
 31
0.0
  0
LINE
  5
21D
330
6C
100
AcDbEntity
  8
GULLY
100
AcDbLine
 10
245.5670804702606
 20
177.7342888125583
 30
0.0
 11
236.4113230027227
 21
186.8900462800963
 31
0.0
  0
LINE
  5
21E
330
6C
100
AcDbEntity
  8
GULLY
100
AcDbLine
 10
229.3402551908572
 20
179.8189784682309
 30
0.0
 11
238.4960126583952
 21
170.6632210006929
 31
0.0
  0
LINE
  5
1A1E
330
6C
100
AcDbEntity
  8
GULLY
100
AcDbLine
 10
162.4113230027227
 20
179.8189784682309
 30
0.0
 11
112.4113230027227
 21
179.8189784682309
 31
0.0
  0
ARC
  5
1A1F
330
6C
100
AcDbEntity
  8
GULLY
100
AcDbCircle
 10
-6.588676997277303
 20
184.8189784682309
 30
0.0
 40
5.0
100
AcDbArc
 50
180.0
 51
270.0
  0
LINE
  5
1A23
330
6C
100
AcDbEntity
  8
GULLY
100
AcDbLine
 10
-6.588676997277303
 20
179.8189784682309
 30
0.0
 11
62.41132300272269
 21
179.8189784682309
 31
0.0
  0
ARC
  5
1A2A
330
6C
100
AcDbEntity
  8
GULLY
100
AcDbCircle
 10
-15.08758021532293
 20
172.077434563066
 30
0.0
 40
1.999999999999981
100
AcDbArc
 50
224.9999999999998
 51
315.0000000000008
  0
ARC
  5
1A2B
330
6C
100
AcDbEntity
  8
GULLY
100
AcDbCircle
 10
-19.33022090244222
 20
176.3200752501853
 30
0.0
 40
1.999999999999988
100
AcDbArc
 50
134.9999999999983
 51
224.9999999999995
  0
LINE
  5
1A2C
330
6C
100
AcDbEntity
  8
GULLY
100
AcDbLine
 10
-16.50179377769601
 20
170.6632210006929
 30
0.0
 11
-20.74443446481518
 21
174.9058616878122
 31
0.0
  0
LINE
  5
1A2D
330
6C
100
AcDbEntity
  8
GULLY
100
AcDbLine
 10
-20.74443446481518
 20
177.7342888125583
 30
0.0
 11
-11.5886769972773
 21
186.8900462800963
 31
0.0
  0
LINE
  5
1A2E
330
6C
100
AcDbEntity
  8
GULLY
100
AcDbLine
 10
-4.517609185411799
 20
179.8189784682309
 30
0.0
 11
-13.67336665294979
 21
170.6632210006929
 31
0.0
  0
LINE
  5
1A30
330
6C
100
AcDbEntity
  8
GULLY
100
AcDbLine
 10
62.41132300272269
 20
179.8189784682309
 30
0.0
 11
112.4113230027227
 21
179.8189784682309
 31
0.0
  0
LINE
  5
1A32
330
6C
100
AcDbEntity
  8
GULLY
100
AcDbLine
 10
236.4113230027227
 20
253.8189784682309
 30
0.0
 11
236.4113230027227
 21
184.8189784682309
 31
0.0
  0
LINE
  5
1A33
330
6C
100
AcDbEntity
  8
GULLY
100
AcDbLine
 10
-11.5886769972773
 20
253.8189784682309
 30
0.0
 11
-11.5886769972773
 21
184.8189784682309
 31
0.0
  0
LINE
  5
1A34
330
6C
100
AcDbEntity
  8
GULLY
100
AcDbLine
 10
236.4113230027227
 20
253.8189784682309
 30
0.0
 11
236.4113230027227
 21
303.8189784682308
 31
0.0
  0
LINE
  5
1A35
330
6C
100
AcDbEntity
  8
GULLY
100
AcDbLine
 10
-11.5886769972773
 20
253.8189784682309
 30
0.0
 11
-11.5886769972773
 21
303.8189784682308
 31
0.0
  0
ARC
  5
1A36
330
6C
100
AcDbEntity
  8
GULLY
100
AcDbCircle
 10
231.4113230027227
 20
422.8189784682307
 30
0.0
 40
5.0
100
AcDbArc
 50
0.0
 51
90.00000000000003
  0
LINE
  5
1A38
330
6C
100
AcDbEntity
  8
GULLY
100
AcDbLine
 10
231.4113230027227
 20
427.8189784682307
 30
0.0
 11
162.4113230027227
 21
427.8189784682308
 31
0.0
  0
LINE
  5
1A39
330
6C
100
AcDbEntity
  8
GULLY
100
AcDbLine
 10
236.4113230027227
 20
353.8189784682308
 30
0.0
 11
236.4113230027227
 21
422.8189784682307
 31
0.0
  0
ARC
  5
1A3A
330
6C
100
AcDbEntity
  8
GULLY
100
AcDbCircle
 10
239.9102262207683
 20
435.5605223733957
 30
0.0
 40
1.999999999999981
100
AcDbArc
 50
45.00000000000023
 51
135.0000000000003
  0
ARC
  5
1A3B
330
6C
100
AcDbEntity
  8
GULLY
100
AcDbCircle
 10
244.1528669078876
 20
431.3178816862763
 30
0.0
 40
1.999999999999988
100
AcDbArc
 50
314.999999999999
 51
44.99999999999993
  0
LINE
  5
1A3C
330
6C
100
AcDbEntity
  8
GULLY
100
AcDbLine
 10
241.3244397831414
 20
436.9747359357687
 30
0.0
 11
245.5670804702606
 21
432.7320952486495
 31
0.0
  0
LINE
  5
1A3D
330
6C
100
AcDbEntity
  8
GULLY
100
AcDbLine
 10
245.5670804702606
 20
429.9036681239033
 30
0.0
 11
236.4113230027227
 21
420.7479106563654
 31
0.0
  0
LINE
  5
1A3E
330
6C
100
AcDbEntity
  8
GULLY
100
AcDbLine
 10
229.3402551908572
 20
427.8189784682307
 30
0.0
 11
238.4960126583952
 21
436.9747359357687
 31
0.0
  0
LINE
  5
1A3F
330
6C
100
AcDbEntity
  8
GULLY
100
AcDbLine
 10
162.4113230027227
 20
427.8189784682308
 30
0.0
 11
112.4113230027227
 21
427.8189784682308
 31
0.0
  0
ARC
  5
1A40
330
6C
100
AcDbEntity
  8
GULLY
100
AcDbCircle
 10
-6.588676997277303
 20
422.8189784682307
 30
0.0
 40
5.0
100
AcDbArc
 50
90.00000000000003
 51
180.0
  0
LINE
  5
1A41
330
6C
100
AcDbEntity
  8
GULLY
100
AcDbLine
 10
-6.588676997277303
 20
427.8189784682307
 30
0.0
 11
62.41132300272269
 21
427.8189784682308
 31
0.0
  0
LINE
  5
1A42
330
6C
100
AcDbEntity
  8
GULLY
100
AcDbLine
 10
-11.5886769972773
 20
353.8189784682308
 30
0.0
 11
-11.5886769972773
 21
422.8189784682307
 31
0.0
  0
ARC
  5
1A43
330
6C
100
AcDbEntity
  8
GULLY
100
AcDbCircle
 10
-15.08758021532293
 20
435.5605223733957
 30
0.0
 40
1.999999999999981
100
AcDbArc
 50
44.99999999999983
 51
134.9999999999999
  0
ARC
  5
1A44
330
6C
100
AcDbEntity
  8
GULLY
100
AcDbCircle
 10
-19.33022090244222
 20
431.3178816862763
 30
0.0
 40
1.999999999999988
100
AcDbArc
 50
135.0
 51
225.0000000000011
  0
LINE
  5
1A45
330
6C
100
AcDbEntity
  8
GULLY
100
AcDbLine
 10
-16.50179377769601
 20
436.9747359357687
 30
0.0
 11
-20.74443446481518
 21
432.7320952486495
 31
0.0
  0
LINE
  5
1A46
330
6C
100
AcDbEntity
  8
GULLY
100
AcDbLine
 10
-20.74443446481518
 20
429.9036681239033
 30
0.0
 11
-11.5886769972773
 21
420.7479106563654
 31
0.0
  0
LINE
  5
1A47
330
6C
100
AcDbEntity
  8
GULLY
100
AcDbLine
 10
-4.517609185411799
 20
427.8189784682307
 30
0.0
 11
-13.67336665294979
 21
436.9747359357687
 31
0.0
  0
LINE
  5
1A48
330
6C
100
AcDbEntity
  8
GULLY
100
AcDbLine
 10
62.41132300272269
 20
427.8189784682308
 30
0.0
 11
112.4113230027227
 21
427.8189784682308
 31
0.0
  0
LINE
  5
1A49
330
6C
100
AcDbEntity
  8
GULLY
100
AcDbLine
 10
236.4113230027227
 20
353.8189784682308
 30
0.0
 11
236.4113230027227
 21
303.8189784682308
 31
0.0
  0
LINE
  5
1A4A
330
6C
100
AcDbEntity
  8
GULLY
100
AcDbLine
 10
-11.5886769972773
 20
353.8189784682308
 30
0.0
 11
-11.5886769972773
 21
303.8189784682308
 31
0.0
  0
DIMENSION
  5
1A87
330
6C
100
AcDbEntity
  8
KOTY_GULLY
100
AcDbDimension
  2
*D41
 10
-21.7774114579829
 20
500.3329672515946
 30
0.0
 11
112.1877277249523
 21
507.8569672515946
 31
0.0
 70
    32
  1
<>
 71
     5
 42
267.9302783658705
  3
GULLY 1
100
AcDbAlignedDimension
 13
246.1528669078876
 23
431.3178816862763
 33
0.0
 14
-21.77741145798291
 24
431.3178816862763
 34
0.0
100
AcDbRotatedDimension
1001
ACAD
1000
DSTYLE
1002
{
1070
   340
1005
5A
1002
}
1001
ACAD_DSTYLE_DIMINSPECT
1070
   396
1000
100%
1070
   395
1000

1070
   394
1070
    33
1070
   393
1070
     0
  0
DIMENSION
  5
1A88
330
6C
100
AcDbEntity
  8
KOTY_GULLY
100
AcDbDimension
  2
*D42
 10
-115.4137776047382
 20
170.077434563066
 30
0.0
 11
-122.9377776047382
 21
303.8835221350997
 31
0.0
 70
    32
 71
     5
 42
267.6121751440672
  3
GULLY
100
AcDbAlignedDimension
 13
-15.08758021532292
 23
437.6896097071332
 33
0.0
 14
-15.08758021532292
 24
170.077434563066
 34
0.0
 50
90.0
100
AcDbRotatedDimension
1001
ACAD_DSTYLE_DIMINSPECT
1070
   396
1000
100%
1070
   395
1000

1070
   394
1070
    33
1070
   393
1070
     0
1001
ACAD
1000
DSTYLE
1002
{
1070
   340
1005
5A
1070
    45
1040
1.0
1002
}
  0
DIMENSION
  5
1AE4
330
6C
100
AcDbEntity
  8
KOTY_GULLY
100
AcDbDimension
  2
*D46
 10
-10.12421090321004
 20
467.3498109633697
 30
0.0
 11
112.4113230027227
 21
474.8738109633697
 31
0.0
 70
    32
  1
<>
 71
     5
 42
245.0710678118655
  3
GULLY 1
100
AcDbAlignedDimension
 13
234.9468569086554
 23
426.3545123741635
 33
0.0
 14
-10.12421090321004
 24
426.3545123741635
 34
0.0
100
AcDbRotatedDimension
1001
ACAD
1000
DSTYLE
1002
{
1070
   340
1005
5A
1002
}
1001
ACAD_DSTYLE_DIMINSPECT
1070
   396
1000
100%
1070
   395
1000

1070
   394
1070
    33
1070
   393
1070
     0
  0
DIMENSION
  5
1AE5
330
6C
100
AcDbEntity
  8
KOTY_GULLY
100
AcDbDimension
  2
*D47
 10
-70.89776492697024
 20
181.2834445622982
 30
0.0
 11
-78.42176492697027
 21
303.8189784682308
 31
0.0
 70
    32
  1
248
 71
     5
 42
245.0710678118653
  3
GULLY
100
AcDbAlignedDimension
 13
-10.12421090321004
 23
426.3545123741635
 33
0.0
 14
-10.12421090321004
 24
181.2834445622981
 34
0.0
 50
90.0
100
AcDbRotatedDimension
1001
ACAD_DSTYLE_DIMINSPECT
1070
   396
1000
100%
1070
   395
1000

1070
   394
1070
    33
1070
   393
1070
     0
1001
ACAD
1000
DSTYLE
1002
{
1070
   340
1005
5A
1070
    45
1040
1.0
1002
}
  0
LINE
  5
1B4F
330
6C
100
AcDbEntity
  8
GULLY
100
AcDbLine
 10
-15.08758021532292
 20
437.5605223733956
 30
0.0
 11
-15.08758021532292
 21
437.6896097071332
 31
0.0
  0
LINE
  5
1B59
330
6C
100
AcDbEntity
  8
GULLY
100
AcDbLine
 10
-21.33022090244221
 20
431.3178816862763
 30
0.0
 11
-21.77741145798291
 21
431.3178816862763
 31
0.0
  0
ENDSEC
  0
SECTION
  2
OBJECTS
  0
DICTIONARY
  5
C
330
0
100
AcDbDictionary
281
     1
  3
ACAD_2007HEADERVARS_RT
350
1C19
  3
ACAD_COLOR
350
63
  3
ACAD_GROUP
350
D
  3
ACAD_LAYOUT
350
62
  3
ACAD_MATERIAL
350
10
  3
ACAD_MLEADERSTYLE
350
66
  3
ACAD_MLINESTYLE
350
5F
  3
ACAD_PLOTSETTINGS
350
61
  3
ACAD_PLOTSTYLENAME
350
E
  3
ACAD_SCALELIST
350
42
  3
ACAD_TABLESTYLE
350
64
  3
ACAD_VISUALSTYLE
350
29
  3
ACDB_RECOMPOSE_DATA
350
1556
  3
AcDbVariableDictionary
350
1588
  3
AcmDictionary
350
15F7
  3
AEC_PROPERTY_SET_DEFS
350
171B
  3
AMG
350
159A
  3
AMGSNAPSETTINGS
350
1638
  0
DICTIONARY
  5
164E
330
8
100
AcDbDictionary
280
     1
281
     1
  0
DICTIONARY
  5
16F6
330
16F5
100
AcDbDictionary
280
     1
281
     1
  0
DICTIONARY
  5
16F8
330
16F7
100
AcDbDictionary
280
     1
281
     1
  0
DICTIONARY
  5
1A1A
330
6C
100
AcDbDictionary
280
     1
281
     1
  3
ACAD_SORTENTS
360
1A1B
  0
DICTIONARY
  5
1C1F
330
1D7
100
AcDbDictionary
280
     1
281
     1
  3
ACAD_MTEXT_2008_RT
360
1C20
  0
DICTIONARY
  5
1520
330
1E1
100
AcDbDictionary
280
     1
281
     1
  3
ACAD_MLATT
360
1C0F
  3
ACAD_XREC_ROUNDTRIP
360
1521
  0
DICTIONARY
  5
1523
330
1E5
100
AcDbDictionary
280
     1
281
     1
  3
ACAD_MLATT
360
1C10
  3
ACAD_XREC_ROUNDTRIP
360
1524
  0
DICTIONARY
  5
1526
330
1E6
100
AcDbDictionary
280
     1
281
     1
  3
ACAD_MLATT
360
1C11
  3
ACAD_XREC_ROUNDTRIP
360
1527
  0
DICTIONARY
  5
1529
330
1E7
100
AcDbDictionary
280
     1
281
     1
  3
ACAD_MLATT
360
1C12
  3
ACAD_XREC_ROUNDTRIP
360
152A
  0
DICTIONARY
  5
152C
330
1E8
100
AcDbDictionary
280
     1
281
     1
  3
ACAD_MLATT
360
1C13
  3
ACAD_XREC_ROUNDTRIP
360
152D
  0
DICTIONARY
  5
152F
330
1EA
100
AcDbDictionary
280
     1
281
     1
  3
ACAD_MLATT
360
1C14
  3
ACAD_XREC_ROUNDTRIP
360
1530
  0
DICTIONARY
  5
1532
330
1EB
100
AcDbDictionary
280
     1
281
     1
  3
ACAD_MLATT
360
1C15
  3
ACAD_XREC_ROUNDTRIP
360
1533
  0
DICTIONARY
  5
1535
330
1EC
100
AcDbDictionary
280
     1
281
     1
  3
ACAD_MLATT
360
1C16
  3
ACAD_XREC_ROUNDTRIP
360
1536
  0
DICTIONARY
  5
1538
330
1ED
100
AcDbDictionary
280
     1
281
     1
  3
ACAD_MLATT
360
1C17
  3
ACAD_XREC_ROUNDTRIP
360
1539
  0
DICTIONARY
  5
1C21
330
27C
100
AcDbDictionary
280
     1
281
     1
  3
ACAD_MTEXT_2008_RT
360
1C22
  0
DICTIONARY
  5
1C23
330
280
100
AcDbDictionary
280
     1
281
     1
  3
ACAD_MTEXT_2008_RT
360
1C24
  0
DICTIONARY
  5
1C25
330
284
100
AcDbDictionary
280
     1
281
     1
  3
ACAD_MTEXT_2008_RT
360
1C26
  0
DICTIONARY
  5
1C27
330
28F
100
AcDbDictionary
280
     1
281
     1
  3
ACAD_MTEXT_2008_RT
360
1C28
  0
DICTIONARY
  5
1C29
330
296
100
AcDbDictionary
280
     1
281
     1
  3
ACAD_MTEXT_2008_RT
360
1C2A
  0
DICTIONARY
  5
1C2B
330
29D
100
AcDbDictionary
280
     1
281
     1
  3
ACAD_MTEXT_2008_RT
360
1C2C
  0
DICTIONARY
  5
1C19
102
{ACAD_REACTORS
330
C
102
}
330
C
100
AcDbDictionary
281
     1
  3
DIMARCSYM
350
1C1A
  3
DIMLTEX1
350
1C1C
  3
DIMLTEX2
350
1C1D
  3
DIMLTYPE
350
1C1B
  0
DICTIONARY
  5
63
102
{ACAD_REACTORS
330
C
102
}
330
C
100
AcDbDictionary
281
     1
  0
DICTIONARY
  5
D
102
{ACAD_REACTORS
330
C
102
}
330
C
100
AcDbDictionary
281
     1
  0
DICTIONARY
  5
62
102
{ACAD_REACTORS
330
C
102
}
330
C
100
AcDbDictionary
281
     1
  3
Layout1
350
6B
  3
Layout2
350
73
  3
Model
350
6F
  0
DICTIONARY
  5
10
102
{ACAD_REACTORS
330
C
102
}
330
C
100
AcDbDictionary
281
     1
  3
ByBlock
350
19
  3
ByLayer
350
11
  3
Global
350
21
  0
DICTIONARY
  5
66
102
{ACAD_REACTORS
330
C
102
}
330
C
100
AcDbDictionary
281
     1
  3
Standard
350
67
  0
DICTIONARY
  5
5F
102
{ACAD_REACTORS
330
C
102
}
330
C
100
AcDbDictionary
281
     1
  3
Standard
350
60
  0
DICTIONARY
  5
61
102
{ACAD_REACTORS
330
C
102
}
330
C
100
AcDbDictionary
281
     1
  0
ACDBDICTIONARYWDFLT
  5
E
102
{ACAD_REACTORS
330
C
102
}
330
C
100
AcDbDictionary
281
     1
  3
Normal
350
F
100
AcDbDictionaryWithDefault
340
F
  0
DICTIONARY
  5
42
102
{ACAD_REACTORS
330
C
102
}
330
C
100
AcDbDictionary
281
     1
  3
A0
350
43
  3
A1
350
44
  3
A2
350
45
  3
A3
350
46
  3
A4
350
47
  3
A5
350
48
  3
A6
350
49
  3
A7
350
4A
  3
A8
350
4B
  3
A9
350
4C
  3
B0
350
4D
  3
B1
350
4E
  3
B2
350
4F
  3
B3
350
50
  3
B4
350
51
  3
B5
350
52
  3
B6
350
53
  0
DICTIONARY
  5
64
102
{ACAD_REACTORS
330
C
102
}
330
C
100
AcDbDictionary
281
     1
  3
Standard
350
65
  0
DICTIONARY
  5
29
102
{ACAD_REACTORS
330
C
102
}
330
C
100
AcDbDictionary
281
     1
  3
2dWireframe
350
2F
  3
3D Hidden
350
158F
  3
3dWireframe
350
158E
  3
Basic
350
2E
  3
Brighten
350
35
  3
ColorChange
350
39
  3
Conceptual
350
32
  3
Dim
350
34
  3
EdgeColorOff
350
41
  3
Facepattern
350
38
  3
Flat
350
2A
  3
FlatWithEdges
350
2B
  3
Gouraud
350
2C
  3
GouraudWithEdges
350
2D
  3
Hidden
350
31
  3
JitterOff
350
3F
  3
Linepattern
350
37
  3
OverhangOff
350
40
  3
Realistic
350
33
  3
Shaded
350
3E
  3
Shaded with edges
350
3D
  3
Shades of Gray
350
3A
  3
Sketchy
350
3B
  3
Thicken
350
36
  3
Wireframe
350
30
  3
X-Ray
350
3C
  0
XRECORD
  5
1556
102
{ACAD_REACTORS
330
C
102
}
330
C
100
AcDbXrecord
280
     1
 90
        1
330
65
330
1E1
330
1E5
330
1E6
330
1E7
330
1E8
330
1EA
330
1EB
330
1EC
330
1ED
  0
DICTIONARY
  5
1588
102
{ACAD_REACTORS
330
C
102
}
330
C
100
AcDbDictionary
281
     1
  3
CANNOSCALE
350
158B
  3
CMLEADERSTYLE
350
158A
  3
CTABLESTYLE
350
1589
  3
LAYEREVAL
350
1672
  3
LAYERNOTIFY
350
1673
  3
LIGHTINGUNITS
350
1671
  3
MSLTSCALE
350
1670
  3
XCLIPFRAME
350
158C
  0
DICTIONARY
  5
15F7
102
{ACAD_REACTORS
330
C
102
}
330
C
100
AcDbDictionary
281
     1
  3
AcmStdDictionary
350
1604
  0
DICTIONARY
  5
171B
102
{ACAD_REACTORS
330
C
102
}
330
C
100
AcDbDictionary
281
     1
  0
DICTIONARY
  5
159A
102
{ACAD_REACTORS
330
C
102
}
330
C
100
AcDbDictionary
281
     1
  0
DICTIONARY
  5
1638
102
{ACAD_REACTORS
330
C
102
}
330
C
100
AcDbDictionary
281
     1
  0
SORTENTSTABLE
  5
1A1B
102
{ACAD_REACTORS
330
1A1A
102
}
330
1A1A
100
AcDbSortentsTable
330
6C
331
1A2B
  5
1A2D
331
21D
  5
1983
331
21B
  5
21E
331
1A23
  5
1A24
331
1A32
  5
208
331
1A30
  5
1A32
331
1A1F
  5
1A20
331
1A2E
  5
1A30
331
1A2C
  5
1A2E
331
1A2A
  5
1A2C
331
21E
  5
1A1D
331
1FC
  5
1FC
331
21C
  5
1977
331
21A
  5
21D
331
1A33
  5
1A26
331
1A1E
  5
1A1F
331
201
  5
202
331
1A2D
  5
1A2F
331
1FF
  5
200
  0
XRECORD
  5
1C20
102
{ACAD_REACTORS
330
1C1F
102
}
330
1C1F
100
AcDbXrecord
280
     1
 40
23223.0
  1
Rošt slot 168x168-25
  0
XRECORD
  5
1C0F
102
{ACAD_REACTORS
330
1520
102
}
330
1520
100
AcDbXrecord
280
     1
 70
     4
 70
     0
 70
     0
 40
1.0
  2
ČÍSLO_REVIZE
  1
Embedded Object
 10
287.6423193699604
 20
66.0
 30
0.0
 40
3.499999940395355
 41
0.0
 46
0.0
 71
     1
 72
     5
  1
000
  7
Styl textu9
 73
     1
 44
1.0
  0
XRECORD
  5
1521
102
{ACAD_REACTORS
330
1520
102
}
330
1520
100
AcDbXrecord
280
     1
102
ACAD_MATT_HEIGHT
140
3.499999940395355
  0
XRECORD
  5
1C10
102
{ACAD_REACTORS
330
1523
102
}
330
1523
100
AcDbXrecord
280
     1
 70
     4
 70
     0
 70
     0
 40
1.0
  2
Sheet_Size
  1
Embedded Object
 10
289.7753402652471
 20
48.33701147296152
 30
0.0
 40
2.000000029802321
 41
0.0
 46
0.0
 71
     1
 72
     5
  1
A3
  7
Styl textu40
 73
     1
 44
1.0
  0
XRECORD
  5
1524
102
{ACAD_REACTORS
330
1523
102
}
330
1523
100
AcDbXrecord
280
     1
102
ACAD_MATT_HEIGHT
140
2.000000029802321
  0
XRECORD
  5
1C11
102
{ACAD_REACTORS
330
1526
102
}
330
1526
100
AcDbXrecord
280
     1
 70
     4
 70
     0
 70
     0
 40
1.0
  2
FILENAME_AND_PATH
  1
Embedded Object
 10
230.2697279123746
 20
53.13502004542946
 30
0.0
 40
2.000000029802321
 41
0.0
 46
0.0
 71
     1
 72
     5
  1
C:\\Inventor_DATA\\Projekty\\FloorDrain B\\Rošty\\Rošty InDrain pro Guly\\Rošt slot\\Rošt slot 168x168-25 V2A.iam
  7
Styl textu40
 73
     1
 44
1.0
  0
XRECORD
  5
1527
102
{ACAD_REACTORS
330
1526
102
}
330
1526
100
AcDbXrecord
280
     1
102
ACAD_MATT_HEIGHT
140
2.000000029802321
  0
XRECORD
  5
1C12
102
{ACAD_REACTORS
330
1529
102
}
330
1529
100
AcDbXrecord
280
     1
 70
     4
 70
     0
 70
     0
 40
1.0
  2
PART_NUMBER
  1
Embedded Object
 10
218.0
 20
66.0
 30
0.0
 40
3.499999940395355
 41
0.0
 46
0.0
 71
     1
 72
     5
  1
408021
  7
Text poznámky (ISO)
 73
     1
 44
1.0
  0
XRECORD
  5
152A
102
{ACAD_REACTORS
330
1529
102
}
330
1529
100
AcDbXrecord
280
     1
102
ACAD_MATT_HEIGHT
140
3.499999940395355
  0
XRECORD
  5
1C13
102
{ACAD_REACTORS
330
152C
102
}
330
152C
100
AcDbXrecord
280
     1
 70
     4
 70
     0
 70
     0
 40
1.0
  2
PROJECT
  1
Embedded Object
 10
118.0
 20
60.0
 30
0.0
 40
3.499999940395355
 41
0.0
 46
0.0
 71
     1
 72
     5
  1

  7
Text poznámky (ISO)
 73
     1
 44
1.0
  0
XRECORD
  5
152D
102
{ACAD_REACTORS
330
152C
102
}
330
152C
100
AcDbXrecord
280
     1
102
ACAD_MATT_HEIGHT
140
3.499999940395355
  0
XRECORD
  5
1C14
102
{ACAD_REACTORS
330
152F
102
}
330
152F
100
AcDbXrecord
280
     1
 70
     4
 70
     0
 70
     0
 40
1.0
  2
SKLADOVÉ_ČÍSLO
  1
Embedded Object
 10
118.0
 20
54.89391305489238
 30
0.0
 40
6.99999988079071
 41
153.2966041564941
 46
0.0
 71
     1
 72
     5
  1
408021
  7
Styl textu94
 73
     1
 44
1.0
  0
XRECORD
  5
1530
102
{ACAD_REACTORS
330
152F
102
}
330
152F
100
AcDbXrecord
280
     1
102
ACAD_MATT_HEIGHT
140
6.99999988079071
  0
XRECORD
  5
1C15
102
{ACAD_REACTORS
330
1532
102
}
330
1532
100
AcDbXrecord
280
     1
 70
     4
 70
     0
 70
     0
 40
1.0
  2
MATERIAL
  1
Embedded Object
 10
117.5939056808251
 20
108.6756657996811
 30
0.0
 40
3.499999940395355
 41
0.0
 46
0.0
 71
     1
 72
     5
  1

  7
Text poznámky (ISO)
 73
     1
 44
1.0
  0
XRECORD
  5
1533
102
{ACAD_REACTORS
330
1532
102
}
330
1532
100
AcDbXrecord
280
     1
102
ACAD_MATT_HEIGHT
140
3.499999940395355
  0
XRECORD
  5
1C16
102
{ACAD_REACTORS
330
1535
102
}
330
1535
100
AcDbXrecord
280
     1
 70
     4
 70
     0
 70
     0
 40
1.0
  2
AUTHOR
  1
Embedded Object
 10
165.2312259808574
 20
87.78242706242744
 30
0.0
 40
2.000000029802321
 41
15.06250023841858
 46
0.0
 71
     1
 72
     5
  1
onovak
  7
Styl textu40
 73
     1
 44
1.0
  0
XRECORD
  5
1536
102
{ACAD_REACTORS
330
1535
102
}
330
1535
100
AcDbXrecord
280
     1
102
ACAD_MATT_HEIGHT
140
2.000000029802321
  0
XRECORD
  5
1C17
102
{ACAD_REACTORS
330
1538
102
}
330
1538
100
AcDbXrecord
280
     1
 70
     4
 70
     0
 70
     0
 40
1.0
  2
VS_First
  1
Embedded Object
 10
189.1855699863978
 20
86.00038821032343
 30
0.0
 40
3.499999940395355
 41
24.15597186978378
 46
0.0
 71
     1
 72
     5
  1

  7
Text poznámky (ISO)
 73
     1
 44
1.0
  0
XRECORD
  5
1539
102
{ACAD_REACTORS
330
1538
102
}
330
1538
100
AcDbXrecord
280
     1
102
ACAD_MATT_HEIGHT
140
3.499999940395355
  0
XRECORD
  5
1C22
102
{ACAD_REACTORS
330
1C21
102
}
330
1C21
100
AcDbXrecord
280
     1
 40
7165.0
  1
KUSOVNÍK
  0
XRECORD
  5
1C24
102
{ACAD_REACTORS
330
1C23
102
}
330
1C23
100
AcDbXrecord
280
     1
 40
6807.0
  1
MATERIÁL
  0
XRECORD
  5
1C26
102
{ACAD_REACTORS
330
1C25
102
}
330
1C25
100
AcDbXrecord
280
     1
 40
6841.0
  1
SKLADOVÉ
  0
XRECORD
  5
1C28
102
{ACAD_REACTORS
330
1C27
102
}
330
1C27
100
AcDbXrecord
280
     1
 40
46265.0
  1
Deska pro rošt slot 148x148-10
  0
XRECORD
  5
1C2A
102
{ACAD_REACTORS
330
1C29
102
}
330
1C29
100
AcDbXrecord
280
     1
 40
123063.0
  1
Nosná příčka dlouhá 15x10-229,2
  0
XRECORD
  5
1C2C
102
{ACAD_REACTORS
330
1C2B
102
}
330
1C2B
100
AcDbXrecord
280
     1
 40
145615.0
  1
Nosná příčka krátká 15x10-109,6
  0
XRECORD
  5
1C1A
102
{ACAD_REACTORS
330
1C19
102
}
330
1C19
100
AcDbXrecord
280
     1
 70
     1
  0
XRECORD
  5
1C1C
102
{ACAD_REACTORS
330
1C19
102
}
330
1C19
100
AcDbXrecord
280
     1
340
5B
  0
XRECORD
  5
1C1D
102
{ACAD_REACTORS
330
1C19
102
}
330
1C19
100
AcDbXrecord
280
     1
340
5B
  0
XRECORD
  5
1C1B
102
{ACAD_REACTORS
330
1C19
102
}
330
1C19
100
AcDbXrecord
280
     1
340
5B
  0
LAYOUT
  5
6B
102
{ACAD_REACTORS
330
62
102
}
330
62
100
AcDbPlotSettings
  1

  2

  4

  6

 40
0.0
 41
0.0
 42
0.0
 43
0.0
 44
0.0
 45
0.0
 46
0.0
 47
0.0
 48
0.0
 49
0.0
140
0.0
141
0.0
142
1.0
143
1.0
 70
   688
 72
     0
 73
     0
 74
     5
  7

 75
    16
147
1.0
 76
     0
 77
     2
 78
   300
148
0.0
149
0.0
100
AcDbLayout
  1
Layout1
 70
     1
 71
     1
 10
0.0
 20
0.0
 11
630.0
 21
445.5
 12
0.0
 22
0.0
 32
0.0
 14
0.0
 24
0.0
 34
0.0
 15
630.0
 25
445.5
 35
0.0
146
0.0
 13
0.0
 23
0.0
 33
0.0
 16
1.0
 26
0.0
 36
0.0
 17
0.0
 27
1.0
 37
0.0
 76
     0
330
68
  0
LAYOUT
  5
73
102
{ACAD_REACTORS
330
62
102
}
330
62
100
AcDbPlotSettings
  1

  2

  4

  6

 40
0.0
 41
0.0
 42
0.0
 43
0.0
 44
0.0
 45
0.0
 46
0.0
 47
0.0
 48
0.0
 49
0.0
140
0.0
141
0.0
142
1.0
143
1.0
 70
   688
 72
     0
 73
     0
 74
     5
  7

 75
    16
147
1.0
 76
     0
 77
     2
 78
   300
148
0.0
149
0.0
100
AcDbLayout
  1
Layout2
 70
     1
 71
     2
 10
0.0
 20
0.0
 11
12.0
 21
9.0
 12
0.0
 22
0.0
 32
0.0
 14
0.0
 24
0.0
 34
0.0
 15
0.0
 25
0.0
 35
0.0
146
0.0
 13
0.0
 23
0.0
 33
0.0
 16
1.0
 26
0.0
 36
0.0
 17
0.0
 27
1.0
 37
0.0
 76
     0
330
70
  0
LAYOUT
  5
6F
102
{ACAD_REACTORS
330
62
102
}
330
62
100
AcDbPlotSettings
  1

  2

  4

  6

 40
0.0
 41
0.0
 42
0.0
 43
0.0
 44
0.0
 45
0.0
 46
0.0
 47
0.0
 48
0.0
 49
0.0
140
0.0
141
0.0
142
1.0
143
1.0
 70
  1712
 72
     0
 73
     0
 74
     0
  7

 75
     0
147
1.0
 76
     0
 77
     2
 78
   300
148
0.0
149
0.0
100
AcDbLayout
  1
Model
 70
     1
 71
     0
 10
0.0
 20
0.0
 11
12.0
 21
9.0
 12
0.0
 22
0.0
 32
0.0
 14
0.0
 24
0.0
 34
0.0
 15
0.0
 25
0.0
 35
0.0
146
0.0
 13
0.0
 23
0.0
 33
0.0
 16
1.0
 26
0.0
 36
0.0
 17
0.0
 27
1.0
 37
0.0
 76
     0
330
6C
331
57
  0
MATERIAL
  5
19
102
{ACAD_XDICTIONARY
360
1A
102
}
102
{ACAD_REACTORS
330
10
102
}
330
10
100
AcDbMaterial
  1
ByBlock
 72
     0
 43
0.0208333333333333
 43
0.0
 43
0.0
 43
0.0
 43
0.0
 43
0.0208333333333333
 43
0.0
 43
0.0
 43
0.0
 43
0.0
 43
1.0
 43
0.0
 43
0.0
 43
0.0
 43
0.0
 43
1.0
 77
     0
 47
0.0208333333333333
 47
0.0
 47
0.0
 47
0.0
 47
0.0
 47
0.0208333333333333
 47
0.0
 47
0.0
 47
0.0
 47
0.0
 47
1.0
 47
0.0
 47
0.0
 47
0.0
 47
0.0
 47
1.0
171
     0
 49
0.0208333333333333
 49
0.0
 49
0.0
 49
0.0
 49
0.0
 49
0.0208333333333333
 49
0.0
 49
0.0
 49
0.0
 49
0.0
 49
1.0
 49
0.0
 49
0.0
 49
0.0
 49
0.0
 49
1.0
175
     0
142
0.0208333333333333
142
0.0
142
0.0
142
0.0
142
0.0
142
0.0208333333333333
142
0.0
142
0.0
142
0.0
142
0.0
142
1.0
142
0.0
142
0.0
142
0.0
142
0.0
142
1.0
179
     0
144
0.0208333333333333
144
0.0
144
0.0
144
0.0
144
0.0
144
0.0208333333333333
144
0.0
144
0.0
144
0.0
144
0.0
144
1.0
144
0.0
144
0.0
144
0.0
144
0.0
144
1.0
147
0.0208333333333333
147
0.0
147
0.0
147
0.0
147
0.0
147
0.0208333333333333
147
0.0
147
0.0
147
0.0
147
0.0
147
1.0
147
0.0
147
0.0
147
0.0
147
0.0
147
1.0
  0
MATERIAL
  5
11
102
{ACAD_XDICTIONARY
360
12
102
}
102
{ACAD_REACTORS
330
10
102
}
330
10
100
AcDbMaterial
  1
ByLayer
 72
     0
 43
0.0208333333333333
 43
0.0
 43
0.0
 43
0.0
 43
0.0
 43
0.0208333333333333
 43
0.0
 43
0.0
 43
0.0
 43
0.0
 43
1.0
 43
0.0
 43
0.0
 43
0.0
 43
0.0
 43
1.0
 77
     0
 47
0.0208333333333333
 47
0.0
 47
0.0
 47
0.0
 47
0.0
 47
0.0208333333333333
 47
0.0
 47
0.0
 47
0.0
 47
0.0
 47
1.0
 47
0.0
 47
0.0
 47
0.0
 47
0.0
 47
1.0
171
     0
 49
0.0208333333333333
 49
0.0
 49
0.0
 49
0.0
 49
0.0
 49
0.0208333333333333
 49
0.0
 49
0.0
 49
0.0
 49
0.0
 49
1.0
 49
0.0
 49
0.0
 49
0.0
 49
0.0
 49
1.0
175
     0
142
0.0208333333333333
142
0.0
142
0.0
142
0.0
142
0.0
142
0.0208333333333333
142
0.0
142
0.0
142
0.0
142
0.0
142
1.0
142
0.0
142
0.0
142
0.0
142
0.0
142
1.0
179
     0
144
0.0208333333333333
144
0.0
144
0.0
144
0.0
144
0.0
144
0.0208333333333333
144
0.0
144
0.0
144
0.0
144
0.0
144
1.0
144
0.0
144
0.0
144
0.0
144
0.0
144
1.0
147
0.0208333333333333
147
0.0
147
0.0
147
0.0
147
0.0
147
0.0208333333333333
147
0.0
147
0.0
147
0.0
147
0.0
147
1.0
147
0.0
147
0.0
147
0.0
147
0.0
147
1.0
  0
MATERIAL
  5
21
102
{ACAD_XDICTIONARY
360
22
102
}
102
{ACAD_REACTORS
330
10
102
}
330
10
100
AcDbMaterial
  1
Global
 72
     0
 43
0.0208333333333333
 43
0.0
 43
0.0
 43
0.0
 43
0.0
 43
0.0208333333333333
 43
0.0
 43
0.0
 43
0.0
 43
0.0
 43
1.0
 43
0.0
 43
0.0
 43
0.0
 43
0.0
 43
1.0
 77
     0
 47
0.0208333333333333
 47
0.0
 47
0.0
 47
0.0
 47
0.0
 47
0.0208333333333333
 47
0.0
 47
0.0
 47
0.0
 47
0.0
 47
1.0
 47
0.0
 47
0.0
 47
0.0
 47
0.0
 47
1.0
171
     0
 49
0.0208333333333333
 49
0.0
 49
0.0
 49
0.0
 49
0.0
 49
0.0208333333333333
 49
0.0
 49
0.0
 49
0.0
 49
0.0
 49
1.0
 49
0.0
 49
0.0
 49
0.0
 49
0.0
 49
1.0
175
     0
142
0.0208333333333333
142
0.0
142
0.0
142
0.0
142
0.0
142
0.0208333333333333
142
0.0
142
0.0
142
0.0
142
0.0
142
1.0
142
0.0
142
0.0
142
0.0
142
0.0
142
1.0
179
     0
144
0.0208333333333333
144
0.0
144
0.0
144
0.0
144
0.0
144
0.0208333333333333
144
0.0
144
0.0
144
0.0
144
0.0
144
1.0
144
0.0
144
0.0
144
0.0
144
0.0
144
1.0
147
0.0208333333333333
147
0.0
147
0.0
147
0.0
147
0.0
147
0.0208333333333333
147
0.0
147
0.0
147
0.0
147
0.0
147
1.0
147
0.0
147
0.0
147
0.0
147
0.0
147
1.0
  0
MLEADERSTYLE
  5
67
102
{ACAD_REACTORS
330
66
102
}
330
66
100
AcDbMLeaderStyle
170
     2
171
     1
172
     0
 90
        2
 40
0.0
 41
0.0
173
     1
 91
-1056964608
340
5B
 92
       -2
290
     1
 42
0.09
291
     1
 43
0.36
  3
Standard
 44
0.18
300

342
55
174
     1
178
     6
175
     1
176
     0
 93
-1056964608
 45
0.18
292
     0
297
     0
 46
0.18
 94
-1056964608
 47
1.0
 49
1.0
140
1.0
293
     1
141
0.0
294
     1
177
     0
142
1.0
295
     0
296
     0
143
0.125
1001
ACAD_MLEADERVER
1070
     2
  0
MLINESTYLE
  5
60
102
{ACAD_REACTORS
330
5F
102
}
330
5F
100
AcDbMlineStyle
  2
STANDARD
 70
     0
  3

 62
   256
 51
90.0
 52
90.0
 71
     2
 49
0.5
 62
   256
  6
BYLAYER
 49
-0.5
 62
   256
  6
BYLAYER
  0
ACDBPLACEHOLDER
  5
F
102
{ACAD_REACTORS
330
E
102
}
330
E
  0
SCALE
  5
43
102
{ACAD_REACTORS
330
42
102
}
330
42
100
AcDbScale
 70
     0
300
1:1
140
1.0
141
1.0
290
     1
  0
SCALE
  5
44
102
{ACAD_REACTORS
330
42
102
}
330
42
100
AcDbScale
 70
     0
300
1/128" = 1'-0"
140
0.0078125
141
12.0
290
     0
  0
SCALE
  5
45
102
{ACAD_REACTORS
330
42
102
}
330
42
100
AcDbScale
 70
     0
300
1/64" = 1'-0"
140
0.015625
141
12.0
290
     0
  0
SCALE
  5
46
102
{ACAD_REACTORS
330
42
102
}
330
42
100
AcDbScale
 70
     0
300
1/32" = 1'-0"
140
0.03125
141
12.0
290
     0
  0
SCALE
  5
47
102
{ACAD_REACTORS
330
42
102
}
330
42
100
AcDbScale
 70
     0
300
1/16" = 1'-0"
140
0.0625
141
12.0
290
     0
  0
SCALE
  5
48
102
{ACAD_REACTORS
330
42
102
}
330
42
100
AcDbScale
 70
     0
300
3/32" = 1'-0"
140
0.09375
141
12.0
290
     0
  0
SCALE
  5
49
102
{ACAD_REACTORS
330
42
102
}
330
42
100
AcDbScale
 70
     0
300
1/8" = 1'-0"
140
0.125
141
12.0
290
     0
  0
SCALE
  5
4A
102
{ACAD_REACTORS
330
42
102
}
330
42
100
AcDbScale
 70
     0
300
3/16" = 1'-0"
140
0.1875
141
12.0
290
     0
  0
SCALE
  5
4B
102
{ACAD_REACTORS
330
42
102
}
330
42
100
AcDbScale
 70
     0
300
1/4" = 1'-0"
140
0.25
141
12.0
290
     0
  0
SCALE
  5
4C
102
{ACAD_REACTORS
330
42
102
}
330
42
100
AcDbScale
 70
     0
300
3/8" = 1'-0"
140
0.375
141
12.0
290
     0
  0
SCALE
  5
4D
102
{ACAD_REACTORS
330
42
102
}
330
42
100
AcDbScale
 70
     0
300
1/2" = 1'-0"
140
0.5
141
12.0
290
     0
  0
SCALE
  5
4E
102
{ACAD_REACTORS
330
42
102
}
330
42
100
AcDbScale
 70
     0
300
3/4" = 1'-0"
140
0.75
141
12.0
290
     0
  0
SCALE
  5
4F
102
{ACAD_REACTORS
330
42
102
}
330
42
100
AcDbScale
 70
     0
300
1" = 1'-0"
140
1.0
141
12.0
290
     0
  0
SCALE
  5
50
102
{ACAD_REACTORS
330
42
102
}
330
42
100
AcDbScale
 70
     0
300
1-1/2" = 1'-0"
140
1.5
141
12.0
290
     0
  0
SCALE
  5
51
102
{ACAD_REACTORS
330
42
102
}
330
42
100
AcDbScale
 70
     0
300
3" = 1'-0"
140
3.0
141
12.0
290
     0
  0
SCALE
  5
52
102
{ACAD_REACTORS
330
42
102
}
330
42
100
AcDbScale
 70
     0
300
6" = 1'-0"
140
6.0
141
12.0
290
     0
  0
SCALE
  5
53
102
{ACAD_REACTORS
330
42
102
}
330
42
100
AcDbScale
 70
     0
300
1'-0" = 1'-0"
140
12.0
141
12.0
290
     0
  0
TABLESTYLE
  5
65
102
{ACAD_XDICTIONARY
360
151E
102
}
102
{ACAD_REACTORS
330
64
102
}
330
64
100
AcDbTableStyle
  3
Standard
 70
     0
 71
     0
 40
0.06
 41
0.06
280
     0
281
     0
  7
Standard
140
0.18
170
     2
 62
     0
 63
     7
283
     0
274
    -2
284
     1
 64
     0
275
    -2
285
     1
 65
     0
276
    -2
286
     1
 66
     0
277
    -2
287
     1
 67
     0
278
    -2
288
     1
 68
     0
279
    -2
289
     1
 69
     0
  7
Standard
140
0.25
170
     5
 62
     0
 63
     7
283
     0
274
    -2
284
     1
 64
     0
275
    -2
285
     1
 65
     0
276
    -2
286
     1
 66
     0
277
    -2
287
     1
 67
     0
278
    -2
288
     1
 68
     0
279
    -2
289
     1
 69
     0
  7
Standard
140
0.18
170
     5
 62
     0
 63
     7
283
     0
274
    -2
284
     1
 64
     0
275
    -2
285
     1
 65
     0
276
    -2
286
     1
 66
     0
277
    -2
287
     1
 67
     0
278
    -2
288
     1
 68
     0
279
    -2
289
     1
 69
     0
  0
VISUALSTYLE
  5
2F
102
{ACAD_XDICTIONARY
360
1561
102
}
102
{ACAD_REACTORS
330
29
102
}
330
29
100
AcDbVisualStyle
  2
2dWireframe
 70
     4
 71
     0
 72
     2
 73
     0
 90
        0
 40
-0.6
 41
-30.0
 62
     5
 63
     7
421
 16777215
 74
     1
 91
        4
 64
     7
 65
   257
 75
     1
175
     1
 42
1.0
 92
        0
 66
   257
 43
1.0
 76
     1
 77
     6
 78
     2
 67
     7
 79
     5
170
     0
171
     0
290
     0
174
     0
 93
        1
 44
0.0
173
     0
291
     0
 45
0.0
1001
ACAD
1000
AcDbSavedByObjectVersion
1070
     0
1000
AcDbSavedByObjectVersion
1070
     0
1000
AcDbSavedByObjectVersion
1070
     0
  0
VISUALSTYLE
  5
158F
102
{ACAD_REACTORS
330
29
102
}
330
29
100
AcDbVisualStyle
  2
3D Hidden
 70
     6
 71
     1
 72
     2
 73
     2
 90
        0
 40
-0.6
 41
-30.0
 62
     5
 63
     7
421
 16777215
 74
     2
 91
        2
 64
     7
 65
   257
 75
     2
175
     1
 42
40.0
 92
        0
 66
   257
 43
1.0
 76
     1
 77
     6
 78
     2
 67
     7
 79
     3
170
     0
171
     0
290
     0
174
     0
 93
        1
 44
0.0
173
     0
291
     0
 45
0.0
1001
ACAD
1000
AcDbSavedByObjectVersion
1070
     0
1000
AcDbSavedByObjectVersion
1070
     0
1000
AcDbSavedByObjectVersion
1070
     0
  0
VISUALSTYLE
  5
158E
102
{ACAD_REACTORS
330
29
102
}
330
29
100
AcDbVisualStyle
  2
3dWireframe
 70
     5
 71
     0
 72
     2
 73
     0
 90
        0
 40
-0.6
 41
-30.0
 62
     5
 63
     7
421
 16777215
 74
     1
 91
        4
 64
     7
 65
   257
 75
     1
175
     1
 42
1.0
 92
        0
 66
   257
 43
1.0
 76
     1
 77
     6
 78
     2
 67
     7
 79
     5
170
     0
171
     0
290
     0
174
     0
 93
        1
 44
0.0
173
     0
291
     0
 45
0.0
1001
ACAD
1000
AcDbSavedByObjectVersion
1070
     0
1000
AcDbSavedByObjectVersion
1070
     0
1000
AcDbSavedByObjectVersion
1070
     0
  0
VISUALSTYLE
  5
2E
102
{ACAD_XDICTIONARY
360
155F
102
}
102
{ACAD_REACTORS
330
29
102
}
330
29
100
AcDbVisualStyle
  2
Basic
 70
     7
 71
     1
 72
     0
 73
     1
 90
        0
 40
-0.6
 41
-30.0
 62
     5
 63
     7
421
 16777215
 74
     0
 91
        4
 64
     7
 65
   257
 75
     1
175
     1
 42
1.0
 92
        8
 66
     7
 43
1.0
 76
     1
 77
     6
 78
     2
 67
     7
 79
     5
170
     0
171
     0
290
     0
174
     0
 93
        1
 44
0.0
173
     0
291
     1
 45
0.0
1001
ACAD
1000
AcDbSavedByObjectVersion
1070
     0
1000
AcDbSavedByObjectVersion
1070
     0
1000
AcDbSavedByObjectVersion
1070
     0
  0
VISUALSTYLE
  5
35
102
{ACAD_XDICTIONARY
360
156D
102
}
102
{ACAD_REACTORS
330
29
102
}
330
29
100
AcDbVisualStyle
  2
Brighten
 70
    12
 71
     2
 72
     2
 73
     0
 90
        0
 40
-0.6
 41
-30.0
 62
     5
 63
     7
421
 16777215
 74
     1
 91
        4
 64
     7
 65
   257
 75
     1
175
     1
 42
1.0
 92
        8
 66
     7
 43
1.0
 76
     1
 77
     6
 78
     2
 67
     7
 79
     5
170
     0
171
     0
290
     0
174
     0
 93
        1
 44
50.0
173
     0
291
     1
 45
0.0
1001
ACAD
1000
AcDbSavedByObjectVersion
1070
     0
1000
AcDbSavedByObjectVersion
1070
     0
1000
AcDbSavedByObjectVersion
1070
     0
  0
VISUALSTYLE
  5
39
102
{ACAD_XDICTIONARY
360
1575
102
}
102
{ACAD_REACTORS
330
29
102
}
330
29
100
AcDbVisualStyle
  2
ColorChange
 70
    16
 71
     2
 72
     2
 73
     3
 90
        0
 40
-0.6
 41
-30.0
 62
     5
 63
     8
421
  8421504
 74
     1
 91
        4
 64
     7
 65
   257
 75
     1
175
     1
 42
1.0
 92
        8
 66
     8
424
  8421504
 43
1.0
 76
     1
 77
     6
 78
     2
 67
     7
 79
     5
170
     0
171
     0
290
     0
174
     0
 93
        1
 44
0.0
173
     0
291
     1
 45
0.0
1001
ACAD
1000
AcDbSavedByObjectVersion
1070
     0
1000
AcDbSavedByObjectVersion
1070
     0
1000
AcDbSavedByObjectVersion
1070
     0
  0
VISUALSTYLE
  5
32
102
{ACAD_XDICTIONARY
360
1567
102
}
102
{ACAD_REACTORS
330
29
102
}
330
29
100
AcDbVisualStyle
  2
Conceptual
 70
     9
 71
     3
 72
     2
 73
     0
 90
        0
 40
-0.6
 41
-30.0
 62
     5
 63
     7
421
 16777215
 74
     2
 91
        2
 64
     7
 65
   257
 75
     1
175
     1
 42
179.0
 92
        8
 66
     7
 43
1.0
 76
     1
 77
     6
 78
     2
 67
     7
 79
     3
170
     0
171
     0
290
     0
174
     0
 93
        1
 44
0.0
173
     0
291
     0
 45
0.0
1001
ACAD
1000
AcDbSavedByObjectVersion
1070
     0
1000
AcDbSavedByObjectVersion
1070
     0
1000
AcDbSavedByObjectVersion
1070
     0
  0
VISUALSTYLE
  5
34
102
{ACAD_XDICTIONARY
360
156B
102
}
102
{ACAD_REACTORS
330
29
102
}
330
29
100
AcDbVisualStyle
  2
Dim
 70
    11
 71
     2
 72
     2
 73
     0
 90
        0
 40
-0.6
 41
-30.0
 62
     5
 63
     7
421
 16777215
 74
     1
 91
        4
 64
     7
 65
   257
 75
     1
175
     1
 42
1.0
 92
        8
 66
     7
 43
1.0
 76
     1
 77
     6
 78
     2
 67
     7
 79
     5
170
     0
171
     0
290
     0
174
     0
 93
        1
 44
-50.0
173
     0
291
     1
 45
0.0
1001
ACAD
1000
AcDbSavedByObjectVersion
1070
     0
1000
AcDbSavedByObjectVersion
1070
     0
1000
AcDbSavedByObjectVersion
1070
     0
  0
VISUALSTYLE
  5
41
102
{ACAD_XDICTIONARY
360
1585
102
}
102
{ACAD_REACTORS
330
29
102
}
330
29
100
AcDbVisualStyle
  2
EdgeColorOff
 70
    22
 71
     2
 72
     2
 73
     0
 90
        0
 40
-0.6
 41
-30.0
 62
     5
 63
     7
421
 16777215
 74
     1
 91
        4
 64
     7
 65
   257
 75
     1
175
     1
 42
1.0
 92
        8
 66
     7
 43
1.0
 76
     1
 77
     6
 78
     2
 67
     7
 79
     5
170
     0
171
     0
290
     0
174
     0
 93
        1
 44
0.0
173
     0
291
     1
 45
0.0
1001
ACAD
1000
AcDbSavedByObjectVersion
1070
     0
1000
AcDbSavedByObjectVersion
1070
     0
1000
AcDbSavedByObjectVersion
1070
     0
  0
VISUALSTYLE
  5
38
102
{ACAD_XDICTIONARY
360
1573
102
}
102
{ACAD_REACTORS
330
29
102
}
330
29
100
AcDbVisualStyle
  2
Facepattern
 70
    15
 71
     2
 72
     2
 73
     0
 90
        0
 40
-0.6
 41
-30.0
 62
     5
 63
     7
421
 16777215
 74
     1
 91
        4
 64
     7
 65
   257
 75
     1
175
     1
 42
1.0
 92
        8
 66
     7
 43
1.0
 76
     1
 77
     6
 78
     2
 67
     7
 79
     5
170
     0
171
     0
290
     0
174
     0
 93
        1
 44
0.0
173
     0
291
     1
 45
0.0
1001
ACAD
1000
AcDbSavedByObjectVersion
1070
     0
1000
AcDbSavedByObjectVersion
1070
     0
1000
AcDbSavedByObjectVersion
1070
     0
  0
VISUALSTYLE
  5
2A
102
{ACAD_XDICTIONARY
360
1557
102
}
102
{ACAD_REACTORS
330
29
102
}
330
29
100
AcDbVisualStyle
  2
Flat
 70
     0
 71
     2
 72
     1
 73
     1
 90
        2
 40
-0.6
 41
30.0
 62
     5
 63
     7
421
 16777215
 74
     0
 91
        0
 64
     7
 65
   257
 75
     1
175
     1
 42
1.0
 92
        8
 66
     7
 43
1.0
 76
     1
 77
     6
 78
     2
 67
     7
 79
     5
170
     0
171
     0
290
     0
174
     0
 93
       13
 44
0.0
173
     0
291
     1
 45
0.0
1001
ACAD
1000
AcDbSavedByObjectVersion
1070
     0
1000
AcDbSavedByObjectVersion
1070
     0
1000
AcDbSavedByObjectVersion
1070
     0
  0
VISUALSTYLE
  5
2B
102
{ACAD_XDICTIONARY
360
1559
102
}
102
{ACAD_REACTORS
330
29
102
}
330
29
100
AcDbVisualStyle
  2
FlatWithEdges
 70
     1
 71
     2
 72
     1
 73
     1
 90
        2
 40
-0.6
 41
30.0
 62
     5
 63
     7
421
 16777215
 74
     1
 91
        0
 64
     7
 65
   257
 75
     1
175
     1
 42
1.0
 92
        0
 66
   257
 43
1.0
 76
     1
 77
     6
 78
     2
 67
     7
 79
     5
170
     0
171
     0
290
     0
174
     0
 93
       13
 44
0.0
173
     0
291
     1
 45
0.0
1001
ACAD
1000
AcDbSavedByObjectVersion
1070
     0
1000
AcDbSavedByObjectVersion
1070
     0
1000
AcDbSavedByObjectVersion
1070
     0
  0
VISUALSTYLE
  5
2C
102
{ACAD_XDICTIONARY
360
155B
102
}
102
{ACAD_REACTORS
330
29
102
}
330
29
100
AcDbVisualStyle
  2
Gouraud
 70
     2
 71
     2
 72
     2
 73
     1
 90
        2
 40
-0.6
 41
30.0
 62
     5
 63
     7
421
 16777215
 74
     0
 91
        0
 64
     7
 65
   257
 75
     1
175
     1
 42
1.0
 92
        0
 66
     7
 43
1.0
 76
     1
 77
     6
 78
     2
 67
     7
 79
     5
170
     0
171
     0
290
     0
174
     0
 93
       13
 44
0.0
173
     0
291
     1
 45
0.0
1001
ACAD
1000
AcDbSavedByObjectVersion
1070
     0
1000
AcDbSavedByObjectVersion
1070
     0
1000
AcDbSavedByObjectVersion
1070
     0
  0
VISUALSTYLE
  5
2D
102
{ACAD_XDICTIONARY
360
155D
102
}
102
{ACAD_REACTORS
330
29
102
}
330
29
100
AcDbVisualStyle
  2
GouraudWithEdges
 70
     3
 71
     2
 72
     2
 73
     1
 90
        2
 40
-0.6
 41
30.0
 62
     5
 63
     7
421
 16777215
 74
     1
 91
        0
 64
     7
 65
   257
 75
     1
175
     1
 42
1.0
 92
        0
 66
   257
 43
1.0
 76
     1
 77
     6
 78
     2
 67
     7
 79
     5
170
     0
171
     0
290
     0
174
     0
 93
       13
 44
0.0
173
     0
291
     1
 45
0.0
1001
ACAD
1000
AcDbSavedByObjectVersion
1070
     0
1000
AcDbSavedByObjectVersion
1070
     0
1000
AcDbSavedByObjectVersion
1070
     0
  0
VISUALSTYLE
  5
31
102
{ACAD_XDICTIONARY
360
1565
102
}
102
{ACAD_REACTORS
330
29
102
}
330
29
100
AcDbVisualStyle
  2
Hidden
 70
     6
 71
     1
 72
     2
 73
     2
 90
        0
 40
-0.6
 41
-30.0
 62
     5
 63
     7
421
 16777215
 74
     2
 91
        2
 64
     7
 65
   257
 75
     2
175
     1
 42
40.0
 92
        0
 66
   257
 43
1.0
 76
     1
 77
     6
 78
     2
 67
     7
 79
     3
170
     0
171
     0
290
     0
174
     0
 93
        1
 44
0.0
173
     0
291
     0
 45
0.0
1001
ACAD
1000
AcDbSavedByObjectVersion
1070
     0
1000
AcDbSavedByObjectVersion
1070
     0
1000
AcDbSavedByObjectVersion
1070
     0
  0
VISUALSTYLE
  5
3F
102
{ACAD_XDICTIONARY
360
1581
102
}
102
{ACAD_REACTORS
330
29
102
}
330
29
100
AcDbVisualStyle
  2
JitterOff
 70
    20
 71
     2
 72
     2
 73
     0
 90
        0
 40
-0.6
 41
-30.0
 62
     5
 63
     7
421
 16777215
 74
     1
 91
        4
 64
     7
 65
   257
 75
     1
175
     1
 42
1.0
 92
       10
 66
     7
 43
1.0
 76
     1
 77
     6
 78
     2
 67
     7
 79
     5
170
     0
171
     0
290
     0
174
     0
 93
        1
 44
0.0
173
     0
291
     1
 45
0.0
1001
ACAD
1000
AcDbSavedByObjectVersion
1070
     0
1000
AcDbSavedByObjectVersion
1070
     0
1000
AcDbSavedByObjectVersion
1070
     0
  0
VISUALSTYLE
  5
37
102
{ACAD_XDICTIONARY
360
1571
102
}
102
{ACAD_REACTORS
330
29
102
}
330
29
100
AcDbVisualStyle
  2
Linepattern
 70
    14
 71
     2
 72
     2
 73
     0
 90
        0
 40
-0.6
 41
-30.0
 62
     5
 63
     7
421
 16777215
 74
     1
 91
        4
 64
     7
 65
   257
 75
     7
175
     7
 42
1.0
 92
        8
 66
     7
 43
1.0
 76
     1
 77
     6
 78
     2
 67
     7
 79
     5
170
     0
171
     0
290
     0
174
     0
 93
        1
 44
0.0
173
     0
291
     1
 45
0.0
1001
ACAD
1000
AcDbSavedByObjectVersion
1070
     0
1000
AcDbSavedByObjectVersion
1070
     0
1000
AcDbSavedByObjectVersion
1070
     0
  0
VISUALSTYLE
  5
40
102
{ACAD_XDICTIONARY
360
1583
102
}
102
{ACAD_REACTORS
330
29
102
}
330
29
100
AcDbVisualStyle
  2
OverhangOff
 70
    21
 71
     2
 72
     2
 73
     0
 90
        0
 40
-0.6
 41
-30.0
 62
     5
 63
     7
421
 16777215
 74
     1
 91
        4
 64
     7
 65
   257
 75
     1
175
     1
 42
1.0
 92
        9
 66
     7
 43
1.0
 76
     1
 77
     6
 78
     2
 67
     7
 79
     5
170
     0
171
     0
290
     0
174
     0
 93
        1
 44
0.0
173
     0
291
     1
 45
0.0
1001
ACAD
1000
AcDbSavedByObjectVersion
1070
     0
1000
AcDbSavedByObjectVersion
1070
     0
1000
AcDbSavedByObjectVersion
1070
     0
  0
VISUALSTYLE
  5
33
102
{ACAD_XDICTIONARY
360
1569
102
}
102
{ACAD_REACTORS
330
29
102
}
330
29
100
AcDbVisualStyle
  2
Realistic
 70
     8
 71
     2
 72
     2
 73
     0
 90
        2
 40
-0.6
 41
30.0
 62
     5
 63
     7
421
 16777215
 74
     0
 91
        0
 64
     7
 65
   257
 75
     1
175
     1
 42
1.0
 92
        8
 66
   257
 43
1.0
 76
     1
 77
     6
 78
     2
 67
     7
 79
     3
170
     0
171
     0
290
     0
174
     0
 93
       13
 44
0.0
173
     0
291
     0
 45
0.0
1001
ACAD
1000
AcDbSavedByObjectVersion
1070
     0
1000
AcDbSavedByObjectVersion
1070
     0
1000
AcDbSavedByObjectVersion
1070
     0
  0
VISUALSTYLE
  5
3E
102
{ACAD_XDICTIONARY
360
157F
102
}
102
{ACAD_REACTORS
330
29
102
}
330
29
100
AcDbVisualStyle
  2
Shaded
 70
    27
 71
     2
 72
     2
 73
     1
 90
        2
 40
-0.6
 41
30.0
 62
     5
 63
     7
421
 16777215
 74
     0
 91
        4
 64
     7
 65
   257
 75
     1
175
     1
 42
1.0
 92
        8
 66
   257
 43
1.0
 76
     1
 77
     6
 78
     2
 67
     8
425
  7895160
 79
     3
170
     0
171
     0
290
     0
174
     0
 93
        5
 44
0.0
173
     0
291
     0
 45
0.0
1001
ACAD
1000
AcDbSavedByObjectVersion
1070
     0
1000
AcDbSavedByObjectVersion
1070
     0
1000
AcDbSavedByObjectVersion
1070
     0
  0
VISUALSTYLE
  5
3D
102
{ACAD_XDICTIONARY
360
157D
102
}
102
{ACAD_REACTORS
330
29
102
}
330
29
100
AcDbVisualStyle
  2
Shaded with edges
 70
    26
 71
     2
 72
     2
 73
     1
 90
        2
 40
-0.6
 41
30.0
 62
     5
 63
     7
421
 16777215
 74
     1
 91
       10
 64
     7
 65
   257
 75
     2
175
     1
 42
1.0
 92
        8
 66
   257
 43
1.0
 76
     1
 77
     6
 78
     2
 67
     7
 79
     3
170
     0
171
     0
290
     0
174
     0
 93
        5
 44
0.0
173
     0
291
     0
 45
0.0
1001
ACAD
1000
AcDbSavedByObjectVersion
1070
     0
1000
AcDbSavedByObjectVersion
1070
     0
1000
AcDbSavedByObjectVersion
1070
     0
  0
VISUALSTYLE
  5
3A
102
{ACAD_XDICTIONARY
360
1577
102
}
102
{ACAD_REACTORS
330
29
102
}
330
29
100
AcDbVisualStyle
  2
Shades of Gray
 70
    23
 71
     2
 72
     2
 73
     3
 90
        0
 40
-0.6
 41
-30.0
 62
     5
 63
     7
421
 16777215
 74
     2
 91
        2
 64
     7
 65
     7
 75
     1
175
     1
 42
40.0
 92
        8
 66
     7
 43
1.0
 76
     1
 77
     6
 78
     2
 67
     7
 79
     3
170
     0
171
     0
290
     0
174
     0
 93
        1
 44
0.0
173
     0
291
     0
 45
0.0
1001
ACAD
1000
AcDbSavedByObjectVersion
1070
     0
1000
AcDbSavedByObjectVersion
1070
     0
1000
AcDbSavedByObjectVersion
1070
     0
  0
VISUALSTYLE
  5
3B
102
{ACAD_XDICTIONARY
360
1579
102
}
102
{ACAD_REACTORS
330
29
102
}
330
29
100
AcDbVisualStyle
  2
Sketchy
 70
    24
 71
     1
 72
     2
 73
     2
 90
        0
 40
-0.6
 41
-30.0
 62
     5
 63
     7
421
 16777215
 74
     2
 91
        2
 64
     7
 65
     7
 75
     1
175
     1
 42
40.0
 92
       11
 66
     7
 43
1.0
 76
     1
 77
     6
 78
     2
 67
     7
 79
     6
170
     0
171
     0
290
     0
174
     0
 93
        1
 44
0.0
173
     0
291
     0
 45
0.0
1001
ACAD
1000
AcDbSavedByObjectVersion
1070
     0
1000
AcDbSavedByObjectVersion
1070
     0
1000
AcDbSavedByObjectVersion
1070
     0
  0
VISUALSTYLE
  5
36
102
{ACAD_XDICTIONARY
360
156F
102
}
102
{ACAD_REACTORS
330
29
102
}
330
29
100
AcDbVisualStyle
  2
Thicken
 70
    13
 71
     2
 72
     2
 73
     0
 90
        0
 40
-0.6
 41
-30.0
 62
     5
 63
     7
421
 16777215
 74
     1
 91
        4
 64
     7
 65
   257
 75
     1
175
     1
 42
1.0
 92
       12
 66
     7
 43
1.0
 76
     1
 77
     6
 78
     2
 67
     7
 79
     5
170
     0
171
     0
290
     0
174
     0
 93
        1
 44
0.0
173
     0
291
     1
 45
0.0
1001
ACAD
1000
AcDbSavedByObjectVersion
1070
     0
1000
AcDbSavedByObjectVersion
1070
     0
1000
AcDbSavedByObjectVersion
1070
     0
  0
VISUALSTYLE
  5
30
102
{ACAD_XDICTIONARY
360
1563
102
}
102
{ACAD_REACTORS
330
29
102
}
330
29
100
AcDbVisualStyle
  2
Wireframe
 70
     5
 71
     0
 72
     2
 73
     0
 90
        0
 40
-0.6
 41
-30.0
 62
     5
 63
     7
421
 16777215
 74
     1
 91
        4
 64
     7
 65
   257
 75
     1
175
     1
 42
1.0
 92
        0
 66
   257
 43
1.0
 76
     1
 77
     6
 78
     2
 67
     7
 79
     3
170
     0
171
     0
290
     0
174
     0
 93
        1
 44
0.0
173
     0
291
     0
 45
0.0
1001
ACAD
1000
AcDbSavedByObjectVersion
1070
     0
1000
AcDbSavedByObjectVersion
1070
     0
1000
AcDbSavedByObjectVersion
1070
     0
  0
VISUALSTYLE
  5
3C
102
{ACAD_XDICTIONARY
360
157B
102
}
102
{ACAD_REACTORS
330
29
102
}
330
29
100
AcDbVisualStyle
  2
X-Ray
 70
    25
 71
     2
 72
     2
 73
     1
 90
        1
 40
0.5
 41
-30.0
 62
     5
 63
     7
421
 16777215
 74
     1
 91
        0
 64
     7
 65
   257
 75
     1
175
     1
 42
1.0
 92
        8
 66
     7
 43
1.0
 76
     1
 77
     6
 78
     2
 67
     7
 79
     3
170
     0
171
     0
290
     0
174
     0
 93
       13
 44
0.0
173
     0
291
     0
 45
0.0
1001
ACAD
1000
AcDbSavedByObjectVersion
1070
     0
1000
AcDbSavedByObjectVersion
1070
     0
1000
AcDbSavedByObjectVersion
1070
     0
  0
DICTIONARYVAR
  5
158B
102
{ACAD_REACTORS
330
1588
102
}
330
1588
100
DictionaryVariables
280
     0
  1
1:1
  0
DICTIONARYVAR
  5
158A
102
{ACAD_REACTORS
330
1588
102
}
330
1588
100
DictionaryVariables
280
     0
  1
STANDARD
  0
DICTIONARYVAR
  5
1589
102
{ACAD_REACTORS
330
1588
102
}
330
1588
100
DictionaryVariables
280
     0
  1
STANDARD
  0
DICTIONARYVAR
  5
1672
102
{ACAD_REACTORS
330
1588
102
}
330
1588
100
DictionaryVariables
280
     0
  1
0
  0
DICTIONARYVAR
  5
1673
102
{ACAD_REACTORS
330
1588
102
}
330
1588
100
DictionaryVariables
280
     0
  1
0
  0
DICTIONARYVAR
  5
1671
102
{ACAD_REACTORS
330
1588
102
}
330
1588
100
DictionaryVariables
280
     0
  1
2
  0
DICTIONARYVAR
  5
1670
102
{ACAD_REACTORS
330
1588
102
}
330
1588
100
DictionaryVariables
280
     0
  1
1
  0
DICTIONARYVAR
  5
158C
102
{ACAD_REACTORS
330
1588
102
}
330
1588
100
DictionaryVariables
280
     0
  1
2
  0
DICTIONARY
  5
1604
102
{ACAD_REACTORS
330
15F7
102
}
330
15F7
100
AcDbDictionary
281
     1
  0
DICTIONARY
  5
1A
330
19
100
AcDbDictionary
280
     1
281
     1
  3
ACAD_XREC_ROUNDTRIP
360
18D3
  3
BUMPTILE
360
1C
  3
DIFFUSETILE
360
1B
  3
OPACITYTILE
360
1F
  3
REFLECTIONTILE
360
1E
  3
REFRACTIONTILE
360
20
  3
SPECULARTILE
360
1D
  0
DICTIONARY
  5
12
330
11
100
AcDbDictionary
280
     1
281
     1
  3
ACAD_XREC_ROUNDTRIP
360
18D2
  3
BUMPTILE
360
14
  3
DIFFUSETILE
360
13
  3
OPACITYTILE
360
17
  3
REFLECTIONTILE
360
16
  3
REFRACTIONTILE
360
18
  3
SPECULARTILE
360
15
  0
DICTIONARY
  5
22
330
21
100
AcDbDictionary
280
     1
281
     1
  3
ACAD_XREC_ROUNDTRIP
360
18D4
  3
BUMPTILE
360
24
  3
DIFFUSETILE
360
23
  3
OPACITYTILE
360
27
  3
REFLECTIONTILE
360
26
  3
REFRACTIONTILE
360
28
  3
SPECULARTILE
360
25
  0
DICTIONARY
  5
151E
330
65
100
AcDbDictionary
280
     1
281
     1
  3
ACAD_ROUNDTRIP_2008_TABLESTYLE_CELLSTYLEMAP
360
1C0E
  3
ACAD_XREC_ROUNDTRIP
360
1C1E
  0
DICTIONARY
  5
1561
330
2F
100
AcDbDictionary
280
     1
281
     1
  3
ACAD_XREC_ROUNDTRIP
360
1562
  0
DICTIONARY
  5
155F
330
2E
100
AcDbDictionary
280
     1
281
     1
  3
ACAD_XREC_ROUNDTRIP
360
1560
  0
DICTIONARY
  5
156D
330
35
100
AcDbDictionary
280
     1
281
     1
  3
ACAD_XREC_ROUNDTRIP
360
156E
  0
DICTIONARY
  5
1575
330
39
100
AcDbDictionary
280
     1
281
     1
  3
ACAD_XREC_ROUNDTRIP
360
1576
  0
DICTIONARY
  5
1567
330
32
100
AcDbDictionary
280
     1
281
     1
  3
ACAD_XREC_ROUNDTRIP
360
1568
  0
DICTIONARY
  5
156B
330
34
100
AcDbDictionary
280
     1
281
     1
  3
ACAD_XREC_ROUNDTRIP
360
156C
  0
DICTIONARY
  5
1585
330
41
100
AcDbDictionary
280
     1
281
     1
  3
ACAD_XREC_ROUNDTRIP
360
1586
  0
DICTIONARY
  5
1573
330
38
100
AcDbDictionary
280
     1
281
     1
  3
ACAD_XREC_ROUNDTRIP
360
1574
  0
DICTIONARY
  5
1557
330
2A
100
AcDbDictionary
280
     1
281
     1
  3
ACAD_XREC_ROUNDTRIP
360
1558
  0
DICTIONARY
  5
1559
330
2B
100
AcDbDictionary
280
     1
281
     1
  3
ACAD_XREC_ROUNDTRIP
360
155A
  0
DICTIONARY
  5
155B
330
2C
100
AcDbDictionary
280
     1
281
     1
  3
ACAD_XREC_ROUNDTRIP
360
155C
  0
DICTIONARY
  5
155D
330
2D
100
AcDbDictionary
280
     1
281
     1
  3
ACAD_XREC_ROUNDTRIP
360
155E
  0
DICTIONARY
  5
1565
330
31
100
AcDbDictionary
280
     1
281
     1
  3
ACAD_XREC_ROUNDTRIP
360
1566
  0
DICTIONARY
  5
1581
330
3F
100
AcDbDictionary
280
     1
281
     1
  3
ACAD_XREC_ROUNDTRIP
360
1582
  0
DICTIONARY
  5
1571
330
37
100
AcDbDictionary
280
     1
281
     1
  3
ACAD_XREC_ROUNDTRIP
360
1572
  0
DICTIONARY
  5
1583
330
40
100
AcDbDictionary
280
     1
281
     1
  3
ACAD_XREC_ROUNDTRIP
360
1584
  0
DICTIONARY
  5
1569
330
33
100
AcDbDictionary
280
     1
281
     1
  3
ACAD_XREC_ROUNDTRIP
360
156A
  0
DICTIONARY
  5
157F
330
3E
100
AcDbDictionary
280
     1
281
     1
  3
ACAD_XREC_ROUNDTRIP
360
1580
  0
DICTIONARY
  5
157D
330
3D
100
AcDbDictionary
280
     1
281
     1
  3
ACAD_XREC_ROUNDTRIP
360
157E
  0
DICTIONARY
  5
1577
330
3A
100
AcDbDictionary
280
     1
281
     1
  3
ACAD_XREC_ROUNDTRIP
360
1578
  0
DICTIONARY
  5
1579
330
3B
100
AcDbDictionary
280
     1
281
     1
  3
ACAD_XREC_ROUNDTRIP
360
157A
  0
DICTIONARY
  5
156F
330
36
100
AcDbDictionary
280
     1
281
     1
  3
ACAD_XREC_ROUNDTRIP
360
1570
  0
DICTIONARY
  5
1563
330
30
100
AcDbDictionary
280
     1
281
     1
  3
ACAD_XREC_ROUNDTRIP
360
1564
  0
DICTIONARY
  5
157B
330
3C
100
AcDbDictionary
280
     1
281
     1
  3
ACAD_XREC_ROUNDTRIP
360
157C
  0
XRECORD
  5
18D3
102
{ACAD_REACTORS
330
1A
102
}
330
1A
100
AcDbXrecord
280
     1
102
MATERIAL
148
0.0
149
0.0
149
0.0
 93
        0
 94
      127
282
     0
 72
     0
 77
     0
171
     0
175
     0
179
     0
273
     0
  0
XRECORD
  5
1C
102
{ACAD_REACTORS
330
1A
102
}
330
1A
100
AcDbXrecord
280
     1
270
     1
271
     1
  0
XRECORD
  5
1B
102
{ACAD_REACTORS
330
1A
102
}
330
1A
100
AcDbXrecord
280
     1
270
     1
271
     1
  0
XRECORD
  5
1F
102
{ACAD_REACTORS
330
1A
102
}
330
1A
100
AcDbXrecord
280
     1
270
     1
271
     1
  0
XRECORD
  5
1E
102
{ACAD_REACTORS
330
1A
102
}
330
1A
100
AcDbXrecord
280
     1
270
     1
271
     1
  0
XRECORD
  5
20
102
{ACAD_REACTORS
330
1A
102
}
330
1A
100
AcDbXrecord
280
     1
270
     1
271
     1
  0
XRECORD
  5
1D
102
{ACAD_REACTORS
330
1A
102
}
330
1A
100
AcDbXrecord
280
     1
270
     1
271
     1
  0
XRECORD
  5
18D2
102
{ACAD_REACTORS
330
12
102
}
330
12
100
AcDbXrecord
280
     1
102
MATERIAL
148
0.0
149
0.0
149
0.0
 93
        0
 94
      127
282
     0
 72
     0
 77
     0
171
     0
175
     0
179
     0
273
     0
  0
XRECORD
  5
14
102
{ACAD_REACTORS
330
12
102
}
330
12
100
AcDbXrecord
280
     1
270
     1
271
     1
  0
XRECORD
  5
13
102
{ACAD_REACTORS
330
12
102
}
330
12
100
AcDbXrecord
280
     1
270
     1
271
     1
  0
XRECORD
  5
17
102
{ACAD_REACTORS
330
12
102
}
330
12
100
AcDbXrecord
280
     1
270
     1
271
     1
  0
XRECORD
  5
16
102
{ACAD_REACTORS
330
12
102
}
330
12
100
AcDbXrecord
280
     1
270
     1
271
     1
  0
XRECORD
  5
18
102
{ACAD_REACTORS
330
12
102
}
330
12
100
AcDbXrecord
280
     1
270
     1
271
     1
  0
XRECORD
  5
15
102
{ACAD_REACTORS
330
12
102
}
330
12
100
AcDbXrecord
280
     1
270
     1
271
     1
  0
XRECORD
  5
18D4
102
{ACAD_REACTORS
330
22
102
}
330
22
100
AcDbXrecord
280
     1
102
MATERIAL
148
0.0
149
0.0
149
0.0
 93
        0
 94
      127
282
     0
 72
     0
 77
     0
171
     0
175
     0
179
     0
273
     0
  0
XRECORD
  5
24
102
{ACAD_REACTORS
330
22
102
}
330
22
100
AcDbXrecord
280
     1
270
     1
271
     1
  0
XRECORD
  5
23
102
{ACAD_REACTORS
330
22
102
}
330
22
100
AcDbXrecord
280
     1
270
     1
271
     1
  0
XRECORD
  5
27
102
{ACAD_REACTORS
330
22
102
}
330
22
100
AcDbXrecord
280
     1
270
     1
271
     1
  0
XRECORD
  5
26
102
{ACAD_REACTORS
330
22
102
}
330
22
100
AcDbXrecord
280
     1
270
     1
271
     1
  0
XRECORD
  5
28
102
{ACAD_REACTORS
330
22
102
}
330
22
100
AcDbXrecord
280
     1
270
     1
271
     1
  0
XRECORD
  5
25
102
{ACAD_REACTORS
330
22
102
}
330
22
100
AcDbXrecord
280
     1
270
     1
271
     1
  0
CELLSTYLEMAP
  5
1C0E
102
{ACAD_REACTORS
330
151E
102
}
330
151E
100
AcDbCellStyleMap
 90
        3
300
CELLSTYLE
  1
TABLEFORMAT_BEGIN
 90
        5
170
     1
 91
        0
 92
    32768
 62
   257
 93
        1
300
CONTENTFORMAT
  1
CONTENTFORMAT_BEGIN
 90
        0
 91
        0
 92
      512
 93
        0
300

 40
0.0
140
1.0
 94
        5
 62
     0
340
55
144
0.25
309
CONTENTFORMAT_END
171
     1
301
MARGIN
  1
CELLMARGIN_BEGIN
 40
0.06
 40
0.06
 40
0.06
 40
0.06
 40
0.18
 40
0.18
309
CELLMARGIN_END
 94
        6
 95
        1
302
GRIDFORMAT
  1
GRIDFORMAT_BEGIN
 90
        0
 91
        1
 62
     0
 92
       -2
340
0
 93
        0
 40
0.045
309
GRIDFORMAT_END
 95
        2
302
GRIDFORMAT
  1
GRIDFORMAT_BEGIN
 90
        0
 91
        1
 62
     0
 92
       -2
340
0
 93
        0
 40
0.045
309
GRIDFORMAT_END
 95
        4
302
GRIDFORMAT
  1
GRIDFORMAT_BEGIN
 90
        0
 91
        1
 62
     0
 92
       -2
340
0
 93
        0
 40
0.045
309
GRIDFORMAT_END
 95
        8
302
GRIDFORMAT
  1
GRIDFORMAT_BEGIN
 90
        0
 91
        1
 62
     0
 92
       -2
340
0
 93
        0
 40
0.045
309
GRIDFORMAT_END
 95
       16
302
GRIDFORMAT
  1
GRIDFORMAT_BEGIN
 90
        0
 91
        1
 62
     0
 92
       -2
340
0
 93
        0
 40
0.045
309
GRIDFORMAT_END
 95
       32
302
GRIDFORMAT
  1
GRIDFORMAT_BEGIN
 90
        0
 91
        1
 62
     0
 92
       -2
340
0
 93
        0
 40
0.045
309
GRIDFORMAT_END
309
TABLEFORMAT_END
  1
CELLSTYLE_BEGIN
 90
        1
 91
        1
300
_TITLE
309
CELLSTYLE_END
300
CELLSTYLE
  1
TABLEFORMAT_BEGIN
 90
        5
170
     1
 91
        0
 92
        0
 62
   257
 93
        1
300
CONTENTFORMAT
  1
CONTENTFORMAT_BEGIN
 90
        0
 91
        0
 92
      512
 93
        0
300

 40
0.0
140
1.0
 94
        5
 62
     0
340
55
144
0.18
309
CONTENTFORMAT_END
171
     1
301
MARGIN
  1
CELLMARGIN_BEGIN
 40
0.06
 40
0.06
 40
0.06
 40
0.06
 40
0.18
 40
0.18
309
CELLMARGIN_END
 94
        6
 95
        1
302
GRIDFORMAT
  1
GRIDFORMAT_BEGIN
 90
        0
 91
        1
 62
     0
 92
       -2
340
0
 93
        0
 40
0.045
309
GRIDFORMAT_END
 95
        2
302
GRIDFORMAT
  1
GRIDFORMAT_BEGIN
 90
        0
 91
        1
 62
     0
 92
       -2
340
0
 93
        0
 40
0.045
309
GRIDFORMAT_END
 95
        4
302
GRIDFORMAT
  1
GRIDFORMAT_BEGIN
 90
        0
 91
        1
 62
     0
 92
       -2
340
0
 93
        0
 40
0.045
309
GRIDFORMAT_END
 95
        8
302
GRIDFORMAT
  1
GRIDFORMAT_BEGIN
 90
        0
 91
        1
 62
     0
 92
       -2
340
0
 93
        0
 40
0.045
309
GRIDFORMAT_END
 95
       16
302
GRIDFORMAT
  1
GRIDFORMAT_BEGIN
 90
        0
 91
        1
 62
     0
 92
       -2
340
0
 93
        0
 40
0.045
309
GRIDFORMAT_END
 95
       32
302
GRIDFORMAT
  1
GRIDFORMAT_BEGIN
 90
        0
 91
        1
 62
     0
 92
       -2
340
0
 93
        0
 40
0.045
309
GRIDFORMAT_END
309
TABLEFORMAT_END
  1
CELLSTYLE_BEGIN
 90
        2
 91
        1
300
_HEADER
309
CELLSTYLE_END
300
CELLSTYLE
  1
TABLEFORMAT_BEGIN
 90
        5
170
     1
 91
        0
 92
        0
 62
   257
 93
        1
300
CONTENTFORMAT
  1
CONTENTFORMAT_BEGIN
 90
        0
 91
        0
 92
      512
 93
        0
300

 40
0.0
140
1.0
 94
        2
 62
     0
340
55
144
0.18
309
CONTENTFORMAT_END
171
     1
301
MARGIN
  1
CELLMARGIN_BEGIN
 40
0.06
 40
0.06
 40
0.06
 40
0.06
 40
0.18
 40
0.18
309
CELLMARGIN_END
 94
        6
 95
        1
302
GRIDFORMAT
  1
GRIDFORMAT_BEGIN
 90
        0
 91
        1
 62
     0
 92
       -2
340
0
 93
        0
 40
0.045
309
GRIDFORMAT_END
 95
        2
302
GRIDFORMAT
  1
GRIDFORMAT_BEGIN
 90
        0
 91
        1
 62
     0
 92
       -2
340
0
 93
        0
 40
0.045
309
GRIDFORMAT_END
 95
        4
302
GRIDFORMAT
  1
GRIDFORMAT_BEGIN
 90
        0
 91
        1
 62
     0
 92
       -2
340
0
 93
        0
 40
0.045
309
GRIDFORMAT_END
 95
        8
302
GRIDFORMAT
  1
GRIDFORMAT_BEGIN
 90
        0
 91
        1
 62
     0
 92
       -2
340
0
 93
        0
 40
0.045
309
GRIDFORMAT_END
 95
       16
302
GRIDFORMAT
  1
GRIDFORMAT_BEGIN
 90
        0
 91
        1
 62
     0
 92
       -2
340
0
 93
        0
 40
0.045
309
GRIDFORMAT_END
 95
       32
302
GRIDFORMAT
  1
GRIDFORMAT_BEGIN
 90
        0
 91
        1
 62
     0
 92
       -2
340
0
 93
        0
 40
0.045
309
GRIDFORMAT_END
309
TABLEFORMAT_END
  1
CELLSTYLE_BEGIN
 90
        3
 91
        2
300
_DATA
309
CELLSTYLE_END
  0
XRECORD
  5
1C1E
102
{ACAD_REACTORS
330
151E
102
}
330
151E
100
AcDbXrecord
280
     1
102
ACAD_ROUNDTRIP_PRE2007_TABLESTYLE
 90
      512
 91
        0
  1

 92
      512
 93
        0
  2

 94
      512
 95
        0
  3

  0
XRECORD
  5
1562
102
{ACAD_REACTORS
330
1561
102
}
330
1561
100
AcDbXrecord
280
     1
102
RTVSPropertyOp0
 70
     1
102
RTVSPropertyOp1
 70
     1
102
RTVSPropertyOp2
 70
     1
102
RTVSPropertyOp3
 70
     1
102
RTVSPropertyOp4
 70
     1
102
RTVSPropertyOp5
 70
     1
102
RTVSPropertyOp6
 70
     1
102
RTVSPropertyOp7
 70
     1
102
RTVSPropertyOp8
 70
     1
102
RTVSPropertyOp9
 70
     1
102
RTVSPropertyOp10
 70
     1
102
RTVSPropertyOp11
 70
     1
102
RTVSPropertyOp12
 70
     1
102
RTVSPropertyOp13
 70
     1
102
RTVSPropertyOp14
 70
     1
102
RTVSPropertyOp15
 70
     1
102
RTVSPropertyOp16
 70
     1
102
RTVSPropertyOp17
 70
     1
102
RTVSPropertyOp18
 70
     1
102
RTVSPropertyOp19
 70
     1
102
RTVSPropertyOp20
 70
     1
102
RTVSPropertyOp21
 70
     1
102
RTVSPropertyOp22
 70
     1
102
RTVSPropertyOp23
 70
     1
102
RTVSPropertyOp24
 70
     1
102
RTVSPropertyOp25
 70
     1
102
RTVSPropertyOp26
 70
     1
102
RTVSPropertyOp27
 70
     1
102
RTVSPropertyOp28
 70
     1
102
RTVSPropertyOp29
 70
     1
102
RTVSPropertyOp30
 70
     1
102
RTVSPropertyOp31
 70
     1
102
RTVSPropertyOp32
 70
     1
  0
XRECORD
  5
1560
102
{ACAD_REACTORS
330
155F
102
}
330
155F
100
AcDbXrecord
280
     1
102
RTVSPropertyOp0
 70
     1
102
RTVSPropertyOp1
 70
     1
102
RTVSPropertyOp2
 70
     1
102
RTVSPropertyOp3
 70
     1
102
RTVSPropertyOp4
 70
     1
102
RTVSPropertyOp5
 70
     1
102
RTVSPropertyOp6
 70
     1
102
RTVSPropertyOp7
 70
     1
102
RTVSPropertyOp8
 70
     1
102
RTVSPropertyOp9
 70
     1
102
RTVSPropertyOp10
 70
     1
102
RTVSPropertyOp11
 70
     1
102
RTVSPropertyOp12
 70
     1
102
RTVSPropertyOp13
 70
     1
102
RTVSPropertyOp14
 70
     1
102
RTVSPropertyOp15
 70
     1
102
RTVSPropertyOp16
 70
     1
102
RTVSPropertyOp17
 70
     1
102
RTVSPropertyOp18
 70
     1
102
RTVSPropertyOp19
 70
     1
102
RTVSPropertyOp20
 70
     1
102
RTVSPropertyOp21
 70
     1
102
RTVSPropertyOp22
 70
     1
102
RTVSPropertyOp23
 70
     1
102
RTVSPropertyOp24
 70
     1
102
RTVSPropertyOp25
 70
     1
102
RTVSPropertyOp26
 70
     1
102
RTVSPropertyOp27
 70
     1
102
RTVSPropertyOp28
 70
     1
102
RTVSPropertyOp29
 70
     1
102
RTVSPropertyOp30
 70
     1
102
RTVSPropertyOp31
 70
     1
102
RTVSPropertyOp32
 70
     1
  0
XRECORD
  5
156E
102
{ACAD_REACTORS
330
156D
102
}
330
156D
100
AcDbXrecord
280
     1
102
RTVSPropertyOp0
 70
     1
102
RTVSPropertyOp1
 70
     1
102
RTVSPropertyOp2
 70
     1
102
RTVSPropertyOp3
 70
     1
102
RTVSPropertyOp4
 70
     1
102
RTVSPropertyOp5
 70
     1
102
RTVSPropertyOp6
 70
     1
102
RTVSPropertyOp7
 70
     1
102
RTVSPropertyOp8
 70
     1
102
RTVSPropertyOp9
 70
     1
102
RTVSPropertyOp10
 70
     1
102
RTVSPropertyOp11
 70
     1
102
RTVSPropertyOp12
 70
     1
102
RTVSPropertyOp13
 70
     1
102
RTVSPropertyOp14
 70
     1
102
RTVSPropertyOp15
 70
     1
102
RTVSPropertyOp16
 70
     1
102
RTVSPropertyOp17
 70
     1
102
RTVSPropertyOp18
 70
     1
102
RTVSPropertyOp19
 70
     1
102
RTVSPropertyOp20
 70
     1
102
RTVSPropertyOp21
 70
     1
102
RTVSPropertyOp22
 70
     1
102
RTVSPropertyOp23
 70
     1
102
RTVSPropertyOp24
 70
     1
102
RTVSPropertyOp25
 70
     1
102
RTVSPropertyOp26
 70
     1
102
RTVSPropertyOp27
 70
     1
102
RTVSPropertyOp28
 70
     1
102
RTVSPropertyOp29
 70
     1
102
RTVSPropertyOp30
 70
     1
102
RTVSPropertyOp31
 70
     1
102
RTVSPropertyOp32
 70
     1
  0
XRECORD
  5
1576
102
{ACAD_REACTORS
330
1575
102
}
330
1575
100
AcDbXrecord
280
     1
102
RTVSPropertyOp0
 70
     1
102
RTVSPropertyOp1
 70
     1
102
RTVSPropertyOp2
 70
     1
102
RTVSPropertyOp3
 70
     1
102
RTVSPropertyOp4
 70
     1
102
RTVSPropertyOp5
 70
     1
102
RTVSPropertyOp6
 70
     1
102
RTVSPropertyOp7
 70
     1
102
RTVSPropertyOp8
 70
     1
102
RTVSPropertyOp9
 70
     1
102
RTVSPropertyOp10
 70
     1
102
RTVSPropertyOp11
 70
     1
102
RTVSPropertyOp12
 70
     1
102
RTVSPropertyOp13
 70
     1
102
RTVSPropertyOp14
 70
     1
102
RTVSPropertyOp15
 70
     1
102
RTVSPropertyOp16
 70
     1
102
RTVSPropertyOp17
 70
     1
102
RTVSPropertyOp18
 70
     1
102
RTVSPropertyOp19
 70
     1
102
RTVSPropertyOp20
 70
     1
102
RTVSPropertyOp21
 70
     1
102
RTVSPropertyOp22
 70
     1
102
RTVSPropertyOp23
 70
     1
102
RTVSPropertyOp24
 70
     1
102
RTVSPropertyOp25
 70
     1
102
RTVSPropertyOp26
 70
     1
102
RTVSPropertyOp27
 70
     1
102
RTVSPropertyOp28
 70
     1
102
RTVSPropertyOp29
 70
     1
102
RTVSPropertyOp30
 70
     1
102
RTVSPropertyOp31
 70
     1
102
RTVSPropertyOp32
 70
     1
  0
XRECORD
  5
1568
102
{ACAD_REACTORS
330
1567
102
}
330
1567
100
AcDbXrecord
280
     1
102
RTVSPropertyOp0
 70
     1
102
RTVSPropertyOp1
 70
     1
102
RTVSPropertyOp2
 70
     1
102
RTVSPropertyOp3
 70
     1
102
RTVSPropertyOp4
 70
     1
102
RTVSPropertyOp5
 70
     1
102
RTVSPropertyOp6
 70
     1
102
RTVSPropertyOp7
 70
     1
102
RTVSPropertyOp8
 70
     1
102
RTVSPropertyOp9
 70
     1
102
RTVSPropertyOp10
 70
     1
102
RTVSPropertyOp11
 70
     1
102
RTVSPropertyOp12
 70
     1
102
RTVSPropertyOp13
 70
     1
102
RTVSPropertyOp14
 70
     1
102
RTVSPropertyOp15
 70
     1
102
RTVSPropertyOp16
 70
     1
102
RTVSPropertyOp17
 70
     1
102
RTVSPropertyOp18
 70
     1
102
RTVSPropertyOp19
 70
     1
102
RTVSPropertyOp20
 70
     1
102
RTVSPropertyOp21
 70
     1
102
RTVSPropertyOp22
 70
     1
102
RTVSPropertyOp23
 70
     1
102
RTVSPropertyOp24
 70
     1
102
RTVSPropertyOp25
 70
     1
102
RTVSPropertyOp26
 70
     1
102
RTVSPropertyOp27
 70
     1
102
RTVSPropertyOp28
 70
     1
102
RTVSPropertyOp29
 70
     1
102
RTVSPropertyOp30
 70
     1
102
RTVSPropertyOp31
 70
     1
102
RTVSPropertyOp32
 70
     1
  0
XRECORD
  5
156C
102
{ACAD_REACTORS
330
156B
102
}
330
156B
100
AcDbXrecord
280
     1
102
RTVSPropertyOp0
 70
     1
102
RTVSPropertyOp1
 70
     1
102
RTVSPropertyOp2
 70
     1
102
RTVSPropertyOp3
 70
     1
102
RTVSPropertyOp4
 70
     1
102
RTVSPropertyOp5
 70
     1
102
RTVSPropertyOp6
 70
     1
102
RTVSPropertyOp7
 70
     1
102
RTVSPropertyOp8
 70
     1
102
RTVSPropertyOp9
 70
     1
102
RTVSPropertyOp10
 70
     1
102
RTVSPropertyOp11
 70
     1
102
RTVSPropertyOp12
 70
     1
102
RTVSPropertyOp13
 70
     1
102
RTVSPropertyOp14
 70
     1
102
RTVSPropertyOp15
 70
     1
102
RTVSPropertyOp16
 70
     1
102
RTVSPropertyOp17
 70
     1
102
RTVSPropertyOp18
 70
     1
102
RTVSPropertyOp19
 70
     1
102
RTVSPropertyOp20
 70
     1
102
RTVSPropertyOp21
 70
     1
102
RTVSPropertyOp22
 70
     1
102
RTVSPropertyOp23
 70
     1
102
RTVSPropertyOp24
 70
     1
102
RTVSPropertyOp25
 70
     1
102
RTVSPropertyOp26
 70
     1
102
RTVSPropertyOp27
 70
     1
102
RTVSPropertyOp28
 70
     1
102
RTVSPropertyOp29
 70
     1
102
RTVSPropertyOp30
 70
     1
102
RTVSPropertyOp31
 70
     1
102
RTVSPropertyOp32
 70
     1
  0
XRECORD
  5
1586
102
{ACAD_REACTORS
330
1585
102
}
330
1585
100
AcDbXrecord
280
     1
102
RTVSPropertyOp0
 70
     0
102
RTVSPropertyOp1
 70
     0
102
RTVSPropertyOp2
 70
     0
102
RTVSPropertyOp3
 70
     0
102
RTVSPropertyOp4
 70
     0
102
RTVSPropertyOp5
 70
     0
102
RTVSPropertyOp6
 70
     0
102
RTVSPropertyOp7
 70
     0
102
RTVSPropertyOp8
 70
     0
102
RTVSPropertyOp9
 70
     0
102
RTVSPropertyOp10
 70
     0
102
RTVSPropertyOp11
 70
     0
102
RTVSPropertyOp12
 70
     0
102
RTVSPropertyOp13
 70
     0
102
RTVSPropertyOp14
 70
     2
102
RTVSPropertyOp15
 70
     0
102
RTVSPropertyOp16
 70
     0
102
RTVSPropertyOp17
 70
     0
102
RTVSPropertyOp18
 70
     0
102
RTVSPropertyOp19
 70
     0
102
RTVSPropertyOp20
 70
     0
102
RTVSPropertyOp21
 70
     0
102
RTVSPropertyOp22
 70
     0
102
RTVSPropertyOp23
 70
     0
102
RTVSPropertyOp24
 70
     0
102
RTVSPropertyOp25
 70
     0
102
RTVSPropertyOp26
 70
     0
102
RTVSPropertyOp27
 70
     0
102
RTVSPropertyOp28
 70
     0
102
RTVSPropertyOp29
 70
     0
102
RTVSPropertyOp30
 70
     0
102
RTVSPropertyOp31
 70
     0
102
RTVSPropertyOp32
 70
     0
  0
XRECORD
  5
1574
102
{ACAD_REACTORS
330
1573
102
}
330
1573
100
AcDbXrecord
280
     1
102
RTVSPropertyOp0
 70
     1
102
RTVSPropertyOp1
 70
     1
102
RTVSPropertyOp2
 70
     1
102
RTVSPropertyOp3
 70
     1
102
RTVSPropertyOp4
 70
     1
102
RTVSPropertyOp5
 70
     1
102
RTVSPropertyOp6
 70
     1
102
RTVSPropertyOp7
 70
     1
102
RTVSPropertyOp8
 70
     1
102
RTVSPropertyOp9
 70
     1
102
RTVSPropertyOp10
 70
     1
102
RTVSPropertyOp11
 70
     1
102
RTVSPropertyOp12
 70
     1
102
RTVSPropertyOp13
 70
     1
102
RTVSPropertyOp14
 70
     1
102
RTVSPropertyOp15
 70
     1
102
RTVSPropertyOp16
 70
     1
102
RTVSPropertyOp17
 70
     1
102
RTVSPropertyOp18
 70
     1
102
RTVSPropertyOp19
 70
     1
102
RTVSPropertyOp20
 70
     1
102
RTVSPropertyOp21
 70
     1
102
RTVSPropertyOp22
 70
     1
102
RTVSPropertyOp23
 70
     1
102
RTVSPropertyOp24
 70
     1
102
RTVSPropertyOp25
 70
     1
102
RTVSPropertyOp26
 70
     1
102
RTVSPropertyOp27
 70
     1
102
RTVSPropertyOp28
 70
     1
102
RTVSPropertyOp29
 70
     1
102
RTVSPropertyOp30
 70
     1
102
RTVSPropertyOp31
 70
     1
102
RTVSPropertyOp32
 70
     1
  0
XRECORD
  5
1558
102
{ACAD_REACTORS
330
1557
102
}
330
1557
100
AcDbXrecord
280
     1
102
RTVSPropertyOp0
 70
     1
102
RTVSPropertyOp1
 70
     1
102
RTVSPropertyOp2
 70
     1
102
RTVSPropertyOp3
 70
     1
102
RTVSPropertyOp4
 70
     1
102
RTVSPropertyOp5
 70
     1
102
RTVSPropertyOp6
 70
     1
102
RTVSPropertyOp7
 70
     1
102
RTVSPropertyOp8
 70
     1
102
RTVSPropertyOp9
 70
     1
102
RTVSPropertyOp10
 70
     1
102
RTVSPropertyOp11
 70
     1
102
RTVSPropertyOp12
 70
     1
102
RTVSPropertyOp13
 70
     1
102
RTVSPropertyOp14
 70
     1
102
RTVSPropertyOp15
 70
     1
102
RTVSPropertyOp16
 70
     1
102
RTVSPropertyOp17
 70
     1
102
RTVSPropertyOp18
 70
     1
102
RTVSPropertyOp19
 70
     1
102
RTVSPropertyOp20
 70
     1
102
RTVSPropertyOp21
 70
     1
102
RTVSPropertyOp22
 70
     1
102
RTVSPropertyOp23
 70
     1
102
RTVSPropertyOp24
 70
     1
102
RTVSPropertyOp25
 70
     1
102
RTVSPropertyOp26
 70
     1
102
RTVSPropertyOp27
 70
     1
102
RTVSPropertyOp28
 70
     1
102
RTVSPropertyOp29
 70
     1
102
RTVSPropertyOp30
 70
     1
102
RTVSPropertyOp31
 70
     1
102
RTVSPropertyOp32
 70
     1
  0
XRECORD
  5
155A
102
{ACAD_REACTORS
330
1559
102
}
330
1559
100
AcDbXrecord
280
     1
102
RTVSPropertyOp0
 70
     1
102
RTVSPropertyOp1
 70
     1
102
RTVSPropertyOp2
 70
     1
102
RTVSPropertyOp3
 70
     1
102
RTVSPropertyOp4
 70
     1
102
RTVSPropertyOp5
 70
     1
102
RTVSPropertyOp6
 70
     1
102
RTVSPropertyOp7
 70
     1
102
RTVSPropertyOp8
 70
     1
102
RTVSPropertyOp9
 70
     1
102
RTVSPropertyOp10
 70
     1
102
RTVSPropertyOp11
 70
     1
102
RTVSPropertyOp12
 70
     1
102
RTVSPropertyOp13
 70
     1
102
RTVSPropertyOp14
 70
     1
102
RTVSPropertyOp15
 70
     1
102
RTVSPropertyOp16
 70
     1
102
RTVSPropertyOp17
 70
     1
102
RTVSPropertyOp18
 70
     1
102
RTVSPropertyOp19
 70
     1
102
RTVSPropertyOp20
 70
     1
102
RTVSPropertyOp21
 70
     1
102
RTVSPropertyOp22
 70
     1
102
RTVSPropertyOp23
 70
     1
102
RTVSPropertyOp24
 70
     1
102
RTVSPropertyOp25
 70
     1
102
RTVSPropertyOp26
 70
     1
102
RTVSPropertyOp27
 70
     1
102
RTVSPropertyOp28
 70
     1
102
RTVSPropertyOp29
 70
     1
102
RTVSPropertyOp30
 70
     1
102
RTVSPropertyOp31
 70
     1
102
RTVSPropertyOp32
 70
     1
  0
XRECORD
  5
155C
102
{ACAD_REACTORS
330
155B
102
}
330
155B
100
AcDbXrecord
280
     1
102
RTVSPropertyOp0
 70
     1
102
RTVSPropertyOp1
 70
     1
102
RTVSPropertyOp2
 70
     1
102
RTVSPropertyOp3
 70
     1
102
RTVSPropertyOp4
 70
     1
102
RTVSPropertyOp5
 70
     1
102
RTVSPropertyOp6
 70
     1
102
RTVSPropertyOp7
 70
     1
102
RTVSPropertyOp8
 70
     1
102
RTVSPropertyOp9
 70
     1
102
RTVSPropertyOp10
 70
     1
102
RTVSPropertyOp11
 70
     1
102
RTVSPropertyOp12
 70
     1
102
RTVSPropertyOp13
 70
     1
102
RTVSPropertyOp14
 70
     1
102
RTVSPropertyOp15
 70
     1
102
RTVSPropertyOp16
 70
     1
102
RTVSPropertyOp17
 70
     1
102
RTVSPropertyOp18
 70
     1
102
RTVSPropertyOp19
 70
     1
102
RTVSPropertyOp20
 70
     1
102
RTVSPropertyOp21
 70
     1
102
RTVSPropertyOp22
 70
     1
102
RTVSPropertyOp23
 70
     1
102
RTVSPropertyOp24
 70
     1
102
RTVSPropertyOp25
 70
     1
102
RTVSPropertyOp26
 70
     1
102
RTVSPropertyOp27
 70
     1
102
RTVSPropertyOp28
 70
     1
102
RTVSPropertyOp29
 70
     1
102
RTVSPropertyOp30
 70
     1
102
RTVSPropertyOp31
 70
     1
102
RTVSPropertyOp32
 70
     1
  0
XRECORD
  5
155E
102
{ACAD_REACTORS
330
155D
102
}
330
155D
100
AcDbXrecord
280
     1
102
RTVSPropertyOp0
 70
     1
102
RTVSPropertyOp1
 70
     1
102
RTVSPropertyOp2
 70
     1
102
RTVSPropertyOp3
 70
     1
102
RTVSPropertyOp4
 70
     1
102
RTVSPropertyOp5
 70
     1
102
RTVSPropertyOp6
 70
     1
102
RTVSPropertyOp7
 70
     1
102
RTVSPropertyOp8
 70
     1
102
RTVSPropertyOp9
 70
     1
102
RTVSPropertyOp10
 70
     1
102
RTVSPropertyOp11
 70
     1
102
RTVSPropertyOp12
 70
     1
102
RTVSPropertyOp13
 70
     1
102
RTVSPropertyOp14
 70
     1
102
RTVSPropertyOp15
 70
     1
102
RTVSPropertyOp16
 70
     1
102
RTVSPropertyOp17
 70
     1
102
RTVSPropertyOp18
 70
     1
102
RTVSPropertyOp19
 70
     1
102
RTVSPropertyOp20
 70
     1
102
RTVSPropertyOp21
 70
     1
102
RTVSPropertyOp22
 70
     1
102
RTVSPropertyOp23
 70
     1
102
RTVSPropertyOp24
 70
     1
102
RTVSPropertyOp25
 70
     1
102
RTVSPropertyOp26
 70
     1
102
RTVSPropertyOp27
 70
     1
102
RTVSPropertyOp28
 70
     1
102
RTVSPropertyOp29
 70
     1
102
RTVSPropertyOp30
 70
     1
102
RTVSPropertyOp31
 70
     1
102
RTVSPropertyOp32
 70
     1
  0
XRECORD
  5
1566
102
{ACAD_REACTORS
330
1565
102
}
330
1565
100
AcDbXrecord
280
     1
102
RTVSPropertyOp0
 70
     1
102
RTVSPropertyOp1
 70
     1
102
RTVSPropertyOp2
 70
     1
102
RTVSPropertyOp3
 70
     1
102
RTVSPropertyOp4
 70
     1
102
RTVSPropertyOp5
 70
     1
102
RTVSPropertyOp6
 70
     1
102
RTVSPropertyOp7
 70
     1
102
RTVSPropertyOp8
 70
     1
102
RTVSPropertyOp9
 70
     1
102
RTVSPropertyOp10
 70
     1
102
RTVSPropertyOp11
 70
     1
102
RTVSPropertyOp12
 70
     1
102
RTVSPropertyOp13
 70
     1
102
RTVSPropertyOp14
 70
     1
102
RTVSPropertyOp15
 70
     1
102
RTVSPropertyOp16
 70
     1
102
RTVSPropertyOp17
 70
     1
102
RTVSPropertyOp18
 70
     1
102
RTVSPropertyOp19
 70
     1
102
RTVSPropertyOp20
 70
     1
102
RTVSPropertyOp21
 70
     1
102
RTVSPropertyOp22
 70
     1
102
RTVSPropertyOp23
 70
     1
102
RTVSPropertyOp24
 70
     1
102
RTVSPropertyOp25
 70
     1
102
RTVSPropertyOp26
 70
     1
102
RTVSPropertyOp27
 70
     1
102
RTVSPropertyOp28
 70
     1
102
RTVSPropertyOp29
 70
     1
102
RTVSPropertyOp30
 70
     1
102
RTVSPropertyOp31
 70
     1
102
RTVSPropertyOp32
 70
     1
  0
XRECORD
  5
1582
102
{ACAD_REACTORS
330
1581
102
}
330
1581
100
AcDbXrecord
280
     1
102
RTVSPropertyOp0
 70
     0
102
RTVSPropertyOp1
 70
     0
102
RTVSPropertyOp2
 70
     0
102
RTVSPropertyOp3
 70
     0
102
RTVSPropertyOp4
 70
     0
102
RTVSPropertyOp5
 70
     0
102
RTVSPropertyOp6
 70
     0
102
RTVSPropertyOp7
 70
     0
102
RTVSPropertyOp8
 70
     0
102
RTVSPropertyOp9
 70
     0
102
RTVSPropertyOp10
 70
     0
102
RTVSPropertyOp11
 70
     0
102
RTVSPropertyOp12
 70
     0
102
RTVSPropertyOp13
 70
     0
102
RTVSPropertyOp14
 70
     2
102
RTVSPropertyOp15
 70
     0
102
RTVSPropertyOp16
 70
     0
102
RTVSPropertyOp17
 70
     0
102
RTVSPropertyOp18
 70
     0
102
RTVSPropertyOp19
 70
     0
102
RTVSPropertyOp20
 70
     0
102
RTVSPropertyOp21
 70
     0
102
RTVSPropertyOp22
 70
     0
102
RTVSPropertyOp23
 70
     0
102
RTVSPropertyOp24
 70
     0
102
RTVSPropertyOp25
 70
     0
102
RTVSPropertyOp26
 70
     0
102
RTVSPropertyOp27
 70
     0
102
RTVSPropertyOp28
 70
     0
102
RTVSPropertyOp29
 70
     0
102
RTVSPropertyOp30
 70
     0
102
RTVSPropertyOp31
 70
     0
102
RTVSPropertyOp32
 70
     0
  0
XRECORD
  5
1572
102
{ACAD_REACTORS
330
1571
102
}
330
1571
100
AcDbXrecord
280
     1
102
RTVSPropertyOp0
 70
     1
102
RTVSPropertyOp1
 70
     1
102
RTVSPropertyOp2
 70
     1
102
RTVSPropertyOp3
 70
     1
102
RTVSPropertyOp4
 70
     1
102
RTVSPropertyOp5
 70
     1
102
RTVSPropertyOp6
 70
     1
102
RTVSPropertyOp7
 70
     1
102
RTVSPropertyOp8
 70
     1
102
RTVSPropertyOp9
 70
     1
102
RTVSPropertyOp10
 70
     1
102
RTVSPropertyOp11
 70
     1
102
RTVSPropertyOp12
 70
     1
102
RTVSPropertyOp13
 70
     1
102
RTVSPropertyOp14
 70
     1
102
RTVSPropertyOp15
 70
     1
102
RTVSPropertyOp16
 70
     1
102
RTVSPropertyOp17
 70
     1
102
RTVSPropertyOp18
 70
     1
102
RTVSPropertyOp19
 70
     1
102
RTVSPropertyOp20
 70
     1
102
RTVSPropertyOp21
 70
     1
102
RTVSPropertyOp22
 70
     1
102
RTVSPropertyOp23
 70
     1
102
RTVSPropertyOp24
 70
     1
102
RTVSPropertyOp25
 70
     1
102
RTVSPropertyOp26
 70
     1
102
RTVSPropertyOp27
 70
     1
102
RTVSPropertyOp28
 70
     1
102
RTVSPropertyOp29
 70
     1
102
RTVSPropertyOp30
 70
     1
102
RTVSPropertyOp31
 70
     1
102
RTVSPropertyOp32
 70
     1
  0
XRECORD
  5
1584
102
{ACAD_REACTORS
330
1583
102
}
330
1583
100
AcDbXrecord
280
     1
102
RTVSPropertyOp0
 70
     0
102
RTVSPropertyOp1
 70
     0
102
RTVSPropertyOp2
 70
     0
102
RTVSPropertyOp3
 70
     0
102
RTVSPropertyOp4
 70
     0
102
RTVSPropertyOp5
 70
     0
102
RTVSPropertyOp6
 70
     0
102
RTVSPropertyOp7
 70
     0
102
RTVSPropertyOp8
 70
     0
102
RTVSPropertyOp9
 70
     0
102
RTVSPropertyOp10
 70
     0
102
RTVSPropertyOp11
 70
     0
102
RTVSPropertyOp12
 70
     0
102
RTVSPropertyOp13
 70
     0
102
RTVSPropertyOp14
 70
     2
102
RTVSPropertyOp15
 70
     0
102
RTVSPropertyOp16
 70
     0
102
RTVSPropertyOp17
 70
     0
102
RTVSPropertyOp18
 70
     0
102
RTVSPropertyOp19
 70
     0
102
RTVSPropertyOp20
 70
     0
102
RTVSPropertyOp21
 70
     0
102
RTVSPropertyOp22
 70
     0
102
RTVSPropertyOp23
 70
     0
102
RTVSPropertyOp24
 70
     0
102
RTVSPropertyOp25
 70
     0
102
RTVSPropertyOp26
 70
     0
102
RTVSPropertyOp27
 70
     0
102
RTVSPropertyOp28
 70
     0
102
RTVSPropertyOp29
 70
     0
102
RTVSPropertyOp30
 70
     0
102
RTVSPropertyOp31
 70
     0
102
RTVSPropertyOp32
 70
     0
  0
XRECORD
  5
156A
102
{ACAD_REACTORS
330
1569
102
}
330
1569
100
AcDbXrecord
280
     1
102
RTVSPropertyOp0
 70
     1
102
RTVSPropertyOp1
 70
     1
102
RTVSPropertyOp2
 70
     1
102
RTVSPropertyOp3
 70
     1
102
RTVSPropertyOp4
 70
     1
102
RTVSPropertyOp5
 70
     1
102
RTVSPropertyOp6
 70
     1
102
RTVSPropertyOp7
 70
     1
102
RTVSPropertyOp8
 70
     1
102
RTVSPropertyOp9
 70
     1
102
RTVSPropertyOp10
 70
     1
102
RTVSPropertyOp11
 70
     1
102
RTVSPropertyOp12
 70
     1
102
RTVSPropertyOp13
 70
     1
102
RTVSPropertyOp14
 70
     1
102
RTVSPropertyOp15
 70
     1
102
RTVSPropertyOp16
 70
     1
102
RTVSPropertyOp17
 70
     1
102
RTVSPropertyOp18
 70
     1
102
RTVSPropertyOp19
 70
     1
102
RTVSPropertyOp20
 70
     1
102
RTVSPropertyOp21
 70
     1
102
RTVSPropertyOp22
 70
     1
102
RTVSPropertyOp23
 70
     1
102
RTVSPropertyOp24
 70
     1
102
RTVSPropertyOp25
 70
     1
102
RTVSPropertyOp26
 70
     1
102
RTVSPropertyOp27
 70
     1
102
RTVSPropertyOp28
 70
     1
102
RTVSPropertyOp29
 70
     1
102
RTVSPropertyOp30
 70
     1
102
RTVSPropertyOp31
 70
     1
102
RTVSPropertyOp32
 70
     1
  0
XRECORD
  5
1580
102
{ACAD_REACTORS
330
157F
102
}
330
157F
100
AcDbXrecord
280
     1
102
RTVSPropertyOp0
 70
     1
102
RTVSPropertyOp1
 70
     1
102
RTVSPropertyOp2
 70
     1
102
RTVSPropertyOp3
 70
     1
102
RTVSPropertyOp4
 70
     1
102
RTVSPropertyOp5
 70
     1
102
RTVSPropertyOp6
 70
     1
102
RTVSPropertyOp7
 70
     1
102
RTVSPropertyOp8
 70
     1
102
RTVSPropertyOp9
 70
     1
102
RTVSPropertyOp10
 70
     1
102
RTVSPropertyOp11
 70
     1
102
RTVSPropertyOp12
 70
     1
102
RTVSPropertyOp13
 70
     1
102
RTVSPropertyOp14
 70
     1
102
RTVSPropertyOp15
 70
     1
102
RTVSPropertyOp16
 70
     1
102
RTVSPropertyOp17
 70
     1
102
RTVSPropertyOp18
 70
     1
102
RTVSPropertyOp19
 70
     1
102
RTVSPropertyOp20
 70
     1
102
RTVSPropertyOp21
 70
     1
102
RTVSPropertyOp22
 70
     1
102
RTVSPropertyOp23
 70
     1
102
RTVSPropertyOp24
 70
     1
102
RTVSPropertyOp25
 70
     1
102
RTVSPropertyOp26
 70
     1
102
RTVSPropertyOp27
 70
     1
102
RTVSPropertyOp28
 70
     1
102
RTVSPropertyOp29
 70
     1
102
RTVSPropertyOp30
 70
     1
102
RTVSPropertyOp31
 70
     1
102
RTVSPropertyOp32
 70
     1
  0
XRECORD
  5
157E
102
{ACAD_REACTORS
330
157D
102
}
330
157D
100
AcDbXrecord
280
     1
102
RTVSPropertyOp0
 70
     1
102
RTVSPropertyOp1
 70
     1
102
RTVSPropertyOp2
 70
     1
102
RTVSPropertyOp3
 70
     1
102
RTVSPropertyOp4
 70
     1
102
RTVSPropertyOp5
 70
     1
102
RTVSPropertyOp6
 70
     1
102
RTVSPropertyOp7
 70
     1
102
RTVSPropertyOp8
 70
     1
102
RTVSPropertyOp9
 70
     1
102
RTVSPropertyOp10
 70
     1
102
RTVSPropertyOp11
 70
     1
102
RTVSPropertyOp12
 70
     1
102
RTVSPropertyOp13
 70
     1
102
RTVSPropertyOp14
 70
     1
102
RTVSPropertyOp15
 70
     1
102
RTVSPropertyOp16
 70
     1
102
RTVSPropertyOp17
 70
     1
102
RTVSPropertyOp18
 70
     1
102
RTVSPropertyOp19
 70
     1
102
RTVSPropertyOp20
 70
     1
102
RTVSPropertyOp21
 70
     1
102
RTVSPropertyOp22
 70
     1
102
RTVSPropertyOp23
 70
     1
102
RTVSPropertyOp24
 70
     1
102
RTVSPropertyOp25
 70
     1
102
RTVSPropertyOp26
 70
     1
102
RTVSPropertyOp27
 70
     1
102
RTVSPropertyOp28
 70
     1
102
RTVSPropertyOp29
 70
     1
102
RTVSPropertyOp30
 70
     1
102
RTVSPropertyOp31
 70
     1
102
RTVSPropertyOp32
 70
     1
  0
XRECORD
  5
1578
102
{ACAD_REACTORS
330
1577
102
}
330
1577
100
AcDbXrecord
280
     1
102
RTVSPropertyOp0
 70
     1
102
RTVSPropertyOp1
 70
     1
102
RTVSPropertyOp2
 70
     1
102
RTVSPropertyOp3
 70
     1
102
RTVSPropertyOp4
 70
     1
102
RTVSPropertyOp5
 70
     1
102
RTVSPropertyOp6
 70
     1
102
RTVSPropertyOp7
 70
     1
102
RTVSPropertyOp8
 70
     1
102
RTVSPropertyOp9
 70
     1
102
RTVSPropertyOp10
 70
     1
102
RTVSPropertyOp11
 70
     1
102
RTVSPropertyOp12
 70
     1
102
RTVSPropertyOp13
 70
     1
102
RTVSPropertyOp14
 70
     1
102
RTVSPropertyOp15
 70
     1
102
RTVSPropertyOp16
 70
     1
102
RTVSPropertyOp17
 70
     1
102
RTVSPropertyOp18
 70
     1
102
RTVSPropertyOp19
 70
     1
102
RTVSPropertyOp20
 70
     1
102
RTVSPropertyOp21
 70
     1
102
RTVSPropertyOp22
 70
     1
102
RTVSPropertyOp23
 70
     1
102
RTVSPropertyOp24
 70
     1
102
RTVSPropertyOp25
 70
     1
102
RTVSPropertyOp26
 70
     1
102
RTVSPropertyOp27
 70
     1
102
RTVSPropertyOp28
 70
     1
102
RTVSPropertyOp29
 70
     1
102
RTVSPropertyOp30
 70
     1
102
RTVSPropertyOp31
 70
     1
102
RTVSPropertyOp32
 70
     1
  0
XRECORD
  5
157A
102
{ACAD_REACTORS
330
1579
102
}
330
1579
100
AcDbXrecord
280
     1
102
RTVSPropertyOp0
 70
     1
102
RTVSPropertyOp1
 70
     1
102
RTVSPropertyOp2
 70
     1
102
RTVSPropertyOp3
 70
     1
102
RTVSPropertyOp4
 70
     1
102
RTVSPropertyOp5
 70
     1
102
RTVSPropertyOp6
 70
     1
102
RTVSPropertyOp7
 70
     1
102
RTVSPropertyOp8
 70
     1
102
RTVSPropertyOp9
 70
     1
102
RTVSPropertyOp10
 70
     1
102
RTVSPropertyOp11
 70
     1
102
RTVSPropertyOp12
 70
     1
102
RTVSPropertyOp13
 70
     1
102
RTVSPropertyOp14
 70
     1
102
RTVSPropertyOp15
 70
     1
102
RTVSPropertyOp16
 70
     1
102
RTVSPropertyOp17
 70
     1
102
RTVSPropertyOp18
 70
     1
102
RTVSPropertyOp19
 70
     1
102
RTVSPropertyOp20
 70
     1
102
RTVSPropertyOp21
 70
     1
102
RTVSPropertyOp22
 70
     1
102
RTVSPropertyOp23
 70
     1
102
RTVSPropertyOp24
 70
     1
102
RTVSPropertyOp25
 70
     1
102
RTVSPropertyOp26
 70
     1
102
RTVSPropertyOp27
 70
     1
102
RTVSPropertyOp28
 70
     1
102
RTVSPropertyOp29
 70
     1
102
RTVSPropertyOp30
 70
     1
102
RTVSPropertyOp31
 70
     1
102
RTVSPropertyOp32
 70
     1
  0
XRECORD
  5
1570
102
{ACAD_REACTORS
330
156F
102
}
330
156F
100
AcDbXrecord
280
     1
102
RTVSPropertyOp0
 70
     1
102
RTVSPropertyOp1
 70
     1
102
RTVSPropertyOp2
 70
     1
102
RTVSPropertyOp3
 70
     1
102
RTVSPropertyOp4
 70
     1
102
RTVSPropertyOp5
 70
     1
102
RTVSPropertyOp6
 70
     1
102
RTVSPropertyOp7
 70
     1
102
RTVSPropertyOp8
 70
     1
102
RTVSPropertyOp9
 70
     1
102
RTVSPropertyOp10
 70
     1
102
RTVSPropertyOp11
 70
     1
102
RTVSPropertyOp12
 70
     1
102
RTVSPropertyOp13
 70
     1
102
RTVSPropertyOp14
 70
     1
102
RTVSPropertyOp15
 70
     1
102
RTVSPropertyOp16
 70
     1
102
RTVSPropertyOp17
 70
     1
102
RTVSPropertyOp18
 70
     1
102
RTVSPropertyOp19
 70
     1
102
RTVSPropertyOp20
 70
     1
102
RTVSPropertyOp21
 70
     1
102
RTVSPropertyOp22
 70
     1
102
RTVSPropertyOp23
 70
     1
102
RTVSPropertyOp24
 70
     1
102
RTVSPropertyOp25
 70
     1
102
RTVSPropertyOp26
 70
     1
102
RTVSPropertyOp27
 70
     1
102
RTVSPropertyOp28
 70
     1
102
RTVSPropertyOp29
 70
     1
102
RTVSPropertyOp30
 70
     1
102
RTVSPropertyOp31
 70
     1
102
RTVSPropertyOp32
 70
     1
  0
XRECORD
  5
1564
102
{ACAD_REACTORS
330
1563
102
}
330
1563
100
AcDbXrecord
280
     1
102
RTVSPropertyOp0
 70
     1
102
RTVSPropertyOp1
 70
     1
102
RTVSPropertyOp2
 70
     1
102
RTVSPropertyOp3
 70
     1
102
RTVSPropertyOp4
 70
     1
102
RTVSPropertyOp5
 70
     1
102
RTVSPropertyOp6
 70
     1
102
RTVSPropertyOp7
 70
     1
102
RTVSPropertyOp8
 70
     1
102
RTVSPropertyOp9
 70
     1
102
RTVSPropertyOp10
 70
     1
102
RTVSPropertyOp11
 70
     1
102
RTVSPropertyOp12
 70
     1
102
RTVSPropertyOp13
 70
     1
102
RTVSPropertyOp14
 70
     1
102
RTVSPropertyOp15
 70
     1
102
RTVSPropertyOp16
 70
     1
102
RTVSPropertyOp17
 70
     1
102
RTVSPropertyOp18
 70
     1
102
RTVSPropertyOp19
 70
     1
102
RTVSPropertyOp20
 70
     1
102
RTVSPropertyOp21
 70
     1
102
RTVSPropertyOp22
 70
     1
102
RTVSPropertyOp23
 70
     1
102
RTVSPropertyOp24
 70
     1
102
RTVSPropertyOp25
 70
     1
102
RTVSPropertyOp26
 70
     1
102
RTVSPropertyOp27
 70
     1
102
RTVSPropertyOp28
 70
     1
102
RTVSPropertyOp29
 70
     1
102
RTVSPropertyOp30
 70
     1
102
RTVSPropertyOp31
 70
     1
102
RTVSPropertyOp32
 70
     1
  0
XRECORD
  5
157C
102
{ACAD_REACTORS
330
157B
102
}
330
157B
100
AcDbXrecord
280
     1
102
RTVSPropertyOp0
 70
     1
102
RTVSPropertyOp1
 70
     1
102
RTVSPropertyOp2
 70
     1
102
RTVSPropertyOp3
 70
     1
102
RTVSPropertyOp4
 70
     1
102
RTVSPropertyOp5
 70
     1
102
RTVSPropertyOp6
 70
     1
102
RTVSPropertyOp7
 70
     1
102
RTVSPropertyOp8
 70
     1
102
RTVSPropertyOp9
 70
     1
102
RTVSPropertyOp10
 70
     1
102
RTVSPropertyOp11
 70
     1
102
RTVSPropertyOp12
 70
     1
102
RTVSPropertyOp13
 70
     1
102
RTVSPropertyOp14
 70
     1
102
RTVSPropertyOp15
 70
     1
102
RTVSPropertyOp16
 70
     1
102
RTVSPropertyOp17
 70
     1
102
RTVSPropertyOp18
 70
     1
102
RTVSPropertyOp19
 70
     1
102
RTVSPropertyOp20
 70
     1
102
RTVSPropertyOp21
 70
     1
102
RTVSPropertyOp22
 70
     1
102
RTVSPropertyOp23
 70
     1
102
RTVSPropertyOp24
 70
     1
102
RTVSPropertyOp25
 70
     1
102
RTVSPropertyOp26
 70
     1
102
RTVSPropertyOp27
 70
     1
102
RTVSPropertyOp28
 70
     1
102
RTVSPropertyOp29
 70
     1
102
RTVSPropertyOp30
 70
     1
102
RTVSPropertyOp31
 70
     1
102
RTVSPropertyOp32
 70
     1
  0
ENDSEC
  0
EOF
