  0
SECTION
  2
HEADER
  9
$ACADVER
  1
AC1018
  9
$ACADMAINTVER
 70
   104
  9
$DWGCODEPAGE
  3
ANSI_1250
  9
$AUTHOR
  1
mkotera
  9
$LASTSAVEDBY
  1
tkotlas
  9
$REVISIONNUMBER
  1
000
  9
$CUSTOMPROPERTYTAG
  1
Vedoucí
  9
$CUSTOMPROPERTY
  1

  9
$CUSTOMPROPERTYTAG
  1
Společnost
  9
$CUSTOMPROPERTY
  1

  9
$CUSTOMPROPERTYTAG
  1
Kategorie
  9
$CUSTOMPROPERTY
  1

  9
$CUSTOMPROPERTYTAG
  1
Číslo součásti
  9
$CUSTOMPROPERTY
  1
408092
  9
$CUSTOMPROPERTYTAG
  1
Popis
  9
$CUSTOMPROPERTY
  1

  9
$CUSTOMPROPERTYTAG
  1
Projekt
  9
$CUSTOMPROPERTY
  1

  9
$CUSTOMPROPERTYTAG
  1
Kreslil
  9
$CUSTOMPROPERTY
  1
mkotera
  9
$CUSTOMPROPERTYTAG
  1
Schválil
  9
$CUSTOMPROPERTY
  1

  9
$CUSTOMPROPERTYTAG
  1
Zodpovídá
  9
$CUSTOMPROPERTY
  1

  9
$CUSTOMPROPERTYTAG
  1
Nákladové středisko
  9
$CUSTOMPROPERTY
  1

  9
$CUSTOMPROPERTYTAG
  1
Dodavatel
  9
$CUSTOMPROPERTY
  1

  9
$CUSTOMPROPERTYTAG
  1
Uživatelský stav
  9
$CUSTOMPROPERTY
  1

  9
$CUSTOMPROPERTYTAG
  1
Stav návrhu
  9
$CUSTOMPROPERTY
  1
Rozpracováno
  9
$CUSTOMPROPERTYTAG
  1
Zkontroloval
  9
$CUSTOMPROPERTY
  1

  9
$CUSTOMPROPERTYTAG
  1
Techn. kontr. schválil
  9
$CUSTOMPROPERTY
  1

  9
$CUSTOMPROPERTYTAG
  1
Výrobu schválil
  9
$CUSTOMPROPERTY
  1

  9
$CUSTOMPROPERTYTAG
  1
VS_First
  9
$CUSTOMPROPERTY
  1

  9
$CUSTOMPROPERTYTAG
  1
VS_All
  9
$CUSTOMPROPERTY
  1
1:1,
  9
$CUSTOMPROPERTYTAG
  1
Model_Mass_Value
  9
$CUSTOMPROPERTY
  1
,0
  9
$CUSTOMPROPERTYTAG
  1
Model_Mass_Units
  9
$CUSTOMPROPERTY
  1
kg
  9
$CUSTOMPROPERTYTAG
  1
Model_Area_Value
  9
$CUSTOMPROPERTY
  1
2694,0
  9
$CUSTOMPROPERTYTAG
  1
Model_Area_Units
  9
$CUSTOMPROPERTY
  1
mm˛
  9
$CUSTOMPROPERTYTAG
  1
Model_Volume_Value
  9
$CUSTOMPROPERTY
  1
5471,0
  9
$CUSTOMPROPERTYTAG
  1
Model_Volume_Units
  9
$CUSTOMPROPERTY
  1
mmł
  9
$CUSTOMPROPERTYTAG
  1
Model_CogX_Value
  9
$CUSTOMPROPERTY
  1
,0
  9
$CUSTOMPROPERTYTAG
  1
Model_CogY_Value
  9
$CUSTOMPROPERTY
  1
,0
  9
$CUSTOMPROPERTYTAG
  1
Model_CogZ_Value
  9
$CUSTOMPROPERTY
  1
,0
  9
$CUSTOMPROPERTYTAG
  1
Model_Cog_Units
  9
$CUSTOMPROPERTY
  1
mm
  9
$CUSTOMPROPERTYTAG
  1
Model_Ixx_Value
  9
$CUSTOMPROPERTY
  1
,0
  9
$CUSTOMPROPERTYTAG
  1
Model_Iyy_Value
  9
$CUSTOMPROPERTY
  1
,0
  9
$CUSTOMPROPERTYTAG
  1
Model_Izz_Value
  9
$CUSTOMPROPERTY
  1
,0
  9
$CUSTOMPROPERTYTAG
  1
Model_Ixy_Value
  9
$CUSTOMPROPERTY
  1
,0
  9
$CUSTOMPROPERTYTAG
  1
Model_Iyz_Value
  9
$CUSTOMPROPERTY
  1
,0
  9
$CUSTOMPROPERTYTAG
  1
Model_Ixz_Value
  9
$CUSTOMPROPERTY
  1
,0
  9
$CUSTOMPROPERTYTAG
  1
Model_MassMom_Units
  9
$CUSTOMPROPERTY
  1
kg mm˛
  9
$CUSTOMPROPERTYTAG
  1
FirstViewScale
  9
$CUSTOMPROPERTY
  1

  9
$CUSTOMPROPERTYTAG
  1
AllViewScales
  9
$CUSTOMPROPERTY
  1

  9
$CUSTOMPROPERTYTAG
  1
SaveDate
  9
$CUSTOMPROPERTY
  1
09/12/2007
  9
$CUSTOMPROPERTYTAG
  1
SaveTime
  9
$CUSTOMPROPERTY
  1
10:32
  9
$CUSTOMPROPERTYTAG
  1
PaperSize
  9
$CUSTOMPROPERTY
  1
A3
  9
$CUSTOMPROPERTYTAG
  1
DateSaved
  9
$CUSTOMPROPERTY
  1
12.09.2007
  9
$CUSTOMPROPERTYTAG
  1
TimeSaved
  9
$CUSTOMPROPERTY
  1
10:32 dop.
  9
$INSBASE
 10
0.0
 20
0.0
 30
0.0
  9
$EXTMIN
 10
8.580461590029898
 20
145.1929797586152
 30
0.0
  9
$EXTMAX
 10
346.9293158558645
 20
465.8114526094819
 30
0.0
  9
$LIMMIN
 10
0.0
 20
0.0
  9
$LIMMAX
 10
840.0
 20
594.0
  9
$ORTHOMODE
 70
     1
  9
$REGENMODE
 70
     1
  9
$FILLMODE
 70
     1
  9
$QTEXTMODE
 70
     0
  9
$MIRRTEXT
 70
     0
  9
$LTSCALE
 40
2.0
  9
$ATTMODE
 70
     1
  9
$TEXTSIZE
 40
0.2
  9
$TRACEWID
 40
0.05
  9
$TEXTSTYLE
  7
Standard
  9
$CLAYER
  8
0
  9
$CELTYPE
  6
ByLayer
  9
$CECOLOR
 62
   256
  9
$CELTSCALE
 40
1.0
  9
$DISPSILH
 70
     0
  9
$DIMSCALE
 40
1.0
  9
$DIMASZ
 40
3.5
  9
$DIMEXO
 40
1.0
  9
$DIMDLI
 40
10.0
  9
$DIMRND
 40
0.0
  9
$DIMDLE
 40
0.0
  9
$DIMEXE
 40
1.0
  9
$DIMTP
 40
0.1
  9
$DIMTM
 40
0.1
  9
$DIMTXT
 40
3.5
  9
$DIMCEN
 40
0.0
  9
$DIMTSZ
 40
0.0
  9
$DIMTOL
 70
     0
  9
$DIMLIM
 70
     0
  9
$DIMTIH
 70
     0
  9
$DIMTOH
 70
     0
  9
$DIMSE1
 70
     0
  9
$DIMSE2
 70
     0
  9
$DIMTAD
 70
     1
  9
$DIMZIN
 70
     8
  9
$DIMBLK
  1

  9
$DIMASO
 70
     1
  9
$DIMSHO
 70
     1
  9
$DIMPOST
  1

  9
$DIMAPOST
  1
"
  9
$DIMALT
 70
     0
  9
$DIMALTD
 70
     2
  9
$DIMALTF
 40
0.0393701
  9
$DIMLFAC
 40
1.0
  9
$DIMTOFL
 70
     1
  9
$DIMTVP
 40
0.0
  9
$DIMTIX
 70
     0
  9
$DIMSOXD
 70
     0
  9
$DIMSAH
 70
     0
  9
$DIMBLK1
  1

  9
$DIMBLK2
  1

  9
$DIMSTYLE
  2
AM_ISO
  9
$DIMCLRD
 70
   256
  9
$DIMCLRE
 70
   256
  9
$DIMCLRT
 70
   140
  9
$DIMTFAC
 40
0.71
  9
$DIMGAP
 40
1.5
  9
$DIMJUST
 70
     0
  9
$DIMSD1
 70
     0
  9
$DIMSD2
 70
     0
  9
$DIMTOLJ
 70
     0
  9
$DIMTZIN
 70
     8
  9
$DIMALTZ
 70
     0
  9
$DIMALTTZ
 70
     0
  9
$DIMUPT
 70
     0
  9
$DIMDEC
 70
     2
  9
$DIMTDEC
 70
     3
  9
$DIMALTU
 70
     2
  9
$DIMALTTD
 70
     4
  9
$DIMTXSTY
  7
Standard
  9
$DIMAUNIT
 70
     0
  9
$DIMADEC
 70
     0
  9
$DIMALTRND
 40
0.0
  9
$DIMAZIN
 70
     2
  9
$DIMDSEP
 70
    46
  9
$DIMATFIT
 70
     3
  9
$DIMFRAC
 70
     0
  9
$DIMLDRBLK
  1

  9
$DIMLUNIT
 70
     2
  9
$DIMLWD
 70
    -1
  9
$DIMLWE
 70
    -1
  9
$DIMTMOVE
 70
     0
  9
$LUNITS
 70
     2
  9
$LUPREC
 70
     2
  9
$SKETCHINC
 40
0.1
  9
$FILLETRAD
 40
0.0
  9
$AUNITS
 70
     0
  9
$AUPREC
 70
     0
  9
$MENU
  1
.
  9
$ELEVATION
 40
0.0
  9
$PELEVATION
 40
0.0
  9
$THICKNESS
 40
0.0
  9
$LIMCHECK
 70
     0
  9
$CHAMFERA
 40
0.0
  9
$CHAMFERB
 40
0.0
  9
$CHAMFERC
 40
0.0
  9
$CHAMFERD
 40
0.0
  9
$SKPOLY
 70
     0
  9
$TDCREATE
 40
2455756.432579144
  9
$TDUCREATE
 40
2455756.349245810
  9
$TDUPDATE
 40
2455762.435427373
  9
$TDUUPDATE
 40
2455762.352094039
  9
$TDINDWG
 40
0.0272638773
  9
$TDUSRTIMER
 40
0.0272638773
  9
$USRTIMER
 70
     1
  9
$ANGBASE
 50
0.0
  9
$ANGDIR
 70
     0
  9
$PDMODE
 70
     0
  9
$PDSIZE
 40
0.0
  9
$PLINEWID
 40
0.0
  9
$SPLFRAME
 70
     0
  9
$SPLINETYPE
 70
     6
  9
$SPLINESEGS
 70
     8
  9
$HANDSEED
  5
F10
  9
$SURFTAB1
 70
     6
  9
$SURFTAB2
 70
     6
  9
$SURFTYPE
 70
     6
  9
$SURFU
 70
     6
  9
$SURFV
 70
     6
  9
$UCSBASE
  2

  9
$UCSNAME
  2

  9
$UCSORG
 10
0.0
 20
0.0
 30
0.0
  9
$UCSXDIR
 10
1.0
 20
0.0
 30
0.0
  9
$UCSYDIR
 10
0.0
 20
1.0
 30
0.0
  9
$UCSORTHOREF
  2

  9
$UCSORTHOVIEW
 70
     0
  9
$UCSORGTOP
 10
0.0
 20
0.0
 30
0.0
  9
$UCSORGBOTTOM
 10
0.0
 20
0.0
 30
0.0
  9
$UCSORGLEFT
 10
0.0
 20
0.0
 30
0.0
  9
$UCSORGRIGHT
 10
0.0
 20
0.0
 30
0.0
  9
$UCSORGFRONT
 10
0.0
 20
0.0
 30
0.0
  9
$UCSORGBACK
 10
0.0
 20
0.0
 30
0.0
  9
$PUCSBASE
  2

  9
$PUCSNAME
  2

  9
$PUCSORG
 10
0.0
 20
0.0
 30
0.0
  9
$PUCSXDIR
 10
1.0
 20
0.0
 30
0.0
  9
$PUCSYDIR
 10
0.0
 20
1.0
 30
0.0
  9
$PUCSORTHOREF
  2

  9
$PUCSORTHOVIEW
 70
     0
  9
$PUCSORGTOP
 10
0.0
 20
0.0
 30
0.0
  9
$PUCSORGBOTTOM
 10
0.0
 20
0.0
 30
0.0
  9
$PUCSORGLEFT
 10
0.0
 20
0.0
 30
0.0
  9
$PUCSORGRIGHT
 10
0.0
 20
0.0
 30
0.0
  9
$PUCSORGFRONT
 10
0.0
 20
0.0
 30
0.0
  9
$PUCSORGBACK
 10
0.0
 20
0.0
 30
0.0
  9
$USERI1
 70
     0
  9
$USERI2
 70
     0
  9
$USERI3
 70
     0
  9
$USERI4
 70
     0
  9
$USERI5
 70
     0
  9
$USERR1
 40
0.0
  9
$USERR2
 40
0.0
  9
$USERR3
 40
0.0
  9
$USERR4
 40
0.0
  9
$USERR5
 40
0.0
  9
$WORLDVIEW
 70
     1
  9
$SHADEDGE
 70
     3
  9
$SHADEDIF
 70
    70
  9
$TILEMODE
 70
     1
  9
$MAXACTVP
 70
    64
  9
$PINSBASE
 10
0.0
 20
0.0
 30
0.0
  9
$PLIMCHECK
 70
     0
  9
$PEXTMIN
 10
0.0
 20
0.0
 30
0.0
  9
$PEXTMAX
 10
840.0
 20
594.0
 30
0.0
  9
$PLIMMIN
 10
0.0
 20
0.0
  9
$PLIMMAX
 10
840.0
 20
594.0
  9
$UNITMODE
 70
     0
  9
$VISRETAIN
 70
     1
  9
$PLINEGEN
 70
     0
  9
$PSLTSCALE
 70
     1
  9
$TREEDEPTH
 70
  3020
  9
$CMLSTYLE
  2
Standard
  9
$CMLJUST
 70
     0
  9
$CMLSCALE
 40
1.0
  9
$PROXYGRAPHICS
 70
     1
  9
$MEASUREMENT
 70
     1
  9
$CELWEIGHT
370
    -1
  9
$ENDCAPS
280
     0
  9
$JOINSTYLE
280
     0
  9
$LWDISPLAY
290
     0
  9
$INSUNITS
 70
     4
  9
$HYPERLINKBASE
  1

  9
$STYLESHEET
  1

  9
$XEDIT
290
     1
  9
$CEPSNTYPE
380
     0
  9
$PSTYLEMODE
290
     1
  9
$FINGERPRINTGUID
  2
{B489114C-2F6F-4D6B-B12B-F70353627D5B}
  9
$VERSIONGUID
  2
{07008686-1FD9-4F3A-83EB-766AD14DCE9D}
  9
$EXTNAMES
290
     1
  9
$PSVPSCALE
 40
0.0
  9
$OLESTARTUP
290
     0
  9
$SORTENTS
280
   127
  9
$INDEXCTL
280
     0
  9
$HIDETEXT
280
     1
  9
$XCLIPFRAME
290
     0
  9
$HALOGAP
280
     0
  9
$OBSCOLOR
 70
   257
  9
$OBSLTYPE
280
     0
  9
$INTERSECTIONDISPLAY
280
     0
  9
$INTERSECTIONCOLOR
 70
   257
  9
$DIMASSOC
280
     1
  9
$PROJECTNAME
  1

  0
ENDSEC
  0
SECTION
  2
CLASSES
  0
CLASS
  1
ACDBDICTIONARYWDFLT
  2
AcDbDictionaryWithDefault
  3
ObjectDBX Classes
 90
        0
 91
        1
280
     0
281
     0
  0
CLASS
  1
MATERIAL
  2
AcDbMaterial
  3
ObjectDBX Classes
 90
     1153
 91
        3
280
     0
281
     0
  0
CLASS
  1
VISUALSTYLE
  2
AcDbVisualStyle
  3
ObjectDBX Classes
 90
     4095
 91
       19
280
     0
281
     0
  0
CLASS
  1
SCALE
  2
AcDbScale
  3
ObjectDBX Classes
 90
     1153
 91
       33
280
     0
281
     0
  0
CLASS
  1
TABLESTYLE
  2
AcDbTableStyle
  3
ObjectDBX Classes
 90
     4095
 91
        1
280
     0
281
     0
  0
CLASS
  1
MLEADERSTYLE
  2
AcDbMLeaderStyle
  3
ACDB_MLEADERSTYLE_CLASS
 90
     4095
 91
        1
280
     0
281
     0
  0
CLASS
  1
CELLSTYLEMAP
  2
AcDbCellStyleMap
  3
ObjectDBX Classes
 90
     1152
 91
        2
280
     0
281
     0
  0
CLASS
  1
DICTIONARYVAR
  2
AcDbDictionaryVar
  3
ObjectDBX Classes
 90
        0
 91
        8
280
     0
281
     0
  0
CLASS
  1
ACME_DOCUMENT
  2
AcMeDbDoc
  3
AcMeServices
 90
     1024
 91
        1
280
     0
281
     0
  0
CLASS
  1
AMGSETTINGSOBJ
  2
AmgSettingsObj
  3
"AcadM|Product Description: AutoCAD Mechanical|Company: Autodesk, Inc."
 90
     1024
 91
        2
280
     0
281
     0
  0
CLASS
  1
ACMESCOPE
  2
AcMeScope
  3
AcMeServices
 90
     1024
 91
        1
280
     0
281
     0
  0
CLASS
  1
ACMECOMMANDHISTORY
  2
AcMeCommandHistory
  3
AcMeServices
 90
     1024
 91
        1
280
     0
281
     0
  0
CLASS
  1
ACIMSYSVARMAN
  2
AcImSysVarManager
  3
AcMeServices
 90
     1024
 91
        6
280
     0
281
     0
  0
CLASS
  1
ACIMINTSYSVAR
  2
AcImIntSysVar
  3
AcMeServices
 90
     1024
 91
       27
280
     0
281
     0
  0
CLASS
  1
ACMEDRAWINGMAN
  2
AcMeDrawingMan
  3
AcMeServices
 90
     1024
 91
        1
280
     0
281
     0
  0
CLASS
  1
ACMEVIEW
  2
AcMeView
  3
AcMeServices
 90
     1024
 91
        1
280
     0
281
     0
  0
CLASS
  1
ACDBENTITYCACHE
  2
AcMeEntityCache
  3
AcMeServices
 90
     1024
 91
        1
280
     0
281
     0
  0
CLASS
  1
GSMANAGER
  2
AcMeGSManager
  3
AcMeServices
 90
     1024
 91
        1
280
     0
281
     0
  0
CLASS
  1
AMDTINTERNALREACTOR
  2
AmdtInternalReactor
  3
AcMeServices
 90
     1024
 91
        2
280
     0
281
     0
  0
CLASS
  1
ACMESTATEMGR
  2
AcMeStateMgr
  3
AcMeServices
 90
     1024
 91
        1
280
     0
281
     0
  0
CLASS
  1
ACGREFMASTER
  2
AcGrefMaster
  3
AcAttribServices
 90
     1024
 91
        1
280
     0
281
     0
  0
CLASS
  1
AM_DRAWING_MGR
  2
AcDmDwgMgr
  3
AcMechDwgViewMgmt
 90
     1024
 91
        1
280
     0
281
     0
  0
CLASS
  1
AM_DWG_DOCUMENT
  2
AcDmDwgDocument
  3
AcMechDwgViewMgmt
 90
     1024
 91
        1
280
     0
281
     0
  0
CLASS
  1
AM_DWG_SHEET
  2
AcDmSheet
  3
AcMechDwgViewMgmt
 90
     1024
 91
        2
280
     0
281
     0
  0
CLASS
  1
AM_VIEWDIMPARMAP
  2
AcDmViewDimParMap
  3
AcMechDwgViewMgmt
 90
     1024
 91
        2
280
     0
281
     0
  0
CLASS
  1
ACIMREALSYSVAR
  2
AcImRealSysVar
  3
AcMeServices
 90
     1024
 91
        1
280
     0
281
     0
  0
CLASS
  1
AM_DWGMGR_NAME
  2
AcDmDwgMgrName
  3
AcMechDwgViewMgmt
 90
     1024
 91
        1
280
     0
281
     0
  0
CLASS
  1
ACME_DATABASE
  2
AcMeDbDatabase
  3
AcMeServices
 90
     1024
 91
        1
280
     0
281
     0
  0
CLASS
  1
ACRFINSADJUSTERMGR
  2
AcRfInsAdjusterMgr
  3
AcMeServices
 90
     1024
 91
        1
280
     0
281
     0
  0
CLASS
  1
ACGREFACADMASTER
  2
AcGrefacadMaster
  3
AcGrefServices
 90
     1024
 91
        1
280
     0
281
     0
  0
CLASS
  1
AMDTMENUSTATEMGR
  2
AmdtMenuStateMgr
  3
McadcomServices
 90
     1024
 91
        1
280
     0
281
     0
  0
CLASS
  1
AMDTMCOMMENUSTATE
  2
AmdtMcomMenuState
  3
McadcomServices
 90
     1024
 91
        1
280
     0
281
     0
  0
CLASS
  1
AMIMASTER
  2
AmiMaster
  3
AmiServices
 90
     1024
 91
        1
280
     0
281
     0
  0
CLASS
  1
MAPIAMMOUDLE
  2
MApiAmModule
  3
MApiAmServices
 90
     1024
 91
        1
280
     0
281
     0
  0
CLASS
  1
ACIMSTRSYSVAR
  2
AcImStrSysVar
  3
AcMeServices
 90
     1024
 91
        6
280
     0
281
     0
  0
CLASS
  1
AMDTADMENUSTATE
  2
AmdtAdMenuState
  3
DesignerServices
 90
     1024
 91
        1
280
     0
281
     0
  0
CLASS
  1
ADAPPL
  2
AcAdAppl
  3
DesignerServices
 90
     1024
 91
        1
280
     0
281
     0
  0
CLASS
  1
DEPMGR
  2
AcAdDepMgr
  3
DesignerServices
 90
     1024
 91
        1
280
     0
281
     0
  0
CLASS
  1
PARAMMGR
  2
AcAdParamMgr
  3
DesignerServices
 90
     1024
 91
        1
280
     0
281
     0
  0
CLASS
  1
PARAMSCOPE
  2
AcAdParamScope
  3
DesignerServices
 90
     1024
 91
        1
280
     0
281
     0
  0
CLASS
  1
NAMEDAPPL
  2
AcAdNamedAppl
  3
DesignerServices
 90
     1024
 91
        1
280
     0
281
     0
  0
CLASS
  1
AMDTDMMENUSTATE
  2
AmdtDmMenuState
  3
AcMechDwgViewMgmt
 90
     1024
 91
        1
280
     0
281
     0
  0
CLASS
  1
AMDTAMMENUSTATE
  2
AmdtAmMenuState
  3
DesignerAssemblies
 90
     1024
 91
        1
280
     0
281
     0
  0
CLASS
  1
ACAMPROJECT
  2
AcAmProject
  3
DesignerAssemblies
 90
     1024
 91
        1
280
     0
281
     0
  0
CLASS
  1
ACAMGRCOMPDEF
  2
AcAmGrCompDef
  3
DesignerAssemblies
 90
     1024
 91
        1
280
     0
281
     0
  0
CLASS
  1
ACCMCONTEXT
  2
AcCmContext
  3
DesignerAssemblies
 90
     1024
 91
        1
280
     0
281
     0
  0
CLASS
  1
ACAMCOMPDEF
  2
AcAmCompDef
  3
DesignerAssemblies
 90
     1024
 91
        1
280
     0
281
     0
  0
CLASS
  1
ACAMCOMPDEFMGR
  2
AcAmCompDefMgr
  3
DesignerAssemblies
 90
     1024
 91
        1
280
     0
281
     0
  0
CLASS
  1
AMCONTEXTMGR
  2
AcAmContextMgr
  3
DesignerAssemblies
 90
     1024
 91
        1
280
     0
281
     0
  0
CLASS
  1
ACAMCONTEXTMODELER
  2
AcAmContextModeler
  3
DesignerAssemblies
 90
     1024
 91
        1
280
     0
281
     0
  0
CLASS
  1
ACMDATADICTIONARY
  2
AcmDataDictionary
  3
"AcmSymBB|Product Description: AutoCAD Mechanical|Company: Autodesk, Inc."
 90
     1024
 91
        1
280
     0
281
     0
  0
CLASS
  1
CATALOGSTATE
  2
AcAmCatalogState
  3
DesignerAssemblies
 90
     1024
 91
        1
280
     0
281
     0
  0
CLASS
  1
ACAMGRCOMPDEFSET
  2
AcAmGrCompDefSet
  3
DesignerAssemblies
 90
     1024
 91
        1
280
     0
281
     0
  0
CLASS
  1
AMDTBROWSERDBTAB
  2
AmdtBrowserDbTab
  3
McadcomServices
 90
     1024
 91
        1
280
     0
281
     0
  0
CLASS
  1
CBROWSERAPPOBJECT
  2
CBrowserAppObject
  3
McadcomServices
 90
     1024
 91
        3
280
     0
281
     0
  0
CLASS
  1
DM_PLACEHOLDER
  2
AcDmSelsetPlaceholder
  3
AcMechDwgViewMgmt
 90
     1024
 91
        1
280
     0
281
     0
  0
CLASS
  1
ACMSTANDARDISO
  2
AcmStandardISO
  3
"Amdt_StdImp|Product Description: AutoCAD Mechanical|Company: Autodesk, Inc."
 90
     1024
 91
        1
280
     0
281
     0
  0
CLASS
  1
AMDTEDGESTANDARDISO13715
  2
AmdtEdgeStdISO13715
  3
"Amdt_StdImp|Product Description: AutoCAD Mechanical|Company: Autodesk, Inc."
 90
     1024
 91
        1
280
     0
281
     0
  0
CLASS
  1
ACMSURFSTANDARDISO2002
  2
AcmSurfTextStdISO2002
  3
"Amdt_StdImp|Product Description: AutoCAD Mechanical|Company: Autodesk, Inc."
 90
     1024
 91
        1
280
     0
281
     0
  0
CLASS
  1
ACMFCFSTANDARDISO
  2
AcmFCFStdISO
  3
"Amdt_StdImp|Product Description: AutoCAD Mechanical|Company: Autodesk, Inc."
 90
     1024
 91
        1
280
     0
281
     0
  0
CLASS
  1
ACMWELDSTANDARDISO
  2
AcmWeldingStdISO
  3
"Amdt_StdImp|Product Description: AutoCAD Mechanical|Company: Autodesk, Inc."
 90
     1024
 91
        1
280
     0
281
     0
  0
CLASS
  1
ACMIDSTANDARDISO
  2
AcmIdStdISO
  3
"Amdt_StdImp|Product Description: AutoCAD Mechanical|Company: Autodesk, Inc."
 90
     1024
 91
        1
280
     0
281
     0
  0
CLASS
  1
ACMDATUMSTANDARDISO
  2
AcmDatumStdISO
  3
"Amdt_StdImp|Product Description: AutoCAD Mechanical|Company: Autodesk, Inc."
 90
     1024
 91
        1
280
     0
281
     0
  0
CLASS
  1
ACMBOMSTANDARDISO
  2
AcmBOMStdISO
  3
"Amdt_StdImp|Product Description: AutoCAD Mechanical|Company: Autodesk, Inc."
 90
     1024
 91
        1
280
     0
281
     0
  0
CLASS
  1
ACMDETAILSTANDARDISO
  2
AmdtDetailSymStdISO
  3
"Amdt_StdImp|Product Description: AutoCAD Mechanical|Company: Autodesk, Inc."
 90
     1024
 91
        1
280
     0
281
     0
  0
CLASS
  1
ACMSECTIONSTANDARDISO2001
  2
AmdtSectionSymStdISO2001
  3
"Amdt_StdImp|Product Description: AutoCAD Mechanical|Company: Autodesk, Inc."
 90
     1024
 91
        1
280
     0
281
     0
  0
CLASS
  1
ACMCENTERLINESTANDARDISO
  2
AmdtCenterLineStdISO
  3
"Amdt_StdImp|Product Description: AutoCAD Mechanical|Company: Autodesk, Inc."
 90
     1024
 91
        1
280
     0
281
     0
  0
CLASS
  1
ACMTHREADLINESTANDARDISO
  2
AmdtThreadLineStdISO
  3
"Amdt_StdImp|Product Description: AutoCAD Mechanical|Company: Autodesk, Inc."
 90
     1024
 91
        1
280
     0
281
     0
  0
CLASS
  1
ACMNOTESTANDARDISO
  2
AmdtNoteStdISO
  3
"Amdt_StdImp|Product Description: AutoCAD Mechanical|Company: Autodesk, Inc."
 90
     1024
 91
        1
280
     0
281
     0
  0
CLASS
  1
ACMTAPERSTANDARDISO
  2
AcmTaperStdISO
  3
"Amdt_StdImp|Product Description: AutoCAD Mechanical|Company: Autodesk, Inc."
 90
     1024
 91
        1
280
     0
281
     0
  0
CLASS
  1
ACMANOOTATIONVIEWSTANDARDISO
  2
AmdtAnViewStdISO
  3
"Amdt_StdImp|Product Description: AutoCAD Mechanical|Company: Autodesk, Inc."
 90
     1024
 91
        1
280
     0
281
     0
  0
CLASS
  1
ACAMGLAYSTD
  2
AcAmgLayStd
  3
"AmgLay|Product Description: AutoCAD Mechanical|Company: Autodesk, Inc."
 90
     1024
 91
        1
280
     0
281
     0
  0
CLASS
  1
ACAMGDIMSTD
  2
AcAmgDimStd
  3
"AmgDim|Product Description: AutoCAD Mechanical|Company: Autodesk, Inc."
 90
     1024
 91
        1
280
     0
281
     0
  0
CLASS
  1
AMGOBJPROPCFG
  2
AmgObjPropCfg
  3
"AmgLay|Product Description: AutoCAD Mechanical|Company: Autodesk, Inc."
 90
     1025
 91
        1
280
     0
281
     0
  0
CLASS
  1
ACAMGHOLECHARTSTDISO
  2
AcAmgHoleChartStdISO
  3
AmgDim|Product Description: AutoCAD Mechanical|Company: Autodesk, Inc.
 90
     1024
 91
        1
280
     0
281
     0
  0
CLASS
  1
ACAMGTITLESTD
  2
AcAmgTitleStd
  3
"AmgTitle|Product Description: AutoCAD Mechanical|Company: Autodesk, Inc."
 90
     4095
 91
        1
280
     0
281
     0
  0
CLASS
  1
AMDTNOTETEMPLATEDB
  2
AmdtNoteTemplateDB
  3
AcmSymBB|Product Description: AutoCAD Mechanical|Company: Autodesk, Inc.
 90
     1024
 91
        6
280
     0
281
     0
  0
CLASS
  1
ACAMGFILTERDAT
  2
AcAmgFilterDat
  3
"AcadM|Product Description: AutoCAD Mechanical|Company: Autodesk, Inc."
 90
     1024
 91
        0
280
     0
281
     0
  0
CLASS
  1
AEC_REFEDIT_STATUS_TRACKER
  2
AecDbRefEditStatusTracker
  3
AecArchBase50|Product Desc: Autodesk Architectural Desktop 2007 |Company: Autodesk,Inc. |WEB Address: www.autodesk.com
 90
      129
 91
        0
280
     0
281
     0
  0
CLASS
  1
NPOCOLLECTION
  2
AcDbImpNonPersistentObjectsCollection
  3
ObjectDBX Classes
 90
     1153
 91
        0
280
     0
281
     0
  0
ENDSEC
  0
SECTION
  2
TABLES
  0
TABLE
  2
VPORT
  5
8
330
0
100
AcDbSymbolTable
 70
     1
  0
VPORT
  5
62
330
8
100
AcDbSymbolTableRecord
100
AcDbViewportTableRecord
  2
*Active
 70
     0
 10
0.0
 20
0.0
 11
1.0
 21
1.0
 12
166.967012198225
 22
305.3151581190333
 13
0.0
 23
0.0
 14
1.0
 24
1.0
 15
0.0
 25
0.0
 16
0.0
 26
0.0
 36
1.0
 17
0.0
 27
0.0
 37
0.0
 40
467.4700313627291
 41
1.351097178683385
 42
50.0
 43
0.0
 44
0.0
 50
0.0
 51
0.0
 71
     0
 72
   100
 73
     1
 74
     1
 75
     0
 76
     0
 77
     0
 78
     0
281
     0
 65
     0
110
0.0
120
0.0
130
0.0
111
1.0
121
0.0
131
0.0
112
0.0
122
1.0
132
0.0
 79
     0
146
0.0
  0
ENDTAB
  0
TABLE
  2
LTYPE
  5
5
330
0
100
AcDbSymbolTable
 70
    14
  0
LTYPE
  5
66
330
5
100
AcDbSymbolTableRecord
100
AcDbLinetypeTableRecord
  2
ByBlock
 70
     0
  3

 72
    65
 73
     0
 40
0.0
  0
LTYPE
  5
67
330
5
100
AcDbSymbolTableRecord
100
AcDbLinetypeTableRecord
  2
ByLayer
 70
     0
  3

 72
    65
 73
     0
 40
0.0
  0
LTYPE
  5
68
330
5
100
AcDbSymbolTableRecord
100
AcDbLinetypeTableRecord
  2
Continuous
 70
     0
  3
Solid line
 72
    65
 73
     0
 40
0.0
  0
LTYPE
  5
C56
330
5
100
AcDbSymbolTableRecord
100
AcDbLinetypeTableRecord
  2
HIDDEN
 70
     0
  3
Skrytá __ __ __ __ __ __ __ __ __ __ __ __ __ __
 72
    65
 73
     2
 40
9.525
 49
6.349999999999997
 74
     0
 49
-3.174999999999998
 74
     0
  0
LTYPE
  5
C57
330
5
100
AcDbSymbolTableRecord
100
AcDbLinetypeTableRecord
  2
PHANTOM2
 70
     0
  3
Sdružená (.5x) ___ _ _ ___ _ _ ___ _ _ ___ _ _
 72
    65
 73
     6
 40
31.75
 49
15.875
 74
     0
 49
-3.174999999999998
 74
     0
 49
3.174999999999998
 74
     0
 49
-3.174999999999998
 74
     0
 49
3.174999999999998
 74
     0
 49
-3.174999999999998
 74
     0
  0
LTYPE
  5
C58
330
5
100
AcDbSymbolTableRecord
100
AcDbLinetypeTableRecord
  2
CENTER
 70
     0
  3
Středová ____ _ ____ _ ____ _ ____ _ ____ _ ____
 72
    65
 73
     4
 40
50.8
 49
31.75
 74
     0
 49
-6.349999999999997
 74
     0
 49
6.349999999999997
 74
     0
 49
-6.349999999999997
 74
     0
  0
LTYPE
  5
C9E
330
5
100
AcDbSymbolTableRecord
100
AcDbLinetypeTableRecord
  2
AM_ISO02W050
 70
     0
  3
__ __ __ __ __ __ __ __ __ __ __ __ __ __ __
 72
    65
 73
     2
 40
7.5
 49
6.0
 74
     0
 49
-1.5
 74
     0
  0
LTYPE
  5
C9F
330
5
100
AcDbSymbolTableRecord
100
AcDbLinetypeTableRecord
  2
AM_ISO08W050
 70
     0
  3
____ . ____ . ____ . ____ . ____ . ____ . ____
 72
    65
 73
     4
 40
18.0
 49
12.0
 74
     0
 49
-1.5
 74
     0
 49
3.0
 74
     0
 49
-1.5
 74
     0
  0
LTYPE
  5
CA0
330
5
100
AcDbSymbolTableRecord
100
AcDbLinetypeTableRecord
  2
AM_ISO09W050
 70
     0
  3
_____ . . _____ . . _____ . . ____ .. ____
 72
    65
 73
     6
 40
22.5
 49
12.0
 74
     0
 49
-1.5
 74
     0
 49
3.0
 74
     0
 49
-1.5
 74
     0
 49
3.0
 74
     0
 49
-1.5
 74
     0
  0
LTYPE
  5
CA1
330
5
100
AcDbSymbolTableRecord
100
AcDbLinetypeTableRecord
  2
Amconstr
 70
     0
  3
_______________________
 72
    65
 73
     2
 40
9999.0
 49
9999.0
 74
     0
 49
0.0
 74
     0
  0
LTYPE
  5
CA2
330
5
100
AcDbSymbolTableRecord
100
AcDbLinetypeTableRecord
  2
AM_ISO08W050x2
 70
     0
  3
__ . __ . __ . __ . __ . __
 72
    65
 73
     4
 40
9.0
 49
6.0
 74
     0
 49
-0.75
 74
     0
 49
1.5
 74
     0
 49
-0.75
 74
     0
  0
LTYPE
  5
CA3
330
5
100
AcDbSymbolTableRecord
100
AcDbLinetypeTableRecord
  2
AM_ISO02W050x2
 70
     0
  3
 _ _ _ _ _ _ _ _ _ _ _ _
 72
    65
 73
     2
 40
3.75
 49
3.0
 74
     0
 49
-0.75
 74
     0
  0
LTYPE
  5
CA6
330
5
100
AcDbSymbolTableRecord
100
AcDbLinetypeTableRecord
  2
Amzigzag
 70
     0
  3
/\/-/\/-/\/-/\/-/\/-/\/
 72
    65
 73
     2
 40
11.0001
 49
0.0001
 74
     4
 75
   136
340
CA5
 46
0.04
 50
0.0
 44
0.0
 45
0.0
 49
-11.0
 74
     0
  0
LTYPE
  5
CB5
330
5
100
AcDbSymbolTableRecord
100
AcDbLinetypeTableRecord
  2
ACISOWELD
 70
     0
  3
_ _ _ _ _
 72
    65
 73
     2
 40
2.0
 49
2.0
 74
     0
 49
-1.0
 74
     0
  0
LTYPE
  5
CB6
330
5
100
AcDbSymbolTableRecord
100
AcDbLinetypeTableRecord
  2
ACISOTGB
 70
     0
  3
__ . . __ . .
 72
    65
 73
     6
 40
9.0
 49
4.0
 74
     0
 49
-1.0
 74
     0
 49
1.0
 74
     0
 49
-1.0
 74
     0
 49
1.0
 74
     0
 49
-1.0
 74
     0
  0
LTYPE
  5
CB7
330
5
100
AcDbSymbolTableRecord
100
AcDbLinetypeTableRecord
  2
ACISOTGL
 70
     0
  3
_ _ _ _ _
 72
    65
 73
     2
 40
3.0
 49
2.0
 74
     0
 49
-1.0
 74
     0
  0
ENDTAB
  0
TABLE
  2
LAYER
  5
2
330
0
100
AcDbSymbolTable
 70
    17
  0
LAYER
  5
5F
330
2
100
AcDbSymbolTableRecord
100
AcDbLayerTableRecord
  2
0
 70
     0
 62
     7
  6
Continuous
370
    -3
390
F
  0
LAYER
  5
81
330
2
100
AcDbSymbolTableRecord
100
AcDbLayerTableRecord
  2
Čára řezu (ISO)
 70
     0
 62
     3
420
    65280
  6
Continuous
370
    18
390
F
  0
LAYER
  5
83
330
2
100
AcDbSymbolTableRecord
100
AcDbLayerTableRecord
  2
Geometrie náčrtu (ISO)
 70
     0
 62
     7
  6
Continuous
370
     9
390
F
  0
LAYER
  5
84
330
2
100
AcDbSymbolTableRecord
100
AcDbLayerTableRecord
  2
KOPF
 70
     0
 62
     8
420
  8421504
  6
Continuous
370
     9
390
F
  0
LAYER
  5
85
330
2
100
AcDbSymbolTableRecord
100
AcDbLayerTableRecord
  2
Kóta (ISO)
 70
     0
 62
     5
420
      255
  6
Continuous
370
     9
390
F
  0
LAYER
  5
86
330
2
100
AcDbSymbolTableRecord
100
AcDbLayerTableRecord
  2
Nadpis (ISO)
 70
     0
 62
     7
  6
Continuous
370
    18
390
F
  0
LAYER
  5
90
330
2
100
AcDbSymbolTableRecord
100
AcDbLayerTableRecord
  2
Rámeček (ISO)
 70
     0
 62
     7
  6
Continuous
370
    35
390
F
  0
LAYER
  5
93
330
2
100
AcDbSymbolTableRecord
100
AcDbLayerTableRecord
  2
Skrytá (ISO)
 70
     0
 62
   142
420
    32960
  6
Continuous
370
     9
390
F
  0
LAYER
  5
95
330
2
100
AcDbSymbolTableRecord
100
AcDbLayerTableRecord
  2
Šrafy (ISO)
 70
     0
 62
     6
420
 16711935
  6
Continuous
370
     9
390
F
  0
LAYER
  5
96
330
2
100
AcDbSymbolTableRecord
100
AcDbLayerTableRecord
  2
TEXT35
 70
     0
 62
    12
420
 13369344
  6
Continuous
370
    20
390
F
  0
LAYER
  5
97
330
2
100
AcDbSymbolTableRecord
100
AcDbLayerTableRecord
  2
TEXT50
 70
     0
 62
     7
  6
Continuous
370
    20
390
F
  0
LAYER
  5
98
330
2
100
AcDbSymbolTableRecord
100
AcDbLayerTableRecord
  2
Viditelná (ISO)
 70
     0
 62
     7
  6
Continuous
370
    35
390
F
  0
LAYER
  5
99
330
2
100
AcDbSymbolTableRecord
100
AcDbLayerTableRecord
  2
Viditelná tenká (ISO)
 70
     0
 62
     7
  6
Continuous
370
     9
390
F
  0
LAYER
  5
9A
330
2
100
AcDbSymbolTableRecord
100
AcDbLayerTableRecord
  2
Značka (ISO)
 70
     0
 62
     5
420
      255
  6
Continuous
370
     9
390
F
  0
LAYER
  5
7B5
330
2
100
AcDbSymbolTableRecord
100
AcDbLayerTableRecord
  2
Defpoints
 70
     0
 62
     7
  6
Continuous
290
     0
370
    -3
390
F
  0
LAYER
  5
CF2
102
{ACAD_XDICTIONARY
360
CF3
102
}
330
2
100
AcDbSymbolTableRecord
100
AcDbLayerTableRecord
  2
KOTY_GULLY
 70
     0
 62
   250
  6
Continuous
370
    -3
390
F
  0
LAYER
  5
D51
102
{ACAD_XDICTIONARY
360
D52
102
}
330
2
100
AcDbSymbolTableRecord
100
AcDbLayerTableRecord
  2
GULLY
 70
     0
 62
   250
  6
Continuous
370
    -3
390
F
  0
ENDTAB
  0
TABLE
  2
STYLE
  5
3
330
0
100
AcDbSymbolTable
 70
    21
  0
STYLE
  5
60
330
3
100
AcDbSymbolTableRecord
100
AcDbTextStyleTableRecord
  2
Standard
 70
     0
 40
0.0
 41
1.0
 50
0.0
 71
     0
 42
0.2
  3
TAHOMA.TTF
  4

1001
ACAD
1000
Tahoma
1071
      256
  0
STYLE
  5
65
330
3
100
AcDbSymbolTableRecord
100
AcDbTextStyleTableRecord
  2
Annotative
 70
     0
 40
0.0
 41
1.0
 50
0.0
 71
     0
 42
0.2
  3
txt
  4

1001
AcadAnnotative
1000
AnnotativeData
1002
{
1070
     1
1070
     1
1002
}
  0
STYLE
  5
9B
330
3
100
AcDbSymbolTableRecord
100
AcDbTextStyleTableRecord
  2
ITALICC8_57
 70
     0
 40
0.0
 41
1.0
 50
0.0
 71
     0
 42
0.2
  3
TAHOMA.TTF
  4

1001
ACAD
1000
Tahoma
1071
      256
  0
STYLE
  5
9C
330
3
100
AcDbSymbolTableRecord
100
AcDbTextStyleTableRecord
  2
kusovnik
 70
     0
 40
0.0
 41
1.0
 50
0.0
 71
     0
 42
0.2
  3
ARIAL.TTF
  4

1001
ACAD
1000
Arial
1071
      256
  0
STYLE
  5
9D
330
3
100
AcDbSymbolTableRecord
100
AcDbTextStyleTableRecord
  2
ROMANS8_69
 70
     0
 40
0.0
 41
1.0
 50
0.0
 71
     0
 42
0.2
  3
TAHOMA.TTF
  4

1001
ACAD
1000
Tahoma
1071
      256
  0
STYLE
  5
9E
330
3
100
AcDbSymbolTableRecord
100
AcDbTextStyleTableRecord
  2
Text popisu (ISO)
 70
     0
 40
0.0
 41
1.0
 50
0.0
 71
     0
 42
0.2
  3
TAHOMA.TTF
  4

1001
ACAD
1000
Tahoma
1071
      256
  0
STYLE
  5
9F
330
3
100
AcDbSymbolTableRecord
100
AcDbTextStyleTableRecord
  2
Text poznámky (DIN)
 70
     0
 40
0.0
 41
1.0
 50
0.0
 71
     0
 42
0.2
  3
isocpeur.ttf
  4

1001
ACAD
1000
ISOCPEUR
1071
      256
  0
STYLE
  5
A0
330
3
100
AcDbSymbolTableRecord
100
AcDbTextStyleTableRecord
  2
Text poznámky (ISO)
 70
     0
 40
0.0
 41
1.0
 50
0.0
 71
     0
 42
0.2
  3
TAHOMA.TTF
  4

1001
ACAD
1000
Tahoma
1071
      256
  0
STYLE
  5
A1
330
3
100
AcDbSymbolTableRecord
100
AcDbTextStyleTableRecord
  2
TEXT20_41
 70
     0
 40
0.0
 41
1.0
 50
0.0
 71
     0
 42
0.2
  3
TAHOMA.TTF
  4

1001
ACAD
1000
Tahoma
1071
      256
  0
STYLE
  5
A2
330
3
100
AcDbSymbolTableRecord
100
AcDbTextStyleTableRecord
  2
TEXT20_59
 70
     0
 40
0.0
 41
1.0
 50
0.0
 71
     0
 42
0.2
  3
TAHOMA.TTF
  4

1001
ACAD
1000
Tahoma
1071
      256
  0
STYLE
  5
1BB
330
3
100
AcDbSymbolTableRecord
100
AcDbTextStyleTableRecord
  2
Styl textu62
 70
     0
 40
0.0
 41
0.8000000119209289
 50
0.0
 71
     0
 42
0.2
  3
TAHOMA.TTF
  4

1001
ACAD
1000
Tahoma
1071
      256
  0
STYLE
  5
1C2
330
3
100
AcDbSymbolTableRecord
100
AcDbTextStyleTableRecord
  2
Styl textu58
 70
     0
 40
0.0
 41
0.8000000119209289
 50
0.0
 71
     0
 42
0.2
  3
TAHOMA.TTF
  4

1001
ACAD
1000
Tahoma
1071
      256
  0
STYLE
  5
1C4
330
3
100
AcDbSymbolTableRecord
100
AcDbTextStyleTableRecord
  2
Styl textu63
 70
     0
 40
0.0
 41
0.75
 50
0.0
 71
     0
 42
0.2
  3
TAHOMA.TTF
  4

1001
ACAD
1000
Tahoma
1071
      256
  0
STYLE
  5
1C7
330
3
100
AcDbSymbolTableRecord
100
AcDbTextStyleTableRecord
  2
Styl textu72
 70
     0
 40
0.0
 41
0.6999999880790711
 50
0.0
 71
     0
 42
0.2
  3
TAHOMA.TTF
  4

1001
ACAD
1000
Tahoma
1071
      256
  0
STYLE
  5
1CA
330
3
100
AcDbSymbolTableRecord
100
AcDbTextStyleTableRecord
  2
Styl textu75
 70
     0
 40
0.0
 41
0.8000000119209289
 50
0.0
 71
     0
 42
0.2
  3
TAHOMA.TTF
  4

1001
ACAD
1000
Tahoma
1071
      256
  0
STYLE
  5
1E2
330
3
100
AcDbSymbolTableRecord
100
AcDbTextStyleTableRecord
  2
Styl textu9
 70
     0
 40
0.0
 41
1.0
 50
0.0
 71
     0
 42
0.2
  3
ARIAL.TTF
  4

1001
ACAD
1000
Arial
1071
      256
  0
STYLE
  5
1E6
330
3
100
AcDbSymbolTableRecord
100
AcDbTextStyleTableRecord
  2
Styl textu40
 70
     0
 40
0.0
 41
1.0
 50
0.0
 71
     0
 42
0.2
  3
ARIAL.TTF
  4

1001
ACAD
1000
Arial
1071
      256
  0
STYLE
  5
1EB
330
3
100
AcDbSymbolTableRecord
100
AcDbTextStyleTableRecord
  2
Styl textu94
 70
     0
 40
0.0
 41
1.0
 50
0.0
 71
     0
 42
0.2
  3
TAHOMA.TTF
  4

1001
ACAD
1000
Tahoma
1071
      256
  0
STYLE
  5
CA5
330
3
100
AcDbSymbolTableRecord
100
AcDbTextStyleTableRecord
  2

 70
     1
 40
0.0
 41
1.0
 50
0.0
 71
     0
 42
0.2
  3
genltshp.shx
  4

  0
STYLE
  5
CB3
330
3
100
AcDbSymbolTableRecord
100
AcDbTextStyleTableRecord
  2
ACISOTS
 70
     0
 40
1.0
 41
1.0
 50
0.0
 71
     0
 42
0.2
  3
isocp.shx
  4

  0
STYLE
  5
CB4
330
3
100
AcDbSymbolTableRecord
100
AcDbTextStyleTableRecord
  2
ACISOGDT
 70
     0
 40
0.0
 41
1.0
 50
0.0
 71
     0
 42
0.2
  3
amgdt.shx
  4

  0
ENDTAB
  0
TABLE
  2
VIEW
  5
6
330
0
100
AcDbSymbolTable
 70
     0
  0
ENDTAB
  0
TABLE
  2
UCS
  5
7
330
0
100
AcDbSymbolTable
 70
     0
  0
ENDTAB
  0
TABLE
  2
APPID
  5
9
330
0
100
AcDbSymbolTable
 70
    17
  0
APPID
  5
61
330
9
100
AcDbSymbolTableRecord
100
AcDbRegAppTableRecord
  2
ACAD
 70
     0
  0
APPID
  5
69
330
9
100
AcDbSymbolTableRecord
100
AcDbRegAppTableRecord
  2
AcadAnnotative
 70
     0
  0
APPID
  5
1E5
330
9
100
AcDbSymbolTableRecord
100
AcDbRegAppTableRecord
  2
AcadAnnoPO
 70
     0
  0
APPID
  5
C11
330
9
100
AcDbSymbolTableRecord
100
AcDbRegAppTableRecord
  2
ACAD_MLEADERVER
 70
     0
  0
APPID
  5
C27
330
9
100
AcDbSymbolTableRecord
100
AcDbRegAppTableRecord
  2
MCAD_NO_VIS
 70
     0
  0
APPID
  5
C28
330
9
100
AcDbSymbolTableRecord
100
AcDbRegAppTableRecord
  2
ACAD_TEMP_GRAPHIC
 70
     0
  0
APPID
  5
C5A
330
9
100
AcDbSymbolTableRecord
100
AcDbRegAppTableRecord
  2
AD_DRAW
 70
     0
  0
APPID
  5
C5D
330
9
100
AcDbSymbolTableRecord
100
AcDbRegAppTableRecord
  2
ACATTRIBSERVICES
 70
     0
  0
APPID
  5
C7E
330
9
100
AcDbSymbolTableRecord
100
AcDbRegAppTableRecord
  2
DESIGNERASSEMBLIES
 70
     0
  0
APPID
  5
C84
330
9
100
AcDbSymbolTableRecord
100
AcDbRegAppTableRecord
  2
ACADM_DIM_EDIT
 70
     0
  0
APPID
  5
C85
330
9
100
AcDbSymbolTableRecord
100
AcDbRegAppTableRecord
  2
AMDT_DM_ADJ
 70
     0
  0
APPID
  5
CCF
330
9
100
AcDbSymbolTableRecord
100
AcDbRegAppTableRecord
  2
ACAD_EXEMPT_FROM_CAD_STANDARDS
 70
     0
  0
APPID
  5
CF6
330
9
100
AcDbSymbolTableRecord
100
AcDbRegAppTableRecord
  2
ACAD_DSTYLE_DIMINSPECT
 70
     0
  0
APPID
  5
DC3
330
9
100
AcDbSymbolTableRecord
100
AcDbRegAppTableRecord
  2
ACAD_DSTYLE_DIMARC_LENGTH_SYMBOL
 70
     0
  0
APPID
  5
DC4
330
9
100
AcDbSymbolTableRecord
100
AcDbRegAppTableRecord
  2
ACAD_DSTYLE_DIM_LINETYPE
 70
     0
  0
APPID
  5
DC5
330
9
100
AcDbSymbolTableRecord
100
AcDbRegAppTableRecord
  2
ACAD_DSTYLE_DIM_EXT1_LINETYPE
 70
     0
  0
APPID
  5
DC6
330
9
100
AcDbSymbolTableRecord
100
AcDbRegAppTableRecord
  2
ACAD_DSTYLE_DIM_EXT2_LINETYPE
 70
     0
  0
ENDTAB
  0
TABLE
  2
DIMSTYLE
  5
A
330
0
100
AcDbSymbolTable
 70
    25
100
AcDbDimStyleTable
 71
     3
340
C9C
340
BB
340
63
  0
DIMSTYLE
105
63
330
A
100
AcDbSymbolTableRecord
100
AcDbDimStyleTableRecord
  2
Standard
 70
     0
340
60
  0
DIMSTYLE
105
64
330
A
100
AcDbSymbolTableRecord
100
AcDbDimStyleTableRecord
  2
Annotative
 70
     0
340
60
1001
AcadAnnotative
1000
AnnotativeData
1002
{
1070
     1
1070
     1
1002
}
  0
DIMSTYLE
105
B1
330
A
100
AcDbSymbolTableRecord
100
AcDbDimStyleTableRecord
  2
Různé objekty (ISO)
 70
     0
 40
2.0
 41
2.5
 42
0.0
 43
5.999999999999999
 44
1.0
 45
0.00000001
 46
10.0
 73
     0
 74
     0
 77
     1
 78
     8
 79
     2
140
5.25
143
0.03937
146
0.6676571709769112
147
0.762
171
     3
172
     1
176
   256
177
   256
178
   256
179
     2
271
     2
272
     2
274
     3
278
    44
284
     8
340
9E
341
A3
371
    -1
372
    -1
  0
DIMSTYLE
105
B2
330
A
100
AcDbSymbolTableRecord
100
AcDbDimStyleTableRecord
  2
Různé objekty (ISO)$7
 70
     0
 40
2.0
 41
5.0
 42
0.0
 43
5.999999999999999
 44
1.0
 45
0.00000001
 46
10.0
 73
     0
 74
     0
 77
     1
 78
     8
 79
     2
140
5.25
143
0.03937
146
0.6676571709769112
147
0.762
171
     3
172
     1
176
   256
177
   256
178
   256
179
     2
271
     2
272
     2
274
     3
278
    44
284
     8
340
9E
341
A3
371
    25
372
    -1
  0
DIMSTYLE
105
B3
330
A
100
AcDbSymbolTableRecord
100
AcDbDimStyleTableRecord
  2
Výchozí - Metoda 1b (ISO)
 70
     0
 40
2.0
 41
2.5
 42
0.0
 43
5.999999999999999
 44
1.0
 45
0.00000001
 46
10.0
 73
     0
 77
     1
 78
     8
 79
     2
140
3.5
143
0.03937
147
0.762
171
     3
172
     1
176
   256
177
   256
178
   256
179
     2
271
     2
272
     2
274
     3
278
    44
284
     8
286
     8
340
A0
371
    -1
372
    -1
  0
DIMSTYLE
105
B4
330
A
100
AcDbSymbolTableRecord
100
AcDbDimStyleTableRecord
  2
Výchozí - Metoda 1b (ISO)$7
 70
     0
 40
2.0
 41
2.5
 42
0.0
 43
5.999999999999999
 44
1.0
 45
0.00000001
 46
10.0
 73
     0
 77
     1
 78
     8
 79
     2
140
3.5
143
0.03937
147
0.762
171
     3
172
     1
176
   256
177
   256
178
   256
179
     2
271
     2
272
     2
274
     3
278
    44
284
     8
286
     8
340
A0
371
    -1
372
    -1
  0
DIMSTYLE
105
B5
330
A
100
AcDbSymbolTableRecord
100
AcDbDimStyleTableRecord
  2
Výchozí - Metoda 2a (ISO)
 70
     0
 40
2.0
 41
2.5
 42
0.0
 43
5.999999999999999
 44
1.0
 45
0.00000001
 46
10.0
 77
     1
 78
     8
 79
     2
140
3.5
143
0.03937
147
0.762
171
     3
172
     1
176
   256
177
   256
178
   256
179
     2
271
     2
272
     2
274
     3
278
    44
284
     8
286
     8
340
A0
371
    -1
372
    -1
  0
DIMSTYLE
105
B6
330
A
100
AcDbSymbolTableRecord
100
AcDbDimStyleTableRecord
  2
Výchozí - Metoda 2a (ISO)$7
 70
     0
 40
2.0
 41
2.5
 42
0.0
 43
5.999999999999999
 44
1.0
 45
0.00000001
 46
10.0
 77
     1
 78
     8
 79
     2
140
3.5
143
0.03937
147
0.762
171
     3
172
     1
176
   256
177
   256
178
   256
179
     2
271
     2
272
     2
274
     3
278
    44
284
     8
286
     8
340
A0
371
    -1
372
    -1
  0
DIMSTYLE
105
B7
330
A
100
AcDbSymbolTableRecord
100
AcDbDimStyleTableRecord
  2
Výchozí - Metoda 2b (ISO)
 70
     0
 40
2.0
 41
2.5
 42
0.0
 43
5.999999999999999
 44
1.0
 45
0.00000001
 46
10.0
 77
     1
 78
     8
 79
     2
140
3.5
143
0.03937
147
0.762
171
     3
172
     1
176
   256
177
   256
178
   256
179
     2
271
     2
272
     2
274
     3
278
    44
284
     8
286
     8
340
A0
371
    -1
372
    -1
  0
DIMSTYLE
105
B8
330
A
100
AcDbSymbolTableRecord
100
AcDbDimStyleTableRecord
  2
Výchozí - Metoda 2b (ISO)$7
 70
     0
 40
2.0
 41
2.5
 42
0.0
 43
5.999999999999999
 44
1.0
 45
0.00000001
 46
10.0
 77
     1
 78
     8
 79
     2
140
3.5
143
0.03937
147
0.762
171
     3
172
     1
176
   256
177
   256
178
   256
179
     2
271
     2
272
     2
274
     3
278
    44
284
     8
286
     8
340
A0
371
    -1
372
    -1
  0
DIMSTYLE
105
B9
330
A
100
AcDbSymbolTableRecord
100
AcDbDimStyleTableRecord
  2
Výchozí - mm [palce] (ISO)
 70
     0
  4
 in
 40
2.0
 41
2.5
 42
0.0
 43
5.999999999999999
 44
3.174999999999998
 45
0.00000001
 46
10.0
 73
     0
 74
     0
 77
     1
 78
     8
 79
     2
140
3.5
143
0.03937
147
0.762
170
     1
171
     3
172
     1
176
   256
177
   256
178
   256
179
     3
271
     3
272
     2
274
     3
275
     1
278
    44
284
     8
285
     8
286
     8
340
A0
371
    -1
372
    -1
  0
DIMSTYLE
105
BA
330
A
100
AcDbSymbolTableRecord
100
AcDbDimStyleTableRecord
  2
Výchozí - mm [palce] (ISO)$7
 70
     0
  4
 in
 40
2.0
 41
2.5
 42
0.0
 43
5.999999999999999
 44
3.174999999999998
 45
0.00000001
 46
10.0
 73
     0
 74
     0
 77
     1
 78
     8
 79
     2
140
3.5
143
0.03937
147
0.762
170
     1
171
     3
172
     1
176
   256
177
   256
178
   256
179
     3
271
     3
272
     2
274
     3
275
     1
278
    44
284
     8
285
     8
286
     8
340
A0
371
    -1
372
    -1
  0
DIMSTYLE
105
BB
330
A
100
AcDbSymbolTableRecord
100
AcDbDimStyleTableRecord
  2
Výchozí (ISO)
 70
     0
 40
2.0
 41
2.5
 42
0.0
 43
5.999999999999999
 44
1.0
 45
0.00000001
 46
10.0
 73
     0
 74
     0
 77
     1
 78
     8
 79
     2
140
3.5
143
0.03937
146
1.001485756465366
147
0.762
171
     3
172
     1
176
   256
177
   256
178
   256
179
     2
271
     2
272
     2
274
     3
278
    44
284
     8
340
A0
371
    -1
372
    -1
  0
DIMSTYLE
105
BC
330
A
100
AcDbSymbolTableRecord
100
AcDbDimStyleTableRecord
  2
Výchozí (ISO)$7
 70
     0
 40
2.0
 41
2.5
 42
0.0
 43
5.999999999999999
 44
1.0
 45
0.00000001
 46
10.0
 73
     0
 74
     0
 77
     1
 78
     8
 79
     2
140
3.5
143
0.03937
146
1.001485756465366
147
0.762
171
     3
172
     1
176
   256
177
   256
178
   256
179
     2
271
     2
272
     2
274
     3
278
    44
284
     8
340
A0
371
    -1
372
    -1
  0
DIMSTYLE
105
BD
330
A
100
AcDbSymbolTableRecord
100
AcDbDimStyleTableRecord
  2
Alternativní (ISO)
 70
     0
 40
2.0
 41
2.5
340
60
342
BE
  0
DIMSTYLE
105
CF
330
A
100
AcDbSymbolTableRecord
100
AcDbDimStyleTableRecord
  2
Základny (ISO)
 70
     0
 40
2.0
 41
2.5
340
60
342
BE
  0
DIMSTYLE
105
C9C
102
{ACAD_REACTORS
330
EC6
102
}
330
A
100
AcDbSymbolTableRecord
100
AcDbDimStyleTableRecord
  2
AM_ISO
 70
     0
  4
"
 41
3.5
 42
1.0
 43
10.0
 44
1.0
 47
0.1
 48
0.1
 73
     0
 74
     0
 77
     1
 78
     8
 79
     2
140
3.5
141
0.0
143
0.0393701
146
0.71
147
1.5
172
     1
176
   256
177
   256
178
   140
271
     2
272
     3
274
     4
283
     0
284
     8
340
60
371
    -1
372
    -1
1001
ACAD_DSTYLE_DIMARC_LENGTH_SYMBOL
1070
   379
1070
     1
1001
ACAD_DSTYLE_DIM_LINETYPE
1070
   380
1005
66
1001
ACAD_DSTYLE_DIM_EXT1_LINETYPE
1070
   381
1005
66
1001
ACAD_DSTYLE_DIM_EXT2_LINETYPE
1070
   382
1005
66
  0
DIMSTYLE
105
CA7
330
A
100
AcDbSymbolTableRecord
100
AcDbDimStyleTableRecord
  2
AM_ISO$3
 70
     0
  4
"
 41
3.5
 42
1.0
 43
10.0
 44
1.0
 47
0.1
 48
0.1
 73
     0
 77
     1
 78
     8
 79
     2
140
3.5
141
0.0
143
0.0393701
146
0.71
147
1.5
176
   256
177
   256
178
   140
271
     2
272
     3
274
     4
283
     0
284
     8
288
     1
289
     0
340
60
371
    -1
372
    -1
1001
ACAD_DSTYLE_DIMARC_LENGTH_SYMBOL
1070
   379
1070
     1
1001
ACAD_DSTYLE_DIM_LINETYPE
1070
   380
1005
66
1001
ACAD_DSTYLE_DIM_EXT1_LINETYPE
1070
   381
1005
66
1001
ACAD_DSTYLE_DIM_EXT2_LINETYPE
1070
   382
1005
66
  0
DIMSTYLE
105
CA8
330
A
100
AcDbSymbolTableRecord
100
AcDbDimStyleTableRecord
  2
AM_ISO$4
 70
     0
  4
"
 41
3.5
 42
1.0
 43
10.0
 44
1.0
 47
0.1
 48
0.1
 73
     0
 74
     0
 77
     1
 78
     8
 79
     2
140
3.5
141
0.0
143
0.0393701
146
0.71
147
1.5
172
     1
176
   256
177
   256
178
   140
271
     2
272
     3
274
     4
283
     0
284
     8
340
60
371
    -1
372
    -1
1001
ACAD_DSTYLE_DIMARC_LENGTH_SYMBOL
1070
   379
1070
     1
1001
ACAD_DSTYLE_DIM_LINETYPE
1070
   380
1005
66
1001
ACAD_DSTYLE_DIM_EXT1_LINETYPE
1070
   381
1005
66
1001
ACAD_DSTYLE_DIM_EXT2_LINETYPE
1070
   382
1005
66
  0
DIMSTYLE
105
CA9
330
A
100
AcDbSymbolTableRecord
100
AcDbDimStyleTableRecord
  2
AM_ISO$6
 70
     0
  4
"
 41
3.5
 42
1.0
 43
10.0
 44
1.0
 47
0.1
 48
0.1
 73
     0
 74
     0
 78
     8
 79
     2
140
3.5
141
0.0
143
0.0393701
146
0.71
147
1.5
172
     1
176
   256
177
   256
178
   140
271
     2
272
     3
274
     4
283
     0
284
     8
340
60
371
    -1
372
    -1
1001
ACAD_DSTYLE_DIMARC_LENGTH_SYMBOL
1070
   379
1070
     1
1001
ACAD_DSTYLE_DIM_LINETYPE
1070
   380
1005
66
1001
ACAD_DSTYLE_DIM_EXT1_LINETYPE
1070
   381
1005
66
1001
ACAD_DSTYLE_DIM_EXT2_LINETYPE
1070
   382
1005
66
  0
DIMSTYLE
105
CAA
330
A
100
AcDbSymbolTableRecord
100
AcDbDimStyleTableRecord
  2
AM_ISO$7
 70
     0
  4
"
 41
3.5
 42
1.0
 43
10.0
 44
1.0
 47
0.1
 48
0.1
 73
     0
 74
     0
 77
     1
 78
     8
 79
     2
140
3.5
141
0.0
143
0.0393701
146
0.71
147
1.5
172
     1
176
   256
177
   256
178
   140
271
     2
272
     3
274
     4
283
     0
284
     8
340
60
371
    -1
372
    -1
1001
ACAD_DSTYLE_DIMARC_LENGTH_SYMBOL
1070
   379
1070
     1
1001
ACAD_DSTYLE_DIM_LINETYPE
1070
   380
1005
66
1001
ACAD_DSTYLE_DIM_EXT1_LINETYPE
1070
   381
1005
66
1001
ACAD_DSTYLE_DIM_EXT2_LINETYPE
1070
   382
1005
66
  0
DIMSTYLE
105
CAB
330
A
100
AcDbSymbolTableRecord
100
AcDbDimStyleTableRecord
  2
AM_ISO$SF
 70
     0
  4
"
 41
3.5
 42
1.0
 43
10.0
 44
1.0
 47
0.1
 48
0.1
 73
     0
 74
     0
 75
     1
 76
     1
 77
     1
 78
     8
 79
     2
140
3.5
141
0.0
143
0.0393701
146
0.71
147
1.5
172
     1
176
   256
177
   256
178
   140
271
     2
272
     3
274
     4
283
     0
284
     8
340
60
371
    -1
372
    -1
1001
ACAD_DSTYLE_DIMARC_LENGTH_SYMBOL
1070
   379
1070
     1
1001
ACAD_DSTYLE_DIM_LINETYPE
1070
   380
1005
66
1001
ACAD_DSTYLE_DIM_EXT1_LINETYPE
1070
   381
1005
66
1001
ACAD_DSTYLE_DIM_EXT2_LINETYPE
1070
   382
1005
66
  0
DIMSTYLE
105
CB0
330
A
100
AcDbSymbolTableRecord
100
AcDbDimStyleTableRecord
  2
AM_ISO$SH
 70
     0
  4
"
 41
3.5
 42
1.0
 43
10.0
 44
1.0
 47
0.1
 48
0.1
 73
     0
 74
     0
 75
     1
 76
     1
 77
     1
 78
     8
 79
     2
140
3.5
141
0.0
143
0.0393701
144
2.0
146
0.71
147
1.5
172
     1
173
     1
176
   256
177
   256
178
   140
271
     2
272
     3
274
     4
283
     0
284
     8
340
60
343
CAC
371
    -1
372
    -1
1001
ACAD_DSTYLE_DIMARC_LENGTH_SYMBOL
1070
   379
1070
     1
1001
ACAD_DSTYLE_DIM_LINETYPE
1070
   380
1005
66
1001
ACAD_DSTYLE_DIM_EXT1_LINETYPE
1070
   381
1005
66
1001
ACAD_DSTYLE_DIM_EXT2_LINETYPE
1070
   382
1005
66
  0
DIMSTYLE
105
CF4
102
{ACAD_REACTORS
330
D01
102
}
330
A
100
AcDbSymbolTableRecord
100
AcDbDimStyleTableRecord
  2
GULLY
 70
     0
 40
2.0
 41
1.5
 42
0.0
 43
5.999999999999999
 44
1.0
 45
0.00000001
 46
10.0
 47
1.0
 48
1.0
 73
     0
 74
     0
 77
     1
 78
     8
140
6.0
143
0.03937
146
1.001485756465366
147
0.762
171
     3
176
   256
177
   256
178
   256
279
     2
340
60
  0
DIMSTYLE
105
CF5
102
{ACAD_REACTORS
330
D00
102
}
330
A
100
AcDbSymbolTableRecord
100
AcDbDimStyleTableRecord
  2
GULLY 1
 70
     0
 40
2.0
 41
1.5
 42
0.0
 43
5.999999999999999
 44
1.0
 45
1.0
 46
10.0
 47
1.0
 48
1.0
 73
     0
 74
     0
 77
     1
 78
     8
140
6.0
143
0.03937
146
1.001485756465366
147
0.762
171
     3
176
   256
177
   256
178
   256
279
     2
284
     8
285
     8
286
     8
340
60
  0
ENDTAB
  0
TABLE
  2
BLOCK_RECORD
  5
1
330
0
100
AcDbSymbolTable
 70
    32
  0
BLOCK_RECORD
  5
77
330
1
100
AcDbSymbolTableRecord
100
AcDbBlockTableRecord
  2
*Model_Space
340
7A
  0
BLOCK_RECORD
  5
73
330
1
100
AcDbSymbolTableRecord
100
AcDbBlockTableRecord
  2
*Paper_Space
340
76
  0
BLOCK_RECORD
  5
7B
330
1
100
AcDbSymbolTableRecord
100
AcDbBlockTableRecord
  2
*Paper_Space0
340
7E
  0
BLOCK_RECORD
  5
A3
330
1
100
AcDbSymbolTableRecord
100
AcDbBlockTableRecord
  2
Filled-1
340
0
  0
BLOCK_RECORD
  5
BE
330
1
100
AcDbSymbolTableRecord
100
AcDbBlockTableRecord
  2
_Closed
340
0
  0
BLOCK_RECORD
  5
C5
330
1
100
AcDbSymbolTableRecord
100
AcDbBlockTableRecord
  2
DatumFilled45
340
0
  0
BLOCK_RECORD
  5
D0
330
1
100
AcDbSymbolTableRecord
100
AcDbBlockTableRecord
  2
WIG-svarovani
340
0
  0
BLOCK_RECORD
  5
D5
330
1
100
AcDbSymbolTableRecord
100
AcDbBlockTableRecord
  2
Popis kotvy_srouby
340
0
  0
BLOCK_RECORD
  5
D9
330
1
100
AcDbSymbolTableRecord
100
AcDbBlockTableRecord
  2
Mater. provedeni Art.
340
0
  0
BLOCK_RECORD
  5
FB
330
1
100
AcDbSymbolTableRecord
100
AcDbBlockTableRecord
  2
Art. s popisy
340
0
  0
BLOCK_RECORD
  5
11D
330
1
100
AcDbSymbolTableRecord
100
AcDbBlockTableRecord
  2
Tryskat
340
0
  0
BLOCK_RECORD
  5
121
330
1
100
AcDbSymbolTableRecord
100
AcDbBlockTableRecord
  2
Morit
340
0
  0
BLOCK_RECORD
  5
125
330
1
100
AcDbSymbolTableRecord
100
AcDbBlockTableRecord
  2
zinkovat
340
0
  0
BLOCK_RECORD
  5
129
330
1
100
AcDbSymbolTableRecord
100
AcDbBlockTableRecord
  2
Nater
340
0
  0
BLOCK_RECORD
  5
12D
330
1
100
AcDbSymbolTableRecord
100
AcDbBlockTableRecord
  2
Brus
340
0
  0
BLOCK_RECORD
  5
131
330
1
100
AcDbSymbolTableRecord
100
AcDbBlockTableRecord
  2
Elektroliticky lestit
340
0
  0
BLOCK_RECORD
  5
135
330
1
100
AcDbSymbolTableRecord
100
AcDbBlockTableRecord
  2
Rámečky Default Border
340
0
  0
BLOCK_RECORD
  5
17C
330
1
100
AcDbSymbolTableRecord
100
AcDbBlockTableRecord
  2
Rohová razítka ACO-razitko
340
0
  0
BLOCK_RECORD
  5
6D4
330
1
100
AcDbSymbolTableRecord
100
AcDbBlockTableRecord
  2
2dPrevedenyRez0
340
0
  0
BLOCK_RECORD
  5
798
330
1
100
AcDbSymbolTableRecord
100
AcDbBlockTableRecord
  2
Pozice1
340
0
  0
BLOCK_RECORD
  5
7A2
330
1
100
AcDbSymbolTableRecord
100
AcDbBlockTableRecord
  2
Pozice2
340
0
  0
BLOCK_RECORD
  5
7B6
330
1
100
AcDbSymbolTableRecord
100
AcDbBlockTableRecord
  2
*D19
340
0
  0
BLOCK_RECORD
  5
898
330
1
100
AcDbSymbolTableRecord
100
AcDbBlockTableRecord
  2
*D20
340
0
  0
BLOCK_RECORD
  5
979
330
1
100
AcDbSymbolTableRecord
100
AcDbBlockTableRecord
  2
Identifikátor značky svaru1
340
0
  0
BLOCK_RECORD
  5
99E
330
1
100
AcDbSymbolTableRecord
100
AcDbBlockTableRecord
  2
Identifikátor značky svaru2
340
0
  0
BLOCK_RECORD
  5
9C6
330
1
100
AcDbSymbolTableRecord
100
AcDbBlockTableRecord
  2
*D23
340
0
  0
BLOCK_RECORD
  5
AA8
330
1
100
AcDbSymbolTableRecord
100
AcDbBlockTableRecord
  2
*D24
340
0
  0
BLOCK_RECORD
  5
B89
330
1
100
AcDbSymbolTableRecord
100
AcDbBlockTableRecord
  2
KUSOVNÍK
340
0
  0
BLOCK_RECORD
  5
CAC
330
1
100
AcDbSymbolTableRecord
100
AcDbBlockTableRecord
  2
GENAXEH
340
0
  0
BLOCK_RECORD
  5
CDA
330
1
100
AcDbSymbolTableRecord
100
AcDbBlockTableRecord
  2
*D27
340
0
  0
BLOCK_RECORD
  5
CE6
330
1
100
AcDbSymbolTableRecord
100
AcDbBlockTableRecord
  2
*D28
340
0
  0
BLOCK_RECORD
  5
D02
330
1
100
AcDbSymbolTableRecord
100
AcDbBlockTableRecord
  2
*D29
340
0
  0
BLOCK_RECORD
  5
D0E
330
1
100
AcDbSymbolTableRecord
100
AcDbBlockTableRecord
  2
*D30
340
0
  0
ENDTAB
  0
ENDSEC
  0
SECTION
  2
BLOCKS
  0
BLOCK
  5
78
330
77
100
AcDbEntity
  8
0
100
AcDbBlockBegin
  2
*Model_Space
 70
     0
 10
0.0
 20
0.0
 30
0.0
  3
*Model_Space
  1

  0
ENDBLK
  5
79
330
77
100
AcDbEntity
  8
0
100
AcDbBlockEnd
  0
BLOCK
  5
74
330
73
100
AcDbEntity
 67
     1
  8
0
100
AcDbBlockBegin
  2
*Paper_Space
 70
     0
 10
0.0
 20
0.0
 30
0.0
  3
*Paper_Space
  1

  0
ENDBLK
  5
75
330
73
100
AcDbEntity
 67
     1
  8
0
100
AcDbBlockEnd
  0
BLOCK
  5
7C
330
7B
100
AcDbEntity
 67
     1
  8
0
100
AcDbBlockBegin
  2
*Paper_Space0
 70
     0
 10
0.0
 20
0.0
 30
0.0
  3
*Paper_Space0
  1

  0
ENDBLK
  5
7D
330
7B
100
AcDbEntity
 67
     1
  8
0
100
AcDbBlockEnd
  0
BLOCK
  5
A4
330
A3
100
AcDbEntity
  8
0
100
AcDbBlockBegin
  2
Filled-1
 70
     0
 10
0.0
 20
0.0
 30
0.0
  3
Filled-1
  1

  0
LINE
  5
A6
330
A3
100
AcDbEntity
  8
0
 62
     0
100
AcDbLine
 10
-1.0
 20
0.0
 30
0.0
 11
0.0
 21
0.0
 31
0.0
  0
POLYLINE
  5
A7
330
A3
100
AcDbEntity
  8
0
 62
     0
100
AcDb2dPolyline
 66
     1
 10
0.0
 20
0.0
 30
0.0
 70
   128
  0
VERTEX
  5
A8
330
A7
100
AcDbEntity
  8
0
 62
     0
100
AcDbVertex
100
AcDb2dVertex
 10
-1.0
 20
-0.1
 30
0.0
  0
VERTEX
  5
A9
330
A7
100
AcDbEntity
  8
0
 62
     0
100
AcDbVertex
100
AcDb2dVertex
 10
0.0
 20
0.0
 30
0.0
  0
VERTEX
  5
AB
330
A7
100
AcDbEntity
  8
0
 62
     0
100
AcDbVertex
100
AcDb2dVertex
 10
-1.0
 20
0.1
 30
0.0
  0
VERTEX
  5
AC
330
A7
100
AcDbEntity
  8
0
 62
     0
100
AcDbVertex
100
AcDb2dVertex
 10
-1.0
 20
-0.1
 30
0.0
  0
SEQEND
  5
AA
330
A7
100
AcDbEntity
  8
0
 62
     0
  0
SOLID
  5
AD
330
A3
100
AcDbEntity
  8
0
 62
     0
100
AcDbTrace
 10
-1.0
 20
-0.1
 30
0.0
 11
0.0
 21
0.0
 31
0.0
 12
-1.0
 22
0.1
 32
0.0
 13
-1.0
 23
-0.1
 33
0.0
  0
LINE
  5
AE
330
A3
100
AcDbEntity
  8
0
 62
     0
100
AcDbLine
 10
-1.0
 20
-0.1
 30
0.0
 11
0.0
 21
0.0
 31
0.0
  0
LINE
  5
AF
330
A3
100
AcDbEntity
  8
0
 62
     0
100
AcDbLine
 10
0.0
 20
0.0
 30
0.0
 11
-1.0
 21
0.1
 31
0.0
  0
LINE
  5
B0
330
A3
100
AcDbEntity
  8
0
 62
     0
100
AcDbLine
 10
-1.0
 20
0.1
 30
0.0
 11
-1.0
 21
-0.1
 31
0.0
  0
ENDBLK
  5
A5
330
A3
100
AcDbEntity
  8
0
100
AcDbBlockEnd
  0
BLOCK
  5
C3
330
BE
100
AcDbEntity
  8
0
100
AcDbBlockBegin
  2
_Closed
 70
     0
 10
0.0
 20
0.0
 30
0.0
  3
_Closed
  1

  0
LINE
  5
BF
330
BE
100
AcDbEntity
  8
0
  6
ByBlock
 62
     0
370
    -2
100
AcDbLine
 10
-1.0
 20
0.1666666666666666
 30
0.0
 11
0.0
 21
0.0
 31
0.0
  0
LINE
  5
C0
330
BE
100
AcDbEntity
  8
0
  6
ByBlock
 62
     0
370
    -2
100
AcDbLine
 10
0.0
 20
0.0
 30
0.0
 11
-1.0
 21
-0.1666666666666666
 31
0.0
  0
LINE
  5
C1
330
BE
100
AcDbEntity
  8
0
  6
ByBlock
 62
     0
370
    -2
100
AcDbLine
 10
-1.0
 20
0.1666666666666666
 30
0.0
 11
-1.0
 21
-0.1666666666666666
 31
0.0
  0
LINE
  5
C2
330
BE
100
AcDbEntity
  8
0
  6
ByBlock
 62
     0
370
    -2
100
AcDbLine
 10
0.0
 20
0.0
 30
0.0
 11
-1.0
 21
0.0
 31
0.0
  0
ENDBLK
  5
C4
330
BE
100
AcDbEntity
  8
0
100
AcDbBlockEnd
  0
BLOCK
  5
C6
330
C5
100
AcDbEntity
  8
0
100
AcDbBlockBegin
  2
DatumFilled45
 70
     0
 10
0.0
 20
0.0
 30
0.0
  3
DatumFilled45
  1

  0
POLYLINE
  5
C8
330
C5
100
AcDbEntity
  8
0
 62
     0
100
AcDb2dPolyline
 66
     1
 10
0.0
 20
0.0
 30
0.0
 70
   128
  0
VERTEX
  5
C9
330
C8
100
AcDbEntity
  8
0
 62
     0
100
AcDbVertex
100
AcDb2dVertex
 10
0.0
 20
1.0
 30
0.0
  0
VERTEX
  5
CA
330
C8
100
AcDbEntity
  8
0
 62
     0
100
AcDbVertex
100
AcDb2dVertex
 10
0.0
 20
-1.0
 30
0.0
  0
VERTEX
  5
CC
330
C8
100
AcDbEntity
  8
0
 62
     0
100
AcDbVertex
100
AcDb2dVertex
 10
-1.0
 20
0.0
 30
0.0
  0
VERTEX
  5
CD
330
C8
100
AcDbEntity
  8
0
 62
     0
100
AcDbVertex
100
AcDb2dVertex
 10
0.0
 20
1.0
 30
0.0
  0
SEQEND
  5
CB
330
C8
100
AcDbEntity
  8
0
 62
     0
  0
SOLID
  5
CE
330
C5
100
AcDbEntity
  8
0
 62
     0
100
AcDbTrace
 10
0.0
 20
1.0
 30
0.0
 11
0.0
 21
-1.0
 31
0.0
 12
-1.0
 22
0.0
 32
0.0
 13
0.0
 23
1.0
 33
0.0
  0
ENDBLK
  5
C7
330
C5
100
AcDbEntity
  8
0
100
AcDbBlockEnd
  0
BLOCK
  5
D1
330
D0
100
AcDbEntity
  8
0
100
AcDbBlockBegin
  2
WIG-svarovani
 70
     0
 10
0.0
 20
0.0
 30
0.0
  3
WIG-svarovani
  1

  0
MTEXT
  5
D3
330
D0
100
AcDbEntity
  8
Značka (ISO)
100
AcDbMText
 10
-57.87338256835937
 20
16.31795931607484
 30
0.0
 40
3.499999940395355
 41
115.7467651367187
 71
     1
 72
     1
  3
WIG Schweisung, Nahte sauber geschliffen und poliert\PSichtstege geschliffen mit 240 Korn und abgeklebt.\P\fTahoma|b0|i0;\H3.0000; \P\fTahoma|b0|i0;\H3.5000;WIG svarovani- svary dle potreby zabrousit.\PPohledove plochy brousit (vel. brusnych zrn 240)
  1
\Pa polepit paskou
  7
Text poznámky (ISO)
 73
     1
 44
0.9596589207649227
  0
ENDBLK
  5
D2
330
D0
100
AcDbEntity
  8
0
100
AcDbBlockEnd
  0
BLOCK
  5
D6
330
D5
100
AcDbEntity
  8
0
100
AcDbBlockBegin
  2
Popis kotvy_srouby
 70
     0
 10
0.0
 20
0.0
 30
0.0
  3
Popis kotvy_srouby
  1

  0
MTEXT
  5
D8
330
D5
100
AcDbEntity
  8
Značka (ISO)
100
AcDbMText
 10
-39.79761123657226
 20
21.84130281209946
 30
0.0
 40
3.499999940395355
 41
0.0
 71
     1
 72
     1
  1
Vzdalenost nivel. sroubu ca. 1500\PVzdalenost kotev ca. 400\PVzdalenost dist. koliku ca. 250\P\PAbstand der Nivellieschraben ca.1500\PAbstand der Maueranker ca.400\PAbstand der Distanzstege ca.250\P
  7
Text poznámky (ISO)
 73
     2
 44
0.9878841638565063
  0
ENDBLK
  5
D7
330
D5
100
AcDbEntity
  8
0
100
AcDbBlockEnd
  0
BLOCK
  5
DA
330
D9
100
AcDbEntity
  8
0
100
AcDbBlockBegin
  2
Mater. provedeni Art.
 70
     0
 10
0.0
 20
0.0
 30
0.0
  3
Mater. provedeni Art.
  1

  0
LINE
  5
DC
330
D9
100
AcDbEntity
  8
Geometrie náčrtu (ISO)
100
AcDbLine
 10
-35.0
 20
-22.5
 30
0.0
 11
35.0
 21
-22.5
 31
0.0
  0
LINE
  5
DD
330
D9
100
AcDbEntity
  8
Geometrie náčrtu (ISO)
100
AcDbLine
 10
35.0
 20
-22.5
 30
0.0
 11
34.99999999999996
 21
-13.49999999999998
 31
0.0
  0
LINE
  5
DE
330
D9
100
AcDbEntity
  8
Geometrie náčrtu (ISO)
100
AcDbLine
 10
34.99999999999996
 20
-13.49999999999998
 30
0.0
 11
-35.00000000000003
 21
-13.49999999999998
 31
0.0
  0
LINE
  5
DF
330
D9
100
AcDbEntity
  8
Geometrie náčrtu (ISO)
100
AcDbLine
 10
-35.00000000000003
 20
-13.49999999999998
 30
0.0
 11
-35.0
 21
-22.5
 31
0.0
  0
LINE
  5
E0
330
D9
100
AcDbEntity
  8
Geometrie náčrtu (ISO)
100
AcDbLine
 10
-35.00000000000003
 20
-13.49999999999998
 30
0.0
 11
34.99999999999996
 21
-13.49999999999998
 31
0.0
  0
LINE
  5
E1
330
D9
100
AcDbEntity
  8
Geometrie náčrtu (ISO)
100
AcDbLine
 10
34.99999999999996
 20
-13.49999999999998
 30
0.0
 11
34.99999999999996
 21
-4.499999999999992
 31
0.0
  0
LINE
  5
E2
330
D9
100
AcDbEntity
  8
Geometrie náčrtu (ISO)
100
AcDbLine
 10
34.99999999999996
 20
-4.499999999999992
 30
0.0
 11
-35.00000000000003
 21
-4.499999999999992
 31
0.0
  0
LINE
  5
E3
330
D9
100
AcDbEntity
  8
Geometrie náčrtu (ISO)
100
AcDbLine
 10
-35.00000000000003
 20
-4.499999999999992
 30
0.0
 11
-35.00000000000003
 21
-13.49999999999998
 31
0.0
  0
LINE
  5
E4
330
D9
100
AcDbEntity
  8
Geometrie náčrtu (ISO)
100
AcDbLine
 10
-35.00000000000003
 20
-4.499999999999992
 30
0.0
 11
34.99999999999996
 21
-4.499999999999992
 31
0.0
  0
LINE
  5
E5
330
D9
100
AcDbEntity
  8
Geometrie náčrtu (ISO)
100
AcDbLine
 10
34.99999999999996
 20
-4.499999999999992
 30
0.0
 11
34.99999999999996
 21
4.499999999999992
 31
0.0
  0
LINE
  5
E6
330
D9
100
AcDbEntity
  8
Geometrie náčrtu (ISO)
100
AcDbLine
 10
34.99999999999996
 20
4.499999999999992
 30
0.0
 11
-35.00000000000003
 21
4.499999999999992
 31
0.0
  0
LINE
  5
E7
330
D9
100
AcDbEntity
  8
Geometrie náčrtu (ISO)
100
AcDbLine
 10
-35.00000000000003
 20
4.499999999999992
 30
0.0
 11
-35.00000000000003
 21
-4.499999999999992
 31
0.0
  0
LINE
  5
E8
330
D9
100
AcDbEntity
  8
Geometrie náčrtu (ISO)
100
AcDbLine
 10
-35.00000000000003
 20
4.499999999999992
 30
0.0
 11
34.99999999999996
 21
4.499999999999992
 31
0.0
  0
LINE
  5
E9
330
D9
100
AcDbEntity
  8
Geometrie náčrtu (ISO)
100
AcDbLine
 10
34.99999999999996
 20
4.499999999999992
 30
0.0
 11
34.99999999999996
 21
13.50000000000001
 31
0.0
  0
LINE
  5
EA
330
D9
100
AcDbEntity
  8
Geometrie náčrtu (ISO)
100
AcDbLine
 10
34.99999999999996
 20
13.50000000000001
 30
0.0
 11
-35.00000000000003
 21
13.50000000000001
 31
0.0
  0
LINE
  5
EB
330
D9
100
AcDbEntity
  8
Geometrie náčrtu (ISO)
100
AcDbLine
 10
-35.00000000000003
 20
13.50000000000001
 30
0.0
 11
-35.00000000000003
 21
4.499999999999992
 31
0.0
  0
LINE
  5
EC
330
D9
100
AcDbEntity
  8
Geometrie náčrtu (ISO)
100
AcDbLine
 10
-35.00000000000003
 20
13.50000000000001
 30
0.0
 11
34.99999999999996
 21
13.50000000000001
 31
0.0
  0
LINE
  5
ED
330
D9
100
AcDbEntity
  8
Geometrie náčrtu (ISO)
100
AcDbLine
 10
34.99999999999996
 20
13.50000000000001
 30
0.0
 11
34.99999999999996
 21
22.5
 31
0.0
  0
LINE
  5
EE
330
D9
100
AcDbEntity
  8
Geometrie náčrtu (ISO)
100
AcDbLine
 10
34.99999999999996
 20
22.5
 30
0.0
 11
-35.00000000000003
 21
22.5
 31
0.0
  0
LINE
  5
EF
330
D9
100
AcDbEntity
  8
Geometrie náčrtu (ISO)
100
AcDbLine
 10
-35.00000000000003
 20
22.5
 30
0.0
 11
-35.00000000000003
 21
13.50000000000001
 31
0.0
  0
LINE
  5
F0
330
D9
100
AcDbEntity
  8
Geometrie náčrtu (ISO)
100
AcDbLine
 10
-6.999999999999992
 20
22.5
 30
0.0
 11
-6.999999999999992
 21
-22.5
 31
0.0
  0
MTEXT
  5
F1
330
D9
100
AcDbEntity
  8
Značka (ISO)
100
AcDbMText
 10
-5.126613448311374
 20
11.7684641726084
 30
0.0
 40
5.0
 41
0.0
 71
     1
 72
     1
  1
\fTahoma|b0|i0;\H5.0000;xxxxxxxxxxx
  7
Text poznámky (ISO)
 73
     1
 44
1.0
  0
MTEXT
  5
F2
330
D9
100
AcDbEntity
  8
Značka (ISO)
100
AcDbMText
 10
-33.0130165251342
 20
11.7684641726084
 30
0.0
 40
5.0
 41
20.42139291763306
 71
     1
 72
     1
  1
\fTahoma|b0|i0;\H5.0000;xxxxxx
  7
Text poznámky (ISO)
 73
     1
 44
1.0
  0
MTEXT
  5
F3
330
D9
100
AcDbEntity
  8
Značka (ISO)
100
AcDbMText
 10
-32.07756235018873
 20
20.30710993714994
 30
0.0
 40
5.0
 41
13.92583036716939
 71
     1
 72
     1
  1
\fTahoma|b0|i0;\H5.0000;Art.
  7
Text poznámky (ISO)
 73
     1
 44
1.0
  0
MTEXT
  5
F4
330
D9
100
AcDbEntity
  8
Značka (ISO)
100
AcDbMText
 10
4.291672002492318
 20
20.30710993714994
 30
0.0
 40
5.0
 41
0.0
 71
     1
 72
     1
  1
\fTahoma|b0|i0;\H5.0000;Mat.
  7
Text poznámky (ISO)
 73
     1
 44
1.0
  0
MTEXT
  5
F5
330
D9
100
AcDbEntity
  8
Značka (ISO)
100
AcDbMText
 10
-33.0130165251342
 20
2.473781856899818
 30
0.0
 40
5.0
 41
20.42139291763306
 71
     1
 72
     1
  1
\fTahoma|b0|i0;\H5.0000;xxxxxx
  7
Text poznámky (ISO)
 73
     1
 44
1.0
  0
MTEXT
  5
F6
330
D9
100
AcDbEntity
  8
Značka (ISO)
100
AcDbMText
 10
-5.126613448311374
 20
2.473781856899818
 30
0.0
 40
5.0
 41
0.0
 71
     1
 72
     1
  1
\fTahoma|b0|i0;\H5.0000;xxxxxxxxxxx
  7
Text poznámky (ISO)
 73
     1
 44
1.0
  0
MTEXT
  5
F7
330
D9
100
AcDbEntity
  8
Značka (ISO)
100
AcDbMText
 10
-33.0130165251342
 20
-6.862452441171491
 30
0.0
 40
5.0
 41
20.42139291763306
 71
     1
 72
     1
  1
\fTahoma|b0|i0;\H5.0000;xxxxxx
  7
Text poznámky (ISO)
 73
     1
 44
1.0
  0
MTEXT
  5
F8
330
D9
100
AcDbEntity
  8
Značka (ISO)
100
AcDbMText
 10
-5.126613448311374
 20
-6.862452441171491
 30
0.0
 40
5.0
 41
0.0
 71
     1
 72
     1
  1
\fTahoma|b0|i0;\H5.0000;xxxxxxxxxxx
  7
Text poznámky (ISO)
 73
     1
 44
1.0
  0
MTEXT
  5
F9
330
D9
100
AcDbEntity
  8
Značka (ISO)
100
AcDbMText
 10
-33.0130165251342
 20
-15.52177565039578
 30
0.0
 40
5.0
 41
20.42139291763306
 71
     1
 72
     1
  1
\fTahoma|b0|i0;\H5.0000;xxxxxx
  7
Text poznámky (ISO)
 73
     1
 44
1.0
  0
MTEXT
  5
FA
330
D9
100
AcDbEntity
  8
Značka (ISO)
100
AcDbMText
 10
-5.126613448311374
 20
-15.52177565039578
 30
0.0
 40
5.0
 41
0.0
 71
     1
 72
     1
  1
\fTahoma|b0|i0;\H5.0000;xxxxxxxxxxx
  7
Text poznámky (ISO)
 73
     1
 44
1.0
  0
ENDBLK
  5
DB
330
D9
100
AcDbEntity
  8
0
100
AcDbBlockEnd
  0
BLOCK
  5
FC
330
FB
100
AcDbEntity
  8
0
100
AcDbBlockBegin
  2
Art. s popisy
 70
     0
 10
0.0
 20
0.0
 30
0.0
  3
Art. s popisy
  1

  0
LINE
  5
FE
330
FB
100
AcDbEntity
  8
Geometrie náčrtu (ISO)
100
AcDbLine
 10
-60.00000000000081
 20
-22.5
 30
0.0
 11
59.99999999999911
 21
-22.5
 31
0.0
  0
LINE
  5
FF
330
FB
100
AcDbEntity
  8
Geometrie náčrtu (ISO)
100
AcDbLine
 10
59.99999999999911
 20
-22.5
 30
0.0
 11
60.00000000000081
 21
-13.50000000000001
 31
0.0
  0
LINE
  5
100
330
FB
100
AcDbEntity
  8
Geometrie náčrtu (ISO)
100
AcDbLine
 10
60.00000000000081
 20
-13.50000000000001
 30
0.0
 11
-60.00000000000081
 21
-13.49999999999998
 31
0.0
  0
LINE
  5
101
330
FB
100
AcDbEntity
  8
Geometrie náčrtu (ISO)
100
AcDbLine
 10
-60.00000000000081
 20
-13.49999999999998
 30
0.0
 11
-60.00000000000081
 21
-22.5
 31
0.0
  0
LINE
  5
102
330
FB
100
AcDbEntity
  8
Geometrie náčrtu (ISO)
100
AcDbLine
 10
-60.00000000000081
 20
-13.49999999999998
 30
0.0
 11
60.00000000000081
 21
-13.50000000000001
 31
0.0
  0
LINE
  5
103
330
FB
100
AcDbEntity
  8
Geometrie náčrtu (ISO)
100
AcDbLine
 10
60.00000000000081
 20
-13.50000000000001
 30
0.0
 11
59.99999999999911
 21
-4.500000000000028
 31
0.0
  0
LINE
  5
104
330
FB
100
AcDbEntity
  8
Geometrie náčrtu (ISO)
100
AcDbLine
 10
59.99999999999911
 20
-4.500000000000028
 30
0.0
 11
-60.00000000000081
 21
-4.499999999999992
 31
0.0
  0
LINE
  5
105
330
FB
100
AcDbEntity
  8
Geometrie náčrtu (ISO)
100
AcDbLine
 10
-60.00000000000081
 20
-4.499999999999992
 30
0.0
 11
-60.00000000000081
 21
-13.49999999999998
 31
0.0
  0
LINE
  5
106
330
FB
100
AcDbEntity
  8
Geometrie náčrtu (ISO)
100
AcDbLine
 10
-60.00000000000081
 20
-4.499999999999992
 30
0.0
 11
59.99999999999911
 21
-4.500000000000028
 31
0.0
  0
LINE
  5
107
330
FB
100
AcDbEntity
  8
Geometrie náčrtu (ISO)
100
AcDbLine
 10
59.99999999999911
 20
-4.500000000000028
 30
0.0
 11
59.99999999999911
 21
4.499999999999957
 31
0.0
  0
LINE
  5
108
330
FB
100
AcDbEntity
  8
Geometrie náčrtu (ISO)
100
AcDbLine
 10
59.99999999999911
 20
4.499999999999957
 30
0.0
 11
-60.00000000000081
 21
4.499999999999992
 31
0.0
  0
LINE
  5
109
330
FB
100
AcDbEntity
  8
Geometrie náčrtu (ISO)
100
AcDbLine
 10
-60.00000000000081
 20
4.499999999999992
 30
0.0
 11
-60.00000000000081
 21
-4.499999999999992
 31
0.0
  0
LINE
  5
10A
330
FB
100
AcDbEntity
  8
Geometrie náčrtu (ISO)
100
AcDbLine
 10
-60.00000000000081
 20
4.499999999999992
 30
0.0
 11
59.99999999999911
 21
4.499999999999957
 31
0.0
  0
LINE
  5
10B
330
FB
100
AcDbEntity
  8
Geometrie náčrtu (ISO)
100
AcDbLine
 10
59.99999999999911
 20
4.499999999999957
 30
0.0
 11
59.99999999999911
 21
13.49999999999998
 31
0.0
  0
LINE
  5
10C
330
FB
100
AcDbEntity
  8
Geometrie náčrtu (ISO)
100
AcDbLine
 10
59.99999999999911
 20
13.49999999999998
 30
0.0
 11
-60.00000000000081
 21
13.50000000000001
 31
0.0
  0
LINE
  5
10D
330
FB
100
AcDbEntity
  8
Geometrie náčrtu (ISO)
100
AcDbLine
 10
-60.00000000000081
 20
13.50000000000001
 30
0.0
 11
-60.00000000000081
 21
4.499999999999992
 31
0.0
  0
LINE
  5
10E
330
FB
100
AcDbEntity
  8
Geometrie náčrtu (ISO)
100
AcDbLine
 10
-60.00000000000081
 20
13.50000000000001
 30
0.0
 11
59.99999999999911
 21
13.49999999999998
 31
0.0
  0
LINE
  5
10F
330
FB
100
AcDbEntity
  8
Geometrie náčrtu (ISO)
100
AcDbLine
 10
59.99999999999911
 20
13.49999999999998
 30
0.0
 11
59.99999999999911
 21
22.49999999999996
 31
0.0
  0
LINE
  5
110
330
FB
100
AcDbEntity
  8
Geometrie náčrtu (ISO)
100
AcDbLine
 10
59.99999999999911
 20
22.49999999999996
 30
0.0
 11
-60.00000000000081
 21
22.5
 31
0.0
  0
LINE
  5
111
330
FB
100
AcDbEntity
  8
Geometrie náčrtu (ISO)
100
AcDbLine
 10
-60.00000000000081
 20
22.5
 30
0.0
 11
-60.00000000000081
 21
13.50000000000001
 31
0.0
  0
LINE
  5
112
330
FB
100
AcDbEntity
  8
Geometrie náčrtu (ISO)
100
AcDbLine
 10
-32.00000000000081
 20
22.5
 30
0.0
 11
-32.00000000000081
 21
-22.5
 31
0.0
  0
MTEXT
  5
113
330
FB
100
AcDbEntity
  8
Značka (ISO)
100
AcDbMText
 10
-27.63552601875791
 20
11.7684641726084
 30
0.0
 40
5.0
 41
0.0
 71
     1
 72
     1
  1
\fTahoma|b0|i0;\H5.0000;xxxxxxxxxxx
  7
Text poznámky (ISO)
 73
     1
 44
1.0
  0
MTEXT
  5
114
330
FB
100
AcDbEntity
  8
Značka (ISO)
100
AcDbMText
 10
-55.52192909558073
 20
11.7684641726084
 30
0.0
 40
5.0
 41
20.42139291763306
 71
     1
 72
     1
  1
\fTahoma|b0|i0;\H5.0000;xxxxxx
  7
Text poznámky (ISO)
 73
     1
 44
1.0
  0
MTEXT
  5
115
330
FB
100
AcDbEntity
  8
Značka (ISO)
100
AcDbMText
 10
-54.58647492063526
 20
20.30710993714994
 30
0.0
 40
5.0
 41
13.92583036716939
 71
     1
 72
     1
  1
\fTahoma|b0|i0;\H5.0000;Art.
  7
Text poznámky (ISO)
 73
     1
 44
1.0
  0
MTEXT
  5
116
330
FB
100
AcDbEntity
  8
Značka (ISO)
100
AcDbMText
 10
-18.21724056795421
 20
20.30710993714994
 30
0.0
 40
5.0
 41
0.0
 71
     1
 72
     1
  1
\fTahoma|b0|i0;\H5.0000;Popis.
  7
Text poznámky (ISO)
 73
     1
 44
1.0
  0
MTEXT
  5
117
330
FB
100
AcDbEntity
  8
Značka (ISO)
100
AcDbMText
 10
-55.52192909558073
 20
2.473781856899818
 30
0.0
 40
5.0
 41
20.42139291763306
 71
     1
 72
     1
  1
\fTahoma|b0|i0;\H5.0000;xxxxxx
  7
Text poznámky (ISO)
 73
     1
 44
1.0
  0
MTEXT
  5
118
330
FB
100
AcDbEntity
  8
Značka (ISO)
100
AcDbMText
 10
-27.63552601875791
 20
2.473781856899818
 30
0.0
 40
5.0
 41
0.0
 71
     1
 72
     1
  1
\fTahoma|b0|i0;\H5.0000;xxxxxxxxxxx
  7
Text poznámky (ISO)
 73
     1
 44
1.0
  0
MTEXT
  5
119
330
FB
100
AcDbEntity
  8
Značka (ISO)
100
AcDbMText
 10
-55.52192909558073
 20
-6.862452441171491
 30
0.0
 40
5.0
 41
20.42139291763306
 71
     1
 72
     1
  1
\fTahoma|b0|i0;\H5.0000;xxxxxx
  7
Text poznámky (ISO)
 73
     1
 44
1.0
  0
MTEXT
  5
11A
330
FB
100
AcDbEntity
  8
Značka (ISO)
100
AcDbMText
 10
-27.63552601875791
 20
-6.862452441171491
 30
0.0
 40
5.0
 41
0.0
 71
     1
 72
     1
  1
\fTahoma|b0|i0;\H5.0000;xxxxxxxxxxx
  7
Text poznámky (ISO)
 73
     1
 44
1.0
  0
MTEXT
  5
11B
330
FB
100
AcDbEntity
  8
Značka (ISO)
100
AcDbMText
 10
-55.52192909558073
 20
-15.52177565039578
 30
0.0
 40
5.0
 41
20.42139291763306
 71
     1
 72
     1
  1
\fTahoma|b0|i0;\H5.0000;xxxxxx
  7
Text poznámky (ISO)
 73
     1
 44
1.0
  0
MTEXT
  5
11C
330
FB
100
AcDbEntity
  8
Značka (ISO)
100
AcDbMText
 10
-27.63552601875791
 20
-15.52177565039578
 30
0.0
 40
5.0
 41
0.0
 71
     1
 72
     1
  1
\fTahoma|b0|i0;\H5.0000;xxxxxxxxxxx
  7
Text poznámky (ISO)
 73
     1
 44
1.0
  0
ENDBLK
  5
FD
330
FB
100
AcDbEntity
  8
0
100
AcDbBlockEnd
  0
BLOCK
  5
11E
330
11D
100
AcDbEntity
  8
0
100
AcDbBlockBegin
  2
Tryskat
 70
     0
 10
0.0
 20
0.0
 30
0.0
  3
Tryskat
  1

  0
MTEXT
  5
120
330
11D
100
AcDbEntity
  8
Značka (ISO)
100
AcDbMText
 10
-30.20239114761352
 20
5.036920197308063
 30
0.0
 40
3.499999940395355
 41
0.0
 71
     1
 72
     1
  1
Tryskat \P( Blasted , Glasperlstrahken)
  7
Text poznámky (ISO)
 73
     2
 44
0.9878841638565063
  0
ENDBLK
  5
11F
330
11D
100
AcDbEntity
  8
0
100
AcDbBlockEnd
  0
BLOCK
  5
122
330
121
100
AcDbEntity
  8
0
100
AcDbBlockBegin
  2
Morit
 70
     0
 10
0.0
 20
0.0
 30
0.0
  3
Morit
  1

  0
MTEXT
  5
124
330
121
100
AcDbEntity
  8
Značka (ISO)
100
AcDbMText
 10
-19.08124089241028
 20
5.11633675545454
 30
0.0
 40
3.499999940395355
 41
0.0
 71
     1
 72
     1
  1
Morit a pasivovat\P(Pickled, gebeitzt)
  7
Text poznámky (ISO)
 73
     2
 44
0.9878841638565063
  0
ENDBLK
  5
123
330
121
100
AcDbEntity
  8
0
100
AcDbBlockEnd
  0
BLOCK
  5
126
330
125
100
AcDbEntity
  8
0
100
AcDbBlockBegin
  2
zinkovat
 70
     0
 10
0.0
 20
0.0
 30
0.0
  3
zinkovat
  1

  0
MTEXT
  5
128
330
125
100
AcDbEntity
  8
Značka (ISO)
100
AcDbMText
 10
-27.74189710617065
 20
5.049683563411233
 30
0.0
 40
3.499999940395355
 41
0.0
 71
     1
 72
     1
  1
Zarove zinkovat\P(hot galvanized, verzinkt )
  7
Text poznámky (ISO)
 73
     2
 44
0.9878841638565063
  0
ENDBLK
  5
127
330
125
100
AcDbEntity
  8
0
100
AcDbBlockEnd
  0
BLOCK
  5
12A
330
129
100
AcDbEntity
  8
0
100
AcDbBlockBegin
  2
Nater
 70
     0
 10
0.0
 20
0.0
 30
0.0
  3
Nater
  1

  0
MTEXT
  5
12C
330
129
100
AcDbEntity
  8
Značka (ISO)
100
AcDbMText
 10
-25.88411808013916
 20
1.864870421122757
 30
0.0
 40
3.499999940395355
 41
0.0
 71
     1
 72
     1
  1
Lackiert Farbe RAL 5002
  7
Text poznámky (ISO)
 73
     1
 44
1.0
  0
ENDBLK
  5
12B
330
129
100
AcDbEntity
  8
0
100
AcDbBlockEnd
  0
BLOCK
  5
12E
330
12D
100
AcDbEntity
  8
0
100
AcDbBlockBegin
  2
Brus
 70
     0
 10
0.0
 20
0.0
 30
0.0
  3
Brus
  1

  0
MTEXT
  5
130
330
12D
100
AcDbEntity
  8
Značka (ISO)
100
AcDbMText
 10
-23.46616744995117
 20
5.11633675545454
 30
0.0
 40
3.499999940395355
 41
0.0
 71
     1
 72
     1
  1
Brousit\P(geburstet , brushed )
  7
Text poznámky (ISO)
 73
     2
 44
0.9878841638565063
  0
ENDBLK
  5
12F
330
12D
100
AcDbEntity
  8
0
100
AcDbBlockEnd
  0
BLOCK
  5
132
330
131
100
AcDbEntity
  8
0
100
AcDbBlockBegin
  2
Elektroliticky lestit
 70
     0
 10
0.0
 20
0.0
 30
0.0
  3
Elektroliticky lestit
  1

  0
MTEXT
  5
134
330
131
100
AcDbEntity
  8
Značka (ISO)
100
AcDbMText
 10
-18.68841171264648
 20
5.036920197308063
 30
0.0
 40
3.499999940395355
 41
0.0
 71
     1
 72
     1
  1
Elektrolit. lestit\P(Elektropolished )
  7
Text poznámky (ISO)
 73
     2
 44
0.9878841638565063
  0
ENDBLK
  5
133
330
131
100
AcDbEntity
  8
0
100
AcDbBlockEnd
  0
BLOCK
  5
136
330
135
100
AcDbEntity
  8
0
100
AcDbBlockBegin
  2
Rámečky Default Border
 70
     0
 10
0.0
 20
0.0
 30
0.0
  3
Rámečky Default Border
  1

  0
POLYLINE
  5
138
330
135
100
AcDbEntity
  8
Rámeček (ISO)
100
AcDb2dPolyline
 66
     1
 10
0.0
 20
0.0
 30
0.0
 70
   128
  0
VERTEX
  5
139
330
138
100
AcDbEntity
  8
Rámeček (ISO)
100
AcDbVertex
100
AcDb2dVertex
 10
10.0
 20
10.0
 30
0.0
  0
VERTEX
  5
13A
330
138
100
AcDbEntity
  8
Rámeček (ISO)
100
AcDbVertex
100
AcDb2dVertex
 10
10.0
 20
287.0000076293946
 30
0.0
  0
VERTEX
  5
13C
330
138
100
AcDbEntity
  8
Rámeček (ISO)
100
AcDbVertex
100
AcDb2dVertex
 10
410.0
 20
287.0000076293946
 30
0.0
  0
VERTEX
  5
13D
330
138
100
AcDbEntity
  8
Rámeček (ISO)
100
AcDbVertex
100
AcDb2dVertex
 10
410.0
 20
10.0
 30
0.0
  0
VERTEX
  5
13E
330
138
100
AcDbEntity
  8
Rámeček (ISO)
100
AcDbVertex
100
AcDb2dVertex
 10
10.0
 20
10.0
 30
0.0
  0
SEQEND
  5
13B
330
138
100
AcDbEntity
  8
Rámeček (ISO)
  0
POLYLINE
  5
13F
330
135
100
AcDbEntity
  8
Rámeček (ISO)
100
AcDb2dPolyline
 66
     1
 10
0.0
 20
0.0
 30
0.0
 70
   128
  0
VERTEX
  5
140
330
13F
100
AcDbEntity
  8
Rámeček (ISO)
100
AcDbVertex
100
AcDb2dVertex
 10
210.0
 20
0.0
 30
0.0
  0
VERTEX
  5
141
330
13F
100
AcDbEntity
  8
Rámeček (ISO)
100
AcDbVertex
100
AcDb2dVertex
 10
210.0
 20
10.0
 30
0.0
  0
VERTEX
  5
143
330
13F
100
AcDbEntity
  8
Rámeček (ISO)
100
AcDbVertex
100
AcDb2dVertex
 10
207.1132469177246
 20
5.0
 30
0.0
  0
VERTEX
  5
144
330
13F
100
AcDbEntity
  8
Rámeček (ISO)
100
AcDbVertex
100
AcDb2dVertex
 10
212.8867530822754
 20
5.0
 30
0.0
  0
VERTEX
  5
145
330
13F
100
AcDbEntity
  8
Rámeček (ISO)
100
AcDbVertex
100
AcDb2dVertex
 10
210.0
 20
10.0
 30
0.0
  0
SEQEND
  5
142
330
13F
100
AcDbEntity
  8
Rámeček (ISO)
  0
POLYLINE
  5
146
330
135
100
AcDbEntity
  8
Rámeček (ISO)
100
AcDb2dPolyline
 66
     1
 10
0.0
 20
0.0
 30
0.0
 70
   128
  0
VERTEX
  5
147
330
146
100
AcDbEntity
  8
Rámeček (ISO)
100
AcDbVertex
100
AcDb2dVertex
 10
210.0
 20
297.0000076293946
 30
0.0
  0
VERTEX
  5
148
330
146
100
AcDbEntity
  8
Rámeček (ISO)
100
AcDbVertex
100
AcDb2dVertex
 10
210.0
 20
287.0000076293946
 30
0.0
  0
VERTEX
  5
14A
330
146
100
AcDbEntity
  8
Rámeček (ISO)
100
AcDbVertex
100
AcDb2dVertex
 10
207.1132469177246
 20
292.0000076293945
 30
0.0
  0
VERTEX
  5
14B
330
146
100
AcDbEntity
  8
Rámeček (ISO)
100
AcDbVertex
100
AcDb2dVertex
 10
212.8867530822754
 20
292.0000076293945
 30
0.0
  0
VERTEX
  5
14C
330
146
100
AcDbEntity
  8
Rámeček (ISO)
100
AcDbVertex
100
AcDb2dVertex
 10
210.0
 20
287.0000076293946
 30
0.0
  0
SEQEND
  5
149
330
146
100
AcDbEntity
  8
Rámeček (ISO)
  0
POLYLINE
  5
14D
330
135
100
AcDbEntity
  8
Rámeček (ISO)
100
AcDb2dPolyline
 66
     1
 10
0.0
 20
0.0
 30
0.0
 70
   128
  0
VERTEX
  5
14E
330
14D
100
AcDbEntity
  8
Rámeček (ISO)
100
AcDbVertex
100
AcDb2dVertex
 10
0.0
 20
148.5000038146973
 30
0.0
  0
VERTEX
  5
14F
330
14D
100
AcDbEntity
  8
Rámeček (ISO)
100
AcDbVertex
100
AcDb2dVertex
 10
10.0
 20
148.5000038146973
 30
0.0
  0
VERTEX
  5
151
330
14D
100
AcDbEntity
  8
Rámeček (ISO)
100
AcDbVertex
100
AcDb2dVertex
 10
5.0
 20
151.3867473602295
 30
0.0
  0
VERTEX
  5
152
330
14D
100
AcDbEntity
  8
Rámeček (ISO)
100
AcDbVertex
100
AcDb2dVertex
 10
5.0
 20
145.6132507324219
 30
0.0
  0
VERTEX
  5
153
330
14D
100
AcDbEntity
  8
Rámeček (ISO)
100
AcDbVertex
100
AcDb2dVertex
 10
10.0
 20
148.5000038146973
 30
0.0
  0
SEQEND
  5
150
330
14D
100
AcDbEntity
  8
Rámeček (ISO)
  0
POLYLINE
  5
154
330
135
100
AcDbEntity
  8
Rámeček (ISO)
100
AcDb2dPolyline
 66
     1
 10
0.0
 20
0.0
 30
0.0
 70
   128
  0
VERTEX
  5
155
330
154
100
AcDbEntity
  8
Rámeček (ISO)
100
AcDbVertex
100
AcDb2dVertex
 10
420.0
 20
148.5000038146973
 30
0.0
  0
VERTEX
  5
156
330
154
100
AcDbEntity
  8
Rámeček (ISO)
100
AcDbVertex
100
AcDb2dVertex
 10
410.0
 20
148.5000038146973
 30
0.0
  0
VERTEX
  5
158
330
154
100
AcDbEntity
  8
Rámeček (ISO)
100
AcDbVertex
100
AcDb2dVertex
 10
415.0
 20
151.3867473602295
 30
0.0
  0
VERTEX
  5
159
330
154
100
AcDbEntity
  8
Rámeček (ISO)
100
AcDbVertex
100
AcDb2dVertex
 10
415.0
 20
145.6132507324219
 30
0.0
  0
VERTEX
  5
15A
330
154
100
AcDbEntity
  8
Rámeček (ISO)
100
AcDbVertex
100
AcDb2dVertex
 10
410.0
 20
148.5000038146973
 30
0.0
  0
SEQEND
  5
157
330
154
100
AcDbEntity
  8
Rámeček (ISO)
  0
LINE
  5
15B
330
135
100
AcDbEntity
  8
Rámeček (ISO)
100
AcDbLine
 10
70.0
 20
10.0
 30
0.0
 11
70.0
 21
6.100000143051147
 31
0.0
  0
LINE
  5
15C
330
135
100
AcDbEntity
  8
Rámeček (ISO)
100
AcDbLine
 10
70.0
 20
287.0000076293946
 30
0.0
 11
70.0
 21
290.9000015258789
 31
0.0
  0
LINE
  5
15D
330
135
100
AcDbEntity
  8
Rámeček (ISO)
100
AcDbLine
 10
140.0
 20
10.0
 30
0.0
 11
140.0
 21
6.100000143051147
 31
0.0
  0
LINE
  5
15E
330
135
100
AcDbEntity
  8
Rámeček (ISO)
100
AcDbLine
 10
140.0
 20
287.0000076293946
 30
0.0
 11
140.0
 21
290.9000015258789
 31
0.0
  0
LINE
  5
15F
330
135
100
AcDbEntity
  8
Rámeček (ISO)
100
AcDbLine
 10
280.0
 20
10.0
 30
0.0
 11
280.0
 21
6.100000143051147
 31
0.0
  0
LINE
  5
160
330
135
100
AcDbEntity
  8
Rámeček (ISO)
100
AcDbLine
 10
280.0
 20
287.0000076293946
 30
0.0
 11
280.0
 21
290.9000015258789
 31
0.0
  0
LINE
  5
161
330
135
100
AcDbEntity
  8
Rámeček (ISO)
100
AcDbLine
 10
350.0
 20
10.0
 30
0.0
 11
350.0
 21
6.100000143051147
 31
0.0
  0
LINE
  5
162
330
135
100
AcDbEntity
  8
Rámeček (ISO)
100
AcDbLine
 10
350.0
 20
287.0000076293946
 30
0.0
 11
350.0
 21
290.9000015258789
 31
0.0
  0
MTEXT
  5
163
330
135
100
AcDbEntity
  8
Rámeček (ISO)
100
AcDbMText
 10
384.2103922448459
 20
287.4
 30
0.0
 40
3.499999940395355
 41
0.0
 71
     7
 72
     1
  1
1
  7
Text poznámky (ISO)
 73
     1
 44
1.0
  0
MTEXT
  5
164
330
135
100
AcDbEntity
  8
Rámeček (ISO)
100
AcDbMText
 10
384.2103922448459
 20
6.100000059604642
 30
0.0
 40
3.499999940395355
 41
0.0
 71
     7
 72
     1
  1
1
  7
Text poznámky (ISO)
 73
     1
 44
1.0
  0
MTEXT
  5
165
330
135
100
AcDbEntity
  8
Rámeček (ISO)
100
AcDbMText
 10
313.9387915541735
 20
287.4
 30
0.0
 40
3.499999940395355
 41
0.0
 71
     7
 72
     1
  1
2
  7
Text poznámky (ISO)
 73
     1
 44
1.0
  0
MTEXT
  5
166
330
135
100
AcDbEntity
  8
Rámeček (ISO)
100
AcDbMText
 10
313.9387915541735
 20
6.100000059604642
 30
0.0
 40
3.499999940395355
 41
0.0
 71
     7
 72
     1
  1
2
  7
Text poznámky (ISO)
 73
     1
 44
1.0
  0
MTEXT
  5
167
330
135
100
AcDbEntity
  8
Rámeček (ISO)
100
AcDbMText
 10
243.9107914829702
 20
287.3262560764327
 30
0.0
 40
3.499999940395355
 41
0.0
 71
     7
 72
     1
  1
3
  7
Text poznámky (ISO)
 73
     1
 44
1.0
  0
MTEXT
  5
168
330
135
100
AcDbEntity
  8
Rámeček (ISO)
100
AcDbMText
 10
243.9107914829702
 20
6.026256136037407
 30
0.0
 40
3.499999940395355
 41
0.0
 71
     7
 72
     1
  1
3
  7
Text poznámky (ISO)
 73
     1
 44
1.0
  0
MTEXT
  5
169
330
135
100
AcDbEntity
  8
Rámeček (ISO)
100
AcDbMText
 10
173.7791911483144
 20
287.4
 30
0.0
 40
3.499999940395355
 41
0.0
 71
     7
 72
     1
  1
4
  7
Text poznámky (ISO)
 73
     1
 44
1.0
  0
MTEXT
  5
16A
330
135
100
AcDbEntity
  8
Rámeček (ISO)
100
AcDbMText
 10
173.7791911483144
 20
6.100000059604642
 30
0.0
 40
3.499999940395355
 41
0.0
 71
     7
 72
     1
  1
4
  7
Text poznámky (ISO)
 73
     1
 44
1.0
  0
MTEXT
  5
16B
330
135
100
AcDbEntity
  8
Rámeček (ISO)
100
AcDbMText
 10
103.9751916467378
 20
287.3262560764327
 30
0.0
 40
3.499999940395355
 41
0.0
 71
     7
 72
     1
  1
5
  7
Text poznámky (ISO)
 73
     1
 44
1.0
  0
MTEXT
  5
16C
330
135
100
AcDbEntity
  8
Rámeček (ISO)
100
AcDbMText
 10
103.9751916467378
 20
6.026256136037407
 30
0.0
 40
3.499999940395355
 41
0.0
 71
     7
 72
     1
  1
5
  7
Text poznámky (ISO)
 73
     1
 44
1.0
  0
MTEXT
  5
16D
330
135
100
AcDbEntity
  8
Rámeček (ISO)
100
AcDbMText
 10
33.88279141176685
 20
287.3262560764327
 30
0.0
 40
3.499999940395355
 41
0.0
 71
     7
 72
     1
  1
6
  7
Text poznámky (ISO)
 73
     1
 44
1.0
  0
MTEXT
  5
16E
330
135
100
AcDbEntity
  8
Rámeček (ISO)
100
AcDbMText
 10
33.88279141176685
 20
6.026256136037407
 30
0.0
 40
3.499999940395355
 41
0.0
 71
     7
 72
     1
  1
6
  7
Text poznámky (ISO)
 73
     1
 44
1.0
  0
LINE
  5
16F
330
135
100
AcDbEntity
  8
Rámeček (ISO)
100
AcDbLine
 10
10.0
 20
74.25000190734862
 30
0.0
 11
6.100000143051147
 21
74.25000190734862
 31
0.0
  0
LINE
  5
170
330
135
100
AcDbEntity
  8
Rámeček (ISO)
100
AcDbLine
 10
410.0
 20
74.25000190734862
 30
0.0
 11
413.8999938964841
 21
74.25000190734862
 31
0.0
  0
LINE
  5
171
330
135
100
AcDbEntity
  8
Rámeček (ISO)
100
AcDbLine
 10
10.0
 20
222.7499961853027
 30
0.0
 11
6.100000143051147
 21
222.7499961853027
 31
0.0
  0
LINE
  5
172
330
135
100
AcDbEntity
  8
Rámeček (ISO)
100
AcDbLine
 10
410.0
 20
222.7499961853027
 30
0.0
 11
413.8999938964841
 21
222.7499961853027
 31
0.0
  0
MTEXT
  5
173
330
135
100
AcDbEntity
  8
Rámeček (ISO)
100
AcDbMText
 10
6.361230343933396
 20
35.37500002980233
 30
0.0
 40
3.499999940395355
 41
0.0
 71
     7
 72
     1
  1
A
  7
Text poznámky (ISO)
 73
     1
 44
1.0
  0
MTEXT
  5
174
330
135
100
AcDbEntity
  8
Rámeček (ISO)
100
AcDbMText
 10
410.6612302843286
 20
35.37500002980233
 30
0.0
 40
3.499999940395355
 41
0.0
 71
     7
 72
     1
  1
A
  7
Text poznámky (ISO)
 73
     1
 44
1.0
  0
MTEXT
  5
175
330
135
100
AcDbEntity
  8
Rámeček (ISO)
100
AcDbMText
 10
6.781848468328937
 20
109.6250000298023
 30
0.0
 40
3.499999940395355
 41
0.0
 71
     7
 72
     1
  1
B
  7
Text poznámky (ISO)
 73
     1
 44
1.0
  0
MTEXT
  5
176
330
135
100
AcDbEntity
  8
Rámeček (ISO)
100
AcDbMText
 10
411.0818484087242
 20
109.6250000298023
 30
0.0
 40
3.499999940395355
 41
0.0
 71
     7
 72
     1
  1
B
  7
Text poznámky (ISO)
 73
     1
 44
1.0
  0
MTEXT
  5
177
330
135
100
AcDbEntity
  8
Rámeček (ISO)
100
AcDbMText
 10
6.558903094188357
 20
183.8126013241708
 30
0.0
 40
3.499999940395355
 41
0.0
 71
     7
 72
     1
  1
C
  7
Text poznámky (ISO)
 73
     1
 44
1.0
  0
MTEXT
  5
178
330
135
100
AcDbEntity
  8
Rámeček (ISO)
100
AcDbMText
 10
410.8589030345836
 20
183.8126013241708
 30
0.0
 40
3.499999940395355
 41
0.0
 71
     7
 72
     1
  1
C
  7
Text poznámky (ISO)
 73
     1
 44
1.0
  0
MTEXT
  5
179
330
135
100
AcDbEntity
  8
Rámeček (ISO)
100
AcDbMText
 10
6.56770745709084
 20
258.1250000298023
 30
0.0
 40
3.499999940395355
 41
0.0
 71
     7
 72
     1
  1
D
  7
Text poznámky (ISO)
 73
     1
 44
1.0
  0
MTEXT
  5
17A
330
135
100
AcDbEntity
  8
Rámeček (ISO)
100
AcDbMText
 10
410.8677073974861
 20
258.1250000298023
 30
0.0
 40
3.499999940395355
 41
0.0
 71
     7
 72
     1
  1
D
  7
Text poznámky (ISO)
 73
     1
 44
1.0
  0
ENDBLK
  5
137
330
135
100
AcDbEntity
  8
0
100
AcDbBlockEnd
  0
BLOCK
  5
17D
330
17C
100
AcDbEntity
  8
0
100
AcDbBlockBegin
  2
Rohová razítka ACO-razitko
 70
     2
 10
0.0
 20
0.0
 30
0.0
  3
Rohová razítka ACO-razitko
  1

  0
LINE
  5
17F
330
17C
100
AcDbEntity
  8
KOPF
  6
Continuous
370
    25
100
AcDbLine
 10
264.0
 20
94.01203200000001
 30
0.0
 11
264.0
 21
74.00000000000003
 31
0.0
  0
LINE
  5
180
330
17C
100
AcDbEntity
  8
KOPF
  6
Continuous
370
    25
100
AcDbLine
 10
264.0
 20
94.01203200000001
 30
0.0
 11
264.0
 21
74.00000000000003
 31
0.0
  0
CIRCLE
  5
181
330
17C
100
AcDbEntity
  8
TEXT50
  6
Continuous
370
    25
100
AcDbCircle
 10
247.5054493575618
 20
83.04852954632861
 30
0.0
 40
1.979948192651899
  0
LINE
  5
182
330
17C
100
AcDbEntity
  8
TEXT50
  6
Continuous
370
    25
100
AcDbLine
 10
262.4910595621649
 20
85.02847773898061
 30
0.0
 11
262.4910595621649
 21
81.06858135367653
 31
0.0
  0
LINE
  5
183
330
17C
100
AcDbEntity
  8
TEXT50
  6
Continuous
370
    25
100
AcDbLine
 10
253.9413433929653
 20
87.07146289795376
 30
0.0
 11
253.9413433929653
 21
79.02559619470344
 31
0.0
  0
LINE
  5
184
330
17C
100
AcDbEntity
  8
TEXT50
  6
Continuous
370
    25
100
AcDbLine
 10
262.4910595621649
 20
85.02847773898061
 30
0.0
 11
253.9413433929653
 21
87.07146289795376
 31
0.0
  0
CIRCLE
  5
185
330
17C
100
AcDbEntity
  8
TEXT50
  6
Continuous
370
    25
100
AcDbCircle
 10
247.5054493575618
 20
83.04852954632861
 30
0.0
 40
4.022933351625178
  0
LINE
  5
186
330
17C
100
AcDbEntity
  8
TEXT50
  6
Continuous
370
    25
100
AcDbLine
 10
253.9413433929653
 20
79.02559619470344
 30
0.0
 11
262.4910595621649
 21
81.06858135367653
 31
0.0
  0
CIRCLE
  5
187
330
17C
100
AcDbEntity
  8
TEXT35
  6
Continuous
370
    25
100
AcDbCircle
 10
221.0936673107637
 20
101.9131972309053
 30
0.0
 40
2.281499999999998
  0
CIRCLE
  5
188
330
17C
100
AcDbEntity
  8
TEXT35
  6
Continuous
370
    25
100
AcDbCircle
 10
221.0936673107637
 20
101.9131972309053
 30
0.0
 40
1.579499999999999
  0
ARC
  5
189
330
17C
100
AcDbEntity
  8
TEXT35
  6
Continuous
370
    25
100
AcDbCircle
 10
214.6291610736662
 20
101.9131972309054
 30
0.0
 40
1.57950000000007
100
AcDbArc
 50
31.05580049908738
 51
329.9999999999987
  0
LINE
  5
18A
330
17C
100
AcDbEntity
  8
TEXT35
  6
Continuous
370
    25
100
AcDbLine
 10
215.9822639109751
 20
102.7280180465864
 30
0.0
 11
216.5902852082589
 21
103.0790593062462
 31
0.0
  0
ARC
  5
18B
330
17C
100
AcDbEntity
  8
TEXT35
  6
Continuous
370
    25
100
AcDbCircle
 10
214.6291610736662
 20
101.9131972309052
 30
0.0
 40
2.281500000000015
100
AcDbArc
 50
30.73091726592628
 51
330.0000000000017
  0
LINE
  5
18C
330
17C
100
AcDbEntity
  8
TEXT35
  6
Continuous
370
    25
100
AcDbLine
 10
216.6049980324005
 20
100.7724472309053
 30
0.0
 11
215.9970481989438
 21
101.1234472309053
 31
0.0
  0
LINE
  5
18D
330
17C
100
AcDbEntity
  8
TEXT35
  6
Continuous
370
    25
100
AcDbLine
 10
211.8347763192409
 20
111.6789659312995
 30
0.0
 11
211.8347763192409
 21
98.44416361029551
 31
0.0
  0
LINE
  5
18E
330
17C
100
AcDbEntity
  8
TEXT35
  6
Continuous
370
    25
100
AcDbLine
 10
211.8347763192409
 20
98.44416361029551
 30
0.0
 11
217.4235458280916
 21
98.44416361029551
 31
0.0
  0
LINE
  5
18F
330
17C
100
AcDbEntity
  8
TEXT35
  6
Continuous
370
    25
100
AcDbLine
 10
217.4235458280916
 20
98.44416361029551
 30
0.0
 11
217.4235458280916
 21
111.6789659312995
 31
0.0
  0
LINE
  5
190
330
17C
100
AcDbEntity
  8
TEXT35
  6
Continuous
370
    25
100
AcDbLine
 10
217.4235458280916
 20
111.6789659312995
 30
0.0
 11
211.8347763192409
 21
111.6789659312995
 31
0.0
  0
LINE
  5
191
330
17C
100
AcDbEntity
  8
TEXT35
  6
Continuous
370
    25
100
AcDbLine
 10
223.888052065189
 20
111.6789659312995
 30
0.0
 11
223.888052065189
 21
98.44416361029551
 31
0.0
  0
LINE
  5
192
330
17C
100
AcDbEntity
  8
TEXT35
  6
Continuous
370
    25
100
AcDbLine
 10
223.888052065189
 20
98.44416361029551
 30
0.0
 11
218.2992825563384
 21
98.44416361029551
 31
0.0
  0
LINE
  5
193
330
17C
100
AcDbEntity
  8
TEXT35
  6
Continuous
370
    25
100
AcDbLine
 10
218.2992825563384
 20
98.44416361029551
 30
0.0
 11
218.2992825563384
 21
111.6789659312995
 31
0.0
  0
LINE
  5
194
330
17C
100
AcDbEntity
  8
TEXT35
  6
Continuous
370
    25
100
AcDbLine
 10
218.2992825563384
 20
111.6789659312995
 30
0.0
 11
223.888052065189
 21
111.6789659312995
 31
0.0
  0
ARC
  5
195
330
17C
100
AcDbEntity
  8
TEXT35
  6
Continuous
370
    25
100
AcDbCircle
 10
211.499154836569
 20
99.57623034270234
 30
0.0
 40
4.914000000000251
100
AcDbArc
 50
172.305837035409
 51
179.7113029220757
  0
LINE
  5
196
330
17C
100
AcDbEntity
  8
TEXT35
  6
Continuous
370
    25
100
AcDbLine
 10
206.6293963427935
 20
100.2341423522474
 30
0.0
 11
209.6999133303443
 21
100.2341423522474
 31
0.0
  0
ARC
  5
197
330
17C
100
AcDbEntity
  8
TEXT35
  6
Continuous
370
    25
100
AcDbCircle
 10
204.8301548365688
 20
99.57623034270323
 30
0.0
 40
4.914000000000132
100
AcDbArc
 50
0.2886970779141535
 51
7.694162964580896
  0
LINE
  5
198
330
17C
100
AcDbEntity
  8
TEXT35
  6
Continuous
370
    25
100
AcDbLine
 10
209.7440924568018
 20
99.60099048123304
 30
0.0
 11
210.4461002543538
 21
99.60099048123304
 31
0.0
  0
ARC
  5
199
330
17C
100
AcDbEntity
  8
TEXT35
  6
Continuous
370
    25
100
AcDbCircle
 10
204.8301548365688
 20
99.5762303427033
 30
0.0
 40
5.616000000000016
100
AcDbArc
 50
0.2526096926473688
 51
53.57642635766914
  0
ARC
  5
19A
330
17C
100
AcDbEntity
  8
TEXT35
  6
Continuous
370
    25
100
AcDbCircle
 10
211.4991548365688
 20
99.57623034270323
 30
0.0
 40
5.616000000000023
100
AcDbArc
 50
126.4235736423304
 51
179.7473903073512
  0
LINE
  5
19B
330
17C
100
AcDbEntity
  8
TEXT35
  6
Continuous
370
    25
100
AcDbLine
 10
205.8832094187838
 20
99.60099048123304
 30
0.0
 11
206.5852172163358
 21
99.60099048123304
 31
0.0
  0
LINE
  5
19C
330
17C
100
AcDbEntity
  8
TEXT35
  6
Continuous
370
    25
100
AcDbLine
 10
205.3702700821435
 20
111.6789659312995
 30
0.0
 11
205.3702700821435
 21
98.44416361029551
 31
0.0
  0
LINE
  5
19D
330
17C
100
AcDbEntity
  8
TEXT35
  6
Continuous
370
    25
100
AcDbLine
 10
205.3702700821435
 20
98.44416361029551
 30
0.0
 11
210.9590395909941
 21
98.44416361029551
 31
0.0
  0
LINE
  5
19E
330
17C
100
AcDbEntity
  8
TEXT35
  6
Continuous
370
    25
100
AcDbLine
 10
210.9590395909941
 20
98.44416361029551
 30
0.0
 11
210.9590395909941
 21
111.6789659312995
 31
0.0
  0
LINE
  5
19F
330
17C
100
AcDbEntity
  8
TEXT35
  6
Continuous
370
    25
100
AcDbLine
 10
210.9590395909941
 20
111.6789659312995
 30
0.0
 11
205.3702700821435
 21
111.6789659312995
 31
0.0
  0
ARC
  5
1A0
330
17C
100
AcDbEntity
  8
TEXT35
  6
Continuous
370
    25
100
AcDbCircle
 10
204.830154836569
 20
99.57623034270341
 30
0.0
 40
4.913999999999818
100
AcDbArc
 50
16.0658750272321
 51
47.26788995739759
  0
LINE
  5
1A1
330
17C
100
AcDbEntity
  8
TEXT35
  6
Continuous
370
    25
100
AcDbLine
 10
209.5522343918387
 20
100.9361423522474
 30
0.0
 11
206.7770752812989
 21
100.9361423522474
 31
0.0
  0
ARC
  5
1A2
330
17C
100
AcDbEntity
  8
TEXT35
  6
Continuous
370
    25
100
AcDbCircle
 10
211.4991548365683
 20
99.57623034270341
 30
0.0
 40
4.913999999999566
100
AcDbArc
 50
132.7321100425983
 51
163.9341249727667
  0
LINE
  5
1A3
330
17C
100
AcDbEntity
  8
Nadpis (ISO)
100
AcDbLine
 10
299.0
 20
114.0
 30
0.0
 11
299.0
 21
45.0
 31
0.0
  0
LINE
  5
1A4
330
17C
100
AcDbEntity
  8
Nadpis (ISO)
100
AcDbLine
 10
299.0
 20
45.0
 30
0.0
 11
117.0
 21
44.99999999999999
 31
0.0
  0
LINE
  5
1A5
330
17C
100
AcDbEntity
  8
Nadpis (ISO)
100
AcDbLine
 10
117.0
 20
44.99999999999999
 30
0.0
 11
117.0
 21
114.0
 31
0.0
  0
LINE
  5
1A6
330
17C
100
AcDbEntity
  8
Nadpis (ISO)
100
AcDbLine
 10
117.0
 20
114.0
 30
0.0
 11
299.0
 21
114.0
 31
0.0
  0
LINE
  5
1A7
330
17C
100
AcDbEntity
  8
Nadpis (ISO)
100
AcDbLine
 10
199.0
 20
114.0
 30
0.0
 11
199.0
 21
93.99999999999998
 31
0.0
  0
LINE
  5
1A8
330
17C
100
AcDbEntity
  8
KOPF
100
AcDbLine
 10
199.0
 20
104.0
 30
0.0
 11
117.0
 21
104.0
 31
0.0
  0
LINE
  5
1A9
330
17C
100
AcDbEntity
  8
Nadpis (ISO)
100
AcDbLine
 10
199.0
 20
93.99999999999998
 30
0.0
 11
117.0
 21
93.99999999999996
 31
0.0
  0
LINE
  5
1AA
330
17C
100
AcDbEntity
  8
KOPF
100
AcDbLine
 10
158.0
 20
93.99999999999998
 30
0.0
 11
158.0
 21
114.0
 31
0.0
  0
LINE
  5
1AB
330
17C
100
AcDbEntity
  8
Nadpis (ISO)
100
AcDbLine
 10
199.0
 20
93.99999999999998
 30
0.0
 11
299.0
 21
93.99999999999998
 31
0.0
  0
LINE
  5
1AC
330
17C
100
AcDbEntity
  8
Nadpis (ISO)
100
AcDbLine
 10
216.0
 20
94.00000000000003
 30
0.0
 11
216.0
 21
44.99999999999999
 31
0.0
  0
LINE
  5
1AD
330
17C
100
AcDbEntity
  8
Nadpis (ISO)
100
AcDbLine
 10
299.0
 20
74.00000000000004
 30
0.0
 11
117.0
 21
73.99999999999998
 31
0.0
  0
LINE
  5
1AE
330
17C
100
AcDbEntity
  8
Nadpis (ISO)
100
AcDbLine
 10
186.0
 20
94.0
 30
0.0
 11
186.0
 21
74.00000000000002
 31
0.0
  0
LINE
  5
1AF
330
17C
100
AcDbEntity
  8
KOPF
100
AcDbLine
 10
137.0
 20
93.99999999999998
 30
0.0
 11
137.0
 21
74.0
 31
0.0
  0
LINE
  5
1B0
330
17C
100
AcDbEntity
  8
KOPF
100
AcDbLine
 10
162.0
 20
93.99999999999998
 30
0.0
 11
162.0
 21
74.0
 31
0.0
  0
LINE
  5
1B1
330
17C
100
AcDbEntity
  8
KOPF
100
AcDbLine
 10
186.0
 20
84.0
 30
0.0
 11
117.0
 21
83.99999999999996
 31
0.0
  0
LINE
  5
1B2
330
17C
100
AcDbEntity
  8
KOPF
100
AcDbLine
 10
186.0
 20
79.0
 30
0.0
 11
117.0
 21
78.99999999999997
 31
0.0
  0
LINE
  5
1B3
330
17C
100
AcDbEntity
  8
KOPF
100
AcDbLine
 10
186.0
 20
89.0
 30
0.0
 11
117.0
 21
88.99999999999996
 31
0.0
  0
LINE
  5
1B4
330
17C
100
AcDbEntity
  8
KOPF
100
AcDbLine
 10
216.0
 20
50.0
 30
0.0
 11
299.0
 21
50.0
 31
0.0
  0
LINE
  5
1B5
330
17C
100
AcDbEntity
  8
Nadpis (ISO)
100
AcDbLine
 10
216.0
 20
55.0
 30
0.0
 11
299.0
 21
55.0
 31
0.0
  0
LINE
  5
1B6
330
17C
100
AcDbEntity
  8
KOPF
100
AcDbLine
 10
238.0000000000001
 20
93.99999999999998
 30
0.0
 11
238.0000000000001
 21
74.00000000000003
 31
0.0
  0
LINE
  5
1B7
330
17C
100
AcDbEntity
  8
KOPF
100
AcDbLine
 10
238.0000000000001
 20
84.00000000000003
 30
0.0
 11
216.0
 21
84.00000000000003
 31
0.0
  0
LINE
  5
1B8
330
17C
100
AcDbEntity
  8
Nadpis (ISO)
100
AcDbLine
 10
287.0
 20
74.00000000000004
 30
0.0
 11
287.0
 21
55.0
 31
0.0
  0
LINE
  5
1B9
330
17C
100
AcDbEntity
  8
KOPF
100
AcDbLine
 10
289.0
 20
50.0
 30
0.0
 11
289.0
 21
45.0
 31
0.0
  0
LINE
  5
1BA
330
17C
100
AcDbEntity
  8
Nadpis (ISO)
100
AcDbLine
 10
260.9160465310349
 20
50.0
 30
0.0
 11
260.9160465310349
 21
45.0
 31
0.0
  0
TEXT
  5
1BC
330
17C
100
AcDbEntity
  8
Viditelná tenká (ISO)
100
AcDbText
 10
266.0
 20
84.97994933403729
 30
0.0
 40
1.539999991655349
  1
zum Zweck anderweitiger Benutzung
 41
0.7999999523162842
  7
Styl textu62
100
AcDbText
  0
TEXT
  5
1BE
330
17C
100
AcDbEntity
  8
Viditelná tenká (ISO)
100
AcDbText
 10
266.0
 20
82.63814072439631
 30
0.0
 40
1.539999991655349
  1
mitgeteilt werden und bleibt unser
 41
0.7999999523162842
  7
Styl textu62
100
AcDbText
  0
TEXT
  5
1BF
330
17C
100
AcDbEntity
  8
Viditelná tenká (ISO)
100
AcDbText
 10
266.0
 20
87.26106040199921
 30
0.0
 40
1.539999991655349
  1
noch dritten Personen, insbesondere
 41
0.7999999523162842
  7
Styl textu62
100
AcDbText
  0
TEXT
  5
1C0
330
17C
100
AcDbEntity
  8
Viditelná tenká (ISO)
100
AcDbText
 10
266.0
 20
89.6282322587214
 30
0.0
 40
1.539999991655349
  1
Diese Zeichnung darf weder kopiert
 41
0.7999999523162842
  7
Styl textu62
100
AcDbText
  0
TEXT
  5
1C1
330
17C
100
AcDbEntity
  8
Viditelná tenká (ISO)
100
AcDbText
 10
266.0
 20
80.37532604459597
 30
0.0
 40
1.539999991655349
  1
Eigentum.
 41
0.7999999523162842
  7
Styl textu62
100
AcDbText
  0
TEXT
  5
1C3
330
17C
100
AcDbEntity
  8
Viditelná tenká (ISO)
100
AcDbText
 10
241.877559521167
 20
90.82431699999998
 30
0.0
 40
2.000000029802321
  1
Projektion: ISO-E
 41
0.7999999523162842
  7
Styl textu58
100
AcDbText
  0
TEXT
  5
1C5
330
17C
100
AcDbEntity
  8
Viditelná tenká (ISO)
100
AcDbText
 10
266.0
 20
77.30982488917627
 30
0.0
 40
1.539999991655349
  1
Schutzvermerk nach DIN 34 beachten
 41
0.75
  7
Styl textu63
100
AcDbText
  0
TEXT
  5
1C6
330
17C
100
AcDbEntity
  8
Viditelná tenká (ISO)
100
AcDbText
 10
236.2487793316645
 20
99.38243367792949
 30
0.0
 40
2.000000029802321
  1
582 22 Přibyslav
 41
0.7999999523162842
  7
Styl textu58
100
AcDbText
  0
TEXT
  5
1C8
330
17C
100
AcDbEntity
  8
Viditelná tenká (ISO)
100
AcDbText
 10
261.6984261202779
 20
99.57784645000472
 30
0.0
 40
2.099999934434889
  1
Fax: 0451 / 482529
 41
0.7000000476837159
  7
Styl textu72
100
AcDbText
  0
TEXT
  5
1C9
330
17C
100
AcDbEntity
  8
Viditelná tenká (ISO)
100
AcDbText
 10
236.5351154208068
 20
103.0087314099309
 30
0.0
 40
2.000000029802321
  1
Havličkova 260
 41
0.7999999523162842
  7
Styl textu58
100
AcDbText
  0
TEXT
  5
1CB
330
17C
100
AcDbEntity
  8
TEXT35
100
AcDbText
 10
235.9801354774567
 20
108.2018007493417
 30
0.0
 40
3.000000119209288
  1
ACO Industries
 41
0.7999999523162842
  7
Styl textu75
100
AcDbText
  0
TEXT
  5
1CC
330
17C
100
AcDbEntity
  8
Viditelná tenká (ISO)
100
AcDbText
 10
261.6456899832647
 20
102.9064533471121
 30
0.0
 40
2.099999934434889
  1
Tel.: 0451 / 491660
 41
0.7000000476837159
  7
Styl textu72
100
AcDbText
  0
MTEXT
  5
1CD
330
17C
100
AcDbEntity
  8
Viditelná tenká (ISO)
100
AcDbMText
 10
217.3570092483237
 20
73.27889989032858
 30
0.0
 40
2.000000029802321
 41
0.0
 71
     1
 72
     1
  1
\fArial|b0|i0;\H2.0000;Zeichnung Nr.
  7
Text poznámky (ISO)
 73
     1
 44
1.0
  0
MTEXT
  5
1CE
330
17C
100
AcDbEntity
  8
Viditelná tenká (ISO)
100
AcDbMText
 10
287.9433731401013
 20
72.84063462326732
 30
0.0
 40
2.000000029802321
 41
0.0
 71
     1
 72
     1
  1
\fArial|b0|i0;\H2.0000;Index
  7
Text poznámky (ISO)
 73
     1
 44
1.0
  0
MTEXT
  5
1CF
330
17C
100
AcDbEntity
  8
Viditelná tenká (ISO)
100
AcDbMText
 10
217.1230582952341
 20
52.63510416823109
 30
0.0
 40
2.000000029802321
 41
0.0
 71
     1
 72
     1
  1
\fArial|b0|i0;\H2.0000;Ersatz fur\PErsatz durch
  7
Text poznámky (ISO)
 73
     2
 44
0.9442214369773862
  0
MTEXT
  5
1D0
330
17C
100
AcDbEntity
  8
Viditelná tenká (ISO)
100
AcDbMText
 10
188.9161081342839
 20
93.0
 30
0.0
 40
2.000000029802321
 41
0.0
 71
     1
 72
     1
  1
\fArial|b0|i0;\H2.0000;Massstab
  7
Text poznámky (ISO)
 73
     1
 44
1.0
  0
MTEXT
  5
1D1
330
17C
100
AcDbEntity
  8
Viditelná tenká (ISO)
100
AcDbMText
 10
217.0
 20
93.0
 30
0.0
 40
2.000000029802321
 41
0.0
 71
     1
 72
     1
  1
\fArial|b0|i0;\H2.0000;Masseinheit
  7
Text poznámky (ISO)
 73
     1
 44
1.0
  0
MTEXT
  5
1D2
330
17C
100
AcDbEntity
  8
Viditelná tenká (ISO)
100
AcDbMText
 10
118.0
 20
113.0
 30
0.0
 40
2.000000029802321
 41
0.0
 71
     1
 72
     1
  1
\fArial|b0|i0;\H2.0000;Werkstoff.
  7
Text poznámky (ISO)
 73
     1
 44
1.0
  0
MTEXT
  5
1D3
330
17C
100
AcDbEntity
  8
Viditelná tenká (ISO)
100
AcDbMText
 10
159.0
 20
113.0
 30
0.0
 40
2.000000029802321
 41
0.0
 71
     1
 72
     1
  1
\fArial|b0|i0;\H2.0000;Hmotnost
  7
Text poznámky (ISO)
 73
     1
 44
1.0
  0
MTEXT
  5
1D4
330
17C
100
AcDbEntity
  8
Viditelná tenká (ISO)
100
AcDbMText
 10
118.0
 20
103.0
 30
0.0
 40
2.000000029802321
 41
0.0
 71
     1
 72
     1
  1
\fArial|b0|i0;\H2.0000;zul.Abweich.
  7
Text poznámky (ISO)
 73
     1
 44
1.0
  0
MTEXT
  5
1D5
330
17C
100
AcDbEntity
  8
Viditelná tenká (ISO)
100
AcDbMText
 10
159.0
 20
103.0
 30
0.0
 40
2.000000029802321
 41
0.0
 71
     1
 72
     1
  1
\fArial|b0|i0;\H2.0000;Oberflache
  7
Text poznámky (ISO)
 73
     1
 44
1.0
  0
MTEXT
  5
1D6
330
17C
100
AcDbEntity
  8
Viditelná tenká (ISO)
100
AcDbMText
 10
118.2064366962235
 20
87.52498463872976
 30
0.0
 40
2.000000029802321
 41
0.0
 71
     1
 72
     1
  1
\fArial|b0|i0;\H2.0000;Gezeichnet
  7
Text poznámky (ISO)
 73
     1
 44
1.0
  0
MTEXT
  5
1D7
330
17C
100
AcDbEntity
  8
Viditelná tenká (ISO)
100
AcDbMText
 10
118.2064366962235
 20
82.79398756785594
 30
0.0
 40
2.000000029802321
 41
0.0
 71
     1
 72
     1
  1
\fArial|b0|i0;\H2.0000;Gepruft
  7
Text poznámky (ISO)
 73
     1
 44
1.0
  0
MTEXT
  5
1D8
330
17C
100
AcDbEntity
  8
Viditelná tenká (ISO)
100
AcDbMText
 10
118.2064366962235
 20
77.59713566222233
 30
0.0
 40
2.000000029802321
 41
0.0
 71
     1
 72
     1
  1
\fArial|b0|i0;\H2.0000;Update
  7
Text poznámky (ISO)
 73
     1
 44
1.0
  0
MTEXT
  5
1D9
330
17C
100
AcDbEntity
  8
Viditelná tenká (ISO)
100
AcDbMText
 10
143.0
 20
93.0
 30
0.0
 40
2.000000029802321
 41
0.0
 71
     1
 72
     1
  1
\fArial|b0|i0;\H2.0000;Datum
  7
Text poznámky (ISO)
 73
     1
 44
1.0
  0
MTEXT
  5
1DA
330
17C
100
AcDbEntity
  8
Viditelná tenká (ISO)
100
AcDbMText
 10
170.0
 20
93.0
 30
0.0
 40
2.000000029802321
 41
0.0
 71
     1
 72
     1
  1
\fArial|b0|i0;\H2.0000;Name
  7
Text poznámky (ISO)
 73
     1
 44
1.0
  0
MTEXT
  5
1DB
102
{ACAD_XDICTIONARY
360
F02
102
}
330
17C
100
AcDbEntity
  8
Nadpis (ISO)
100
AcDbMText
 10
118.0
 20
71.0
 30
0.0
 40
3.499999940395355
 41
0.0
 71
     1
 72
     1
  1
InDrain ro\U+0161t quadrat 168x168-25,V2A
  7
Text poznámky (ISO)
 73
     1
 44
1.0
  0
MTEXT
  5
1DC
330
17C
100
AcDbEntity
  8
Nadpis (ISO)
100
AcDbMText
 10
117.5939056808251
 20
108.6756657996811
 30
0.0
 40
3.499999940395355
 41
0.0
 71
     1
 72
     1
  1
AISI 304
  7
Text poznámky (ISO)
 73
     1
 44
1.0
  0
MTEXT
  5
1DD
330
17C
100
AcDbEntity
  8
Nadpis (ISO)
100
AcDbMText
 10
138.6542642016321
 20
87.78242706242744
 30
0.0
 40
2.000000029802321
 41
0.0
 71
     1
 72
     1
  1
\fTahoma|b0|i0;\H2.0000;27.10.2010
  7
Text poznámky (ISO)
 73
     1
 44
1.0
  0
MTEXT
  5
1DE
330
17C
100
AcDbEntity
  8
Nadpis (ISO)
100
AcDbMText
 10
118.9147684950603
 20
98.79632878646518
 30
0.0
 40
3.499999940395355
 41
0.0
 71
     1
 72
     1
  1
ISO 2768-m
  7
Text poznámky (ISO)
 73
     1
 44
1.0
  0
MTEXT
  5
1DF
330
17C
100
AcDbEntity
  8
Nadpis (ISO)
100
AcDbMText
 10
162.5831033854
 20
99.20167780246003
 30
0.0
 40
3.499999940395355
 41
0.0
 71
     1
 72
     1
  1
DIN ISO 1302
  7
Text poznámky (ISO)
 73
     1
 44
1.0
  0
MTEXT
  5
1E0
330
17C
100
AcDbEntity
  8
Nadpis (ISO)
100
AcDbMText
 10
262.4743825961981
 20
49.17778241269704
 30
0.0
 40
3.499999940395355
 41
0.0
 71
     1
 72
     1
  1
\fArial|b0|i0;\H3.5000;List:\fArial|b0|i0;\H3.5000;1 \fArial|b0|i0;\H3.5000;/\fArial|b0|i0;\H3.5000;1 
  7
Text poznámky (ISO)
 73
     1
 44
1.0
  0
MTEXT
  5
1E1
330
17C
100
AcDbEntity
  8
Nadpis (ISO)
100
AcDbMText
 10
159.4396788094336
 20
109.6756657996811
 30
0.0
 40
3.499999940395355
 41
29.10098367733216
 71
     1
 72
     1
  1
0,78 kg
  7
Text poznámky (ISO)
 73
     1
 44
1.0
  0
ATTDEF
  5
1E3
102
{ACAD_XDICTIONARY
360
BBA
102
}
330
17C
100
AcDbEntity
  8
Nadpis (ISO)
100
AcDbText
 10
287.4393862219839
 20
62.4856753668063
 30
0.0
 40
3.499999940395355
  1
000
  7
Styl textu9
100
AcDbAttributeDefinition
  3
ČÍSLO REVIZE
  2
ČÍSLO_REVIZE_001
 70
     0
  0
ATTDEF
  5
1E7
102
{ACAD_XDICTIONARY
360
BBD
102
}
330
17C
100
AcDbEntity
  8
Nadpis (ISO)
100
AcDbText
 10
289.7753402652471
 20
46.32882590415592
 30
0.0
 40
2.000000029802321
  1
A3
  7
Styl textu40
100
AcDbAttributeDefinition
  3
Sheet Size
  2
Sheet_Size_001
 70
     0
  0
ATTDEF
  5
1E8
102
{ACAD_XDICTIONARY
360
BC0
102
}
330
17C
100
AcDbEntity
  8
Nadpis (ISO)
100
AcDbText
 10
230.1305737493188
 20
51.10091360311345
 30
0.0
 40
2.000000029802321
  1
C:\Inventor_DATA\Projekty\FloorDrain B\Rošty\InDrain rošt quadrat\InDrain rošt quadrat-sestava\InDrain rošt quadrat 168x168-25,V2A.iam
  7
Styl textu40
100
AcDbAttributeDefinition
  3
FILENAME AND PATH
  2
FILENAME_AND_PATH_001
 70
     0
  0
ATTDEF
  5
1E9
102
{ACAD_XDICTIONARY
360
BC3
102
}
330
17C
100
AcDbEntity
  8
Nadpis (ISO)
100
AcDbText
 10
217.9059771674843
 20
62.42008065196634
 30
0.0
 40
3.499999940395355
  1
408092
  7
Text poznámky (ISO)
100
AcDbAttributeDefinition
  3
PART NUMBER
  2
PART_NUMBER_001
 70
     0
  0
ATTDEF
  5
1EA
102
{ACAD_XDICTIONARY
360
BC6
102
}
330
17C
100
AcDbEntity
  8
Nadpis (ISO)
100
AcDbText
 10
117.6450638072534
 20
56.06044331759394
 30
0.0
 40
3.499999940395355
  1
Rošty InDrain
  7
Text poznámky (ISO)
100
AcDbAttributeDefinition
  3
PROJECT
  2
PROJECT_001
 70
     0
  0
ATTDEF
  5
1EC
102
{ACAD_XDICTIONARY
360
BC9
102
}
330
17C
100
AcDbEntity
  8
Nadpis (ISO)
100
AcDbText
 10
117.8119543349687
 20
47.73407435882505
 30
0.0
 40
6.99999988079071
  1
408092
  7
Styl textu94
100
AcDbAttributeDefinition
  3
SKLADOVÉ ČÍSLO
  2
SKLADOVÉ_ČÍSLO_001
 70
     0
  0
ATTDEF
  5
1ED
102
{ACAD_XDICTIONARY
360
BCC
102
}
330
17C
100
AcDbEntity
  8
Nadpis (ISO)
100
AcDbText
 10
165.0470513532835
 20
85.78242703262512
 30
0.0
 40
2.000000029802321
  1
mkotera
  7
Styl textu40
100
AcDbAttributeDefinition
  3
AUTHOR
  2
AUTHOR_001
 70
     0
  0
ATTDEF
  5
1EE
102
{ACAD_XDICTIONARY
360
BCF
102
}
330
17C
100
AcDbEntity
  8
Nadpis (ISO)
100
AcDbText
 10
189.1855699863978
 20
82.50038826992808
 30
0.0
 40
3.499999940395355
  1

  7
Text poznámky (ISO)
 11
189.1855699863978
 21
86.00038821032343
 31
0.0
100
AcDbAttributeDefinition
  3
VS_First
  2
VS_First
 70
     0
 74
     3
  0
ENDBLK
  5
17E
330
17C
100
AcDbEntity
  8
0
100
AcDbBlockEnd
  0
BLOCK
  5
6D5
330
6D4
100
AcDbEntity
  8
0
100
AcDbBlockBegin
  2
2dPrevedenyRez0
 70
     0
 10
0.0
 20
0.0
 30
0.0
  3
2dPrevedenyRez0
  1

  0
LINE
  5
6D7
330
6D4
100
AcDbEntity
  8
Čára řezu (ISO)
  6
Continuous
100
AcDbLine
 10
103.7860891205951
 20
199.9871910967458
 30
0.0
 11
103.7860891205951
 21
90.72827777288855
 31
0.0
  0
LINE
  5
6D8
330
6D4
100
AcDbEntity
  8
Čára řezu (ISO)
  6
Continuous
370
    35
100
AcDbLine
 10
103.7860891205951
 20
199.9871910967458
 30
0.0
 11
103.7860891205951
 21
197.1695405842898
 31
0.0
  0
LINE
  5
6D9
330
6D4
100
AcDbEntity
  8
Čára řezu (ISO)
  6
Continuous
370
    35
100
AcDbLine
 10
103.7860891205951
 20
93.54592828534462
 30
0.0
 11
103.7860891205951
 21
90.72827777288855
 31
0.0
  0
LINE
  5
6DA
330
6D4
100
AcDbEntity
  8
Čára řezu (ISO)
  6
Continuous
100
AcDbLine
 10
101.2860891205951
 20
198.5783658405178
 30
0.0
 11
103.7860891205951
 21
198.5783658405178
 31
0.0
  0
POLYLINE
  5
6DB
330
6D4
100
AcDbEntity
  8
Čára řezu (ISO)
  6
Continuous
100
AcDb2dPolyline
 66
     1
 10
0.0
 20
0.0
 30
0.0
 70
   128
  0
VERTEX
  5
6DC
330
6DB
100
AcDbEntity
  8
Čára řezu (ISO)
  6
Continuous
100
AcDbVertex
100
AcDb2dVertex
 10
101.2860891205951
 20
198.078367160153
 30
0.0
  0
VERTEX
  5
6DD
330
6DB
100
AcDbEntity
  8
Čára řezu (ISO)
  6
Continuous
100
AcDbVertex
100
AcDb2dVertex
 10
103.7860891205951
 20
198.5783642991301
 30
0.0
  0
VERTEX
  5
6DF
330
6DB
100
AcDbEntity
  8
Čára řezu (ISO)
  6
Continuous
100
AcDbVertex
100
AcDb2dVertex
 10
101.2860891205951
 20
199.0783662064787
 30
0.0
  0
VERTEX
  5
6E0
330
6DB
100
AcDbEntity
  8
Čára řezu (ISO)
  6
Continuous
100
AcDbVertex
100
AcDb2dVertex
 10
101.2860891205951
 20
198.078367160153
 30
0.0
  0
SEQEND
  5
6DE
330
6DB
100
AcDbEntity
  8
Čára řezu (ISO)
  6
Continuous
  0
SOLID
  5
6E1
330
6D4
100
AcDbEntity
  8
Čára řezu (ISO)
100
AcDbTrace
 10
101.2860891205951
 20
198.078367160153
 30
0.0
 11
103.7860891205951
 21
198.5783642991301
 31
0.0
 12
101.2860891205951
 22
199.0783662064787
 32
0.0
 13
101.2860891205951
 23
198.078367160153
 33
0.0
  0
LINE
  5
6E2
330
6D4
100
AcDbEntity
  8
Čára řezu (ISO)
  6
Continuous
100
AcDbLine
 10
101.2860891205951
 20
198.0783658405178
 30
0.0
 11
103.7860891205951
 21
198.5783658405178
 31
0.0
  0
LINE
  5
6E3
330
6D4
100
AcDbEntity
  8
Čára řezu (ISO)
  6
Continuous
100
AcDbLine
 10
103.7860891205951
 20
198.5783658405178
 30
0.0
 11
101.2860891205951
 21
199.0783658405178
 31
0.0
  0
LINE
  5
6E4
330
6D4
100
AcDbEntity
  8
Čára řezu (ISO)
  6
Continuous
100
AcDbLine
 10
101.2860891205951
 20
199.0783658405178
 30
0.0
 11
101.2860891205951
 21
198.0783658405178
 31
0.0
  0
LINE
  5
6E5
330
6D4
100
AcDbEntity
  8
Čára řezu (ISO)
  6
Continuous
100
AcDbLine
 10
98.59140062150437
 20
198.5783658405178
 30
0.0
 11
101.2860891205951
 21
198.5783658405178
 31
0.0
  0
LINE
  5
6E6
330
6D4
100
AcDbEntity
  8
Čára řezu (ISO)
  6
Continuous
100
AcDbLine
 10
101.2860891205951
 20
92.13710302911662
 30
0.0
 11
103.7860891205951
 21
92.13710302911662
 31
0.0
  0
POLYLINE
  5
6E7
330
6D4
100
AcDbEntity
  8
Čára řezu (ISO)
  6
Continuous
100
AcDb2dPolyline
 66
     1
 10
0.0
 20
0.0
 30
0.0
 70
   128
  0
VERTEX
  5
6E8
330
6E7
100
AcDbEntity
  8
Čára řezu (ISO)
  6
Continuous
100
AcDbVertex
100
AcDb2dVertex
 10
101.2860891205951
 20
91.63710300762621
 30
0.0
  0
VERTEX
  5
6E9
330
6E7
100
AcDbEntity
  8
Čára řezu (ISO)
  6
Continuous
100
AcDbVertex
100
AcDb2dVertex
 10
103.7860891205951
 20
92.13710491497485
 30
0.0
  0
VERTEX
  5
6EB
330
6E7
100
AcDbEntity
  8
Čára řezu (ISO)
  6
Continuous
100
AcDbVertex
100
AcDb2dVertex
 10
101.2860891205951
 20
92.63710205395188
 30
0.0
  0
VERTEX
  5
6EC
330
6E7
100
AcDbEntity
  8
Čára řezu (ISO)
  6
Continuous
100
AcDbVertex
100
AcDb2dVertex
 10
101.2860891205951
 20
91.63710300762621
 30
0.0
  0
SEQEND
  5
6EA
330
6E7
100
AcDbEntity
  8
Čára řezu (ISO)
  6
Continuous
  0
SOLID
  5
6ED
330
6D4
100
AcDbEntity
  8
Čára řezu (ISO)
100
AcDbTrace
 10
101.2860891205951
 20
91.63710300762621
 30
0.0
 11
103.7860891205951
 21
92.13710491497485
 31
0.0
 12
101.2860891205951
 22
92.63710205395188
 32
0.0
 13
101.2860891205951
 23
91.63710300762621
 33
0.0
  0
LINE
  5
6EE
330
6D4
100
AcDbEntity
  8
Čára řezu (ISO)
  6
Continuous
100
AcDbLine
 10
101.2860891205951
 20
91.63710302911658
 30
0.0
 11
103.7860891205951
 21
92.13710302911662
 31
0.0
  0
LINE
  5
6EF
330
6D4
100
AcDbEntity
  8
Čára řezu (ISO)
  6
Continuous
100
AcDbLine
 10
103.7860891205951
 20
92.13710302911662
 30
0.0
 11
101.2860891205951
 21
92.63710302911659
 31
0.0
  0
LINE
  5
6F0
330
6D4
100
AcDbEntity
  8
Čára řezu (ISO)
  6
Continuous
100
AcDbLine
 10
101.2860891205951
 20
92.63710302911659
 30
0.0
 11
101.2860891205951
 21
91.63710302911658
 31
0.0
  0
LINE
  5
6F1
330
6D4
100
AcDbEntity
  8
Čára řezu (ISO)
  6
Continuous
100
AcDbLine
 10
98.59140062150437
 20
92.13710302911662
 30
0.0
 11
101.2860891205951
 21
92.13710302911662
 31
0.0
  0
MTEXT
  5
6F2
330
6D4
100
AcDbEntity
  8
Čára řezu (ISO)
100
AcDbMText
 10
91.5566336822575
 20
195.9533659597271
 30
0.0
 40
5.24999976158142
 41
0.0
 71
     7
 72
     1
  1
B
  7
Text popisu (ISO)
 73
     1
 44
1.0
  0
MTEXT
  5
6F3
330
6D4
100
AcDbEntity
  8
Čára řezu (ISO)
100
AcDbMText
 10
91.5566336822575
 20
89.51210314832591
 30
0.0
 40
5.24999976158142
 41
0.0
 71
     7
 72
     1
  1
B
  7
Text popisu (ISO)
 73
     1
 44
1.0
  0
ENDBLK
  5
6D6
330
6D4
100
AcDbEntity
  8
0
100
AcDbBlockEnd
  0
BLOCK
  5
799
330
798
100
AcDbEntity
  8
0
100
AcDbBlockBegin
  2
Pozice1
 70
     0
 10
0.0
 20
0.0
 30
0.0
  3
Pozice1
  1

  0
LINE
  5
79B
330
798
100
AcDbEntity
  8
Značka (ISO)
100
AcDbLine
 10
118.3614711548606
 20
104.7356907947357
 30
0.0
 11
117.832042701062
 21
105.8680359330696
 31
0.0
  0
CIRCLE
  5
79C
102
{ACAD_REACTORS
330
79D
102
}
330
798
100
AcDbEntity
  8
Značka (ISO)
100
AcDbCircle
 10
117.3026142472634
 20
107.0003810714035
 30
0.0
 40
1.249999999999998
  0
HATCH
  5
79D
330
798
100
AcDbEntity
  8
Značka (ISO)
100
AcDbHatch
 10
0.0
 20
0.0
 30
0.0
210
0.0
220
0.0
230
1.0
  2
SOLID
 70
     1
 71
     1
 91
        1
 92
        0
 93
        1
 72
     2
 10
117.3026142472634
 20
107.0003810714035
 40
1.249999999999998
 50
0.0
 51
360.0
 73
     1
 97
        1
330
79C
 75
     0
 76
     1
 98
        1
 10
0.0
 20
0.0
450
        0
451
        0
460
0.0
461
0.0
452
        0
462
0.0
453
        0
470

  0
LINE
  5
79E
330
798
100
AcDbEntity
  8
Značka (ISO)
100
AcDbLine
 10
118.3614711548606
 20
104.7356907947357
 30
0.0
 11
135.1949756641687
 21
68.73207811492386
 31
0.0
  0
MTEXT
  5
79F
330
798
100
AcDbEntity
  8
Značka (ISO)
100
AcDbMText
 10
143.0699753065409
 20
75.30308667796555
 30
0.0
 40
5.24999976158142
 41
0.0
 71
     5
 72
     1
  1
1
  7
Text popisu (ISO)
 73
     1
 44
1.0
  0
LINE
  5
7A0
330
798
100
AcDbEntity
  8
Značka (ISO)
100
AcDbLine
 10
135.1949756641687
 20
68.73207811492386
 30
0.0
 11
150.944974948913
 21
68.73207811492386
 31
0.0
  0
ENDBLK
  5
79A
330
798
100
AcDbEntity
  8
0
100
AcDbBlockEnd
  0
BLOCK
  5
7A3
330
7A2
100
AcDbEntity
  8
0
100
AcDbBlockBegin
  2
Pozice2
 70
     0
 10
0.0
 20
0.0
 30
0.0
  3
Pozice2
  1

  0
LINE
  5
7A5
330
7A2
100
AcDbEntity
  8
Značka (ISO)
100
AcDbLine
 10
145.0180083519285
 20
111.9751010923659
 30
0.0
 11
143.7860891205952
 21
114.1505033557349
 31
0.0
  0
POLYLINE
  5
7A6
330
7A2
100
AcDbEntity
  8
Značka (ISO)
100
AcDb2dPolyline
 66
     1
 10
0.0
 20
0.0
 30
0.0
 70
   128
  0
VERTEX
  5
7A7
330
7A6
100
AcDbEntity
  8
Značka (ISO)
100
AcDbVertex
100
AcDb2dVertex
 10
145.4530906677246
 20
112.2214889526367
 30
0.0
  0
VERTEX
  5
7A8
330
7A6
100
AcDbEntity
  8
Značka (ISO)
100
AcDbVertex
100
AcDb2dVertex
 10
143.7860870361328
 20
114.1505050659179
 30
0.0
  0
VERTEX
  5
7AA
330
7A6
100
AcDbEntity
  8
Značka (ISO)
100
AcDbVertex
100
AcDb2dVertex
 10
144.582929611206
 20
111.7287158966064
 30
0.0
  0
VERTEX
  5
7AB
330
7A6
100
AcDbEntity
  8
Značka (ISO)
100
AcDbVertex
100
AcDb2dVertex
 10
145.4530906677246
 20
112.2214889526367
 30
0.0
  0
SEQEND
  5
7A9
330
7A6
100
AcDbEntity
  8
Značka (ISO)
  0
SOLID
  5
7AC
330
7A2
100
AcDbEntity
  8
Značka (ISO)
100
AcDbTrace
 10
145.4530906677246
 20
112.2214889526367
 30
0.0
 11
143.7860870361328
 21
114.1505050659179
 31
0.0
 12
144.582929611206
 22
111.7287158966064
 32
0.0
 13
145.4530906677246
 23
112.2214889526367
 33
0.0
  0
LINE
  5
7AD
330
7A2
100
AcDbEntity
  8
Značka (ISO)
100
AcDbLine
 10
145.4530888046023
 20
112.2214849386326
 30
0.0
 11
143.7860891205952
 21
114.1505033557349
 31
0.0
  0
LINE
  5
7AE
330
7A2
100
AcDbEntity
  8
Značka (ISO)
100
AcDbLine
 10
143.7860891205952
 20
114.1505033557349
 30
0.0
 11
144.5829278992547
 21
111.7287172460992
 31
0.0
  0
LINE
  5
7AF
330
7A2
100
AcDbEntity
  8
Značka (ISO)
100
AcDbLine
 10
144.5829278992547
 20
111.7287172460992
 30
0.0
 11
145.4530888046023
 21
112.2214849386326
 31
0.0
  0
LINE
  5
7B0
330
7A2
100
AcDbEntity
  8
Značka (ISO)
100
AcDbLine
 10
145.0180083519285
 20
111.9751010923659
 30
0.0
 11
169.5063122044763
 21
68.73207811492386
 31
0.0
  0
MTEXT
  5
7B1
330
7A2
100
AcDbEntity
  8
Značka (ISO)
100
AcDbMText
 10
177.3813118468484
 20
75.34988556283417
 30
0.0
 40
5.24999976158142
 41
0.0
 71
     5
 72
     1
  1
2
  7
Text popisu (ISO)
 73
     1
 44
1.0
  0
LINE
  5
7B2
330
7A2
100
AcDbEntity
  8
Značka (ISO)
100
AcDbLine
 10
169.5063122044763
 20
68.73207811492386
 30
0.0
 11
185.2563114892206
 21
68.73207811492386
 31
0.0
  0
ENDBLK
  5
7A4
330
7A2
100
AcDbEntity
  8
0
100
AcDbBlockEnd
  0
BLOCK
  5
7B7
330
7B6
100
AcDbEntity
  8
0
100
AcDbBlockBegin
  2
*D19
 70
     1
 10
0.0
 20
0.0
 30
0.0
  3
*D19
  1

  0
LINE
  5
88E
330
7B6
100
AcDbEntity
  8
Kóta (ISO)
100
AcDbLine
 10
130.0721782411903
 20
205.9072588411801
 30
0.0
 11
89.74807520847546
 21
205.9072588411801
 31
0.0
  0
LINE
  5
88F
330
7B6
100
AcDbEntity
  8
Kóta (ISO)
100
AcDbLine
 10
128.5721782411903
 20
373.9072588411801
 30
0.0
 11
89.74807520847551
 21
373.9072588411802
 31
0.0
  0
LINE
  5
890
330
7B6
100
AcDbEntity
  8
Kóta (ISO)
100
AcDbLine
 10
91.74807520847547
 20
210.9072588411801
 30
0.0
 11
91.74807520847551
 21
368.9072588411802
 31
0.0
  0
SOLID
  5
891
330
7B6
100
AcDbEntity
  8
Kóta (ISO)
100
AcDbTrace
 10
90.91474187514211
 20
210.9072588411801
 30
0.0
 11
92.58140854180879
 21
210.9072588411801
 31
0.0
 12
91.74807520847547
 22
205.9072588411801
 32
0.0
 13
91.74807520847547
 23
205.9072588411801
 33
0.0
  0
SOLID
  5
892
330
7B6
100
AcDbEntity
  8
Kóta (ISO)
100
AcDbTrace
 10
90.9147418751422
 20
368.9072588411802
 30
0.0
 11
92.58140854180885
 21
368.9072588411802
 31
0.0
 12
91.74807520847551
 22
373.9072588411802
 32
0.0
 13
91.74807520847551
 23
373.9072588411802
 33
0.0
  0
MTEXT
  5
893
330
7B6
100
AcDbEntity
  8
Kóta (ISO)
100
AcDbMText
 10
82.90439757247812
 20
282.7286154563581
 30
0.0
 40
7.0
 41
0.0
 71
     1
 72
     1
  1
\A1;168
  7
Text poznámky (ISO)
 11
0.0000000000000001
 21
1.0
 31
0.0
 73
     1
 44
1.0
  0
POINT
  5
894
330
7B6
100
AcDbEntity
  8
Defpoints
 62
     0
100
AcDbPoint
 10
130.0721782411903
 20
205.9072588411801
 30
0.0
  0
POINT
  5
895
330
7B6
100
AcDbEntity
  8
Defpoints
 62
     0
100
AcDbPoint
 10
128.5721782411903
 20
373.9072588411801
 30
0.0
  0
POINT
  5
896
330
7B6
100
AcDbEntity
  8
Defpoints
 62
     0
100
AcDbPoint
 10
91.74807520847551
 20
373.9072588411802
 30
0.0
  0
ENDBLK
  5
7B8
330
7B6
100
AcDbEntity
  8
0
100
AcDbBlockEnd
  0
BLOCK
  5
899
330
898
100
AcDbEntity
  8
0
100
AcDbBlockBegin
  2
*D20
 70
     1
 10
0.0
 20
0.0
 30
0.0
  3
*D20
  1

  0
LINE
  5
970
330
898
100
AcDbEntity
  8
Kóta (ISO)
100
AcDbLine
 10
123.5721782411903
 20
368.9072588411801
 30
0.0
 11
123.5721782411903
 21
411.471869274293
 31
0.0
  0
LINE
  5
971
330
898
100
AcDbEntity
  8
Kóta (ISO)
100
AcDbLine
 10
291.5721782411903
 20
368.9072588411801
 30
0.0
 11
291.5721782411903
 21
411.471869274293
 31
0.0
  0
LINE
  5
972
330
898
100
AcDbEntity
  8
Kóta (ISO)
100
AcDbLine
 10
128.5721782411903
 20
409.4718692742929
 30
0.0
 11
286.5721782411903
 21
409.4718692742929
 31
0.0
  0
SOLID
  5
973
330
898
100
AcDbEntity
  8
Kóta (ISO)
100
AcDbTrace
 10
128.5721782411903
 20
410.3052026076263
 30
0.0
 11
128.5721782411903
 21
408.6385359409597
 31
0.0
 12
123.5721782411903
 22
409.4718692742929
 32
0.0
 13
123.5721782411903
 23
409.4718692742929
 33
0.0
  0
SOLID
  5
974
330
898
100
AcDbEntity
  8
Kóta (ISO)
100
AcDbTrace
 10
286.5721782411903
 20
410.3052026076263
 30
0.0
 11
286.5721782411903
 21
408.6385359409597
 31
0.0
 12
291.5721782411903
 22
409.4718692742929
 32
0.0
 13
291.5721782411903
 23
409.4718692742929
 33
0.0
  0
MTEXT
  5
975
330
898
100
AcDbEntity
  8
Kóta (ISO)
100
AcDbMText
 10
200.3935348563683
 20
418.3155469102904
 30
0.0
 40
7.0
 41
0.0
 71
     1
 72
     1
  1
\A1;168
  7
Text poznámky (ISO)
 73
     1
 44
1.0
  0
POINT
  5
976
330
898
100
AcDbEntity
  8
Defpoints
 62
     0
100
AcDbPoint
 10
123.5721782411903
 20
368.9072588411801
 30
0.0
  0
POINT
  5
977
330
898
100
AcDbEntity
  8
Defpoints
 62
     0
100
AcDbPoint
 10
291.5721782411903
 20
368.9072588411801
 30
0.0
  0
POINT
  5
978
330
898
100
AcDbEntity
  8
Defpoints
 62
     0
100
AcDbPoint
 10
291.5721782411903
 20
409.4718692742929
 30
0.0
  0
ENDBLK
  5
89A
330
898
100
AcDbEntity
  8
0
100
AcDbBlockEnd
  0
BLOCK
  5
97A
330
979
100
AcDbEntity
  8
0
100
AcDbBlockBegin
  2
Identifikátor značky svaru1
 70
     0
 10
0.0
 20
0.0
 30
0.0
  3
Identifikátor značky svaru1
  1

  0
LINE
  5
97C
330
979
100
AcDbEntity
  8
Značka (ISO)
100
AcDbLine
 10
67.29676274905269
 20
236.7539503439348
 30
0.0
 11
64.93608912059513
 21
237.5768841322222
 31
0.0
  0
POLYLINE
  5
97D
330
979
100
AcDbEntity
  8
Značka (ISO)
100
AcDb2dPolyline
 66
     1
 10
0.0
 20
0.0
 30
0.0
 70
   128
  0
VERTEX
  5
97E
330
97D
100
AcDbEntity
  8
Značka (ISO)
100
AcDbVertex
100
AcDb2dVertex
 10
67.46134757995604
 20
237.2260856628418
 30
0.0
  0
VERTEX
  5
97F
330
97D
100
AcDbEntity
  8
Značka (ISO)
100
AcDbVertex
100
AcDb2dVertex
 10
64.93608951568603
 20
237.5768852233887
 30
0.0
  0
VERTEX
  5
981
330
97D
100
AcDbEntity
  8
Značka (ISO)
100
AcDbVertex
100
AcDb2dVertex
 10
67.13217735290527
 20
236.2818145751953
 30
0.0
  0
VERTEX
  5
982
330
97D
100
AcDbEntity
  8
Značka (ISO)
100
AcDbVertex
100
AcDb2dVertex
 10
67.46134757995604
 20
237.2260856628418
 30
0.0
  0
SEQEND
  5
980
330
97D
100
AcDbEntity
  8
Značka (ISO)
  0
SOLID
  5
983
330
979
100
AcDbEntity
  8
Značka (ISO)
100
AcDbTrace
 10
67.46134757995604
 20
237.2260856628418
 30
0.0
 11
64.93608951568603
 21
237.5768852233887
 31
0.0
 12
67.13217735290527
 22
236.2818145751953
 32
0.0
 13
67.46134757995604
 23
237.2260856628418
 33
0.0
  0
LINE
  5
984
330
979
100
AcDbEntity
  8
Značka (ISO)
100
AcDbLine
 10
67.46134950671017
 20
237.2260850696263
 30
0.0
 11
64.93608912059513
 21
237.5768841322222
 31
0.0
  0
LINE
  5
985
330
979
100
AcDbEntity
  8
Značka (ISO)
100
AcDbLine
 10
64.93608912059513
 20
237.5768841322222
 30
0.0
 11
67.13217599139522
 21
236.2818156182433
 31
0.0
  0
LINE
  5
986
330
979
100
AcDbEntity
  8
Značka (ISO)
100
AcDbLine
 10
67.13217599139522
 20
236.2818156182433
 30
0.0
 11
67.46134950671017
 21
237.2260850696263
 31
0.0
  0
LINE
  5
987
330
979
100
AcDbEntity
  8
Značka (ISO)
100
AcDbLine
 10
67.29676274905269
 20
236.7539503439348
 30
0.0
 11
105.0541475853257
 21
223.5916786242984
 31
0.0
  0
LINE
  5
988
330
979
100
AcDbEntity
  8
Značka (ISO)
100
AcDbLine
 10
105.0541475853257
 20
223.5916786242984
 30
0.0
 11
92.432402569471
 21
218.8449170976624
 31
0.0
  0
LINE
  5
989
330
979
100
AcDbEntity
  8
Značka (ISO)
100
AcDbLine
 10
140.2960965956179
 20
236.8454028498779
 30
0.0
 11
142.6360891205951
 21
237.7254227263866
 31
0.0
  0
POLYLINE
  5
98A
330
979
100
AcDbEntity
  8
Značka (ISO)
100
AcDb2dPolyline
 66
     1
 10
0.0
 20
0.0
 30
0.0
 70
   128
  0
VERTEX
  5
98B
330
98A
100
AcDbEntity
  8
Značka (ISO)
100
AcDbVertex
100
AcDb2dVertex
 10
140.4720973968506
 20
236.3774108886719
 30
0.0
  0
VERTEX
  5
98C
330
98A
100
AcDbEntity
  8
Značka (ISO)
100
AcDbVertex
100
AcDb2dVertex
 10
142.6360893249511
 20
237.7254295349121
 30
0.0
  0
VERTEX
  5
98E
330
98A
100
AcDbEntity
  8
Značka (ISO)
100
AcDbVertex
100
AcDb2dVertex
 10
140.120096206665
 20
237.3134040832519
 30
0.0
  0
VERTEX
  5
98F
330
98A
100
AcDbEntity
  8
Značka (ISO)
100
AcDbVertex
100
AcDb2dVertex
 10
140.4720973968506
 20
236.3774108886719
 30
0.0
  0
SEQEND
  5
98D
330
98A
100
AcDbEntity
  8
Značka (ISO)
  0
SOLID
  5
990
330
979
100
AcDbEntity
  8
Značka (ISO)
100
AcDbTrace
 10
140.4720973968506
 20
236.3774108886719
 30
0.0
 11
142.6360893249511
 21
237.7254295349121
 31
0.0
 12
140.120096206665
 22
237.3134040832519
 32
0.0
 13
140.4720973968506
 23
236.3774108886719
 33
0.0
  0
LINE
  5
991
330
979
100
AcDbEntity
  8
Značka (ISO)
100
AcDbLine
 10
140.4721005709197
 20
236.3774043448824
 30
0.0
 11
142.6360891205951
 21
237.7254227263866
 31
0.0
  0
LINE
  5
992
330
979
100
AcDbEntity
  8
Značka (ISO)
100
AcDbLine
 10
142.6360891205951
 20
237.7254227263866
 30
0.0
 11
140.1200926203161
 21
237.3134013548733
 31
0.0
  0
LINE
  5
993
330
979
100
AcDbEntity
  8
Značka (ISO)
100
AcDbLine
 10
140.1200926203161
 20
237.3134013548733
 30
0.0
 11
140.4721005709197
 21
236.3774043448824
 31
0.0
  0
LINE
  5
994
330
979
100
AcDbEntity
  8
Značka (ISO)
100
AcDbLine
 10
140.2960965956179
 20
236.8454028498779
 30
0.0
 11
105.0541475853257
 21
223.5916786242984
 31
0.0
  0
LINE
  5
995
330
979
100
AcDbEntity
  8
Značka (ISO)
100
AcDbLine
 10
105.0541475853257
 20
223.5916786242984
 30
0.0
 11
92.432402569471
 21
218.8449170976624
 31
0.0
  0
LINE
  5
996
330
979
100
AcDbEntity
  8
Značka (ISO)
100
AcDbLine
 10
82.83240242491988
 20
218.8449170976624
 30
0.0
 11
82.83240242491988
 21
226.0449173837647
 31
0.0
  0
LINE
  5
997
330
979
100
AcDbEntity
  8
Značka (ISO)
100
AcDbLine
 10
86.43240256797104
 20
218.8449170976624
 30
0.0
 11
86.43240256797104
 21
226.0449173837647
 31
0.0
  0
LINE
  5
998
330
979
100
AcDbEntity
  8
Značka (ISO)
100
AcDbLine
 10
76.83240242491987
 20
218.8449170976624
 30
0.0
 11
73.83240230571058
 21
221.8449172168717
 31
0.0
  0
LINE
  5
999
330
979
100
AcDbEntity
  8
Značka (ISO)
100
AcDbLine
 10
76.83240242491987
 20
218.8449170976624
 30
0.0
 11
73.83240230571058
 21
215.8449169784531
 31
0.0
  0
MTEXT
  5
99A
330
979
100
AcDbEntity
  8
Značka (ISO)
 62
     7
100
AcDbMText
 10
68.56077289656595
 20
217.3449170380578
 30
0.0
 40
3.000000119209288
 41
0.0
 71
     7
 72
     1
  1
4x
  7
kusovnik
 73
     1
 44
1.0
  0
LINE
  5
99B
330
979
100
AcDbEntity
  8
Značka (ISO)
  6
Continuous
100
AcDbLine
 10
92.432402569471
 20
217.7949170976624
 30
0.0
 11
76.83240242491987
 21
217.7949170976624
 31
0.0
  0
LINE
  5
99C
330
979
100
AcDbEntity
  8
Značka (ISO)
100
AcDbLine
 10
92.43240256797102
 20
218.8449170976624
 30
0.0
 11
76.83240242491987
 21
218.8449170976624
 31
0.0
  0
ENDBLK
  5
97B
330
979
100
AcDbEntity
  8
0
100
AcDbBlockEnd
  0
BLOCK
  5
99F
330
99E
100
AcDbEntity
  8
0
100
AcDbBlockBegin
  2
Identifikátor značky svaru2
 70
     0
 10
0.0
 20
0.0
 30
0.0
  3
Identifikátor značky svaru2
  1

  0
LINE
  5
9A1
330
99E
100
AcDbEntity
  8
Značka (ISO)
100
AcDbLine
 10
184.7802272869517
 20
179.1858624676239
 30
0.0
 11
183.0124603339851
 21
180.95362942059
 31
0.0
  0
POLYLINE
  5
9A2
330
99E
100
AcDbEntity
  8
Značka (ISO)
100
AcDb2dPolyline
 66
     1
 10
0.0
 20
0.0
 30
0.0
 70
   128
  0
VERTEX
  5
9A3
330
9A2
100
AcDbEntity
  8
Značka (ISO)
100
AcDbVertex
100
AcDb2dVertex
 10
185.1337814331055
 20
179.5394134521484
 30
0.0
  0
VERTEX
  5
9A4
330
9A2
100
AcDbEntity
  8
Značka (ISO)
100
AcDbVertex
100
AcDb2dVertex
 10
183.0124664306639
 20
180.9536361694336
 30
0.0
  0
VERTEX
  5
9A6
330
9A2
100
AcDbEntity
  8
Značka (ISO)
100
AcDbVertex
100
AcDb2dVertex
 10
184.4266700744629
 20
178.8323020935058
 30
0.0
  0
VERTEX
  5
9A7
330
9A2
100
AcDbEntity
  8
Značka (ISO)
100
AcDbVertex
100
AcDb2dVertex
 10
185.1337814331055
 20
179.5394134521484
 30
0.0
  0
SEQEND
  5
9A5
330
9A2
100
AcDbEntity
  8
Značka (ISO)
  0
SOLID
  5
9A8
330
99E
100
AcDbEntity
  8
Značka (ISO)
100
AcDbTrace
 10
185.1337814331055
 20
179.5394134521484
 30
0.0
 11
183.0124664306639
 21
180.9536361694336
 31
0.0
 12
184.4266700744629
 22
178.8323020935058
 32
0.0
 13
185.1337814331055
 23
179.5394134521484
 33
0.0
  0
LINE
  5
9A9
330
99E
100
AcDbEntity
  8
Značka (ISO)
100
AcDbLine
 10
185.133780677545
 20
179.5394158582172
 30
0.0
 11
183.0124603339851
 21
180.95362942059
 31
0.0
  0
LINE
  5
9AA
330
99E
100
AcDbEntity
  8
Značka (ISO)
100
AcDbLine
 10
183.0124603339851
 20
180.95362942059
 30
0.0
 11
184.4266738963585
 21
178.8323090770305
 31
0.0
  0
LINE
  5
9AB
330
99E
100
AcDbEntity
  8
Značka (ISO)
100
AcDbLine
 10
184.4266738963585
 20
178.8323090770305
 30
0.0
 11
185.133780677545
 21
179.5394158582172
 31
0.0
  0
LINE
  5
9AC
330
99E
100
AcDbEntity
  8
Značka (ISO)
100
AcDbLine
 10
184.7802272869517
 20
179.1858624676239
 30
0.0
 11
198.2417724347846
 21
165.7243173197949
 31
0.0
  0
LINE
  5
9AD
330
99E
100
AcDbEntity
  8
Značka (ISO)
100
AcDbLine
 10
198.2417724347846
 20
165.7243173197949
 30
0.0
 11
204.490401850695
 21
159.4756879038865
 31
0.0
  0
LINE
  5
9AE
330
99E
100
AcDbEntity
  8
Značka (ISO)
100
AcDbLine
 10
186.0266397231448
 20
147.0459332282834
 30
0.0
 11
184.658332456369
 21
144.9536294205899
 31
0.0
  0
POLYLINE
  5
9AF
330
99E
100
AcDbEntity
  8
Značka (ISO)
100
AcDb2dPolyline
 66
     1
 10
0.0
 20
0.0
 30
0.0
 70
   128
  0
VERTEX
  5
9B0
330
9AF
100
AcDbEntity
  8
Značka (ISO)
100
AcDbVertex
100
AcDb2dVertex
 10
185.6081771850586
 20
147.3195934295654
 30
0.0
  0
VERTEX
  5
9B1
330
9AF
100
AcDbEntity
  8
Značka (ISO)
100
AcDbVertex
100
AcDb2dVertex
 10
184.6583366394043
 20
144.9536323547363
 30
0.0
  0
VERTEX
  5
9B3
330
9AF
100
AcDbEntity
  8
Značka (ISO)
100
AcDbVertex
100
AcDb2dVertex
 10
186.4451026916504
 20
146.7722702026367
 30
0.0
  0
VERTEX
  5
9B4
330
9AF
100
AcDbEntity
  8
Značka (ISO)
100
AcDbVertex
100
AcDb2dVertex
 10
185.6081771850586
 20
147.3195934295654
 30
0.0
  0
SEQEND
  5
9B2
330
9AF
100
AcDbEntity
  8
Značka (ISO)
  0
SOLID
  5
9B5
330
99E
100
AcDbEntity
  8
Značka (ISO)
100
AcDbTrace
 10
185.6081771850586
 20
147.3195934295654
 30
0.0
 11
184.6583366394043
 21
144.9536323547363
 31
0.0
 12
186.4451026916504
 22
146.7722702026367
 32
0.0
 13
185.6081771850586
 23
147.3195934295654
 33
0.0
  0
LINE
  5
9B6
330
99E
100
AcDbEntity
  8
Značka (ISO)
100
AcDbLine
 10
185.6081789616061
 20
147.3195946816386
 30
0.0
 11
184.658332456369
 21
144.9536294205899
 31
0.0
  0
LINE
  5
9B7
330
99E
100
AcDbEntity
  8
Značka (ISO)
100
AcDbLine
 10
184.658332456369
 20
144.9536294205899
 30
0.0
 11
186.4451004846836
 21
146.7722717749283
 31
0.0
  0
LINE
  5
9B8
330
99E
100
AcDbEntity
  8
Značka (ISO)
100
AcDbLine
 10
186.4451004846836
 20
146.7722717749283
 30
0.0
 11
185.6081789616061
 21
147.3195946816386
 31
0.0
  0
LINE
  5
9B9
330
99E
100
AcDbEntity
  8
Značka (ISO)
100
AcDbLine
 10
186.0266397231448
 20
147.0459332282834
 30
0.0
 11
198.2417724347846
 21
165.7243173197949
 31
0.0
  0
LINE
  5
9BA
330
99E
100
AcDbEntity
  8
Značka (ISO)
100
AcDbLine
 10
198.2417724347846
 20
165.7243173197949
 30
0.0
 11
204.490401850695
 21
159.4756879038865
 31
0.0
  0
CIRCLE
  5
9BB
330
99E
100
AcDbEntity
  8
Značka (ISO)
100
AcDbCircle
 10
204.490401850695
 20
159.4756879038865
 30
0.0
 40
1.500000059604644
  0
LINE
  5
9BC
330
99E
100
AcDbEntity
  8
Značka (ISO)
100
AcDbLine
 10
211.9904019102996
 20
159.4756879038865
 30
0.0
 11
211.9904019102996
 21
166.6756881899888
 31
0.0
  0
LINE
  5
9BD
330
99E
100
AcDbEntity
  8
Značka (ISO)
100
AcDbLine
 10
215.5904020533507
 20
159.4756879038865
 30
0.0
 11
215.5904020533507
 21
166.6756881899888
 31
0.0
  0
LINE
  5
9BE
330
99E
100
AcDbEntity
  8
Značka (ISO)
100
AcDbLine
 10
221.5904020533507
 20
159.4756879038865
 30
0.0
 11
226.3761083052104
 21
164.2613941557462
 31
0.0
  0
LINE
  5
9BF
330
99E
100
AcDbEntity
  8
Značka (ISO)
100
AcDbLine
 10
221.5904020533507
 20
159.4756879038865
 30
0.0
 11
226.3761083052104
 21
154.6899816520268
 31
0.0
  0
MTEXT
  5
9C0
330
99E
100
AcDbEntity
  8
Značka (ISO)
 62
     7
100
AcDbMText
 10
228.3033370311065
 20
160.2630708772445
 30
0.0
 40
3.000000119209288
 41
0.0
 71
     7
 72
     1
  1
Heftovat
  7
kusovnik
 73
     1
 44
1.0
  0
MTEXT
  5
9C1
330
99E
100
AcDbEntity
  8
Značka (ISO)
 62
     7
100
AcDbMText
 10
228.0033362511836
 20
155.5899816877896
 30
0.0
 40
3.000000119209288
 41
0.0
 71
     7
 72
     1
  1
4x
  7
kusovnik
 73
     1
 44
1.0
  0
LINE
  5
9C2
330
99E
100
AcDbEntity
  8
Značka (ISO)
  6
Continuous
100
AcDbLine
 10
204.490401850695
 20
158.4256879038865
 30
0.0
 11
221.5904020533507
 21
158.4256879038865
 31
0.0
  0
LINE
  5
9C3
330
99E
100
AcDbEntity
  8
Značka (ISO)
100
AcDbLine
 10
204.490401852195
 20
159.4756879038865
 30
0.0
 11
221.5904020533507
 21
159.4756879038865
 31
0.0
  0
ENDBLK
  5
9A0
330
99E
100
AcDbEntity
  8
0
100
AcDbBlockEnd
  0
BLOCK
  5
9C7
330
9C6
100
AcDbEntity
  8
0
100
AcDbBlockBegin
  2
*D23
 70
     1
 10
0.0
 20
0.0
 30
0.0
  3
*D23
  1

  0
LINE
  5
A9E
330
9C6
100
AcDbEntity
  8
Kóta (ISO)
100
AcDbLine
 10
123.5721782411903
 20
485.6537682644456
 30
0.0
 11
123.5721782411903
 21
513.3722161444674
 31
0.0
  0
LINE
  5
A9F
330
9C6
100
AcDbEntity
  8
Kóta (ISO)
100
AcDbLine
 10
291.5721782411903
 20
485.6537682644456
 30
0.0
 11
291.5721782411903
 21
513.3722161444674
 31
0.0
  0
LINE
  5
AA0
330
9C6
100
AcDbEntity
  8
Kóta (ISO)
100
AcDbLine
 10
128.5721782411903
 20
511.3722161444674
 30
0.0
 11
286.5721782411903
 21
511.3722161444674
 31
0.0
  0
SOLID
  5
AA1
330
9C6
100
AcDbEntity
  8
Kóta (ISO)
100
AcDbTrace
 10
128.5721782411903
 20
512.2055494778008
 30
0.0
 11
128.5721782411903
 21
510.538882811134
 31
0.0
 12
123.5721782411903
 22
511.3722161444674
 32
0.0
 13
123.5721782411903
 23
511.3722161444674
 33
0.0
  0
SOLID
  5
AA2
330
9C6
100
AcDbEntity
  8
Kóta (ISO)
100
AcDbTrace
 10
286.5721782411903
 20
512.2055494778008
 30
0.0
 11
286.5721782411903
 21
510.538882811134
 31
0.0
 12
291.5721782411903
 22
511.3722161444674
 32
0.0
 13
291.5721782411903
 23
511.3722161444674
 33
0.0
  0
MTEXT
  5
AA3
330
9C6
100
AcDbEntity
  8
Kóta (ISO)
100
AcDbMText
 10
200.3935348563683
 20
520.2158937804647
 30
0.0
 40
7.0
 41
0.0
 71
     1
 72
     1
  1
\A1;168
  7
Text poznámky (ISO)
 73
     1
 44
1.0
  0
POINT
  5
AA4
330
9C6
100
AcDbEntity
  8
Defpoints
 62
     0
100
AcDbPoint
 10
123.5721782411903
 20
485.6537682644456
 30
0.0
  0
POINT
  5
AA5
330
9C6
100
AcDbEntity
  8
Defpoints
 62
     0
100
AcDbPoint
 10
291.5721782411903
 20
485.6537682644456
 30
0.0
  0
POINT
  5
AA6
330
9C6
100
AcDbEntity
  8
Defpoints
 62
     0
100
AcDbPoint
 10
291.5721782411903
 20
511.3722161444674
 30
0.0
  0
ENDBLK
  5
9C8
330
9C6
100
AcDbEntity
  8
0
100
AcDbBlockEnd
  0
BLOCK
  5
AA9
330
AA8
100
AcDbEntity
  8
0
100
AcDbBlockBegin
  2
*D24
 70
     1
 10
0.0
 20
0.0
 30
0.0
  3
*D24
  1

  0
LINE
  5
B80
330
AA8
100
AcDbEntity
  8
Kóta (ISO)
100
AcDbLine
 10
130.0721782411903
 20
464.6537682644442
 30
0.0
 11
106.7179295522549
 21
464.6537682644442
 31
0.0
  0
LINE
  5
B81
330
AA8
100
AcDbEntity
  8
Kóta (ISO)
100
AcDbLine
 10
128.7179295522549
 20
489.6537682644455
 30
0.0
 11
106.7179295522549
 21
489.6537682644456
 31
0.0
  0
LINE
  5
B82
330
AA8
100
AcDbEntity
  8
Kóta (ISO)
100
AcDbLine
 10
108.7179295522549
 20
469.6537682644445
 30
0.0
 11
108.7179295522549
 21
484.6537682644457
 31
0.0
  0
SOLID
  5
B83
330
AA8
100
AcDbEntity
  8
Kóta (ISO)
100
AcDbTrace
 10
107.8845962189216
 20
469.6537682644445
 30
0.0
 11
109.5512628855883
 21
469.6537682644445
 31
0.0
 12
108.7179295522549
 22
464.6537682644442
 32
0.0
 13
108.7179295522549
 23
464.6537682644442
 33
0.0
  0
SOLID
  5
B84
330
AA8
100
AcDbEntity
  8
Kóta (ISO)
100
AcDbTrace
 10
107.8845962189216
 20
484.6537682644457
 30
0.0
 11
109.5512628855883
 21
484.6537682644457
 31
0.0
 12
108.7179295522549
 22
489.6537682644456
 32
0.0
 13
108.7179295522549
 23
489.6537682644456
 33
0.0
  0
MTEXT
  5
B85
330
AA8
100
AcDbEntity
  8
Kóta (ISO)
100
AcDbMText
 10
99.90245876649263
 20
472.4056151415436
 30
0.0
 40
7.0
 41
0.0
 71
     1
 72
     1
  1
\A1;25
  7
Text poznámky (ISO)
 11
0.0000000000000001
 21
1.0
 31
0.0
 73
     1
 44
1.0
  0
POINT
  5
B86
330
AA8
100
AcDbEntity
  8
Defpoints
 62
     0
100
AcDbPoint
 10
130.0721782411903
 20
464.6537682644442
 30
0.0
  0
POINT
  5
B87
330
AA8
100
AcDbEntity
  8
Defpoints
 62
     0
100
AcDbPoint
 10
128.7179295522549
 20
489.6537682644455
 30
0.0
  0
POINT
  5
B88
330
AA8
100
AcDbEntity
  8
Defpoints
 62
     0
100
AcDbPoint
 10
108.7179295522549
 20
489.6537682644456
 30
0.0
  0
ENDBLK
  5
AAA
330
AA8
100
AcDbEntity
  8
0
100
AcDbBlockEnd
  0
BLOCK
  5
B8A
330
B89
100
AcDbEntity
  8
0
100
AcDbBlockBegin
  2
KUSOVNÍK
 70
     0
 10
0.0
 20
0.0
 30
0.0
  3
KUSOVNÍK
  1

  0
LINE
  5
B8C
330
B89
100
AcDbEntity
  8
Značka (ISO)
100
AcDbLine
 10
410.0
 20
117.0922071814537
 30
0.0
 11
228.0981015815916
 21
117.0922071814537
 31
0.0
  0
LINE
  5
B8D
330
B89
100
AcDbEntity
  8
Značka (ISO)
100
AcDbLine
 10
410.0
 20
117.0922071814537
 30
0.0
 11
410.0
 21
110.7435059845448
 31
0.0
  0
LINE
  5
B8E
330
B89
100
AcDbEntity
  8
Značka (ISO)
100
AcDbLine
 10
228.0981015815916
 20
117.0922071814537
 30
0.0
 11
228.0981015815916
 21
110.7435059845448
 31
0.0
  0
MTEXT
  5
B8F
102
{ACAD_XDICTIONARY
360
F04
102
}
330
B89
100
AcDbEntity
  8
Značka (ISO)
100
AcDbMText
 10
308.5056723792651
 20
111.468181231618
 30
0.0
 40
3.499999940395355
 41
0.0
 71
     7
 72
     1
  1
KUSOVN\U+00CDK
  7
Text poznámky (DIN)
 73
     1
 44
1.0
  0
LINE
  5
B91
330
B89
100
AcDbEntity
  8
Značka (ISO)
100
AcDbLine
 10
410.0
 20
110.7435059845448
 30
0.0
 11
228.0981015815916
 21
110.7435059845448
 31
0.0
  0
LINE
  5
B92
330
B89
100
AcDbEntity
  8
Značka (ISO)
100
AcDbLine
 10
410.0
 20
110.7435059845448
 30
0.0
 11
410.0
 21
104.3948047876358
 31
0.0
  0
MTEXT
  5
B93
102
{ACAD_XDICTIONARY
360
F06
102
}
330
B89
100
AcDbEntity
  8
Značka (ISO)
100
AcDbMText
 10
387.1072709453114
 20
105.119480034709
 30
0.0
 40
3.499999940395355
 41
0.0
 71
     7
 72
     1
  1
MATERI\U+00C1L
  7
Text poznámky (DIN)
 73
     1
 44
1.0
  0
LINE
  5
B94
330
B89
100
AcDbEntity
  8
Značka (ISO)
100
AcDbLine
 10
384.6
 20
110.7435059845448
 30
0.0
 11
384.6
 21
104.3948047876358
 31
0.0
  0
MTEXT
  5
B95
330
B89
100
AcDbEntity
  8
Značka (ISO)
100
AcDbMText
 10
360.83227118373
 20
105.8191554158926
 30
0.0
 40
3.499999940395355
 41
0.0
 71
     7
 72
     1
  1
HMOTNOST
  7
Text poznámky (DIN)
 73
     1
 44
1.0
  0
LINE
  5
B96
330
B89
100
AcDbEntity
  8
Značka (ISO)
100
AcDbLine
 10
359.2
 20
110.7435059845448
 30
0.0
 11
359.2
 21
104.3948047876358
 31
0.0
  0
MTEXT
  5
B97
102
{ACAD_XDICTIONARY
360
F08
102
}
330
B89
100
AcDbEntity
  8
Značka (ISO)
100
AcDbMText
 10
335.6075958621511
 20
105.119480034709
 30
0.0
 40
3.499999940395355
 41
0.0
 71
     7
 72
     1
  1
SKLADOV\U+00C9
  7
Text poznámky (DIN)
 73
     1
 44
1.0
  0
LINE
  5
B98
330
B89
100
AcDbEntity
  8
Značka (ISO)
100
AcDbLine
 10
333.8
 20
110.7435059845448
 30
0.0
 11
333.8
 21
104.3948047876358
 31
0.0
  0
MTEXT
  5
B99
330
B89
100
AcDbEntity
  8
Značka (ISO)
100
AcDbMText
 10
292.6631217250352
 20
105.8191554158926
 30
0.0
 40
3.499999940395355
 41
0.0
 71
     7
 72
     1
  1
POPIS
  7
Text poznámky (DIN)
 73
     1
 44
1.0
  0
LINE
  5
B9A
330
B89
100
AcDbEntity
  8
Značka (ISO)
100
AcDbLine
 10
263.164947628402
 20
110.7435059845448
 30
0.0
 11
263.164947628402
 21
104.3948047876358
 31
0.0
  0
MTEXT
  5
B9B
330
B89
100
AcDbEntity
  8
Značka (ISO)
100
AcDbMText
 10
252.3195350293093
 20
105.8191554158926
 30
0.0
 40
3.499999940395355
 41
0.0
 71
     7
 72
     1
  1
KS
  7
Text poznámky (DIN)
 73
     1
 44
1.0
  0
LINE
  5
B9C
330
B89
100
AcDbEntity
  8
Značka (ISO)
100
AcDbLine
 10
246.466723345647
 20
110.7435059845448
 30
0.0
 11
246.466723345647
 21
104.3948047876358
 31
0.0
  0
MTEXT
  5
B9D
330
B89
100
AcDbEntity
  8
Značka (ISO)
100
AcDbMText
 10
230.4143589689283
 20
105.8191554158926
 30
0.0
 40
3.499999940395355
 41
0.0
 71
     7
 72
     1
  1
POZICE
  7
Text poznámky (DIN)
 73
     1
 44
1.0
  0
LINE
  5
B9E
330
B89
100
AcDbEntity
  8
Značka (ISO)
100
AcDbLine
 10
228.0981015815916
 20
110.7435059845448
 30
0.0
 11
228.0981015815916
 21
104.3948047876358
 31
0.0
  0
MTEXT
  5
B9F
330
B89
100
AcDbEntity
  8
Značka (ISO)
100
AcDbMText
 10
385.8024007689961
 20
99.47045421898373
 30
0.0
 40
3.499999940395355
 41
0.0
 71
     7
 72
     1
  1
AISI 304
  7
Text poznámky (DIN)
 73
     1
 44
1.0
  0
MTEXT
  5
BA0
330
B89
100
AcDbEntity
  8
Značka (ISO)
100
AcDbMText
 10
360.4024007689961
 20
98.42175296247013
 30
0.0
 40
3.499999940395355
 41
0.0
 71
     7
 72
     1
  1
0,610 kg
  7
Text poznámky (DIN)
 73
     1
 44
1.0
  0
MTEXT
  5
BA1
330
B89
100
AcDbEntity
  8
Značka (ISO)
100
AcDbMText
 10
335.0024007689961
 20
99.47045421898373
 30
0.0
 40
3.499999940395355
 41
0.0
 71
     7
 72
     1
  1
E53987
  7
Text poznámky (DIN)
 73
     1
 44
1.0
  0
MTEXT
  5
BA2
102
{ACAD_XDICTIONARY
360
F0A
102
}
330
B89
100
AcDbEntity
  8
Značka (ISO)
100
AcDbMText
 10
264.3673483973981
 20
98.24805161654957
 30
0.0
 40
3.499999940395355
 41
0.0
 71
     7
 72
     1
  1
Dekl pro InDrain ro\U+0161t 
  7
Text poznámky (DIN)
 73
     1
 44
1.0
  0
MTEXT
  5
BA3
330
B89
100
AcDbEntity
  8
Značka (ISO)
100
AcDbMText
 10
264.3645483902778
 20
92.24675303995615
 30
0.0
 40
3.499999940395355
 41
0.0
 71
     7
 72
     1
  1
168x168-25,V2A
  7
Text poznámky (DIN)
 73
     1
 44
1.0
  0
MTEXT
  5
BA4
330
B89
100
AcDbEntity
  8
Značka (ISO)
100
AcDbMText
 10
254.2404362638014
 20
99.47045421898373
 30
0.0
 40
3.499999940395355
 41
0.0
 71
     7
 72
     1
  1
1
  7
Text poznámky (DIN)
 73
     1
 44
1.0
  0
MTEXT
  5
BA5
330
B89
100
AcDbEntity
  8
Značka (ISO)
100
AcDbMText
 10
236.7070132403962
 20
99.47045421898373
 30
0.0
 40
3.499999940395355
 41
0.0
 71
     7
 72
     1
  1
1
  7
Text poznámky (DIN)
 73
     1
 44
1.0
  0
LINE
  5
BA6
330
B89
100
AcDbEntity
  8
Značka (ISO)
100
AcDbLine
 10
410.0
 20
104.3948047876358
 30
0.0
 11
228.0981015815916
 21
104.3948047876358
 31
0.0
  0
MTEXT
  5
BA7
330
B89
100
AcDbEntity
  8
Značka (ISO)
100
AcDbMText
 10
385.8024007689961
 20
86.77305182516581
 30
0.0
 40
3.499999940395355
 41
0.0
 71
     7
 72
     1
  1
AISI 304
  7
Text poznámky (DIN)
 73
     1
 44
1.0
  0
MTEXT
  5
BA8
330
B89
100
AcDbEntity
  8
Značka (ISO)
100
AcDbMText
 10
360.4024007689961
 20
85.72435056865222
 30
0.0
 40
3.499999940395355
 41
0.0
 71
     7
 72
     1
  1
0,084 kg
  7
Text poznámky (DIN)
 73
     1
 44
1.0
  0
MTEXT
  5
BA9
330
B89
100
AcDbEntity
  8
Značka (ISO)
100
AcDbMText
 10
335.0024007689961
 20
86.77305182516581
 30
0.0
 40
3.499999940395355
 41
0.0
 71
     7
 72
     1
  1
E53993
  7
Text poznámky (DIN)
 73
     1
 44
1.0
  0
MTEXT
  5
BAA
102
{ACAD_XDICTIONARY
360
F0C
102
}
330
B89
100
AcDbEntity
  8
Značka (ISO)
100
AcDbMText
 10
264.3673483973981
 20
85.55064922273166
 30
0.0
 40
3.499999940395355
 41
0.0
 71
     7
 72
     1
  1
V\U+00FDztuha pro InDrain ro\U+0161t 
  7
Text poznámky (DIN)
 73
     1
 44
1.0
  0
MTEXT
  5
BAB
330
B89
100
AcDbEntity
  8
Značka (ISO)
100
AcDbMText
 10
264.3645483902778
 20
79.54935064613827
 30
0.0
 40
3.499999940395355
 41
0.0
 71
     7
 72
     1
  1
168,V2A
  7
Text poznámky (DIN)
 73
     1
 44
1.0
  0
MTEXT
  5
BAC
330
B89
100
AcDbEntity
  8
Značka (ISO)
100
AcDbMText
 10
253.894210321086
 20
86.77305182516581
 30
0.0
 40
3.499999940395355
 41
0.0
 71
     7
 72
     1
  1
2
  7
Text poznámky (DIN)
 73
     1
 44
1.0
  0
MTEXT
  5
BAD
330
B89
100
AcDbEntity
  8
Značka (ISO)
100
AcDbMText
 10
236.3607872976808
 20
86.77305182516581
 30
0.0
 40
3.499999940395355
 41
0.0
 71
     7
 72
     1
  1
2
  7
Text poznámky (DIN)
 73
     1
 44
1.0
  0
LINE
  5
BAE
330
B89
100
AcDbEntity
  8
Značka (ISO)
100
AcDbLine
 10
410.0
 20
91.69740239381795
 30
0.0
 11
228.0981015815916
 21
91.69740239381795
 31
0.0
  0
LINE
  5
BAF
330
B89
100
AcDbEntity
  8
Značka (ISO)
100
AcDbLine
 10
410.0
 20
79.00000000000007
 30
0.0
 11
228.0981015815916
 21
79.00000000000007
 31
0.0
  0
LINE
  5
BB0
330
B89
100
AcDbEntity
  8
Značka (ISO)
100
AcDbLine
 10
410.0
 20
104.3948047876358
 30
0.0
 11
410.0
 21
79.00000000000007
 31
0.0
  0
LINE
  5
BB1
330
B89
100
AcDbEntity
  8
Značka (ISO)
100
AcDbLine
 10
384.6
 20
104.3948047876358
 30
0.0
 11
384.6
 21
79.00000000000007
 31
0.0
  0
LINE
  5
BB2
330
B89
100
AcDbEntity
  8
Značka (ISO)
100
AcDbLine
 10
359.2
 20
104.3948047876358
 30
0.0
 11
359.2
 21
79.00000000000007
 31
0.0
  0
LINE
  5
BB3
330
B89
100
AcDbEntity
  8
Značka (ISO)
100
AcDbLine
 10
333.8
 20
104.3948047876358
 30
0.0
 11
333.8
 21
79.00000000000007
 31
0.0
  0
LINE
  5
BB4
330
B89
100
AcDbEntity
  8
Značka (ISO)
100
AcDbLine
 10
263.164947628402
 20
104.3948047876358
 30
0.0
 11
263.164947628402
 21
79.00000000000007
 31
0.0
  0
LINE
  5
BB5
330
B89
100
AcDbEntity
  8
Značka (ISO)
100
AcDbLine
 10
246.466723345647
 20
104.3948047876358
 30
0.0
 11
246.466723345647
 21
79.00000000000007
 31
0.0
  0
LINE
  5
BB6
330
B89
100
AcDbEntity
  8
Značka (ISO)
100
AcDbLine
 10
228.0981015815916
 20
104.3948047876358
 30
0.0
 11
228.0981015815916
 21
79.00000000000007
 31
0.0
  0
ENDBLK
  5
B8B
330
B89
100
AcDbEntity
  8
0
100
AcDbBlockEnd
  0
BLOCK
  5
CAE
330
CAC
100
AcDbEntity
  8
0
100
AcDbBlockBegin
  2
GENAXEH
 70
     0
 10
0.0
 20
0.0
 30
0.0
  3
GENAXEH
  1

  0
LINE
  5
CAD
330
CAC
100
AcDbEntity
  8
0
100
AcDbLine
 10
-1.0
 20
0.0
 30
0.0
 11
1.0
 21
0.0
 31
0.0
  0
ENDBLK
  5
CAF
330
CAC
100
AcDbEntity
  8
0
100
AcDbBlockEnd
  0
BLOCK
  5
CDB
330
CDA
100
AcDbEntity
  8
0
100
AcDbBlockBegin
  2
*D27
 70
     1
 10
0.0
 20
0.0
 30
0.0
  3
*D27
  1

  0
LINE
  5
CDC
330
CDA
100
AcDbEntity
  8
KOTY_GULLY
370
    -2
100
AcDbLine
 10
236.4368884576717
 20
308.2258366989143
 30
0.0
 11
236.4368884576717
 21
338.5976782899102
 31
0.0
  0
LINE
  5
CDD
330
CDA
100
AcDbEntity
  8
KOTY_GULLY
370
    -2
100
AcDbLine
 10
68.43688845767179
 20
308.2258366989137
 30
0.0
 11
68.43688845767179
 21
338.5976782899102
 31
0.0
  0
LINE
  5
CDE
330
CDA
100
AcDbEntity
  8
KOTY_GULLY
370
    -2
100
AcDbLine
 10
233.4368884576717
 20
336.5976782899102
 30
0.0
 11
71.43688845767178
 21
336.5976782899102
 31
0.0
  0
SOLID
  5
CDF
330
CDA
100
AcDbEntity
  8
KOTY_GULLY
100
AcDbTrace
 10
233.4368884576717
 20
337.0976782899102
 30
0.0
 11
233.4368884576717
 21
336.0976782899102
 31
0.0
 12
236.4368884576717
 22
336.5976782899102
 32
0.0
 13
236.4368884576717
 23
336.5976782899102
 33
0.0
  0
SOLID
  5
CE0
330
CDA
100
AcDbEntity
  8
KOTY_GULLY
100
AcDbTrace
 10
71.43688845767178
 20
337.0976782899102
 30
0.0
 11
71.43688845767178
 21
336.0976782899102
 31
0.0
 12
68.43688845767179
 22
336.5976782899102
 32
0.0
 13
68.43688845767179
 23
336.5976782899102
 33
0.0
  0
MTEXT
  5
CE1
330
CDA
100
AcDbEntity
  8
KOTY_GULLY
100
AcDbMText
 10
152.4368884576715
 20
344.1216782899102
 30
0.0
 40
12.0
 41
0.0
 71
     5
 72
     1
  1
\A1;168
  7
Annotative
 73
     1
 44
1.0
  0
POINT
  5
CE2
330
CDA
100
AcDbEntity
  8
Defpoints
 62
     0
100
AcDbPoint
 10
236.4368884576717
 20
308.2258366989143
 30
0.0
  0
POINT
  5
CE3
330
CDA
100
AcDbEntity
  8
Defpoints
 62
     0
100
AcDbPoint
 10
68.43688845767179
 20
308.2258366989137
 30
0.0
  0
POINT
  5
CE4
330
CDA
100
AcDbEntity
  8
Defpoints
 62
     0
100
AcDbPoint
 10
68.43688845767179
 20
336.5976782899102
 30
0.0
  0
ENDBLK
  5
CE5
330
CDA
100
AcDbEntity
  8
0
100
AcDbBlockEnd
  0
BLOCK
  5
CE7
330
CE6
100
AcDbEntity
  8
0
100
AcDbBlockBegin
  2
*D28
 70
     1
 10
0.0
 20
0.0
 30
0.0
  3
*D28
  1

  0
LINE
  5
CE8
330
CE6
100
AcDbEntity
  8
KOTY_GULLY
370
    -2
100
AcDbLine
 10
72.43688845767178
 20
312.2258366989137
 30
0.0
 11
30.7123120318818
 21
312.2258366989137
 31
0.0
  0
LINE
  5
CE9
330
CE6
100
AcDbEntity
  8
KOTY_GULLY
370
    -2
100
AcDbLine
 10
72.43688845767214
 20
144.2258366989134
 30
0.0
 11
30.71231203188176
 21
144.2258366989134
 31
0.0
  0
LINE
  5
CEA
330
CE6
100
AcDbEntity
  8
KOTY_GULLY
370
    -2
100
AcDbLine
 10
32.7123120318818
 20
309.2258366989137
 30
0.0
 11
32.71231203188178
 21
147.2258366989134
 31
0.0
  0
SOLID
  5
CEB
330
CE6
100
AcDbEntity
  8
KOTY_GULLY
100
AcDbTrace
 10
32.2123120318818
 20
309.2258366989137
 30
0.0
 11
33.2123120318818
 21
309.2258366989137
 31
0.0
 12
32.7123120318818
 22
312.2258366989137
 32
0.0
 13
32.7123120318818
 23
312.2258366989137
 33
0.0
  0
SOLID
  5
CEC
330
CE6
100
AcDbEntity
  8
KOTY_GULLY
100
AcDbTrace
 10
32.21231203188177
 20
147.2258366989134
 30
0.0
 11
33.21231203188176
 21
147.2258366989134
 31
0.0
 12
32.71231203188178
 22
144.2258366989134
 32
0.0
 13
32.71231203188178
 23
144.2258366989134
 33
0.0
  0
MTEXT
  5
CED
330
CE6
100
AcDbEntity
  8
KOTY_GULLY
100
AcDbMText
 10
25.18831203188174
 20
228.2258366989136
 30
0.0
 40
12.0
 41
0.0
 71
     5
 72
     1
  1
\A1;168
  7
Annotative
 11
0.0000000000000001
 21
1.0
 31
0.0
 73
     1
 44
1.0
  0
POINT
  5
CEE
330
CE6
100
AcDbEntity
  8
Defpoints
 62
     0
100
AcDbPoint
 10
72.43688845767178
 20
312.2258366989137
 30
0.0
  0
POINT
  5
CEF
330
CE6
100
AcDbEntity
  8
Defpoints
 62
     0
100
AcDbPoint
 10
72.43688845767214
 20
144.2258366989134
 30
0.0
  0
POINT
  5
CF0
330
CE6
100
AcDbEntity
  8
Defpoints
 62
     0
100
AcDbPoint
 10
32.71231203188178
 20
144.2258366989134
 30
0.0
  0
ENDBLK
  5
CF1
330
CE6
100
AcDbEntity
  8
0
100
AcDbBlockEnd
  0
BLOCK
  5
D03
330
D02
100
AcDbEntity
  8
0
100
AcDbBlockBegin
  2
*D29
 70
     1
 10
0.0
 20
0.0
 30
0.0
  3
*D29
  1

  0
LINE
  5
EE0
330
D02
100
AcDbEntity
  8
KOTY_GULLY
370
    -2
100
AcDbLine
 10
346.9293158558645
 20
405.2167797402588
 30
0.0
 11
346.9293158558645
 21
454.2874526094819
 31
0.0
  0
LINE
  5
EE1
330
D02
100
AcDbEntity
  8
KOTY_GULLY
370
    -2
100
AcDbLine
 10
79.09366474934623
 20
405.2167797402588
 30
0.0
 11
79.09366474934623
 21
454.2874526094819
 31
0.0
  0
LINE
  5
EE2
330
D02
100
AcDbEntity
  8
KOTY_GULLY
370
    -2
100
AcDbLine
 10
343.9293158558645
 20
452.2874526094819
 30
0.0
 11
82.09366474934624
 21
452.2874526094819
 31
0.0
  0
SOLID
  5
EE3
330
D02
100
AcDbEntity
  8
KOTY_GULLY
100
AcDbTrace
 10
343.9293158558645
 20
452.7874526094818
 30
0.0
 11
343.9293158558645
 21
451.7874526094819
 31
0.0
 12
346.9293158558645
 22
452.2874526094819
 32
0.0
 13
346.9293158558645
 23
452.2874526094819
 33
0.0
  0
SOLID
  5
EE4
330
D02
100
AcDbEntity
  8
KOTY_GULLY
100
AcDbTrace
 10
82.09366474934624
 20
452.7874526094818
 30
0.0
 11
82.09366474934624
 21
451.7874526094819
 31
0.0
 12
79.09366474934623
 22
452.2874526094819
 32
0.0
 13
79.09366474934623
 23
452.2874526094819
 33
0.0
  0
MTEXT
  5
EE5
330
D02
100
AcDbEntity
  8
KOTY_GULLY
100
AcDbMText
 10
213.0114903026054
 20
459.8114526094819
 30
0.0
 40
12.0
 41
0.0
 71
     5
 72
     1
  1
\A1;268
  7
Annotative
 73
     1
 44
1.0
  0
POINT
  5
EE6
330
D02
100
AcDbEntity
  8
Defpoints
 62
     0
100
AcDbPoint
 10
346.9293158558645
 20
405.2167797402588
 30
0.0
  0
POINT
  5
EE7
330
D02
100
AcDbEntity
  8
Defpoints
 62
     0
100
AcDbPoint
 10
79.09366474934623
 20
405.2167797402588
 30
0.0
  0
POINT
  5
EE8
330
D02
100
AcDbEntity
  8
Defpoints
 62
     0
100
AcDbPoint
 10
79.09366474934623
 20
452.2874526094819
 30
0.0
  0
ENDBLK
  5
D04
330
D02
100
AcDbEntity
  8
0
100
AcDbBlockEnd
  0
BLOCK
  5
D0F
330
D0E
100
AcDbEntity
  8
0
100
AcDbBlockBegin
  2
*D30
 70
     1
 10
0.0
 20
0.0
 30
0.0
  3
*D30
  1

  0
LINE
  5
EE9
330
D0E
100
AcDbEntity
  8
KOTY_GULLY
370
    -2
100
AcDbLine
 10
86.9055158742209
 20
413.1929699237448
 30
0.0
 11
20.10446159002998
 21
413.1929699237448
 31
0.0
  0
LINE
  5
EEA
330
D0E
100
AcDbEntity
  8
KOTY_GULLY
370
    -2
100
AcDbLine
 10
86.90551587422101
 20
145.1929797586152
 30
0.0
 11
20.10446159002992
 21
145.1929797586153
 31
0.0
  0
LINE
  5
EEB
330
D0E
100
AcDbEntity
  8
KOTY_GULLY
370
    -2
100
AcDbLine
 10
22.10446159002998
 20
410.1929699237448
 30
0.0
 11
22.10446159002991
 21
148.1929797586152
 31
0.0
  0
SOLID
  5
EEC
330
D0E
100
AcDbEntity
  8
KOTY_GULLY
100
AcDbTrace
 10
21.60446159002997
 20
410.1929699237448
 30
0.0
 11
22.60446159002997
 21
410.1929699237448
 31
0.0
 12
22.10446159002998
 22
413.1929699237448
 32
0.0
 13
22.10446159002998
 23
413.1929699237448
 33
0.0
  0
SOLID
  5
EED
330
D0E
100
AcDbEntity
  8
KOTY_GULLY
100
AcDbTrace
 10
21.60446159002991
 20
148.1929797586152
 30
0.0
 11
22.60446159002992
 21
148.1929797586152
 31
0.0
 12
22.10446159002991
 22
145.1929797586153
 32
0.0
 13
22.10446159002991
 23
145.1929797586153
 33
0.0
  0
MTEXT
  5
EEE
330
D0E
100
AcDbEntity
  8
KOTY_GULLY
100
AcDbMText
 10
14.5804615900299
 20
279.1929748411801
 30
0.0
 40
12.0
 41
0.0
 71
     5
 72
     1
  1
\A1;268
  7
Annotative
 11
0.0000000000000001
 21
1.0
 31
0.0
 73
     1
 44
1.0
  0
POINT
  5
EEF
330
D0E
100
AcDbEntity
  8
Defpoints
 62
     0
100
AcDbPoint
 10
86.9055158742209
 20
413.1929699237448
 30
0.0
  0
POINT
  5
EF0
330
D0E
100
AcDbEntity
  8
Defpoints
 62
     0
100
AcDbPoint
 10
86.90551587422101
 20
145.1929797586152
 30
0.0
  0
POINT
  5
EF1
330
D0E
100
AcDbEntity
  8
Defpoints
 62
     0
100
AcDbPoint
 10
22.10446159002991
 20
145.1929797586153
 30
0.0
  0
ENDBLK
  5
D10
330
D0E
100
AcDbEntity
  8
0
100
AcDbBlockEnd
  0
ENDSEC
  0
SECTION
  2
ENTITIES
  0
LINE
  5
1FC
330
77
100
AcDbEntity
  8
GULLY
100
AcDbLine
 10
293.4888416265082
 20
158.7525030705416
 30
0.0
 11
293.4888416265082
 21
169.9191693274218
 31
0.0
  0
LINE
  5
1FD
330
77
100
AcDbEntity
  8
GULLY
100
AcDbLine
 10
304.6555078833886
 20
158.7525030705416
 30
0.0
 11
293.4888416265082
 21
158.7525030705416
 31
0.0
  0
LINE
  5
1FE
330
77
100
AcDbEntity
  8
GULLY
100
AcDbLine
 10
304.6555078833886
 20
169.9191693274221
 30
0.0
 11
304.6555078833886
 21
158.7525030705416
 31
0.0
  0
LINE
  5
1FF
330
77
100
AcDbEntity
  8
GULLY
100
AcDbLine
 10
293.4888416265082
 20
169.9191693274218
 30
0.0
 11
304.6555078833886
 21
169.9191693274221
 31
0.0
  0
LINE
  5
200
330
77
100
AcDbEntity
  8
GULLY
100
AcDbLine
 10
264.7745569659587
 20
158.7525030705416
 30
0.0
 11
264.7745569659587
 21
169.9191693274218
 31
0.0
  0
LINE
  5
201
330
77
100
AcDbEntity
  8
GULLY
100
AcDbLine
 10
275.9412232228391
 20
158.7525030705416
 30
0.0
 11
264.7745569659587
 21
158.7525030705416
 31
0.0
  0
LINE
  5
202
330
77
100
AcDbEntity
  8
GULLY
100
AcDbLine
 10
275.9412232228391
 20
169.9191693274221
 30
0.0
 11
275.9412232228391
 21
158.7525030705416
 31
0.0
  0
LINE
  5
203
330
77
100
AcDbEntity
  8
GULLY
100
AcDbLine
 10
264.7745569659587
 20
169.9191693274218
 30
0.0
 11
275.9412232228391
 21
169.9191693274221
 31
0.0
  0
LINE
  5
204
330
77
100
AcDbEntity
  8
GULLY
100
AcDbLine
 10
236.0602723054091
 20
158.7525030705416
 30
0.0
 11
236.0602723054091
 21
169.9191693274218
 31
0.0
  0
LINE
  5
205
330
77
100
AcDbEntity
  8
GULLY
100
AcDbLine
 10
247.2269385622895
 20
158.7525030705416
 30
0.0
 11
236.0602723054091
 21
158.7525030705416
 31
0.0
  0
LINE
  5
206
330
77
100
AcDbEntity
  8
GULLY
100
AcDbLine
 10
247.2269385622895
 20
169.9191693274221
 30
0.0
 11
247.2269385622895
 21
158.7525030705416
 31
0.0
  0
LINE
  5
207
330
77
100
AcDbEntity
  8
GULLY
100
AcDbLine
 10
236.0602723054091
 20
169.9191693274218
 30
0.0
 11
247.2269385622895
 21
169.9191693274221
 31
0.0
  0
LINE
  5
208
330
77
100
AcDbEntity
  8
GULLY
100
AcDbLine
 10
207.3459876448596
 20
158.7525030705416
 30
0.0
 11
207.3459876448596
 21
169.9191693274218
 31
0.0
  0
LINE
  5
209
330
77
100
AcDbEntity
  8
GULLY
100
AcDbLine
 10
218.5126539017399
 20
158.7525030705416
 30
0.0
 11
207.3459876448596
 21
158.7525030705416
 31
0.0
  0
LINE
  5
20A
330
77
100
AcDbEntity
  8
GULLY
100
AcDbLine
 10
218.5126539017399
 20
169.9191693274221
 30
0.0
 11
218.5126539017399
 21
158.7525030705416
 31
0.0
  0
LINE
  5
20B
330
77
100
AcDbEntity
  8
GULLY
100
AcDbLine
 10
207.3459876448596
 20
169.9191693274218
 30
0.0
 11
218.5126539017399
 21
169.9191693274221
 31
0.0
  0
LINE
  5
20C
330
77
100
AcDbEntity
  8
GULLY
100
AcDbLine
 10
178.6317029843099
 20
158.7525030705416
 30
0.0
 11
178.6317029843097
 21
169.9191693274218
 31
0.0
  0
LINE
  5
20D
330
77
100
AcDbEntity
  8
GULLY
100
AcDbLine
 10
189.7983692411901
 20
158.7525030705416
 30
0.0
 11
178.6317029843099
 21
158.7525030705416
 31
0.0
  0
LINE
  5
20E
330
77
100
AcDbEntity
  8
GULLY
100
AcDbLine
 10
189.7983692411901
 20
169.9191693274221
 30
0.0
 11
189.7983692411901
 21
158.7525030705416
 31
0.0
  0
LINE
  5
20F
330
77
100
AcDbEntity
  8
GULLY
100
AcDbLine
 10
178.6317029843097
 20
169.9191693274218
 30
0.0
 11
189.7983692411901
 21
169.9191693274221
 31
0.0
  0
LINE
  5
210
330
77
100
AcDbEntity
  8
GULLY
100
AcDbLine
 10
149.9174183237601
 20
158.7525030705416
 30
0.0
 11
149.9174183237601
 21
169.9191693274218
 31
0.0
  0
LINE
  5
211
330
77
100
AcDbEntity
  8
GULLY
100
AcDbLine
 10
161.0840845806405
 20
158.7525030705416
 30
0.0
 11
149.9174183237601
 21
158.7525030705416
 31
0.0
  0
LINE
  5
212
330
77
100
AcDbEntity
  8
GULLY
100
AcDbLine
 10
161.0840845806405
 20
169.9191693274221
 30
0.0
 11
161.0840845806405
 21
158.7525030705416
 31
0.0
  0
LINE
  5
213
330
77
100
AcDbEntity
  8
GULLY
100
AcDbLine
 10
149.9174183237601
 20
169.9191693274218
 30
0.0
 11
161.0840845806405
 21
169.9191693274221
 31
0.0
  0
LINE
  5
214
330
77
100
AcDbEntity
  8
GULLY
100
AcDbLine
 10
121.2031336632105
 20
158.7525030705416
 30
0.0
 11
121.2031336632105
 21
169.9191693274218
 31
0.0
  0
LINE
  5
215
330
77
100
AcDbEntity
  8
GULLY
100
AcDbLine
 10
132.3697999200912
 20
158.7525030705416
 30
0.0
 11
121.2031336632105
 21
158.7525030705416
 31
0.0
  0
LINE
  5
216
330
77
100
AcDbEntity
  8
GULLY
100
AcDbLine
 10
132.3697999200912
 20
169.9191693274221
 30
0.0
 11
132.3697999200912
 21
158.7525030705416
 31
0.0
  0
LINE
  5
217
330
77
100
AcDbEntity
  8
GULLY
100
AcDbLine
 10
121.2031336632105
 20
169.9191693274218
 30
0.0
 11
132.3697999200912
 21
169.9191693274221
 31
0.0
  0
LINE
  5
218
330
77
100
AcDbEntity
  8
GULLY
100
AcDbLine
 10
92.48884900266123
 20
158.7525030705416
 30
0.0
 11
92.48884900266123
 21
169.9191693274218
 31
0.0
  0
LINE
  5
219
330
77
100
AcDbEntity
  8
GULLY
100
AcDbLine
 10
103.6555152595415
 20
158.7525030705416
 30
0.0
 11
92.48884900266123
 21
158.7525030705416
 31
0.0
  0
LINE
  5
21A
330
77
100
AcDbEntity
  8
GULLY
100
AcDbLine
 10
103.6555152595415
 20
169.9191693274221
 30
0.0
 11
103.6555152595415
 21
158.7525030705416
 31
0.0
  0
LINE
  5
21B
330
77
100
AcDbEntity
  8
GULLY
100
AcDbLine
 10
92.48884900266123
 20
169.9191693274218
 30
0.0
 11
103.6555152595415
 21
169.9191693274221
 31
0.0
  0
LINE
  5
21C
330
77
100
AcDbEntity
  8
GULLY
100
AcDbLine
 10
322.2031262870579
 20
187.4667877310912
 30
0.0
 11
322.2031262870579
 21
198.6334539879717
 31
0.0
  0
LINE
  5
21D
330
77
100
AcDbEntity
  8
GULLY
100
AcDbLine
 10
333.3697925439383
 20
187.4667877310912
 30
0.0
 11
322.2031262870579
 21
187.4667877310912
 31
0.0
  0
LINE
  5
21E
330
77
100
AcDbEntity
  8
GULLY
100
AcDbLine
 10
333.3697925439383
 20
198.6334539879717
 30
0.0
 11
333.3697925439383
 21
187.4667877310912
 31
0.0
  0
LINE
  5
21F
330
77
100
AcDbEntity
  8
GULLY
100
AcDbLine
 10
322.2031262870579
 20
198.6334539879717
 30
0.0
 11
333.3697925439383
 21
198.6334539879717
 31
0.0
  0
LINE
  5
220
330
77
100
AcDbEntity
  8
GULLY
100
AcDbLine
 10
293.4888416265082
 20
187.4667877310912
 30
0.0
 11
293.4888416265082
 21
198.6334539879717
 31
0.0
  0
LINE
  5
221
330
77
100
AcDbEntity
  8
GULLY
100
AcDbLine
 10
304.6555078833886
 20
187.4667877310912
 30
0.0
 11
293.4888416265082
 21
187.4667877310912
 31
0.0
  0
LINE
  5
222
330
77
100
AcDbEntity
  8
GULLY
100
AcDbLine
 10
304.6555078833886
 20
198.6334539879717
 30
0.0
 11
304.6555078833886
 21
187.4667877310912
 31
0.0
  0
LINE
  5
223
330
77
100
AcDbEntity
  8
GULLY
100
AcDbLine
 10
293.4888416265082
 20
198.6334539879717
 30
0.0
 11
304.6555078833886
 21
198.6334539879717
 31
0.0
  0
LINE
  5
224
330
77
100
AcDbEntity
  8
GULLY
100
AcDbLine
 10
264.7745569659587
 20
187.4667877310912
 30
0.0
 11
264.7745569659587
 21
198.6334539879717
 31
0.0
  0
LINE
  5
225
330
77
100
AcDbEntity
  8
GULLY
100
AcDbLine
 10
275.9412232228391
 20
187.4667877310912
 30
0.0
 11
264.7745569659587
 21
187.4667877310912
 31
0.0
  0
LINE
  5
226
330
77
100
AcDbEntity
  8
GULLY
100
AcDbLine
 10
275.9412232228391
 20
198.6334539879717
 30
0.0
 11
275.9412232228391
 21
187.4667877310912
 31
0.0
  0
LINE
  5
227
330
77
100
AcDbEntity
  8
GULLY
100
AcDbLine
 10
264.7745569659587
 20
198.6334539879717
 30
0.0
 11
275.9412232228391
 21
198.6334539879717
 31
0.0
  0
LINE
  5
228
330
77
100
AcDbEntity
  8
GULLY
100
AcDbLine
 10
236.0602723054091
 20
187.4667877310912
 30
0.0
 11
236.0602723054091
 21
198.6334539879717
 31
0.0
  0
LINE
  5
229
330
77
100
AcDbEntity
  8
GULLY
100
AcDbLine
 10
247.2269385622895
 20
187.4667877310912
 30
0.0
 11
236.0602723054091
 21
187.4667877310912
 31
0.0
  0
LINE
  5
22A
330
77
100
AcDbEntity
  8
GULLY
100
AcDbLine
 10
247.2269385622895
 20
198.6334539879717
 30
0.0
 11
247.2269385622895
 21
187.4667877310912
 31
0.0
  0
LINE
  5
22B
330
77
100
AcDbEntity
  8
GULLY
100
AcDbLine
 10
236.0602723054091
 20
198.6334539879717
 30
0.0
 11
247.2269385622895
 21
198.6334539879717
 31
0.0
  0
LINE
  5
22C
330
77
100
AcDbEntity
  8
GULLY
100
AcDbLine
 10
207.3459876448596
 20
187.4667877310912
 30
0.0
 11
207.3459876448596
 21
198.6334539879717
 31
0.0
  0
LINE
  5
22D
330
77
100
AcDbEntity
  8
GULLY
100
AcDbLine
 10
218.5126539017399
 20
187.4667877310912
 30
0.0
 11
207.3459876448596
 21
187.4667877310912
 31
0.0
  0
LINE
  5
22E
330
77
100
AcDbEntity
  8
GULLY
100
AcDbLine
 10
218.5126539017399
 20
198.6334539879717
 30
0.0
 11
218.5126539017399
 21
187.4667877310912
 31
0.0
  0
LINE
  5
22F
330
77
100
AcDbEntity
  8
GULLY
100
AcDbLine
 10
207.3459876448596
 20
198.6334539879717
 30
0.0
 11
218.5126539017399
 21
198.6334539879717
 31
0.0
  0
LINE
  5
230
330
77
100
AcDbEntity
  8
GULLY
100
AcDbLine
 10
178.6317029843099
 20
187.4667877310912
 30
0.0
 11
178.6317029843097
 21
198.6334539879717
 31
0.0
  0
LINE
  5
231
330
77
100
AcDbEntity
  8
GULLY
100
AcDbLine
 10
189.7983692411901
 20
187.4667877310912
 30
0.0
 11
178.6317029843099
 21
187.4667877310912
 31
0.0
  0
LINE
  5
232
330
77
100
AcDbEntity
  8
GULLY
100
AcDbLine
 10
189.7983692411901
 20
198.6334539879717
 30
0.0
 11
189.7983692411901
 21
187.4667877310912
 31
0.0
  0
LINE
  5
233
330
77
100
AcDbEntity
  8
GULLY
100
AcDbLine
 10
178.6317029843097
 20
198.6334539879717
 30
0.0
 11
189.7983692411901
 21
198.6334539879717
 31
0.0
  0
LINE
  5
234
330
77
100
AcDbEntity
  8
GULLY
100
AcDbLine
 10
149.9174183237601
 20
187.4667877310912
 30
0.0
 11
149.9174183237601
 21
198.6334539879717
 31
0.0
  0
LINE
  5
235
330
77
100
AcDbEntity
  8
GULLY
100
AcDbLine
 10
161.0840845806405
 20
187.4667877310912
 30
0.0
 11
149.9174183237601
 21
187.4667877310912
 31
0.0
  0
LINE
  5
236
330
77
100
AcDbEntity
  8
GULLY
100
AcDbLine
 10
161.0840845806405
 20
198.6334539879717
 30
0.0
 11
161.0840845806405
 21
187.4667877310912
 31
0.0
  0
LINE
  5
237
330
77
100
AcDbEntity
  8
GULLY
100
AcDbLine
 10
149.9174183237601
 20
198.6334539879717
 30
0.0
 11
161.0840845806405
 21
198.6334539879717
 31
0.0
  0
LINE
  5
238
330
77
100
AcDbEntity
  8
GULLY
100
AcDbLine
 10
121.2031336632105
 20
187.4667877310912
 30
0.0
 11
121.2031336632105
 21
198.6334539879717
 31
0.0
  0
LINE
  5
239
330
77
100
AcDbEntity
  8
GULLY
100
AcDbLine
 10
132.3697999200912
 20
187.4667877310912
 30
0.0
 11
121.2031336632105
 21
187.4667877310912
 31
0.0
  0
LINE
  5
23A
330
77
100
AcDbEntity
  8
GULLY
100
AcDbLine
 10
132.3697999200912
 20
198.6334539879717
 30
0.0
 11
132.3697999200912
 21
187.4667877310912
 31
0.0
  0
LINE
  5
23B
330
77
100
AcDbEntity
  8
GULLY
100
AcDbLine
 10
121.2031336632105
 20
198.6334539879717
 30
0.0
 11
132.3697999200912
 21
198.6334539879717
 31
0.0
  0
LINE
  5
23C
330
77
100
AcDbEntity
  8
GULLY
100
AcDbLine
 10
92.48884900266123
 20
187.4667877310912
 30
0.0
 11
92.48884900266123
 21
198.6334539879717
 31
0.0
  0
LINE
  5
23D
330
77
100
AcDbEntity
  8
GULLY
100
AcDbLine
 10
103.6555152595415
 20
187.4667877310912
 30
0.0
 11
92.48884900266123
 21
187.4667877310912
 31
0.0
  0
LINE
  5
23E
330
77
100
AcDbEntity
  8
GULLY
100
AcDbLine
 10
103.6555152595415
 20
198.6334539879717
 30
0.0
 11
103.6555152595415
 21
187.4667877310912
 31
0.0
  0
LINE
  5
23F
330
77
100
AcDbEntity
  8
GULLY
100
AcDbLine
 10
92.48884900266123
 20
198.6334539879717
 30
0.0
 11
103.6555152595415
 21
198.6334539879717
 31
0.0
  0
LINE
  5
240
330
77
100
AcDbEntity
  8
GULLY
100
AcDbLine
 10
322.2031262870579
 20
216.1810723916407
 30
0.0
 11
322.2031262870579
 21
227.3477386485209
 31
0.0
  0
LINE
  5
241
330
77
100
AcDbEntity
  8
GULLY
100
AcDbLine
 10
333.3697925439383
 20
216.1810723916407
 30
0.0
 11
322.2031262870579
 21
216.1810723916407
 31
0.0
  0
LINE
  5
242
330
77
100
AcDbEntity
  8
GULLY
100
AcDbLine
 10
333.3697925439383
 20
227.3477386485209
 30
0.0
 11
333.3697925439383
 21
216.1810723916407
 31
0.0
  0
LINE
  5
243
330
77
100
AcDbEntity
  8
GULLY
100
AcDbLine
 10
322.2031262870579
 20
227.3477386485209
 30
0.0
 11
333.3697925439383
 21
227.3477386485209
 31
0.0
  0
LINE
  5
244
330
77
100
AcDbEntity
  8
GULLY
100
AcDbLine
 10
293.4888416265082
 20
216.1810723916407
 30
0.0
 11
293.4888416265082
 21
227.3477386485209
 31
0.0
  0
LINE
  5
245
330
77
100
AcDbEntity
  8
GULLY
100
AcDbLine
 10
304.6555078833886
 20
216.1810723916407
 30
0.0
 11
293.4888416265082
 21
216.1810723916407
 31
0.0
  0
LINE
  5
246
330
77
100
AcDbEntity
  8
GULLY
100
AcDbLine
 10
304.6555078833886
 20
227.3477386485209
 30
0.0
 11
304.6555078833886
 21
216.1810723916407
 31
0.0
  0
LINE
  5
247
330
77
100
AcDbEntity
  8
GULLY
100
AcDbLine
 10
293.4888416265082
 20
227.3477386485209
 30
0.0
 11
304.6555078833886
 21
227.3477386485209
 31
0.0
  0
LINE
  5
248
330
77
100
AcDbEntity
  8
GULLY
100
AcDbLine
 10
264.7745569659587
 20
216.1810723916407
 30
0.0
 11
264.7745569659587
 21
227.3477386485209
 31
0.0
  0
LINE
  5
249
330
77
100
AcDbEntity
  8
GULLY
100
AcDbLine
 10
275.9412232228391
 20
216.1810723916407
 30
0.0
 11
264.7745569659587
 21
216.1810723916407
 31
0.0
  0
LINE
  5
24A
330
77
100
AcDbEntity
  8
GULLY
100
AcDbLine
 10
275.9412232228391
 20
227.3477386485209
 30
0.0
 11
275.9412232228391
 21
216.1810723916407
 31
0.0
  0
LINE
  5
24B
330
77
100
AcDbEntity
  8
GULLY
100
AcDbLine
 10
264.7745569659587
 20
227.3477386485209
 30
0.0
 11
275.9412232228391
 21
227.3477386485209
 31
0.0
  0
LINE
  5
24C
330
77
100
AcDbEntity
  8
GULLY
100
AcDbLine
 10
236.0602723054091
 20
216.1810723916407
 30
0.0
 11
236.0602723054091
 21
227.3477386485209
 31
0.0
  0
LINE
  5
24D
330
77
100
AcDbEntity
  8
GULLY
100
AcDbLine
 10
247.2269385622895
 20
216.1810723916407
 30
0.0
 11
236.0602723054091
 21
216.1810723916407
 31
0.0
  0
LINE
  5
24E
330
77
100
AcDbEntity
  8
GULLY
100
AcDbLine
 10
247.2269385622895
 20
227.3477386485209
 30
0.0
 11
247.2269385622895
 21
216.1810723916407
 31
0.0
  0
LINE
  5
24F
330
77
100
AcDbEntity
  8
GULLY
100
AcDbLine
 10
236.0602723054091
 20
227.3477386485209
 30
0.0
 11
247.2269385622895
 21
227.3477386485209
 31
0.0
  0
LINE
  5
250
330
77
100
AcDbEntity
  8
GULLY
100
AcDbLine
 10
207.3459876448596
 20
216.1810723916407
 30
0.0
 11
207.3459876448596
 21
227.3477386485209
 31
0.0
  0
LINE
  5
251
330
77
100
AcDbEntity
  8
GULLY
100
AcDbLine
 10
218.5126539017399
 20
216.1810723916407
 30
0.0
 11
207.3459876448596
 21
216.1810723916407
 31
0.0
  0
LINE
  5
252
330
77
100
AcDbEntity
  8
GULLY
100
AcDbLine
 10
218.5126539017399
 20
227.3477386485209
 30
0.0
 11
218.5126539017399
 21
216.1810723916407
 31
0.0
  0
LINE
  5
253
330
77
100
AcDbEntity
  8
GULLY
100
AcDbLine
 10
207.3459876448596
 20
227.3477386485209
 30
0.0
 11
218.5126539017399
 21
227.3477386485209
 31
0.0
  0
LINE
  5
254
330
77
100
AcDbEntity
  8
GULLY
100
AcDbLine
 10
178.6317029843099
 20
216.1810723916407
 30
0.0
 11
178.6317029843097
 21
227.3477386485209
 31
0.0
  0
LINE
  5
255
330
77
100
AcDbEntity
  8
GULLY
100
AcDbLine
 10
189.7983692411901
 20
216.1810723916407
 30
0.0
 11
178.6317029843099
 21
216.1810723916407
 31
0.0
  0
LINE
  5
256
330
77
100
AcDbEntity
  8
GULLY
100
AcDbLine
 10
189.7983692411901
 20
227.3477386485209
 30
0.0
 11
189.7983692411901
 21
216.1810723916407
 31
0.0
  0
LINE
  5
257
330
77
100
AcDbEntity
  8
GULLY
100
AcDbLine
 10
178.6317029843097
 20
227.3477386485209
 30
0.0
 11
189.7983692411901
 21
227.3477386485209
 31
0.0
  0
LINE
  5
258
330
77
100
AcDbEntity
  8
GULLY
100
AcDbLine
 10
149.9174183237601
 20
216.1810723916407
 30
0.0
 11
149.9174183237601
 21
227.3477386485209
 31
0.0
  0
LINE
  5
259
330
77
100
AcDbEntity
  8
GULLY
100
AcDbLine
 10
161.0840845806405
 20
216.1810723916407
 30
0.0
 11
149.9174183237601
 21
216.1810723916407
 31
0.0
  0
LINE
  5
25A
330
77
100
AcDbEntity
  8
GULLY
100
AcDbLine
 10
161.0840845806405
 20
227.3477386485209
 30
0.0
 11
161.0840845806405
 21
216.1810723916407
 31
0.0
  0
LINE
  5
25B
330
77
100
AcDbEntity
  8
GULLY
100
AcDbLine
 10
149.9174183237601
 20
227.3477386485209
 30
0.0
 11
161.0840845806405
 21
227.3477386485209
 31
0.0
  0
LINE
  5
25C
330
77
100
AcDbEntity
  8
GULLY
100
AcDbLine
 10
121.2031336632105
 20
216.1810723916407
 30
0.0
 11
121.2031336632105
 21
227.3477386485209
 31
0.0
  0
LINE
  5
25D
330
77
100
AcDbEntity
  8
GULLY
100
AcDbLine
 10
132.3697999200912
 20
216.1810723916407
 30
0.0
 11
121.2031336632105
 21
216.1810723916407
 31
0.0
  0
LINE
  5
25E
330
77
100
AcDbEntity
  8
GULLY
100
AcDbLine
 10
132.3697999200912
 20
227.3477386485209
 30
0.0
 11
132.3697999200912
 21
216.1810723916407
 31
0.0
  0
LINE
  5
25F
330
77
100
AcDbEntity
  8
GULLY
100
AcDbLine
 10
121.2031336632105
 20
227.3477386485209
 30
0.0
 11
132.3697999200912
 21
227.3477386485209
 31
0.0
  0
LINE
  5
260
330
77
100
AcDbEntity
  8
GULLY
100
AcDbLine
 10
92.48884900266123
 20
216.1810723916407
 30
0.0
 11
92.48884900266123
 21
227.3477386485209
 31
0.0
  0
LINE
  5
261
330
77
100
AcDbEntity
  8
GULLY
100
AcDbLine
 10
103.6555152595415
 20
216.1810723916407
 30
0.0
 11
92.48884900266123
 21
216.1810723916407
 31
0.0
  0
LINE
  5
262
330
77
100
AcDbEntity
  8
GULLY
100
AcDbLine
 10
103.6555152595415
 20
227.3477386485209
 30
0.0
 11
103.6555152595415
 21
216.1810723916407
 31
0.0
  0
LINE
  5
263
330
77
100
AcDbEntity
  8
GULLY
100
AcDbLine
 10
92.48884900266123
 20
227.3477386485209
 30
0.0
 11
103.6555152595415
 21
227.3477386485209
 31
0.0
  0
LINE
  5
264
330
77
100
AcDbEntity
  8
GULLY
100
AcDbLine
 10
322.2031262870579
 20
244.8953570521902
 30
0.0
 11
322.2031262870579
 21
256.0620233090705
 31
0.0
  0
LINE
  5
265
330
77
100
AcDbEntity
  8
GULLY
100
AcDbLine
 10
333.3697925439383
 20
244.8953570521902
 30
0.0
 11
322.2031262870579
 21
244.8953570521902
 31
0.0
  0
LINE
  5
266
330
77
100
AcDbEntity
  8
GULLY
100
AcDbLine
 10
333.3697925439383
 20
256.0620233090705
 30
0.0
 11
333.3697925439383
 21
244.8953570521902
 31
0.0
  0
LINE
  5
267
330
77
100
AcDbEntity
  8
GULLY
100
AcDbLine
 10
322.2031262870579
 20
256.0620233090705
 30
0.0
 11
333.3697925439383
 21
256.0620233090705
 31
0.0
  0
LINE
  5
268
330
77
100
AcDbEntity
  8
GULLY
100
AcDbLine
 10
293.4888416265082
 20
244.8953570521902
 30
0.0
 11
293.4888416265082
 21
256.0620233090705
 31
0.0
  0
LINE
  5
269
330
77
100
AcDbEntity
  8
GULLY
100
AcDbLine
 10
304.6555078833886
 20
244.8953570521902
 30
0.0
 11
293.4888416265082
 21
244.8953570521902
 31
0.0
  0
LINE
  5
26A
330
77
100
AcDbEntity
  8
GULLY
100
AcDbLine
 10
304.6555078833886
 20
256.0620233090705
 30
0.0
 11
304.6555078833886
 21
244.8953570521902
 31
0.0
  0
LINE
  5
26B
330
77
100
AcDbEntity
  8
GULLY
100
AcDbLine
 10
293.4888416265082
 20
256.0620233090705
 30
0.0
 11
304.6555078833886
 21
256.0620233090705
 31
0.0
  0
LINE
  5
26C
330
77
100
AcDbEntity
  8
GULLY
100
AcDbLine
 10
264.7745569659587
 20
244.8953570521902
 30
0.0
 11
264.7745569659587
 21
256.0620233090705
 31
0.0
  0
LINE
  5
26D
330
77
100
AcDbEntity
  8
GULLY
100
AcDbLine
 10
275.9412232228391
 20
244.8953570521902
 30
0.0
 11
264.7745569659587
 21
244.8953570521902
 31
0.0
  0
LINE
  5
26E
330
77
100
AcDbEntity
  8
GULLY
100
AcDbLine
 10
275.9412232228391
 20
256.0620233090705
 30
0.0
 11
275.9412232228391
 21
244.8953570521902
 31
0.0
  0
LINE
  5
26F
330
77
100
AcDbEntity
  8
GULLY
100
AcDbLine
 10
264.7745569659587
 20
256.0620233090705
 30
0.0
 11
275.9412232228391
 21
256.0620233090705
 31
0.0
  0
LINE
  5
270
330
77
100
AcDbEntity
  8
GULLY
100
AcDbLine
 10
236.0602723054091
 20
244.8953570521902
 30
0.0
 11
236.0602723054091
 21
256.0620233090705
 31
0.0
  0
LINE
  5
271
330
77
100
AcDbEntity
  8
GULLY
100
AcDbLine
 10
247.2269385622895
 20
244.8953570521902
 30
0.0
 11
236.0602723054091
 21
244.8953570521902
 31
0.0
  0
LINE
  5
272
330
77
100
AcDbEntity
  8
GULLY
100
AcDbLine
 10
247.2269385622895
 20
256.0620233090705
 30
0.0
 11
247.2269385622895
 21
244.8953570521902
 31
0.0
  0
LINE
  5
273
330
77
100
AcDbEntity
  8
GULLY
100
AcDbLine
 10
236.0602723054091
 20
256.0620233090705
 30
0.0
 11
247.2269385622895
 21
256.0620233090705
 31
0.0
  0
LINE
  5
274
330
77
100
AcDbEntity
  8
GULLY
100
AcDbLine
 10
207.3459876448596
 20
244.8953570521902
 30
0.0
 11
207.3459876448596
 21
256.0620233090705
 31
0.0
  0
LINE
  5
275
330
77
100
AcDbEntity
  8
GULLY
100
AcDbLine
 10
218.5126539017399
 20
244.8953570521902
 30
0.0
 11
207.3459876448596
 21
244.8953570521902
 31
0.0
  0
LINE
  5
276
330
77
100
AcDbEntity
  8
GULLY
100
AcDbLine
 10
218.5126539017399
 20
256.0620233090705
 30
0.0
 11
218.5126539017399
 21
244.8953570521902
 31
0.0
  0
LINE
  5
277
330
77
100
AcDbEntity
  8
GULLY
100
AcDbLine
 10
207.3459876448596
 20
256.0620233090705
 30
0.0
 11
218.5126539017399
 21
256.0620233090705
 31
0.0
  0
LINE
  5
278
330
77
100
AcDbEntity
  8
GULLY
100
AcDbLine
 10
178.6317029843099
 20
244.8953570521902
 30
0.0
 11
178.6317029843097
 21
256.0620233090705
 31
0.0
  0
LINE
  5
279
330
77
100
AcDbEntity
  8
GULLY
100
AcDbLine
 10
189.7983692411901
 20
244.8953570521902
 30
0.0
 11
178.6317029843099
 21
244.8953570521902
 31
0.0
  0
LINE
  5
27A
330
77
100
AcDbEntity
  8
GULLY
100
AcDbLine
 10
189.7983692411901
 20
256.0620233090705
 30
0.0
 11
189.7983692411901
 21
244.8953570521902
 31
0.0
  0
LINE
  5
27B
330
77
100
AcDbEntity
  8
GULLY
100
AcDbLine
 10
178.6317029843097
 20
256.0620233090705
 30
0.0
 11
189.7983692411901
 21
256.0620233090705
 31
0.0
  0
LINE
  5
27C
330
77
100
AcDbEntity
  8
GULLY
100
AcDbLine
 10
149.9174183237601
 20
244.8953570521902
 30
0.0
 11
149.9174183237601
 21
256.0620233090705
 31
0.0
  0
LINE
  5
27D
330
77
100
AcDbEntity
  8
GULLY
100
AcDbLine
 10
161.0840845806405
 20
244.8953570521902
 30
0.0
 11
149.9174183237601
 21
244.8953570521902
 31
0.0
  0
LINE
  5
27E
330
77
100
AcDbEntity
  8
GULLY
100
AcDbLine
 10
161.0840845806405
 20
256.0620233090705
 30
0.0
 11
161.0840845806405
 21
244.8953570521902
 31
0.0
  0
LINE
  5
27F
330
77
100
AcDbEntity
  8
GULLY
100
AcDbLine
 10
149.9174183237601
 20
256.0620233090705
 30
0.0
 11
161.0840845806405
 21
256.0620233090705
 31
0.0
  0
LINE
  5
280
330
77
100
AcDbEntity
  8
GULLY
100
AcDbLine
 10
121.2031336632105
 20
244.8953570521902
 30
0.0
 11
121.2031336632105
 21
256.0620233090705
 31
0.0
  0
LINE
  5
281
330
77
100
AcDbEntity
  8
GULLY
100
AcDbLine
 10
132.3697999200912
 20
244.8953570521902
 30
0.0
 11
121.2031336632105
 21
244.8953570521902
 31
0.0
  0
LINE
  5
282
330
77
100
AcDbEntity
  8
GULLY
100
AcDbLine
 10
132.3697999200912
 20
256.0620233090705
 30
0.0
 11
132.3697999200912
 21
244.8953570521902
 31
0.0
  0
LINE
  5
283
330
77
100
AcDbEntity
  8
GULLY
100
AcDbLine
 10
121.2031336632105
 20
256.0620233090705
 30
0.0
 11
132.3697999200912
 21
256.0620233090705
 31
0.0
  0
LINE
  5
284
330
77
100
AcDbEntity
  8
GULLY
100
AcDbLine
 10
92.48884900266123
 20
244.8953570521902
 30
0.0
 11
92.48884900266123
 21
256.0620233090705
 31
0.0
  0
LINE
  5
285
330
77
100
AcDbEntity
  8
GULLY
100
AcDbLine
 10
103.6555152595415
 20
244.8953570521902
 30
0.0
 11
92.48884900266123
 21
244.8953570521902
 31
0.0
  0
LINE
  5
286
330
77
100
AcDbEntity
  8
GULLY
100
AcDbLine
 10
103.6555152595415
 20
256.0620233090705
 30
0.0
 11
103.6555152595415
 21
244.8953570521902
 31
0.0
  0
LINE
  5
287
330
77
100
AcDbEntity
  8
GULLY
100
AcDbLine
 10
92.48884900266123
 20
256.0620233090705
 30
0.0
 11
103.6555152595415
 21
256.0620233090705
 31
0.0
  0
LINE
  5
288
330
77
100
AcDbEntity
  8
GULLY
100
AcDbLine
 10
322.2031262870579
 20
273.60964171274
 30
0.0
 11
322.2031262870579
 21
284.7763079696203
 31
0.0
  0
LINE
  5
289
330
77
100
AcDbEntity
  8
GULLY
100
AcDbLine
 10
333.3697925439383
 20
273.60964171274
 30
0.0
 11
322.2031262870579
 21
273.60964171274
 31
0.0
  0
LINE
  5
28A
330
77
100
AcDbEntity
  8
GULLY
100
AcDbLine
 10
333.3697925439383
 20
284.7763079696203
 30
0.0
 11
333.3697925439383
 21
273.60964171274
 31
0.0
  0
LINE
  5
28B
330
77
100
AcDbEntity
  8
GULLY
100
AcDbLine
 10
322.2031262870579
 20
284.7763079696203
 30
0.0
 11
333.3697925439383
 21
284.7763079696203
 31
0.0
  0
LINE
  5
28C
330
77
100
AcDbEntity
  8
GULLY
100
AcDbLine
 10
293.4888416265082
 20
273.60964171274
 30
0.0
 11
293.4888416265082
 21
284.7763079696203
 31
0.0
  0
LINE
  5
28D
330
77
100
AcDbEntity
  8
GULLY
100
AcDbLine
 10
304.6555078833886
 20
273.60964171274
 30
0.0
 11
293.4888416265082
 21
273.60964171274
 31
0.0
  0
LINE
  5
28E
330
77
100
AcDbEntity
  8
GULLY
100
AcDbLine
 10
304.6555078833886
 20
284.7763079696203
 30
0.0
 11
304.6555078833886
 21
273.60964171274
 31
0.0
  0
LINE
  5
28F
330
77
100
AcDbEntity
  8
GULLY
100
AcDbLine
 10
293.4888416265082
 20
284.7763079696203
 30
0.0
 11
304.6555078833886
 21
284.7763079696203
 31
0.0
  0
LINE
  5
290
330
77
100
AcDbEntity
  8
GULLY
100
AcDbLine
 10
264.7745569659587
 20
273.60964171274
 30
0.0
 11
264.7745569659587
 21
284.7763079696203
 31
0.0
  0
LINE
  5
291
330
77
100
AcDbEntity
  8
GULLY
100
AcDbLine
 10
275.9412232228391
 20
273.60964171274
 30
0.0
 11
264.7745569659587
 21
273.60964171274
 31
0.0
  0
LINE
  5
292
330
77
100
AcDbEntity
  8
GULLY
100
AcDbLine
 10
275.9412232228391
 20
284.7763079696203
 30
0.0
 11
275.9412232228391
 21
273.60964171274
 31
0.0
  0
LINE
  5
293
330
77
100
AcDbEntity
  8
GULLY
100
AcDbLine
 10
264.7745569659587
 20
284.7763079696203
 30
0.0
 11
275.9412232228391
 21
284.7763079696203
 31
0.0
  0
LINE
  5
294
330
77
100
AcDbEntity
  8
GULLY
100
AcDbLine
 10
236.0602723054091
 20
273.60964171274
 30
0.0
 11
236.0602723054091
 21
284.7763079696203
 31
0.0
  0
LINE
  5
295
330
77
100
AcDbEntity
  8
GULLY
100
AcDbLine
 10
247.2269385622895
 20
273.60964171274
 30
0.0
 11
236.0602723054091
 21
273.60964171274
 31
0.0
  0
LINE
  5
296
330
77
100
AcDbEntity
  8
GULLY
100
AcDbLine
 10
247.2269385622895
 20
284.7763079696203
 30
0.0
 11
247.2269385622895
 21
273.60964171274
 31
0.0
  0
LINE
  5
297
330
77
100
AcDbEntity
  8
GULLY
100
AcDbLine
 10
236.0602723054091
 20
284.7763079696203
 30
0.0
 11
247.2269385622895
 21
284.7763079696203
 31
0.0
  0
LINE
  5
298
330
77
100
AcDbEntity
  8
GULLY
100
AcDbLine
 10
207.3459876448596
 20
273.60964171274
 30
0.0
 11
207.3459876448596
 21
284.7763079696203
 31
0.0
  0
LINE
  5
299
330
77
100
AcDbEntity
  8
GULLY
100
AcDbLine
 10
218.5126539017399
 20
273.60964171274
 30
0.0
 11
207.3459876448596
 21
273.60964171274
 31
0.0
  0
LINE
  5
29A
330
77
100
AcDbEntity
  8
GULLY
100
AcDbLine
 10
218.5126539017399
 20
284.7763079696203
 30
0.0
 11
218.5126539017399
 21
273.60964171274
 31
0.0
  0
LINE
  5
29B
330
77
100
AcDbEntity
  8
GULLY
100
AcDbLine
 10
207.3459876448596
 20
284.7763079696203
 30
0.0
 11
218.5126539017399
 21
284.7763079696203
 31
0.0
  0
LINE
  5
29C
330
77
100
AcDbEntity
  8
GULLY
100
AcDbLine
 10
178.6317029843099
 20
273.60964171274
 30
0.0
 11
178.6317029843097
 21
284.7763079696203
 31
0.0
  0
LINE
  5
29D
330
77
100
AcDbEntity
  8
GULLY
100
AcDbLine
 10
189.7983692411901
 20
273.60964171274
 30
0.0
 11
178.6317029843099
 21
273.60964171274
 31
0.0
  0
LINE
  5
29E
330
77
100
AcDbEntity
  8
GULLY
100
AcDbLine
 10
189.7983692411901
 20
284.7763079696203
 30
0.0
 11
189.7983692411901
 21
273.60964171274
 31
0.0
  0
LINE
  5
29F
330
77
100
AcDbEntity
  8
GULLY
100
AcDbLine
 10
178.6317029843097
 20
284.7763079696203
 30
0.0
 11
189.7983692411901
 21
284.7763079696203
 31
0.0
  0
LINE
  5
2A0
330
77
100
AcDbEntity
  8
GULLY
100
AcDbLine
 10
149.9174183237601
 20
273.60964171274
 30
0.0
 11
149.9174183237601
 21
284.7763079696203
 31
0.0
  0
LINE
  5
2A1
330
77
100
AcDbEntity
  8
GULLY
100
AcDbLine
 10
161.0840845806405
 20
273.60964171274
 30
0.0
 11
149.9174183237601
 21
273.60964171274
 31
0.0
  0
LINE
  5
2A2
330
77
100
AcDbEntity
  8
GULLY
100
AcDbLine
 10
161.0840845806405
 20
284.7763079696203
 30
0.0
 11
161.0840845806405
 21
273.60964171274
 31
0.0
  0
LINE
  5
2A3
330
77
100
AcDbEntity
  8
GULLY
100
AcDbLine
 10
149.9174183237601
 20
284.7763079696203
 30
0.0
 11
161.0840845806405
 21
284.7763079696203
 31
0.0
  0
LINE
  5
2A4
330
77
100
AcDbEntity
  8
GULLY
100
AcDbLine
 10
121.2031336632105
 20
273.60964171274
 30
0.0
 11
121.2031336632105
 21
284.7763079696203
 31
0.0
  0
LINE
  5
2A5
330
77
100
AcDbEntity
  8
GULLY
100
AcDbLine
 10
132.3697999200912
 20
273.60964171274
 30
0.0
 11
121.2031336632105
 21
273.60964171274
 31
0.0
  0
LINE
  5
2A6
330
77
100
AcDbEntity
  8
GULLY
100
AcDbLine
 10
132.3697999200912
 20
284.7763079696203
 30
0.0
 11
132.3697999200912
 21
273.60964171274
 31
0.0
  0
LINE
  5
2A7
330
77
100
AcDbEntity
  8
GULLY
100
AcDbLine
 10
121.2031336632105
 20
284.7763079696203
 30
0.0
 11
132.3697999200912
 21
284.7763079696203
 31
0.0
  0
LINE
  5
2A8
330
77
100
AcDbEntity
  8
GULLY
100
AcDbLine
 10
92.48884900266123
 20
273.60964171274
 30
0.0
 11
92.48884900266123
 21
284.7763079696203
 31
0.0
  0
LINE
  5
2A9
330
77
100
AcDbEntity
  8
GULLY
100
AcDbLine
 10
103.6555152595415
 20
273.60964171274
 30
0.0
 11
92.48884900266123
 21
273.60964171274
 31
0.0
  0
LINE
  5
2AA
330
77
100
AcDbEntity
  8
GULLY
100
AcDbLine
 10
103.6555152595415
 20
284.7763079696203
 30
0.0
 11
103.6555152595415
 21
273.60964171274
 31
0.0
  0
LINE
  5
2AB
330
77
100
AcDbEntity
  8
GULLY
100
AcDbLine
 10
92.48884900266123
 20
284.7763079696203
 30
0.0
 11
103.6555152595415
 21
284.7763079696203
 31
0.0
  0
LINE
  5
2AC
330
77
100
AcDbEntity
  8
GULLY
100
AcDbLine
 10
322.2031262870579
 20
302.3239263732896
 30
0.0
 11
322.2031262870579
 21
313.4905926301699
 31
0.0
  0
LINE
  5
2AD
330
77
100
AcDbEntity
  8
GULLY
100
AcDbLine
 10
333.3697925439383
 20
302.3239263732896
 30
0.0
 11
322.2031262870579
 21
302.3239263732896
 31
0.0
  0
LINE
  5
2AE
330
77
100
AcDbEntity
  8
GULLY
100
AcDbLine
 10
333.3697925439383
 20
313.49059263017
 30
0.0
 11
333.3697925439383
 21
302.3239263732896
 31
0.0
  0
LINE
  5
2AF
330
77
100
AcDbEntity
  8
GULLY
100
AcDbLine
 10
322.2031262870579
 20
313.4905926301699
 30
0.0
 11
333.3697925439383
 21
313.49059263017
 31
0.0
  0
LINE
  5
2B0
330
77
100
AcDbEntity
  8
GULLY
100
AcDbLine
 10
293.4888416265082
 20
302.3239263732896
 30
0.0
 11
293.4888416265082
 21
313.4905926301699
 31
0.0
  0
LINE
  5
2B1
330
77
100
AcDbEntity
  8
GULLY
100
AcDbLine
 10
304.6555078833886
 20
302.3239263732896
 30
0.0
 11
293.4888416265082
 21
302.3239263732896
 31
0.0
  0
LINE
  5
2B2
330
77
100
AcDbEntity
  8
GULLY
100
AcDbLine
 10
304.6555078833886
 20
313.49059263017
 30
0.0
 11
304.6555078833886
 21
302.3239263732896
 31
0.0
  0
LINE
  5
2B3
330
77
100
AcDbEntity
  8
GULLY
100
AcDbLine
 10
293.4888416265082
 20
313.4905926301699
 30
0.0
 11
304.6555078833886
 21
313.49059263017
 31
0.0
  0
LINE
  5
2B4
330
77
100
AcDbEntity
  8
GULLY
100
AcDbLine
 10
264.7745569659587
 20
302.3239263732896
 30
0.0
 11
264.7745569659587
 21
313.4905926301699
 31
0.0
  0
LINE
  5
2B5
330
77
100
AcDbEntity
  8
GULLY
100
AcDbLine
 10
275.9412232228391
 20
302.3239263732896
 30
0.0
 11
264.7745569659587
 21
302.3239263732896
 31
0.0
  0
LINE
  5
2B6
330
77
100
AcDbEntity
  8
GULLY
100
AcDbLine
 10
275.9412232228391
 20
313.49059263017
 30
0.0
 11
275.9412232228391
 21
302.3239263732896
 31
0.0
  0
LINE
  5
2B7
330
77
100
AcDbEntity
  8
GULLY
100
AcDbLine
 10
264.7745569659587
 20
313.4905926301699
 30
0.0
 11
275.9412232228391
 21
313.49059263017
 31
0.0
  0
LINE
  5
2B8
330
77
100
AcDbEntity
  8
GULLY
100
AcDbLine
 10
236.0602723054091
 20
302.3239263732896
 30
0.0
 11
236.0602723054091
 21
313.4905926301699
 31
0.0
  0
LINE
  5
2B9
330
77
100
AcDbEntity
  8
GULLY
100
AcDbLine
 10
247.2269385622895
 20
302.3239263732896
 30
0.0
 11
236.0602723054091
 21
302.3239263732896
 31
0.0
  0
LINE
  5
2BA
330
77
100
AcDbEntity
  8
GULLY
100
AcDbLine
 10
247.2269385622895
 20
313.49059263017
 30
0.0
 11
247.2269385622895
 21
302.3239263732896
 31
0.0
  0
LINE
  5
2BB
330
77
100
AcDbEntity
  8
GULLY
100
AcDbLine
 10
236.0602723054091
 20
313.4905926301699
 30
0.0
 11
247.2269385622895
 21
313.49059263017
 31
0.0
  0
LINE
  5
2BC
330
77
100
AcDbEntity
  8
GULLY
100
AcDbLine
 10
207.3459876448596
 20
302.3239263732896
 30
0.0
 11
207.3459876448596
 21
313.4905926301699
 31
0.0
  0
LINE
  5
2BD
330
77
100
AcDbEntity
  8
GULLY
100
AcDbLine
 10
218.5126539017399
 20
302.3239263732896
 30
0.0
 11
207.3459876448596
 21
302.3239263732896
 31
0.0
  0
LINE
  5
2BE
330
77
100
AcDbEntity
  8
GULLY
100
AcDbLine
 10
218.5126539017399
 20
313.49059263017
 30
0.0
 11
218.5126539017399
 21
302.3239263732896
 31
0.0
  0
LINE
  5
2BF
330
77
100
AcDbEntity
  8
GULLY
100
AcDbLine
 10
207.3459876448596
 20
313.4905926301699
 30
0.0
 11
218.5126539017399
 21
313.49059263017
 31
0.0
  0
LINE
  5
2C0
330
77
100
AcDbEntity
  8
GULLY
100
AcDbLine
 10
178.6317029843099
 20
302.3239263732896
 30
0.0
 11
178.6317029843097
 21
313.4905926301699
 31
0.0
  0
LINE
  5
2C1
330
77
100
AcDbEntity
  8
GULLY
100
AcDbLine
 10
189.7983692411901
 20
302.3239263732896
 30
0.0
 11
178.6317029843099
 21
302.3239263732896
 31
0.0
  0
LINE
  5
2C2
330
77
100
AcDbEntity
  8
GULLY
100
AcDbLine
 10
189.7983692411901
 20
313.49059263017
 30
0.0
 11
189.7983692411901
 21
302.3239263732896
 31
0.0
  0
LINE
  5
2C3
330
77
100
AcDbEntity
  8
GULLY
100
AcDbLine
 10
178.6317029843097
 20
313.4905926301699
 30
0.0
 11
189.7983692411901
 21
313.49059263017
 31
0.0
  0
LINE
  5
2C4
330
77
100
AcDbEntity
  8
GULLY
100
AcDbLine
 10
149.9174183237601
 20
302.3239263732896
 30
0.0
 11
149.9174183237601
 21
313.4905926301699
 31
0.0
  0
LINE
  5
2C5
330
77
100
AcDbEntity
  8
GULLY
100
AcDbLine
 10
161.0840845806405
 20
302.3239263732896
 30
0.0
 11
149.9174183237601
 21
302.3239263732896
 31
0.0
  0
LINE
  5
2C6
330
77
100
AcDbEntity
  8
GULLY
100
AcDbLine
 10
161.0840845806405
 20
313.49059263017
 30
0.0
 11
161.0840845806405
 21
302.3239263732896
 31
0.0
  0
LINE
  5
2C7
330
77
100
AcDbEntity
  8
GULLY
100
AcDbLine
 10
149.9174183237601
 20
313.4905926301699
 30
0.0
 11
161.0840845806405
 21
313.49059263017
 31
0.0
  0
LINE
  5
2C8
330
77
100
AcDbEntity
  8
GULLY
100
AcDbLine
 10
121.2031336632105
 20
302.3239263732896
 30
0.0
 11
121.2031336632105
 21
313.4905926301699
 31
0.0
  0
LINE
  5
2C9
330
77
100
AcDbEntity
  8
GULLY
100
AcDbLine
 10
132.3697999200912
 20
302.3239263732896
 30
0.0
 11
121.2031336632105
 21
302.3239263732896
 31
0.0
  0
LINE
  5
2CA
330
77
100
AcDbEntity
  8
GULLY
100
AcDbLine
 10
132.3697999200912
 20
313.49059263017
 30
0.0
 11
132.3697999200912
 21
302.3239263732896
 31
0.0
  0
LINE
  5
2CB
330
77
100
AcDbEntity
  8
GULLY
100
AcDbLine
 10
121.2031336632105
 20
313.4905926301699
 30
0.0
 11
132.3697999200912
 21
313.49059263017
 31
0.0
  0
LINE
  5
2CC
330
77
100
AcDbEntity
  8
GULLY
100
AcDbLine
 10
92.48884900266123
 20
302.3239263732896
 30
0.0
 11
92.48884900266123
 21
313.4905926301699
 31
0.0
  0
LINE
  5
2CD
330
77
100
AcDbEntity
  8
GULLY
100
AcDbLine
 10
103.6555152595415
 20
302.3239263732896
 30
0.0
 11
92.48884900266123
 21
302.3239263732896
 31
0.0
  0
LINE
  5
2CE
330
77
100
AcDbEntity
  8
GULLY
100
AcDbLine
 10
103.6555152595415
 20
313.49059263017
 30
0.0
 11
103.6555152595415
 21
302.3239263732896
 31
0.0
  0
LINE
  5
2CF
330
77
100
AcDbEntity
  8
GULLY
100
AcDbLine
 10
92.48884900266123
 20
313.4905926301699
 30
0.0
 11
103.6555152595415
 21
313.49059263017
 31
0.0
  0
LINE
  5
2D0
330
77
100
AcDbEntity
  8
GULLY
100
AcDbLine
 10
322.2031262870579
 20
331.0382110338392
 30
0.0
 11
322.2031262870579
 21
342.2048772907196
 31
0.0
  0
LINE
  5
2D1
330
77
100
AcDbEntity
  8
GULLY
100
AcDbLine
 10
333.3697925439383
 20
331.0382110338392
 30
0.0
 11
322.2031262870579
 21
331.0382110338392
 31
0.0
  0
LINE
  5
2D2
330
77
100
AcDbEntity
  8
GULLY
100
AcDbLine
 10
333.3697925439383
 20
342.2048772907196
 30
0.0
 11
333.3697925439383
 21
331.0382110338392
 31
0.0
  0
LINE
  5
2D3
330
77
100
AcDbEntity
  8
GULLY
100
AcDbLine
 10
322.2031262870579
 20
342.2048772907196
 30
0.0
 11
333.3697925439383
 21
342.2048772907196
 31
0.0
  0
LINE
  5
2D4
330
77
100
AcDbEntity
  8
GULLY
100
AcDbLine
 10
293.4888416265082
 20
331.0382110338392
 30
0.0
 11
293.4888416265082
 21
342.2048772907196
 31
0.0
  0
LINE
  5
2D5
330
77
100
AcDbEntity
  8
GULLY
100
AcDbLine
 10
304.6555078833886
 20
331.0382110338392
 30
0.0
 11
293.4888416265082
 21
331.0382110338392
 31
0.0
  0
LINE
  5
2D6
330
77
100
AcDbEntity
  8
GULLY
100
AcDbLine
 10
304.6555078833886
 20
342.2048772907196
 30
0.0
 11
304.6555078833886
 21
331.0382110338392
 31
0.0
  0
LINE
  5
2D7
330
77
100
AcDbEntity
  8
GULLY
100
AcDbLine
 10
293.4888416265082
 20
342.2048772907196
 30
0.0
 11
304.6555078833886
 21
342.2048772907196
 31
0.0
  0
LINE
  5
2D8
330
77
100
AcDbEntity
  8
GULLY
100
AcDbLine
 10
264.7745569659587
 20
331.0382110338392
 30
0.0
 11
264.7745569659587
 21
342.2048772907196
 31
0.0
  0
LINE
  5
2D9
330
77
100
AcDbEntity
  8
GULLY
100
AcDbLine
 10
275.9412232228391
 20
331.0382110338392
 30
0.0
 11
264.7745569659587
 21
331.0382110338392
 31
0.0
  0
LINE
  5
2DA
330
77
100
AcDbEntity
  8
GULLY
100
AcDbLine
 10
275.9412232228391
 20
342.2048772907196
 30
0.0
 11
275.9412232228391
 21
331.0382110338392
 31
0.0
  0
LINE
  5
2DB
330
77
100
AcDbEntity
  8
GULLY
100
AcDbLine
 10
264.7745569659587
 20
342.2048772907196
 30
0.0
 11
275.9412232228391
 21
342.2048772907196
 31
0.0
  0
LINE
  5
2DC
330
77
100
AcDbEntity
  8
GULLY
100
AcDbLine
 10
236.0602723054091
 20
331.0382110338392
 30
0.0
 11
236.0602723054091
 21
342.2048772907196
 31
0.0
  0
LINE
  5
2DD
330
77
100
AcDbEntity
  8
GULLY
100
AcDbLine
 10
247.2269385622895
 20
331.0382110338392
 30
0.0
 11
236.0602723054091
 21
331.0382110338392
 31
0.0
  0
LINE
  5
2DE
330
77
100
AcDbEntity
  8
GULLY
100
AcDbLine
 10
247.2269385622895
 20
342.2048772907196
 30
0.0
 11
247.2269385622895
 21
331.0382110338392
 31
0.0
  0
LINE
  5
2DF
330
77
100
AcDbEntity
  8
GULLY
100
AcDbLine
 10
236.0602723054091
 20
342.2048772907196
 30
0.0
 11
247.2269385622895
 21
342.2048772907196
 31
0.0
  0
LINE
  5
2E0
330
77
100
AcDbEntity
  8
GULLY
100
AcDbLine
 10
207.3459876448596
 20
331.0382110338392
 30
0.0
 11
207.3459876448596
 21
342.2048772907196
 31
0.0
  0
LINE
  5
2E1
330
77
100
AcDbEntity
  8
GULLY
100
AcDbLine
 10
218.5126539017399
 20
331.0382110338392
 30
0.0
 11
207.3459876448596
 21
331.0382110338392
 31
0.0
  0
LINE
  5
2E2
330
77
100
AcDbEntity
  8
GULLY
100
AcDbLine
 10
218.5126539017399
 20
342.2048772907196
 30
0.0
 11
218.5126539017399
 21
331.0382110338392
 31
0.0
  0
LINE
  5
2E3
330
77
100
AcDbEntity
  8
GULLY
100
AcDbLine
 10
207.3459876448596
 20
342.2048772907196
 30
0.0
 11
218.5126539017399
 21
342.2048772907196
 31
0.0
  0
LINE
  5
2E4
330
77
100
AcDbEntity
  8
GULLY
100
AcDbLine
 10
178.6317029843099
 20
331.0382110338392
 30
0.0
 11
178.6317029843097
 21
342.2048772907196
 31
0.0
  0
LINE
  5
2E5
330
77
100
AcDbEntity
  8
GULLY
100
AcDbLine
 10
189.7983692411901
 20
331.0382110338392
 30
0.0
 11
178.6317029843099
 21
331.0382110338392
 31
0.0
  0
LINE
  5
2E6
330
77
100
AcDbEntity
  8
GULLY
100
AcDbLine
 10
189.7983692411901
 20
342.2048772907196
 30
0.0
 11
189.7983692411901
 21
331.0382110338392
 31
0.0
  0
LINE
  5
2E7
330
77
100
AcDbEntity
  8
GULLY
100
AcDbLine
 10
178.6317029843097
 20
342.2048772907196
 30
0.0
 11
189.7983692411901
 21
342.2048772907196
 31
0.0
  0
LINE
  5
2E8
330
77
100
AcDbEntity
  8
GULLY
100
AcDbLine
 10
149.9174183237601
 20
331.0382110338392
 30
0.0
 11
149.9174183237601
 21
342.2048772907196
 31
0.0
  0
LINE
  5
2E9
330
77
100
AcDbEntity
  8
GULLY
100
AcDbLine
 10
161.0840845806405
 20
331.0382110338392
 30
0.0
 11
149.9174183237601
 21
331.0382110338392
 31
0.0
  0
LINE
  5
2EA
330
77
100
AcDbEntity
  8
GULLY
100
AcDbLine
 10
161.0840845806405
 20
342.2048772907196
 30
0.0
 11
161.0840845806405
 21
331.0382110338392
 31
0.0
  0
LINE
  5
2EB
330
77
100
AcDbEntity
  8
GULLY
100
AcDbLine
 10
149.9174183237601
 20
342.2048772907196
 30
0.0
 11
161.0840845806405
 21
342.2048772907196
 31
0.0
  0
LINE
  5
2EC
330
77
100
AcDbEntity
  8
GULLY
100
AcDbLine
 10
121.2031336632105
 20
331.0382110338392
 30
0.0
 11
121.2031336632105
 21
342.2048772907196
 31
0.0
  0
LINE
  5
2ED
330
77
100
AcDbEntity
  8
GULLY
100
AcDbLine
 10
132.3697999200912
 20
331.0382110338392
 30
0.0
 11
121.2031336632105
 21
331.0382110338392
 31
0.0
  0
LINE
  5
2EE
330
77
100
AcDbEntity
  8
GULLY
100
AcDbLine
 10
132.3697999200912
 20
342.2048772907196
 30
0.0
 11
132.3697999200912
 21
331.0382110338392
 31
0.0
  0
LINE
  5
2EF
330
77
100
AcDbEntity
  8
GULLY
100
AcDbLine
 10
121.2031336632105
 20
342.2048772907196
 30
0.0
 11
132.3697999200912
 21
342.2048772907196
 31
0.0
  0
LINE
  5
2F0
330
77
100
AcDbEntity
  8
GULLY
100
AcDbLine
 10
92.48884900266123
 20
331.0382110338392
 30
0.0
 11
92.48884900266123
 21
342.2048772907196
 31
0.0
  0
LINE
  5
2F1
330
77
100
AcDbEntity
  8
GULLY
100
AcDbLine
 10
103.6555152595415
 20
331.0382110338392
 30
0.0
 11
92.48884900266123
 21
331.0382110338392
 31
0.0
  0
LINE
  5
2F2
330
77
100
AcDbEntity
  8
GULLY
100
AcDbLine
 10
103.6555152595415
 20
342.2048772907196
 30
0.0
 11
103.6555152595415
 21
331.0382110338392
 31
0.0
  0
LINE
  5
2F3
330
77
100
AcDbEntity
  8
GULLY
100
AcDbLine
 10
92.48884900266123
 20
342.2048772907196
 30
0.0
 11
103.6555152595415
 21
342.2048772907196
 31
0.0
  0
LINE
  5
2F4
330
77
100
AcDbEntity
  8
GULLY
100
AcDbLine
 10
322.2031262870579
 20
359.7524956943887
 30
0.0
 11
322.2031262870579
 21
370.9191619512692
 31
0.0
  0
LINE
  5
2F5
330
77
100
AcDbEntity
  8
GULLY
100
AcDbLine
 10
333.3697925439383
 20
359.7524956943887
 30
0.0
 11
322.2031262870579
 21
359.7524956943887
 31
0.0
  0
LINE
  5
2F6
330
77
100
AcDbEntity
  8
GULLY
100
AcDbLine
 10
333.3697925439383
 20
370.9191619512692
 30
0.0
 11
333.3697925439383
 21
359.7524956943887
 31
0.0
  0
LINE
  5
2F7
330
77
100
AcDbEntity
  8
GULLY
100
AcDbLine
 10
322.2031262870579
 20
370.9191619512692
 30
0.0
 11
333.3697925439383
 21
370.9191619512692
 31
0.0
  0
LINE
  5
2F8
330
77
100
AcDbEntity
  8
GULLY
100
AcDbLine
 10
293.4888416265082
 20
359.7524956943887
 30
0.0
 11
293.4888416265082
 21
370.9191619512692
 31
0.0
  0
LINE
  5
2F9
330
77
100
AcDbEntity
  8
GULLY
100
AcDbLine
 10
304.6555078833886
 20
359.7524956943887
 30
0.0
 11
293.4888416265082
 21
359.7524956943887
 31
0.0
  0
LINE
  5
2FA
330
77
100
AcDbEntity
  8
GULLY
100
AcDbLine
 10
304.6555078833886
 20
370.9191619512692
 30
0.0
 11
304.6555078833886
 21
359.7524956943887
 31
0.0
  0
LINE
  5
2FB
330
77
100
AcDbEntity
  8
GULLY
100
AcDbLine
 10
293.4888416265082
 20
370.9191619512692
 30
0.0
 11
304.6555078833886
 21
370.9191619512692
 31
0.0
  0
LINE
  5
2FC
330
77
100
AcDbEntity
  8
GULLY
100
AcDbLine
 10
264.7745569659587
 20
359.7524956943887
 30
0.0
 11
264.7745569659587
 21
370.9191619512692
 31
0.0
  0
LINE
  5
2FD
330
77
100
AcDbEntity
  8
GULLY
100
AcDbLine
 10
275.9412232228391
 20
359.7524956943887
 30
0.0
 11
264.7745569659587
 21
359.7524956943887
 31
0.0
  0
LINE
  5
2FE
330
77
100
AcDbEntity
  8
GULLY
100
AcDbLine
 10
275.9412232228391
 20
370.9191619512692
 30
0.0
 11
275.9412232228391
 21
359.7524956943887
 31
0.0
  0
LINE
  5
2FF
330
77
100
AcDbEntity
  8
GULLY
100
AcDbLine
 10
264.7745569659587
 20
370.9191619512692
 30
0.0
 11
275.9412232228391
 21
370.9191619512692
 31
0.0
  0
LINE
  5
300
330
77
100
AcDbEntity
  8
GULLY
100
AcDbLine
 10
236.0602723054091
 20
359.7524956943887
 30
0.0
 11
236.0602723054091
 21
370.9191619512692
 31
0.0
  0
LINE
  5
301
330
77
100
AcDbEntity
  8
GULLY
100
AcDbLine
 10
247.2269385622895
 20
359.7524956943887
 30
0.0
 11
236.0602723054091
 21
359.7524956943887
 31
0.0
  0
LINE
  5
302
330
77
100
AcDbEntity
  8
GULLY
100
AcDbLine
 10
247.2269385622895
 20
370.9191619512692
 30
0.0
 11
247.2269385622895
 21
359.7524956943887
 31
0.0
  0
LINE
  5
303
330
77
100
AcDbEntity
  8
GULLY
100
AcDbLine
 10
236.0602723054091
 20
370.9191619512692
 30
0.0
 11
247.2269385622895
 21
370.9191619512692
 31
0.0
  0
LINE
  5
304
330
77
100
AcDbEntity
  8
GULLY
100
AcDbLine
 10
207.3459876448596
 20
359.7524956943887
 30
0.0
 11
207.3459876448596
 21
370.9191619512692
 31
0.0
  0
LINE
  5
305
330
77
100
AcDbEntity
  8
GULLY
100
AcDbLine
 10
218.5126539017399
 20
359.7524956943887
 30
0.0
 11
207.3459876448596
 21
359.7524956943887
 31
0.0
  0
LINE
  5
306
330
77
100
AcDbEntity
  8
GULLY
100
AcDbLine
 10
218.5126539017399
 20
370.9191619512692
 30
0.0
 11
218.5126539017399
 21
359.7524956943887
 31
0.0
  0
LINE
  5
307
330
77
100
AcDbEntity
  8
GULLY
100
AcDbLine
 10
207.3459876448596
 20
370.9191619512692
 30
0.0
 11
218.5126539017399
 21
370.9191619512692
 31
0.0
  0
LINE
  5
308
330
77
100
AcDbEntity
  8
GULLY
100
AcDbLine
 10
178.6317029843099
 20
359.7524956943887
 30
0.0
 11
178.6317029843097
 21
370.9191619512692
 31
0.0
  0
LINE
  5
309
330
77
100
AcDbEntity
  8
GULLY
100
AcDbLine
 10
189.7983692411901
 20
359.7524956943887
 30
0.0
 11
178.6317029843099
 21
359.7524956943887
 31
0.0
  0
LINE
  5
30A
330
77
100
AcDbEntity
  8
GULLY
100
AcDbLine
 10
189.7983692411901
 20
370.9191619512692
 30
0.0
 11
189.7983692411901
 21
359.7524956943887
 31
0.0
  0
LINE
  5
30B
330
77
100
AcDbEntity
  8
GULLY
100
AcDbLine
 10
178.6317029843097
 20
370.9191619512692
 30
0.0
 11
189.7983692411901
 21
370.9191619512692
 31
0.0
  0
LINE
  5
30C
330
77
100
AcDbEntity
  8
GULLY
100
AcDbLine
 10
149.9174183237601
 20
359.7524956943887
 30
0.0
 11
149.9174183237601
 21
370.9191619512692
 31
0.0
  0
LINE
  5
30D
330
77
100
AcDbEntity
  8
GULLY
100
AcDbLine
 10
161.0840845806405
 20
359.7524956943887
 30
0.0
 11
149.9174183237601
 21
359.7524956943887
 31
0.0
  0
LINE
  5
30E
330
77
100
AcDbEntity
  8
GULLY
100
AcDbLine
 10
161.0840845806405
 20
370.9191619512692
 30
0.0
 11
161.0840845806405
 21
359.7524956943887
 31
0.0
  0
LINE
  5
30F
330
77
100
AcDbEntity
  8
GULLY
100
AcDbLine
 10
149.9174183237601
 20
370.9191619512692
 30
0.0
 11
161.0840845806405
 21
370.9191619512692
 31
0.0
  0
LINE
  5
310
330
77
100
AcDbEntity
  8
GULLY
100
AcDbLine
 10
121.2031336632105
 20
359.7524956943887
 30
0.0
 11
121.2031336632105
 21
370.9191619512692
 31
0.0
  0
LINE
  5
311
330
77
100
AcDbEntity
  8
GULLY
100
AcDbLine
 10
132.3697999200912
 20
359.7524956943887
 30
0.0
 11
121.2031336632105
 21
359.7524956943887
 31
0.0
  0
LINE
  5
312
330
77
100
AcDbEntity
  8
GULLY
100
AcDbLine
 10
132.3697999200912
 20
370.9191619512692
 30
0.0
 11
132.3697999200912
 21
359.7524956943887
 31
0.0
  0
LINE
  5
313
330
77
100
AcDbEntity
  8
GULLY
100
AcDbLine
 10
121.2031336632105
 20
370.9191619512692
 30
0.0
 11
132.3697999200912
 21
370.9191619512692
 31
0.0
  0
LINE
  5
314
330
77
100
AcDbEntity
  8
GULLY
100
AcDbLine
 10
92.48884900266123
 20
359.7524956943887
 30
0.0
 11
92.48884900266123
 21
370.9191619512692
 31
0.0
  0
LINE
  5
315
330
77
100
AcDbEntity
  8
GULLY
100
AcDbLine
 10
103.6555152595415
 20
359.7524956943887
 30
0.0
 11
92.48884900266123
 21
359.7524956943887
 31
0.0
  0
LINE
  5
316
330
77
100
AcDbEntity
  8
GULLY
100
AcDbLine
 10
103.6555152595415
 20
370.9191619512692
 30
0.0
 11
103.6555152595415
 21
359.7524956943887
 31
0.0
  0
LINE
  5
317
330
77
100
AcDbEntity
  8
GULLY
100
AcDbLine
 10
92.48884900266123
 20
370.9191619512692
 30
0.0
 11
103.6555152595415
 21
370.9191619512692
 31
0.0
  0
LINE
  5
318
330
77
100
AcDbEntity
  8
GULLY
100
AcDbLine
 10
322.2031262870579
 20
388.4667803549382
 30
0.0
 11
322.2031262870579
 21
399.6334466118187
 31
0.0
  0
LINE
  5
319
330
77
100
AcDbEntity
  8
GULLY
100
AcDbLine
 10
333.3697925439383
 20
388.4667803549382
 30
0.0
 11
322.2031262870579
 21
388.4667803549382
 31
0.0
  0
LINE
  5
31A
330
77
100
AcDbEntity
  8
GULLY
100
AcDbLine
 10
333.3697925439383
 20
399.6334466118187
 30
0.0
 11
333.3697925439383
 21
388.4667803549382
 31
0.0
  0
LINE
  5
31B
330
77
100
AcDbEntity
  8
GULLY
100
AcDbLine
 10
322.2031262870579
 20
399.6334466118187
 30
0.0
 11
333.3697925439383
 21
399.6334466118187
 31
0.0
  0
LINE
  5
31C
330
77
100
AcDbEntity
  8
GULLY
100
AcDbLine
 10
293.4888416265082
 20
388.4667803549382
 30
0.0
 11
293.4888416265082
 21
399.6334466118187
 31
0.0
  0
LINE
  5
31D
330
77
100
AcDbEntity
  8
GULLY
100
AcDbLine
 10
304.6555078833886
 20
388.4667803549382
 30
0.0
 11
293.4888416265082
 21
388.4667803549382
 31
0.0
  0
LINE
  5
31E
330
77
100
AcDbEntity
  8
GULLY
100
AcDbLine
 10
304.6555078833886
 20
399.6334466118187
 30
0.0
 11
304.6555078833886
 21
388.4667803549382
 31
0.0
  0
LINE
  5
31F
330
77
100
AcDbEntity
  8
GULLY
100
AcDbLine
 10
293.4888416265082
 20
399.6334466118187
 30
0.0
 11
304.6555078833886
 21
399.6334466118187
 31
0.0
  0
LINE
  5
320
330
77
100
AcDbEntity
  8
GULLY
100
AcDbLine
 10
264.7745569659587
 20
388.4667803549382
 30
0.0
 11
264.7745569659587
 21
399.6334466118187
 31
0.0
  0
LINE
  5
321
330
77
100
AcDbEntity
  8
GULLY
100
AcDbLine
 10
275.9412232228391
 20
388.4667803549382
 30
0.0
 11
264.7745569659587
 21
388.4667803549382
 31
0.0
  0
LINE
  5
322
330
77
100
AcDbEntity
  8
GULLY
100
AcDbLine
 10
275.9412232228391
 20
399.6334466118187
 30
0.0
 11
275.9412232228391
 21
388.4667803549382
 31
0.0
  0
LINE
  5
323
330
77
100
AcDbEntity
  8
GULLY
100
AcDbLine
 10
264.7745569659587
 20
399.6334466118187
 30
0.0
 11
275.9412232228391
 21
399.6334466118187
 31
0.0
  0
LINE
  5
324
330
77
100
AcDbEntity
  8
GULLY
100
AcDbLine
 10
236.0602723054091
 20
388.4667803549382
 30
0.0
 11
236.0602723054091
 21
399.6334466118187
 31
0.0
  0
LINE
  5
325
330
77
100
AcDbEntity
  8
GULLY
100
AcDbLine
 10
247.2269385622895
 20
388.4667803549382
 30
0.0
 11
236.0602723054091
 21
388.4667803549382
 31
0.0
  0
LINE
  5
326
330
77
100
AcDbEntity
  8
GULLY
100
AcDbLine
 10
247.2269385622895
 20
399.6334466118187
 30
0.0
 11
247.2269385622895
 21
388.4667803549382
 31
0.0
  0
LINE
  5
327
330
77
100
AcDbEntity
  8
GULLY
100
AcDbLine
 10
236.0602723054091
 20
399.6334466118187
 30
0.0
 11
247.2269385622895
 21
399.6334466118187
 31
0.0
  0
LINE
  5
328
330
77
100
AcDbEntity
  8
GULLY
100
AcDbLine
 10
207.3459876448596
 20
388.4667803549382
 30
0.0
 11
207.3459876448596
 21
399.6334466118187
 31
0.0
  0
LINE
  5
329
330
77
100
AcDbEntity
  8
GULLY
100
AcDbLine
 10
218.5126539017399
 20
388.4667803549382
 30
0.0
 11
207.3459876448596
 21
388.4667803549382
 31
0.0
  0
LINE
  5
32A
330
77
100
AcDbEntity
  8
GULLY
100
AcDbLine
 10
218.5126539017399
 20
399.6334466118187
 30
0.0
 11
218.5126539017399
 21
388.4667803549382
 31
0.0
  0
LINE
  5
32B
330
77
100
AcDbEntity
  8
GULLY
100
AcDbLine
 10
207.3459876448596
 20
399.6334466118187
 30
0.0
 11
218.5126539017399
 21
399.6334466118187
 31
0.0
  0
LINE
  5
32C
330
77
100
AcDbEntity
  8
GULLY
100
AcDbLine
 10
178.6317029843099
 20
388.4667803549382
 30
0.0
 11
178.6317029843097
 21
399.6334466118187
 31
0.0
  0
LINE
  5
32D
330
77
100
AcDbEntity
  8
GULLY
100
AcDbLine
 10
189.7983692411901
 20
388.4667803549382
 30
0.0
 11
178.6317029843099
 21
388.4667803549382
 31
0.0
  0
LINE
  5
32E
330
77
100
AcDbEntity
  8
GULLY
100
AcDbLine
 10
189.7983692411901
 20
399.6334466118187
 30
0.0
 11
189.7983692411901
 21
388.4667803549382
 31
0.0
  0
LINE
  5
32F
330
77
100
AcDbEntity
  8
GULLY
100
AcDbLine
 10
178.6317029843097
 20
399.6334466118187
 30
0.0
 11
189.7983692411901
 21
399.6334466118187
 31
0.0
  0
LINE
  5
330
330
77
100
AcDbEntity
  8
GULLY
100
AcDbLine
 10
149.9174183237601
 20
388.4667803549382
 30
0.0
 11
149.9174183237601
 21
399.6334466118187
 31
0.0
  0
LINE
  5
331
330
77
100
AcDbEntity
  8
GULLY
100
AcDbLine
 10
161.0840845806405
 20
388.4667803549382
 30
0.0
 11
149.9174183237601
 21
388.4667803549382
 31
0.0
  0
LINE
  5
332
330
77
100
AcDbEntity
  8
GULLY
100
AcDbLine
 10
161.0840845806405
 20
399.6334466118187
 30
0.0
 11
161.0840845806405
 21
388.4667803549382
 31
0.0
  0
LINE
  5
333
330
77
100
AcDbEntity
  8
GULLY
100
AcDbLine
 10
149.9174183237601
 20
399.6334466118187
 30
0.0
 11
161.0840845806405
 21
399.6334466118187
 31
0.0
  0
LINE
  5
334
330
77
100
AcDbEntity
  8
GULLY
100
AcDbLine
 10
121.2031336632105
 20
388.4667803549382
 30
0.0
 11
121.2031336632105
 21
399.6334466118187
 31
0.0
  0
LINE
  5
335
330
77
100
AcDbEntity
  8
GULLY
100
AcDbLine
 10
132.3697999200912
 20
388.4667803549382
 30
0.0
 11
121.2031336632105
 21
388.4667803549382
 31
0.0
  0
LINE
  5
336
330
77
100
AcDbEntity
  8
GULLY
100
AcDbLine
 10
132.3697999200912
 20
399.6334466118187
 30
0.0
 11
132.3697999200912
 21
388.4667803549382
 31
0.0
  0
LINE
  5
337
330
77
100
AcDbEntity
  8
GULLY
100
AcDbLine
 10
121.2031336632105
 20
399.6334466118187
 30
0.0
 11
132.3697999200912
 21
399.6334466118187
 31
0.0
  0
LINE
  5
338
330
77
100
AcDbEntity
  8
GULLY
100
AcDbLine
 10
322.2031262870579
 20
158.7525030705416
 30
0.0
 11
322.2031262870579
 21
169.9191693274218
 31
0.0
  0
LINE
  5
339
330
77
100
AcDbEntity
  8
GULLY
100
AcDbLine
 10
333.3697925439383
 20
158.7525030705416
 30
0.0
 11
322.2031262870579
 21
158.7525030705416
 31
0.0
  0
LINE
  5
33A
330
77
100
AcDbEntity
  8
GULLY
100
AcDbLine
 10
333.3697925439383
 20
169.9191693274221
 30
0.0
 11
333.3697925439383
 21
158.7525030705416
 31
0.0
  0
LINE
  5
33B
330
77
100
AcDbEntity
  8
GULLY
100
AcDbLine
 10
322.2031262870579
 20
169.9191693274218
 30
0.0
 11
333.3697925439383
 21
169.9191693274221
 31
0.0
  0
LINE
  5
33C
330
77
100
AcDbEntity
  8
GULLY
100
AcDbLine
 10
92.48884900266123
 20
388.4667803549382
 30
0.0
 11
92.48884900266123
 21
399.6334466118187
 31
0.0
  0
LINE
  5
33D
330
77
100
AcDbEntity
  8
GULLY
100
AcDbLine
 10
103.6555152595415
 20
388.4667803549382
 30
0.0
 11
92.48884900266123
 21
388.4667803549382
 31
0.0
  0
LINE
  5
33E
330
77
100
AcDbEntity
  8
GULLY
100
AcDbLine
 10
103.6555152595415
 20
399.6334466118187
 30
0.0
 11
103.6555152595415
 21
388.4667803549382
 31
0.0
  0
LINE
  5
33F
330
77
100
AcDbEntity
  8
GULLY
100
AcDbLine
 10
92.48884900266123
 20
399.6334466118187
 30
0.0
 11
103.6555152595415
 21
399.6334466118187
 31
0.0
  0
ARC
  5
342
330
77
100
AcDbEntity
  8
GULLY
100
AcDbCircle
 10
86.9055158742209
 20
405.2167797402588
 30
0.0
 40
4.785714110091516
100
AcDbArc
 50
89.99999999999934
 51
176.274286618621
  0
ARC
  5
343
330
77
100
AcDbEntity
  8
GULLY
100
AcDbCircle
 10
86.9055158742209
 20
405.2167797402588
 30
0.0
 40
7.976190183485893
100
AcDbArc
 50
89.99999999999968
 51
180.0
  0
LINE
  5
344
330
77
100
AcDbEntity
  8
GULLY
100
AcDbLine
 10
86.9055158742209
 20
413.1929699237448
 30
0.0
 11
89.29837292926681
 21
413.1929699237448
 31
0.0
  0
LINE
  5
345
330
77
100
AcDbEntity
  8
GULLY
100
AcDbLine
 10
86.9055158742209
 20
410.0024938503504
 30
0.0
 11
87.85814024944196
 21
410.0024938503504
 31
0.0
  0
ARC
  5
34B
330
77
100
AcDbEntity
  8
GULLY
100
AcDbCircle
 10
338.9531256723785
 20
153.1691699421013
 30
0.0
 40
4.785714110091623
100
AcDbArc
 50
270.0
 51
356.2742866186197
  0
ARC
  5
34C
330
77
100
AcDbEntity
  8
GULLY
100
AcDbCircle
 10
338.9531256723785
 20
153.1691699421013
 30
0.0
 40
7.976190183485893
100
AcDbArc
 50
269.9999999999997
 51
0.0
  0
LINE
  5
34D
330
77
100
AcDbEntity
  8
GULLY
100
AcDbLine
 10
338.9531256723785
 20
145.1929797586152
 30
0.0
 11
336.5602686173327
 21
145.1929797586152
 31
0.0
  0
LINE
  5
34E
330
77
100
AcDbEntity
  8
GULLY
100
AcDbLine
 10
338.9531256723785
 20
148.3834558320096
 30
0.0
 11
338.0005012971573
 21
148.3834558320096
 31
0.0
  0
ARC
  5
352
330
77
100
AcDbEntity
  8
GULLY
100
AcDbCircle
 10
86.90551587422101
 20
153.1691699421013
 30
0.0
 40
4.785714110091607
100
AcDbArc
 50
183.7257133813803
 51
270.0
  0
ARC
  5
353
330
77
100
AcDbEntity
  8
GULLY
100
AcDbCircle
 10
86.9055158742209
 20
153.1691699421013
 30
0.0
 40
7.97619018348595
100
AcDbArc
 50
180.0
 51
270.0
  0
LINE
  5
358
330
77
100
AcDbEntity
  8
GULLY
100
AcDbLine
 10
87.85814024944196
 20
148.3834558320096
 30
0.0
 11
86.9055158742209
 21
148.3834558320099
 31
0.0
  0
ARC
  5
35B
330
77
100
AcDbEntity
  8
GULLY
100
AcDbCircle
 10
338.9531256723785
 20
405.2167797402588
 30
0.0
 40
4.785714110091607
100
AcDbArc
 50
3.725713381380361
 51
90.0
  0
ARC
  5
35C
330
77
100
AcDbEntity
  8
GULLY
100
AcDbCircle
 10
338.9531256723785
 20
405.2167797402588
 30
0.0
 40
7.97619018348595
100
AcDbArc
 50
0.0
 51
90.00000000000033
  0
LINE
  5
361
330
77
100
AcDbEntity
  8
GULLY
100
AcDbLine
 10
338.0005012971573
 20
410.0024938503504
 30
0.0
 11
338.9531256723785
 21
410.0024938503504
 31
0.0
  0
LINE
  5
364
330
77
100
AcDbEntity
  8
GULLY
100
AcDbLine
 10
78.92932569073491
 20
153.1691699421013
 30
0.0
 11
78.92932569073491
 21
405.2167797402588
 31
0.0
  0
SPLINE
  5
365
330
77
100
AcDbEntity
  8
GULLY
100
AcDbSpline
210
0.0
220
0.0
230
1.0
 70
     8
 71
     3
 72
    11
 73
     7
 74
     0
 42
0.0000000001
 43
0.0000000001
 40
0.0
 40
0.0
 40
0.0
 40
0.0
 40
0.9901160633031423
 40
0.9901160633031423
 40
0.9901160633031423
 40
1.570796326794896
 40
1.570796326794896
 40
1.570796326794896
 40
1.570796326794896
 10
85.31027783752355
 20
152.703518752468
 30
0.0
 10
83.20431676428896
 20
152.8013563301112
 30
0.0
 10
81.13054488830377
 20
152.8991939077539
 30
0.0
 10
79.97522975390404
 20
152.997031485397
 30
0.0
 10
79.29766404062686
 20
153.0544109709651
 30
0.0
 10
78.92932569073491
 20
153.1117904565331
 30
0.0
 10
78.92932569073491
 20
153.1691699421013
 30
0.0
  0
SPLINE
  5
366
330
77
100
AcDbEntity
  8
GULLY
100
AcDbSpline
210
0.0
220
0.0
230
1.0
 70
     8
 71
     3
 72
    11
 73
     7
 74
     0
 42
0.0000000001
 43
0.0000000001
 40
0.0
 40
0.0
 40
0.0
 40
0.0
 40
0.9901160633031953
 40
0.9901160633031953
 40
0.9901160633031953
 40
1.570796326794896
 40
1.570796326794896
 40
1.570796326794896
 40
1.570796326794896
 10
78.92932569073491
 20
405.2167797402588
 30
0.0
 10
78.92932569073491
 20
405.3146173179018
 30
0.0
 10
80.04896100475326
 20
405.4124548955446
 30
0.0
 10
81.80973327344885
 20
405.5102924731877
 30
0.0
 10
82.84238564909466
 20
405.5676719587558
 30
0.0
 10
84.07518017954865
 20
405.6250514443238
 30
0.0
 10
85.31027783752355
 20
405.682430929892
 30
0.0
  0
ARC
  5
36C
330
77
100
AcDbEntity
  8
GULLY
100
AcDbCircle
 10
82.91742078247763
 20
146.7882177953122
 30
0.0
 40
6.380952146789101
100
AcDbArc
 50
48.5903778907291
 51
67.97568716295761
  0
ARC
  5
36D
330
77
100
AcDbEntity
  8
GULLY
100
AcDbCircle
 10
82.91742078247763
 20
411.5977318870479
 30
0.0
 40
6.380952146789101
100
AcDbArc
 50
292.0243128370424
 51
311.4096221092709
  0
ARC
  5
36E
330
77
100
AcDbEntity
  8
GULLY
100
AcDbCircle
 10
342.9412207641216
 20
146.7882177953122
 30
0.0
 40
6.380952146789101
100
AcDbArc
 50
112.0243128370424
 51
131.4096221092709
  0
ARC
  5
36F
330
77
100
AcDbEntity
  8
GULLY
100
AcDbCircle
 10
342.9412207641216
 20
411.5977318870479
 30
0.0
 40
6.380952146789101
100
AcDbArc
 50
228.5903778907298
 51
247.9756871629582
  0
LINE
  5
370
330
77
100
AcDbEntity
  8
GULLY
100
AcDbLine
 10
89.29837292926681
 20
413.1929699237448
 30
0.0
 11
336.5602686173327
 21
413.1929699237448
 31
0.0
  0
SPLINE
  5
371
330
77
100
AcDbEntity
  8
GULLY
100
AcDbSpline
210
0.0
220
0.0
230
1.0
 70
     8
 71
     3
 72
    11
 73
     7
 74
     0
 42
0.0000000001
 43
0.0000000001
 40
0.0
 40
0.0
 40
0.0
 40
0.0
 40
0.9901160633031423
 40
0.9901160633031423
 40
0.9901160633031423
 40
1.570796326794896
 40
1.570796326794896
 40
1.570796326794896
 40
1.570796326794896
 10
87.13802390952958
 20
406.812017776956
 30
0.0
 10
87.59193301501431
 20
408.9179788501908
 30
0.0
 10
88.04584212049931
 20
410.9917507261759
 30
0.0
 10
88.49975122598412
 20
412.1470658605757
 30
0.0
 10
88.76595846041173
 20
412.8246315738529
 30
0.0
 10
89.03216569483907
 20
413.1929699237448
 30
0.0
 10
89.29837292926681
 20
413.1929699237448
 30
0.0
  0
SPLINE
  5
372
330
77
100
AcDbEntity
  8
GULLY
100
AcDbSpline
210
0.0
220
0.0
230
1.0
 70
     8
 71
     3
 72
    11
 73
     7
 74
     0
 42
0.0000000001
 43
0.0000000001
 40
0.0
 40
0.0
 40
0.0
 40
0.0
 40
0.9901160633031953
 40
0.9901160633031953
 40
0.9901160633031953
 40
1.570796326794896
 40
1.570796326794896
 40
1.570796326794896
 40
1.570796326794896
 10
336.5602686173327
 20
413.1929699237448
 30
0.0
 10
337.0141777228175
 20
413.1929699237448
 30
0.0
 10
337.4680868283024
 20
412.0733346097265
 30
0.0
 10
337.9219959337871
 20
410.3125623410309
 30
0.0
 10
338.1882031682147
 20
409.2799099653851
 30
0.0
 10
338.4544104026423
 20
408.0471154349312
 30
0.0
 10
338.7206176370696
 20
406.812017776956
 30
0.0
  0
LINE
  5
378
330
77
100
AcDbEntity
  8
GULLY
100
AcDbLine
 10
336.5602686173327
 20
145.1929797586152
 30
0.0
 11
89.29837292926681
 21
145.1929797586152
 31
0.0
  0
SPLINE
  5
379
330
77
100
AcDbEntity
  8
GULLY
100
AcDbSpline
210
0.0
220
0.0
230
1.0
 70
     8
 71
     3
 72
    11
 73
     7
 74
     0
 42
0.0000000001
 43
0.0000000001
 40
0.0
 40
0.0
 40
0.0
 40
0.0
 40
0.9901160633031423
 40
0.9901160633031423
 40
0.9901160633031423
 40
1.570796326794896
 40
1.570796326794896
 40
1.570796326794896
 40
1.570796326794896
 10
338.7206176370696
 20
151.573931905404
 30
0.0
 10
338.2667085315851
 20
149.4679708321693
 30
0.0
 10
337.8127994261001
 20
147.3941989561843
 30
0.0
 10
337.3588903206154
 20
146.2388838217846
 30
0.0
 10
337.0926830861876
 20
145.5613181085073
 30
0.0
 10
336.8264758517601
 20
145.1929797586152
 30
0.0
 10
336.5602686173327
 20
145.1929797586152
 30
0.0
  0
SPLINE
  5
37A
330
77
100
AcDbEntity
  8
GULLY
100
AcDbSpline
210
0.0
220
0.0
230
1.0
 70
     8
 71
     3
 72
    11
 73
     7
 74
     0
 42
0.0000000001
 43
0.0000000001
 40
0.0
 40
0.0
 40
0.0
 40
0.0
 40
0.9901160633031953
 40
0.9901160633031953
 40
0.9901160633031953
 40
1.570796326794896
 40
1.570796326794896
 40
1.570796326794896
 40
1.570796326794896
 10
89.29837292926681
 20
145.1929797586152
 30
0.0
 10
88.84446382378184
 20
145.1929797586152
 30
0.0
 10
88.39055471829707
 20
146.3126150726338
 30
0.0
 10
87.93664561281218
 20
148.0733873413294
 30
0.0
 10
87.67043837838471
 20
149.1060397169751
 30
0.0
 10
87.40423114395719
 20
150.338834247429
 30
0.0
 10
87.13802390952958
 20
151.573931905404
 30
0.0
  0
LINE
  5
380
330
77
100
AcDbEntity
  8
GULLY
100
AcDbLine
 10
346.9293158558645
 20
405.2167797402588
 30
0.0
 11
346.9293158558645
 21
153.1691699421013
 31
0.0
  0
SPLINE
  5
381
330
77
100
AcDbEntity
  8
GULLY
100
AcDbSpline
210
0.0
220
0.0
230
1.0
 70
     8
 71
     3
 72
    11
 73
     7
 74
     0
 42
0.0000000001
 43
0.0000000001
 40
0.0
 40
0.0
 40
0.0
 40
0.0
 40
0.9901160633031423
 40
0.9901160633031423
 40
0.9901160633031423
 40
1.570796326794896
 40
1.570796326794896
 40
1.570796326794896
 40
1.570796326794896
 10
340.5483637090757
 20
405.682430929892
 30
0.0
 10
342.6543247823105
 20
405.584593352249
 30
0.0
 10
344.7280966582955
 20
405.4867557746063
 30
0.0
 10
345.8834117926953
 20
405.3889181969634
 30
0.0
 10
346.5609775059726
 20
405.3315387113951
 30
0.0
 10
346.9293158558645
 20
405.2741592258271
 30
0.0
 10
346.9293158558645
 20
405.2167797402588
 30
0.0
  0
SPLINE
  5
382
330
77
100
AcDbEntity
  8
GULLY
100
AcDbSpline
210
0.0
220
0.0
230
1.0
 70
     8
 71
     3
 72
    11
 73
     7
 74
     0
 42
0.0000000001
 43
0.0000000001
 40
0.0
 40
0.0
 40
0.0
 40
0.0
 40
0.9901160633031953
 40
0.9901160633031953
 40
0.9901160633031953
 40
1.570796326794896
 40
1.570796326794896
 40
1.570796326794896
 40
1.570796326794896
 10
346.9293158558645
 20
153.1691699421013
 30
0.0
 10
346.9293158558645
 20
153.0713323644585
 30
0.0
 10
345.8096805418462
 20
152.9734947868154
 30
0.0
 10
344.0489082731505
 20
152.8756572091726
 30
0.0
 10
343.0162558975046
 20
152.8182777236045
 30
0.0
 10
341.7834613670509
 20
152.7608982380363
 30
0.0
 10
340.5483637090757
 20
152.703518752468
 30
0.0
  0
LINE
  5
CD5
330
77
100
AcDbEntity
  8
GULLY
100
AcDbLine
 10
338.9531256723785
 20
413.1929699237448
 30
0.0
 11
336.5602686173327
 21
413.1929699237448
 31
0.0
  0
LINE
  5
CD8
330
77
100
AcDbEntity
  8
GULLY
100
AcDbLine
 10
86.9055158742209
 20
145.1929797586152
 30
0.0
 11
89.29837292926681
 21
145.1929797586152
 31
0.0
  0
DIMENSION
  5
D00
330
77
100
AcDbEntity
  8
KOTY_GULLY
100
AcDbDimension
  2
*D29
 10
79.09366474934623
 20
452.2874526094819
 30
0.0
 11
213.0114903026054
 21
459.8114526094819
 31
0.0
 70
    32
  1
<>
 71
     5
 42
267.8356511065183
  3
GULLY 1
100
AcDbAlignedDimension
 13
346.9293158558645
 23
405.2167797402588
 33
0.0
 14
79.09366474934623
 24
405.2167797402588
 34
0.0
100
AcDbRotatedDimension
1001
ACAD
1000
DSTYLE
1002
{
1070
   340
1005
65
1002
}
1001
ACAD_DSTYLE_DIMINSPECT
1070
   396
1000
100%
1070
   395
1000

1070
   394
1070
    33
1070
   393
1070
     0
  0
DIMENSION
  5
D01
330
77
100
AcDbEntity
  8
KOTY_GULLY
100
AcDbDimension
  2
*D30
 10
22.10446159002991
 20
145.1929797586153
 30
0.0
 11
14.5804615900299
 21
279.1929748411801
 31
0.0
 70
    32
 71
     5
 42
267.9999901651296
  3
GULLY
100
AcDbAlignedDimension
 13
86.9055158742209
 23
413.1929699237448
 33
0.0
 14
86.90551587422101
 24
145.1929797586152
 34
0.0
 50
90.0
100
AcDbRotatedDimension
1001
ACAD_DSTYLE_DIMINSPECT
1070
   396
1000
100%
1070
   395
1000

1070
   394
1070
    33
1070
   393
1070
     0
1001
ACAD
1000
DSTYLE
1002
{
1070
   340
1005
65
1070
    45
1040
1.0
1002
}
  0
ENDSEC
  0
SECTION
  2
OBJECTS
  0
DICTIONARY
  5
C
330
0
100
AcDbDictionary
281
     1
  3
ACAD_2007HEADERVARS_RT
350
EFC
  3
ACAD_COLOR
350
6E
  3
ACAD_GROUP
350
D
  3
ACAD_LAYOUT
350
6D
  3
ACAD_MATERIAL
350
10
  3
ACAD_MLEADERSTYLE
350
71
  3
ACAD_MLINESTYLE
350
6A
  3
ACAD_PLOTSETTINGS
350
6C
  3
ACAD_PLOTSTYLENAME
350
E
  3
ACAD_SCALELIST
350
3D
  3
ACAD_TABLESTYLE
350
6F
  3
ACAD_VISUALSTYLE
350
29
  3
ACDB_RECOMPOSE_DATA
350
BEA
  3
AcDbVariableDictionary
350
C12
  3
AcmDictionary
350
C7F
  3
AcmSystemVariableManager
350
F0E
  3
AEC_PROPERTY_SET_DEFS
350
CFC
  3
AMG
350
C22
  3
AMGSNAPSETTINGS
350
CBE
  0
DICTIONARY
  5
CF3
330
CF2
100
AcDbDictionary
280
     1
281
     1
  0
DICTIONARY
  5
D52
330
D51
100
AcDbDictionary
280
     1
281
     1
  0
DICTIONARY
  5
F02
330
1DB
100
AcDbDictionary
280
     1
281
     1
  3
ACAD_MTEXT_2008_RT
360
F03
  0
DICTIONARY
  5
BBA
330
1E3
100
AcDbDictionary
280
     1
281
     1
  3
ACAD_MLATT
360
EF3
  3
ACAD_XREC_ROUNDTRIP
360
BBB
  0
DICTIONARY
  5
BBD
330
1E7
100
AcDbDictionary
280
     1
281
     1
  3
ACAD_MLATT
360
EF4
  3
ACAD_XREC_ROUNDTRIP
360
BBE
  0
DICTIONARY
  5
BC0
330
1E8
100
AcDbDictionary
280
     1
281
     1
  3
ACAD_MLATT
360
EF5
  3
ACAD_XREC_ROUNDTRIP
360
BC1
  0
DICTIONARY
  5
BC3
330
1E9
100
AcDbDictionary
280
     1
281
     1
  3
ACAD_MLATT
360
EF6
  3
ACAD_XREC_ROUNDTRIP
360
BC4
  0
DICTIONARY
  5
BC6
330
1EA
100
AcDbDictionary
280
     1
281
     1
  3
ACAD_MLATT
360
EF7
  3
ACAD_XREC_ROUNDTRIP
360
BC7
  0
DICTIONARY
  5
BC9
330
1EC
100
AcDbDictionary
280
     1
281
     1
  3
ACAD_MLATT
360
EF8
  3
ACAD_XREC_ROUNDTRIP
360
BCA
  0
DICTIONARY
  5
BCC
330
1ED
100
AcDbDictionary
280
     1
281
     1
  3
ACAD_MLATT
360
EF9
  3
ACAD_XREC_ROUNDTRIP
360
BCD
  0
DICTIONARY
  5
BCF
330
1EE
100
AcDbDictionary
280
     1
281
     1
  3
ACAD_MLATT
360
EFA
  3
ACAD_XREC_ROUNDTRIP
360
BD0
  0
DICTIONARY
  5
F04
330
B8F
100
AcDbDictionary
280
     1
281
     1
  3
ACAD_MTEXT_2008_RT
360
F05
  0
DICTIONARY
  5
F06
330
B93
100
AcDbDictionary
280
     1
281
     1
  3
ACAD_MTEXT_2008_RT
360
F07
  0
DICTIONARY
  5
F08
330
B97
100
AcDbDictionary
280
     1
281
     1
  3
ACAD_MTEXT_2008_RT
360
F09
  0
DICTIONARY
  5
F0A
330
BA2
100
AcDbDictionary
280
     1
281
     1
  3
ACAD_MTEXT_2008_RT
360
F0B
  0
DICTIONARY
  5
F0C
330
BAA
100
AcDbDictionary
280
     1
281
     1
  3
ACAD_MTEXT_2008_RT
360
F0D
  0
DICTIONARY
  5
EFC
102
{ACAD_REACTORS
330
C
102
}
330
C
100
AcDbDictionary
281
     1
  3
DIMARCSYM
350
EFD
  3
DIMLTEX1
350
EFF
  3
DIMLTEX2
350
F00
  3
DIMLTYPE
350
EFE
  0
DICTIONARY
  5
6E
102
{ACAD_REACTORS
330
C
102
}
330
C
100
AcDbDictionary
281
     1
  0
DICTIONARY
  5
D
102
{ACAD_REACTORS
330
C
102
}
330
C
100
AcDbDictionary
281
     1
  0
DICTIONARY
  5
6D
102
{ACAD_REACTORS
330
C
102
}
330
C
100
AcDbDictionary
281
     1
  3
Layout1
350
76
  3
Layout2
350
7E
  3
Model
350
7A
  0
DICTIONARY
  5
10
102
{ACAD_REACTORS
330
C
102
}
330
C
100
AcDbDictionary
281
     1
  3
ByBlock
350
19
  3
ByLayer
350
11
  3
Global
350
21
  0
DICTIONARY
  5
71
102
{ACAD_REACTORS
330
C
102
}
330
C
100
AcDbDictionary
281
     1
  3
Standard
350
72
  0
DICTIONARY
  5
6A
102
{ACAD_REACTORS
330
C
102
}
330
C
100
AcDbDictionary
281
     1
  3
Standard
350
6B
  0
DICTIONARY
  5
6C
102
{ACAD_REACTORS
330
C
102
}
330
C
100
AcDbDictionary
281
     1
  0
ACDBDICTIONARYWDFLT
  5
E
102
{ACAD_REACTORS
330
C
102
}
330
C
100
AcDbDictionary
281
     1
  3
Normal
350
F
100
AcDbDictionaryWithDefault
340
F
  0
DICTIONARY
  5
3D
102
{ACAD_REACTORS
330
C
102
}
330
C
100
AcDbDictionary
281
     1
  3
A0
350
3E
  3
A1
350
3F
  3
A2
350
40
  3
A3
350
41
  3
A4
350
42
  3
A5
350
43
  3
A6
350
44
  3
A7
350
45
  3
A8
350
46
  3
A9
350
47
  3
B0
350
48
  3
B1
350
49
  3
B2
350
4A
  3
B3
350
4B
  3
B4
350
4C
  3
B5
350
4D
  3
B6
350
4E
  3
B7
350
4F
  3
B8
350
50
  3
B9
350
51
  3
C0
350
52
  3
C1
350
53
  3
C2
350
54
  3
C3
350
55
  3
C4
350
56
  3
C5
350
57
  3
C6
350
58
  3
C7
350
59
  3
C8
350
5A
  3
C9
350
5B
  3
D0
350
5C
  3
D1
350
5D
  3
D2
350
5E
  0
DICTIONARY
  5
6F
102
{ACAD_REACTORS
330
C
102
}
330
C
100
AcDbDictionary
281
     1
  3
Standard
350
70
  0
DICTIONARY
  5
29
102
{ACAD_REACTORS
330
C
102
}
330
C
100
AcDbDictionary
281
     1
  3
2dWireframe
350
2F
  3
3D Hidden
350
31
  3
3dWireframe
350
30
  3
Basic
350
2E
  3
Brighten
350
35
  3
ColorChange
350
39
  3
Conceptual
350
32
  3
Dim
350
34
  3
EdgeColorOff
350
3C
  3
Facepattern
350
38
  3
Flat
350
2A
  3
FlatWithEdges
350
2B
  3
Gouraud
350
2C
  3
GouraudWithEdges
350
2D
  3
JitterOff
350
3A
  3
Linepattern
350
37
  3
OverhangOff
350
3B
  3
Realistic
350
33
  3
Thicken
350
36
  0
XRECORD
  5
BEA
102
{ACAD_REACTORS
330
C
102
}
330
C
100
AcDbXrecord
280
     1
 90
        1
330
70
330
1E3
330
1E7
330
1E8
330
1E9
330
1EA
330
1EC
330
1ED
330
1EE
  0
DICTIONARY
  5
C12
102
{ACAD_REACTORS
330
C
102
}
330
C
100
AcDbDictionary
281
     1
  3
CANNOSCALE
350
C15
  3
CMLEADERSTYLE
350
C14
  3
CTABLESTYLE
350
C13
  3
LAYEREVAL
350
DA3
  3
LAYERNOTIFY
350
DA4
  3
LIGHTINGUNITS
350
DA2
  3
MSLTSCALE
350
DA1
  3
XCLIPFRAME
350
C16
  0
DICTIONARY
  5
C7F
102
{ACAD_REACTORS
330
C
102
}
330
C
100
AcDbDictionary
281
     1
  3
AcmStdDictionary
350
C8A
  0
DICTIONARY
  5
CFC
102
{ACAD_REACTORS
330
C
102
}
330
C
100
AcDbDictionary
281
     1
  0
DICTIONARY
  5
C22
102
{ACAD_REACTORS
330
C
102
}
330
C
100
AcDbDictionary
281
     1
  0
DICTIONARY
  5
CBE
102
{ACAD_REACTORS
330
C
102
}
330
C
100
AcDbDictionary
281
     1
  0
XRECORD
  5
F03
102
{ACAD_REACTORS
330
F02
102
}
330
F02
100
AcDbXrecord
280
     1
 40
60432.0
  1
InDrain rošt quadrat 168x168-25,V2A
  0
XRECORD
  5
EF3
102
{ACAD_REACTORS
330
BBA
102
}
330
BBA
100
AcDbXrecord
280
     1
 70
     4
 70
     0
 70
     0
 40
1.0
  2
ČÍSLO_REVIZE
  1
Embedded Object
 10
287.6423193699604
 20
66.0
 30
0.0
 40
3.499999940395355
 41
0.0
 46
0.0
 71
     1
 72
     5
  1
000
  7
Styl textu9
 73
     1
 44
1.0
  0
XRECORD
  5
BBB
102
{ACAD_REACTORS
330
BBA
102
}
330
BBA
100
AcDbXrecord
280
     1
102
ACAD_MATT_HEIGHT
140
3.499999940395355
  0
XRECORD
  5
EF4
102
{ACAD_REACTORS
330
BBD
102
}
330
BBD
100
AcDbXrecord
280
     1
 70
     4
 70
     0
 70
     0
 40
1.0
  2
Sheet_Size
  1
Embedded Object
 10
289.7753402652471
 20
48.33701147296152
 30
0.0
 40
2.000000029802321
 41
0.0
 46
0.0
 71
     1
 72
     5
  1
A3
  7
Styl textu40
 73
     1
 44
1.0
  0
XRECORD
  5
BBE
102
{ACAD_REACTORS
330
BBD
102
}
330
BBD
100
AcDbXrecord
280
     1
102
ACAD_MATT_HEIGHT
140
2.000000029802321
  0
XRECORD
  5
EF5
102
{ACAD_REACTORS
330
BC0
102
}
330
BC0
100
AcDbXrecord
280
     1
 70
     4
 70
     0
 70
     0
 40
1.0
  2
FILENAME_AND_PATH
  1
Embedded Object
 10
230.2697279123746
 20
53.13502004542946
 30
0.0
 40
2.000000029802321
 41
0.0
 46
0.0
 71
     1
 72
     5
  1
C:\\Inventor_DATA\\Projekty\\FloorDrain B\\Rošty\\InDrain rošt quadrat\\InDrain rošt quadrat-sestava\\InDrain rošt quadrat 168x168-25,V2A.iam
  7
Styl textu40
 73
     1
 44
1.0
  0
XRECORD
  5
BC1
102
{ACAD_REACTORS
330
BC0
102
}
330
BC0
100
AcDbXrecord
280
     1
102
ACAD_MATT_HEIGHT
140
2.000000029802321
  0
XRECORD
  5
EF6
102
{ACAD_REACTORS
330
BC3
102
}
330
BC3
100
AcDbXrecord
280
     1
 70
     4
 70
     0
 70
     0
 40
1.0
  2
PART_NUMBER
  1
Embedded Object
 10
218.0
 20
66.0
 30
0.0
 40
3.499999940395355
 41
0.0
 46
0.0
 71
     1
 72
     5
  1
408092
  7
Text poznámky (ISO)
 73
     1
 44
1.0
  0
XRECORD
  5
BC4
102
{ACAD_REACTORS
330
BC3
102
}
330
BC3
100
AcDbXrecord
280
     1
102
ACAD_MATT_HEIGHT
140
3.499999940395355
  0
XRECORD
  5
EF7
102
{ACAD_REACTORS
330
BC6
102
}
330
BC6
100
AcDbXrecord
280
     1
 70
     4
 70
     0
 70
     0
 40
1.0
  2
PROJECT
  1
Embedded Object
 10
118.0
 20
60.0
 30
0.0
 40
3.499999940395355
 41
0.0
 46
0.0
 71
     1
 72
     5
  1
Rošty InDrain
  7
Text poznámky (ISO)
 73
     1
 44
1.0
  0
XRECORD
  5
BC7
102
{ACAD_REACTORS
330
BC6
102
}
330
BC6
100
AcDbXrecord
280
     1
102
ACAD_MATT_HEIGHT
140
3.499999940395355
  0
XRECORD
  5
EF8
102
{ACAD_REACTORS
330
BC9
102
}
330
BC9
100
AcDbXrecord
280
     1
 70
     4
 70
     0
 70
     0
 40
1.0
  2
SKLADOVÉ_ČÍSLO
  1
Embedded Object
 10
118.0
 20
54.89391305489238
 30
0.0
 40
6.99999988079071
 41
153.2966041564941
 46
0.0
 71
     1
 72
     5
  1
408092
  7
Styl textu94
 73
     1
 44
1.0
  0
XRECORD
  5
BCA
102
{ACAD_REACTORS
330
BC9
102
}
330
BC9
100
AcDbXrecord
280
     1
102
ACAD_MATT_HEIGHT
140
6.99999988079071
  0
XRECORD
  5
EF9
102
{ACAD_REACTORS
330
BCC
102
}
330
BCC
100
AcDbXrecord
280
     1
 70
     4
 70
     0
 70
     0
 40
1.0
  2
AUTHOR
  1
Embedded Object
 10
165.2312259808574
 20
87.78242706242744
 30
0.0
 40
2.000000029802321
 41
15.06250023841858
 46
0.0
 71
     1
 72
     5
  1
mkotera
  7
Styl textu40
 73
     1
 44
1.0
  0
XRECORD
  5
BCD
102
{ACAD_REACTORS
330
BCC
102
}
330
BCC
100
AcDbXrecord
280
     1
102
ACAD_MATT_HEIGHT
140
2.000000029802321
  0
XRECORD
  5
EFA
102
{ACAD_REACTORS
330
BCF
102
}
330
BCF
100
AcDbXrecord
280
     1
 70
     4
 70
     0
 70
     0
 40
1.0
  2
VS_First
  1
Embedded Object
 10
189.1855699863978
 20
86.00038821032343
 30
0.0
 40
3.499999940395355
 41
24.15597186978378
 46
0.0
 71
     1
 72
     5
  1

  7
Text poznámky (ISO)
 73
     1
 44
1.0
  0
XRECORD
  5
BD0
102
{ACAD_REACTORS
330
BCF
102
}
330
BCF
100
AcDbXrecord
280
     1
102
ACAD_MATT_HEIGHT
140
3.499999940395355
  0
XRECORD
  5
F05
102
{ACAD_REACTORS
330
F04
102
}
330
F04
100
AcDbXrecord
280
     1
 40
7165.0
  1
KUSOVNÍK
  0
XRECORD
  5
F07
102
{ACAD_REACTORS
330
F06
102
}
330
F06
100
AcDbXrecord
280
     1
 40
6807.0
  1
MATERIÁL
  0
XRECORD
  5
F09
102
{ACAD_REACTORS
330
F08
102
}
330
F08
100
AcDbXrecord
280
     1
 40
6841.0
  1
SKLADOVÉ
  0
XRECORD
  5
F0B
102
{ACAD_REACTORS
330
F0A
102
}
330
F0A
100
AcDbXrecord
280
     1
 40
30968.0
  1
Dekl pro InDrain rošt 
  0
XRECORD
  5
F0D
102
{ACAD_REACTORS
330
F0C
102
}
330
F0C
100
AcDbXrecord
280
     1
 40
55385.0
  1
Výztuha pro InDrain rošt 
  0
XRECORD
  5
EFD
102
{ACAD_REACTORS
330
EFC
102
}
330
EFC
100
AcDbXrecord
280
     1
 70
     1
  0
XRECORD
  5
EFF
102
{ACAD_REACTORS
330
EFC
102
}
330
EFC
100
AcDbXrecord
280
     1
340
66
  0
XRECORD
  5
F00
102
{ACAD_REACTORS
330
EFC
102
}
330
EFC
100
AcDbXrecord
280
     1
340
66
  0
XRECORD
  5
EFE
102
{ACAD_REACTORS
330
EFC
102
}
330
EFC
100
AcDbXrecord
280
     1
340
66
  0
LAYOUT
  5
76
102
{ACAD_REACTORS
330
6D
102
}
330
6D
100
AcDbPlotSettings
  1

  2

  4

  6

 40
0.0
 41
0.0
 42
0.0
 43
0.0
 44
0.0
 45
0.0
 46
0.0
 47
0.0
 48
0.0
 49
0.0
140
0.0
141
0.0
142
1.0
143
1.0
 70
   688
 72
     0
 73
     0
 74
     5
  7

 75
    16
147
1.0
 76
     0
 77
     2
 78
   300
148
0.0
149
0.0
100
AcDbLayout
  1
Layout1
 70
     1
 71
     1
 10
0.0
 20
0.0
 11
840.0
 21
594.0
 12
0.0
 22
0.0
 32
0.0
 14
0.0
 24
0.0
 34
0.0
 15
840.0
 25
594.0
 35
0.0
146
0.0
 13
0.0
 23
0.0
 33
0.0
 16
1.0
 26
0.0
 36
0.0
 17
0.0
 27
1.0
 37
0.0
 76
     0
330
73
  0
LAYOUT
  5
7E
102
{ACAD_REACTORS
330
6D
102
}
330
6D
100
AcDbPlotSettings
  1

  2

  4

  6

 40
0.0
 41
0.0
 42
0.0
 43
0.0
 44
0.0
 45
0.0
 46
0.0
 47
0.0
 48
0.0
 49
0.0
140
0.0
141
0.0
142
1.0
143
1.0
 70
   688
 72
     0
 73
     0
 74
     5
  7

 75
    16
147
1.0
 76
     0
 77
     2
 78
   300
148
0.0
149
0.0
100
AcDbLayout
  1
Layout2
 70
     1
 71
     2
 10
0.0
 20
0.0
 11
12.0
 21
9.0
 12
0.0
 22
0.0
 32
0.0
 14
0.0
 24
0.0
 34
0.0
 15
0.0
 25
0.0
 35
0.0
146
0.0
 13
0.0
 23
0.0
 33
0.0
 16
1.0
 26
0.0
 36
0.0
 17
0.0
 27
1.0
 37
0.0
 76
     0
330
7B
  0
LAYOUT
  5
7A
102
{ACAD_REACTORS
330
6D
102
}
330
6D
100
AcDbPlotSettings
  1

  2

  4

  6

 40
0.0
 41
0.0
 42
0.0
 43
0.0
 44
0.0
 45
0.0
 46
0.0
 47
0.0
 48
0.0
 49
0.0
140
0.0
141
0.0
142
1.0
143
1.0
 70
  1712
 72
     0
 73
     0
 74
     0
  7

 75
     0
147
1.0
 76
     0
 77
     2
 78
   300
148
0.0
149
0.0
100
AcDbLayout
  1
Model
 70
     1
 71
     0
 10
0.0
 20
0.0
 11
12.0
 21
9.0
 12
0.0
 22
0.0
 32
0.0
 14
0.0
 24
0.0
 34
0.0
 15
0.0
 25
0.0
 35
0.0
146
0.0
 13
0.0
 23
0.0
 33
0.0
 16
1.0
 26
0.0
 36
0.0
 17
0.0
 27
1.0
 37
0.0
 76
     0
330
77
331
62
  0
MATERIAL
  5
19
102
{ACAD_XDICTIONARY
360
1A
102
}
102
{ACAD_REACTORS
330
10
102
}
330
10
100
AcDbMaterial
  1
ByBlock
 72
     0
 43
0.0208333333333333
 43
0.0
 43
0.0
 43
0.0
 43
0.0
 43
0.0208333333333333
 43
0.0
 43
0.0
 43
0.0
 43
0.0
 43
1.0
 43
0.0
 43
0.0
 43
0.0
 43
0.0
 43
1.0
 77
     0
 47
0.0208333333333333
 47
0.0
 47
0.0
 47
0.0
 47
0.0
 47
0.0208333333333333
 47
0.0
 47
0.0
 47
0.0
 47
0.0
 47
1.0
 47
0.0
 47
0.0
 47
0.0
 47
0.0
 47
1.0
171
     0
 49
0.0208333333333333
 49
0.0
 49
0.0
 49
0.0
 49
0.0
 49
0.0208333333333333
 49
0.0
 49
0.0
 49
0.0
 49
0.0
 49
1.0
 49
0.0
 49
0.0
 49
0.0
 49
0.0
 49
1.0
175
     0
142
0.0208333333333333
142
0.0
142
0.0
142
0.0
142
0.0
142
0.0208333333333333
142
0.0
142
0.0
142
0.0
142
0.0
142
1.0
142
0.0
142
0.0
142
0.0
142
0.0
142
1.0
179
     0
144
0.0208333333333333
144
0.0
144
0.0
144
0.0
144
0.0
144
0.0208333333333333
144
0.0
144
0.0
144
0.0
144
0.0
144
1.0
144
0.0
144
0.0
144
0.0
144
0.0
144
1.0
147
0.0208333333333333
147
0.0
147
0.0
147
0.0
147
0.0
147
0.0208333333333333
147
0.0
147
0.0
147
0.0
147
0.0
147
1.0
147
0.0
147
0.0
147
0.0
147
0.0
147
1.0
  0
MATERIAL
  5
11
102
{ACAD_XDICTIONARY
360
12
102
}
102
{ACAD_REACTORS
330
10
102
}
330
10
100
AcDbMaterial
  1
ByLayer
 72
     0
 43
0.0208333333333333
 43
0.0
 43
0.0
 43
0.0
 43
0.0
 43
0.0208333333333333
 43
0.0
 43
0.0
 43
0.0
 43
0.0
 43
1.0
 43
0.0
 43
0.0
 43
0.0
 43
0.0
 43
1.0
 77
     0
 47
0.0208333333333333
 47
0.0
 47
0.0
 47
0.0
 47
0.0
 47
0.0208333333333333
 47
0.0
 47
0.0
 47
0.0
 47
0.0
 47
1.0
 47
0.0
 47
0.0
 47
0.0
 47
0.0
 47
1.0
171
     0
 49
0.0208333333333333
 49
0.0
 49
0.0
 49
0.0
 49
0.0
 49
0.0208333333333333
 49
0.0
 49
0.0
 49
0.0
 49
0.0
 49
1.0
 49
0.0
 49
0.0
 49
0.0
 49
0.0
 49
1.0
175
     0
142
0.0208333333333333
142
0.0
142
0.0
142
0.0
142
0.0
142
0.0208333333333333
142
0.0
142
0.0
142
0.0
142
0.0
142
1.0
142
0.0
142
0.0
142
0.0
142
0.0
142
1.0
179
     0
144
0.0208333333333333
144
0.0
144
0.0
144
0.0
144
0.0
144
0.0208333333333333
144
0.0
144
0.0
144
0.0
144
0.0
144
1.0
144
0.0
144
0.0
144
0.0
144
0.0
144
1.0
147
0.0208333333333333
147
0.0
147
0.0
147
0.0
147
0.0
147
0.0208333333333333
147
0.0
147
0.0
147
0.0
147
0.0
147
1.0
147
0.0
147
0.0
147
0.0
147
0.0
147
1.0
  0
MATERIAL
  5
21
102
{ACAD_XDICTIONARY
360
22
102
}
102
{ACAD_REACTORS
330
10
102
}
330
10
100
AcDbMaterial
  1
Global
 72
     0
 43
0.0208333333333333
 43
0.0
 43
0.0
 43
0.0
 43
0.0
 43
0.0208333333333333
 43
0.0
 43
0.0
 43
0.0
 43
0.0
 43
1.0
 43
0.0
 43
0.0
 43
0.0
 43
0.0
 43
1.0
 77
     0
 47
0.0208333333333333
 47
0.0
 47
0.0
 47
0.0
 47
0.0
 47
0.0208333333333333
 47
0.0
 47
0.0
 47
0.0
 47
0.0
 47
1.0
 47
0.0
 47
0.0
 47
0.0
 47
0.0
 47
1.0
171
     0
 49
0.0208333333333333
 49
0.0
 49
0.0
 49
0.0
 49
0.0
 49
0.0208333333333333
 49
0.0
 49
0.0
 49
0.0
 49
0.0
 49
1.0
 49
0.0
 49
0.0
 49
0.0
 49
0.0
 49
1.0
175
     0
142
0.0208333333333333
142
0.0
142
0.0
142
0.0
142
0.0
142
0.0208333333333333
142
0.0
142
0.0
142
0.0
142
0.0
142
1.0
142
0.0
142
0.0
142
0.0
142
0.0
142
1.0
179
     0
144
0.0208333333333333
144
0.0
144
0.0
144
0.0
144
0.0
144
0.0208333333333333
144
0.0
144
0.0
144
0.0
144
0.0
144
1.0
144
0.0
144
0.0
144
0.0
144
0.0
144
1.0
147
0.0208333333333333
147
0.0
147
0.0
147
0.0
147
0.0
147
0.0208333333333333
147
0.0
147
0.0
147
0.0
147
0.0
147
1.0
147
0.0
147
0.0
147
0.0
147
0.0
147
1.0
  0
MLEADERSTYLE
  5
72
102
{ACAD_REACTORS
330
71
102
}
330
71
100
AcDbMLeaderStyle
170
     2
171
     1
172
     0
 90
        2
 40
0.0
 41
0.0
173
     1
 91
-1056964608
340
66
 92
       -2
290
     1
 42
0.09
291
     1
 43
0.36
  3
Standard
 44
0.18
300

342
60
174
     1
178
     6
175
     1
176
     0
 93
-1056964608
 45
0.18
292
     0
297
     0
 46
0.18
 94
-1056964608
 47
1.0
 49
1.0
140
1.0
293
     1
141
0.0
294
     1
177
     0
142
1.0
295
     0
296
     0
143
0.125
1001
ACAD_MLEADERVER
1070
     2
  0
MLINESTYLE
  5
6B
102
{ACAD_REACTORS
330
6A
102
}
330
6A
100
AcDbMlineStyle
  2
STANDARD
 70
     0
  3

 62
   256
 51
90.0
 52
90.0
 71
     2
 49
0.5
 62
   256
  6
BYLAYER
 49
-0.5
 62
   256
  6
BYLAYER
  0
ACDBPLACEHOLDER
  5
F
102
{ACAD_REACTORS
330
E
102
}
330
E
  0
SCALE
  5
3E
102
{ACAD_REACTORS
330
3D
102
}
330
3D
100
AcDbScale
 70
     0
300
1:1
140
1.0
141
1.0
290
     1
  0
SCALE
  5
3F
102
{ACAD_REACTORS
330
3D
102
}
330
3D
100
AcDbScale
 70
     0
300
1:2
140
1.0
141
2.0
290
     0
  0
SCALE
  5
40
102
{ACAD_REACTORS
330
3D
102
}
330
3D
100
AcDbScale
 70
     0
300
1:4
140
1.0
141
4.0
290
     0
  0
SCALE
  5
41
102
{ACAD_REACTORS
330
3D
102
}
330
3D
100
AcDbScale
 70
     0
300
1:5
140
1.0
141
5.0
290
     0
  0
SCALE
  5
42
102
{ACAD_REACTORS
330
3D
102
}
330
3D
100
AcDbScale
 70
     0
300
1:8
140
1.0
141
8.0
290
     0
  0
SCALE
  5
43
102
{ACAD_REACTORS
330
3D
102
}
330
3D
100
AcDbScale
 70
     0
300
1:10
140
1.0
141
10.0
290
     0
  0
SCALE
  5
44
102
{ACAD_REACTORS
330
3D
102
}
330
3D
100
AcDbScale
 70
     0
300
1:16
140
1.0
141
16.0
290
     0
  0
SCALE
  5
45
102
{ACAD_REACTORS
330
3D
102
}
330
3D
100
AcDbScale
 70
     0
300
1:20
140
1.0
141
20.0
290
     0
  0
SCALE
  5
46
102
{ACAD_REACTORS
330
3D
102
}
330
3D
100
AcDbScale
 70
     0
300
1:30
140
1.0
141
30.0
290
     0
  0
SCALE
  5
47
102
{ACAD_REACTORS
330
3D
102
}
330
3D
100
AcDbScale
 70
     0
300
1:40
140
1.0
141
40.0
290
     0
  0
SCALE
  5
48
102
{ACAD_REACTORS
330
3D
102
}
330
3D
100
AcDbScale
 70
     0
300
1:50
140
1.0
141
50.0
290
     0
  0
SCALE
  5
49
102
{ACAD_REACTORS
330
3D
102
}
330
3D
100
AcDbScale
 70
     0
300
1:100
140
1.0
141
100.0
290
     0
  0
SCALE
  5
4A
102
{ACAD_REACTORS
330
3D
102
}
330
3D
100
AcDbScale
 70
     0
300
2:1
140
2.0
141
1.0
290
     0
  0
SCALE
  5
4B
102
{ACAD_REACTORS
330
3D
102
}
330
3D
100
AcDbScale
 70
     0
300
4:1
140
4.0
141
1.0
290
     0
  0
SCALE
  5
4C
102
{ACAD_REACTORS
330
3D
102
}
330
3D
100
AcDbScale
 70
     0
300
8:1
140
8.0
141
1.0
290
     0
  0
SCALE
  5
4D
102
{ACAD_REACTORS
330
3D
102
}
330
3D
100
AcDbScale
 70
     0
300
10:1
140
10.0
141
1.0
290
     0
  0
SCALE
  5
4E
102
{ACAD_REACTORS
330
3D
102
}
330
3D
100
AcDbScale
 70
     0
300
100:1
140
100.0
141
1.0
290
     0
  0
SCALE
  5
4F
102
{ACAD_REACTORS
330
3D
102
}
330
3D
100
AcDbScale
 70
     0
300
1/128" = 1'-0"
140
0.0078125
141
12.0
290
     0
  0
SCALE
  5
50
102
{ACAD_REACTORS
330
3D
102
}
330
3D
100
AcDbScale
 70
     0
300
1/64" = 1'-0"
140
0.015625
141
12.0
290
     0
  0
SCALE
  5
51
102
{ACAD_REACTORS
330
3D
102
}
330
3D
100
AcDbScale
 70
     0
300
1/32" = 1'-0"
140
0.03125
141
12.0
290
     0
  0
SCALE
  5
52
102
{ACAD_REACTORS
330
3D
102
}
330
3D
100
AcDbScale
 70
     0
300
1/16" = 1'-0"
140
0.0625
141
12.0
290
     0
  0
SCALE
  5
53
102
{ACAD_REACTORS
330
3D
102
}
330
3D
100
AcDbScale
 70
     0
300
3/32" = 1'-0"
140
0.09375
141
12.0
290
     0
  0
SCALE
  5
54
102
{ACAD_REACTORS
330
3D
102
}
330
3D
100
AcDbScale
 70
     0
300
1/8" = 1'-0"
140
0.125
141
12.0
290
     0
  0
SCALE
  5
55
102
{ACAD_REACTORS
330
3D
102
}
330
3D
100
AcDbScale
 70
     0
300
3/16" = 1'-0"
140
0.1875
141
12.0
290
     0
  0
SCALE
  5
56
102
{ACAD_REACTORS
330
3D
102
}
330
3D
100
AcDbScale
 70
     0
300
1/4" = 1'-0"
140
0.25
141
12.0
290
     0
  0
SCALE
  5
57
102
{ACAD_REACTORS
330
3D
102
}
330
3D
100
AcDbScale
 70
     0
300
3/8" = 1'-0"
140
0.375
141
12.0
290
     0
  0
SCALE
  5
58
102
{ACAD_REACTORS
330
3D
102
}
330
3D
100
AcDbScale
 70
     0
300
1/2" = 1'-0"
140
0.5
141
12.0
290
     0
  0
SCALE
  5
59
102
{ACAD_REACTORS
330
3D
102
}
330
3D
100
AcDbScale
 70
     0
300
3/4" = 1'-0"
140
0.75
141
12.0
290
     0
  0
SCALE
  5
5A
102
{ACAD_REACTORS
330
3D
102
}
330
3D
100
AcDbScale
 70
     0
300
1" = 1'-0"
140
1.0
141
12.0
290
     0
  0
SCALE
  5
5B
102
{ACAD_REACTORS
330
3D
102
}
330
3D
100
AcDbScale
 70
     0
300
1-1/2" = 1'-0"
140
1.5
141
12.0
290
     0
  0
SCALE
  5
5C
102
{ACAD_REACTORS
330
3D
102
}
330
3D
100
AcDbScale
 70
     0
300
3" = 1'-0"
140
3.0
141
12.0
290
     0
  0
SCALE
  5
5D
102
{ACAD_REACTORS
330
3D
102
}
330
3D
100
AcDbScale
 70
     0
300
6" = 1'-0"
140
6.0
141
12.0
290
     0
  0
SCALE
  5
5E
102
{ACAD_REACTORS
330
3D
102
}
330
3D
100
AcDbScale
 70
     0
300
1'-0" = 1'-0"
140
12.0
141
12.0
290
     0
  0
TABLESTYLE
  5
70
102
{ACAD_XDICTIONARY
360
BB8
102
}
102
{ACAD_REACTORS
330
6F
102
}
330
6F
100
AcDbTableStyle
  3
Standard
 70
     0
 71
     0
 40
0.06
 41
0.06
280
     0
281
     0
  7
Standard
140
0.18
170
     2
 62
     0
 63
     7
283
     0
274
    -2
284
     1
 64
     0
275
    -2
285
     1
 65
     0
276
    -2
286
     1
 66
     0
277
    -2
287
     1
 67
     0
278
    -2
288
     1
 68
     0
279
    -2
289
     1
 69
     0
  7
Standard
140
0.25
170
     5
 62
     0
 63
     7
283
     0
274
    -2
284
     1
 64
     0
275
    -2
285
     1
 65
     0
276
    -2
286
     1
 66
     0
277
    -2
287
     1
 67
     0
278
    -2
288
     1
 68
     0
279
    -2
289
     1
 69
     0
  7
Standard
140
0.18
170
     5
 62
     0
 63
     7
283
     0
274
    -2
284
     1
 64
     0
275
    -2
285
     1
 65
     0
276
    -2
286
     1
 66
     0
277
    -2
287
     1
 67
     0
278
    -2
288
     1
 68
     0
279
    -2
289
     1
 69
     0
  0
VISUALSTYLE
  5
2F
102
{ACAD_XDICTIONARY
360
BF5
102
}
102
{ACAD_REACTORS
330
29
102
}
330
29
100
AcDbVisualStyle
  2
2dWireframe
 70
     4
 71
     0
 72
     2
 73
     0
 90
        0
 40
-0.6
 41
-30.0
 62
     5
 63
     7
421
 16777215
 74
     1
 91
        4
 64
     7
 65
   257
 75
     1
175
     1
 42
1.0
 92
        0
 66
   257
 43
1.0
 76
     1
 77
     6
 78
     2
 67
     7
 79
     5
170
     0
171
     0
290
     0
174
     0
 93
        1
 44
0.0
173
     0
291
     0
 45
0.0
1001
ACAD
1000
AcDbSavedByObjectVersion
1070
     0
1000
AcDbSavedByObjectVersion
1070
     0
1000
AcDbSavedByObjectVersion
1070
     0
  0
VISUALSTYLE
  5
31
102
{ACAD_XDICTIONARY
360
BF9
102
}
102
{ACAD_REACTORS
330
29
102
}
330
29
100
AcDbVisualStyle
  2
3D Hidden
 70
     6
 71
     1
 72
     2
 73
     2
 90
        0
 40
-0.6
 41
-30.0
 62
     5
 63
     7
421
 16777215
 74
     2
 91
        2
 64
     7
 65
   257
 75
     2
175
     1
 42
179.0
 92
        0
 66
   257
 43
1.0
 76
     1
 77
     6
 78
     2
 67
     7
 79
     3
170
     0
171
     0
290
     0
174
     0
 93
        1
 44
0.0
173
     0
291
     0
 45
0.0
1001
ACAD
1000
AcDbSavedByObjectVersion
1070
     0
1000
AcDbSavedByObjectVersion
1070
     0
1000
AcDbSavedByObjectVersion
1070
     0
  0
VISUALSTYLE
  5
30
102
{ACAD_XDICTIONARY
360
BF7
102
}
102
{ACAD_REACTORS
330
29
102
}
330
29
100
AcDbVisualStyle
  2
3dWireframe
 70
     5
 71
     0
 72
     2
 73
     0
 90
        0
 40
-0.6
 41
-30.0
 62
     5
 63
     7
421
 16777215
 74
     1
 91
        4
 64
     7
 65
   257
 75
     1
175
     1
 42
1.0
 92
        0
 66
   257
 43
1.0
 76
     1
 77
     6
 78
     2
 67
     7
 79
     5
170
     0
171
     0
290
     0
174
     0
 93
        1
 44
0.0
173
     0
291
     0
 45
0.0
1001
ACAD
1000
AcDbSavedByObjectVersion
1070
     0
1000
AcDbSavedByObjectVersion
1070
     0
1000
AcDbSavedByObjectVersion
1070
     0
  0
VISUALSTYLE
  5
2E
102
{ACAD_XDICTIONARY
360
BF3
102
}
102
{ACAD_REACTORS
330
29
102
}
330
29
100
AcDbVisualStyle
  2
Basic
 70
     7
 71
     1
 72
     0
 73
     1
 90
        0
 40
-0.6
 41
-30.0
 62
     5
 63
     7
421
 16777215
 74
     0
 91
        4
 64
     7
 65
   257
 75
     1
175
     1
 42
1.0
 92
        8
 66
     7
 43
1.0
 76
     1
 77
     6
 78
     2
 67
     7
 79
     5
170
     0
171
     0
290
     0
174
     0
 93
        1
 44
0.0
173
     0
291
     1
 45
0.0
1001
ACAD
1000
AcDbSavedByObjectVersion
1070
     0
1000
AcDbSavedByObjectVersion
1070
     0
1000
AcDbSavedByObjectVersion
1070
     0
  0
VISUALSTYLE
  5
35
102
{ACAD_XDICTIONARY
360
C01
102
}
102
{ACAD_REACTORS
330
29
102
}
330
29
100
AcDbVisualStyle
  2
Brighten
 70
    12
 71
     2
 72
     2
 73
     0
 90
        0
 40
-0.6
 41
-30.0
 62
     5
 63
     7
421
 16777215
 74
     1
 91
        4
 64
     7
 65
   257
 75
     1
175
     1
 42
1.0
 92
        8
 66
     7
 43
1.0
 76
     1
 77
     6
 78
     2
 67
     7
 79
     5
170
     0
171
     0
290
     0
174
     0
 93
        1
 44
50.0
173
     0
291
     1
 45
0.0
1001
ACAD
1000
AcDbSavedByObjectVersion
1070
     0
1000
AcDbSavedByObjectVersion
1070
     0
1000
AcDbSavedByObjectVersion
1070
     0
  0
VISUALSTYLE
  5
39
102
{ACAD_XDICTIONARY
360
C09
102
}
102
{ACAD_REACTORS
330
29
102
}
330
29
100
AcDbVisualStyle
  2
ColorChange
 70
    16
 71
     2
 72
     2
 73
     3
 90
        0
 40
-0.6
 41
-30.0
 62
     5
 63
     8
421
  8421504
 74
     1
 91
        4
 64
     7
 65
   257
 75
     1
175
     1
 42
1.0
 92
        8
 66
     8
424
  8421504
 43
1.0
 76
     1
 77
     6
 78
     2
 67
     7
 79
     5
170
     0
171
     0
290
     0
174
     0
 93
        1
 44
0.0
173
     0
291
     1
 45
0.0
1001
ACAD
1000
AcDbSavedByObjectVersion
1070
     0
1000
AcDbSavedByObjectVersion
1070
     0
1000
AcDbSavedByObjectVersion
1070
     0
  0
VISUALSTYLE
  5
32
102
{ACAD_XDICTIONARY
360
BFB
102
}
102
{ACAD_REACTORS
330
29
102
}
330
29
100
AcDbVisualStyle
  2
Conceptual
 70
     9
 71
     3
 72
     2
 73
     0
 90
        0
 40
-0.6
 41
-30.0
 62
     5
 63
     7
421
 16777215
 74
     2
 91
        2
 64
     7
 65
   257
 75
     1
175
     1
 42
179.0
 92
        8
 66
     7
 43
1.0
 76
     1
 77
     6
 78
     2
 67
     7
 79
     3
170
     0
171
     0
290
     0
174
     0
 93
        1
 44
0.0
173
     0
291
     0
 45
0.0
1001
ACAD
1000
AcDbSavedByObjectVersion
1070
     0
1000
AcDbSavedByObjectVersion
1070
     0
1000
AcDbSavedByObjectVersion
1070
     0
  0
VISUALSTYLE
  5
34
102
{ACAD_XDICTIONARY
360
BFF
102
}
102
{ACAD_REACTORS
330
29
102
}
330
29
100
AcDbVisualStyle
  2
Dim
 70
    11
 71
     2
 72
     2
 73
     0
 90
        0
 40
-0.6
 41
-30.0
 62
     5
 63
     7
421
 16777215
 74
     1
 91
        4
 64
     7
 65
   257
 75
     1
175
     1
 42
1.0
 92
        8
 66
     7
 43
1.0
 76
     1
 77
     6
 78
     2
 67
     7
 79
     5
170
     0
171
     0
290
     0
174
     0
 93
        1
 44
-50.0
173
     0
291
     1
 45
0.0
1001
ACAD
1000
AcDbSavedByObjectVersion
1070
     0
1000
AcDbSavedByObjectVersion
1070
     0
1000
AcDbSavedByObjectVersion
1070
     0
  0
VISUALSTYLE
  5
3C
102
{ACAD_XDICTIONARY
360
C0F
102
}
102
{ACAD_REACTORS
330
29
102
}
330
29
100
AcDbVisualStyle
  2
EdgeColorOff
 70
    22
 71
     2
 72
     2
 73
     0
 90
        0
 40
-0.6
 41
-30.0
 62
     5
 63
     7
421
 16777215
 74
     1
 91
        4
 64
     7
 65
   257
 75
     1
175
     1
 42
1.0
 92
        8
 66
     7
 43
1.0
 76
     1
 77
     6
 78
     2
 67
     7
 79
     5
170
     0
171
     0
290
     0
174
     0
 93
        1
 44
0.0
173
     0
291
     1
 45
0.0
1001
ACAD
1000
AcDbSavedByObjectVersion
1070
     0
1000
AcDbSavedByObjectVersion
1070
     0
1000
AcDbSavedByObjectVersion
1070
     0
  0
VISUALSTYLE
  5
38
102
{ACAD_XDICTIONARY
360
C07
102
}
102
{ACAD_REACTORS
330
29
102
}
330
29
100
AcDbVisualStyle
  2
Facepattern
 70
    15
 71
     2
 72
     2
 73
     0
 90
        0
 40
-0.6
 41
-30.0
 62
     5
 63
     7
421
 16777215
 74
     1
 91
        4
 64
     7
 65
   257
 75
     1
175
     1
 42
1.0
 92
        8
 66
     7
 43
1.0
 76
     1
 77
     6
 78
     2
 67
     7
 79
     5
170
     0
171
     0
290
     0
174
     0
 93
        1
 44
0.0
173
     0
291
     1
 45
0.0
1001
ACAD
1000
AcDbSavedByObjectVersion
1070
     0
1000
AcDbSavedByObjectVersion
1070
     0
1000
AcDbSavedByObjectVersion
1070
     0
  0
VISUALSTYLE
  5
2A
102
{ACAD_XDICTIONARY
360
BEB
102
}
102
{ACAD_REACTORS
330
29
102
}
330
29
100
AcDbVisualStyle
  2
Flat
 70
     0
 71
     2
 72
     1
 73
     1
 90
        2
 40
-0.6
 41
30.0
 62
     5
 63
     7
421
 16777215
 74
     0
 91
        4
 64
     7
 65
   257
 75
     1
175
     1
 42
1.0
 92
        8
 66
     7
 43
1.0
 76
     1
 77
     6
 78
     2
 67
     7
 79
     5
170
     0
171
     0
290
     0
174
     0
 93
       13
 44
0.0
173
     0
291
     1
 45
0.0
1001
ACAD
1000
AcDbSavedByObjectVersion
1070
     0
1000
AcDbSavedByObjectVersion
1070
     0
1000
AcDbSavedByObjectVersion
1070
     0
  0
VISUALSTYLE
  5
2B
102
{ACAD_XDICTIONARY
360
BED
102
}
102
{ACAD_REACTORS
330
29
102
}
330
29
100
AcDbVisualStyle
  2
FlatWithEdges
 70
     1
 71
     2
 72
     1
 73
     1
 90
        2
 40
-0.6
 41
30.0
 62
     5
 63
     7
421
 16777215
 74
     1
 91
        4
 64
     7
 65
   257
 75
     1
175
     1
 42
1.0
 92
        0
 66
   257
 43
1.0
 76
     1
 77
     6
 78
     2
 67
     7
 79
     5
170
     0
171
     0
290
     0
174
     0
 93
       13
 44
0.0
173
     0
291
     1
 45
0.0
1001
ACAD
1000
AcDbSavedByObjectVersion
1070
     0
1000
AcDbSavedByObjectVersion
1070
     0
1000
AcDbSavedByObjectVersion
1070
     0
  0
VISUALSTYLE
  5
2C
102
{ACAD_XDICTIONARY
360
BEF
102
}
102
{ACAD_REACTORS
330
29
102
}
330
29
100
AcDbVisualStyle
  2
Gouraud
 70
     2
 71
     2
 72
     2
 73
     1
 90
        2
 40
-0.6
 41
30.0
 62
     5
 63
     7
421
 16777215
 74
     0
 91
        4
 64
     7
 65
   257
 75
     1
175
     1
 42
1.0
 92
        0
 66
     7
 43
1.0
 76
     1
 77
     6
 78
     2
 67
     7
 79
     5
170
     0
171
     0
290
     0
174
     0
 93
       13
 44
0.0
173
     0
291
     1
 45
0.0
1001
ACAD
1000
AcDbSavedByObjectVersion
1070
     0
1000
AcDbSavedByObjectVersion
1070
     0
1000
AcDbSavedByObjectVersion
1070
     0
  0
VISUALSTYLE
  5
2D
102
{ACAD_XDICTIONARY
360
BF1
102
}
102
{ACAD_REACTORS
330
29
102
}
330
29
100
AcDbVisualStyle
  2
GouraudWithEdges
 70
     3
 71
     2
 72
     2
 73
     1
 90
        2
 40
-0.6
 41
30.0
 62
     5
 63
     7
421
 16777215
 74
     1
 91
        4
 64
     7
 65
   257
 75
     1
175
     1
 42
1.0
 92
        0
 66
   257
 43
1.0
 76
     1
 77
     6
 78
     2
 67
     7
 79
     5
170
     0
171
     0
290
     0
174
     0
 93
       13
 44
0.0
173
     0
291
     1
 45
0.0
1001
ACAD
1000
AcDbSavedByObjectVersion
1070
     0
1000
AcDbSavedByObjectVersion
1070
     0
1000
AcDbSavedByObjectVersion
1070
     0
  0
VISUALSTYLE
  5
3A
102
{ACAD_XDICTIONARY
360
C0B
102
}
102
{ACAD_REACTORS
330
29
102
}
330
29
100
AcDbVisualStyle
  2
JitterOff
 70
    20
 71
     2
 72
     2
 73
     0
 90
        0
 40
-0.6
 41
-30.0
 62
     5
 63
     7
421
 16777215
 74
     1
 91
        4
 64
     7
 65
   257
 75
     1
175
     1
 42
1.0
 92
       10
 66
     7
 43
1.0
 76
     1
 77
     6
 78
     2
 67
     7
 79
     5
170
     0
171
     0
290
     0
174
     0
 93
        1
 44
0.0
173
     0
291
     1
 45
0.0
1001
ACAD
1000
AcDbSavedByObjectVersion
1070
     0
1000
AcDbSavedByObjectVersion
1070
     0
1000
AcDbSavedByObjectVersion
1070
     0
  0
VISUALSTYLE
  5
37
102
{ACAD_XDICTIONARY
360
C05
102
}
102
{ACAD_REACTORS
330
29
102
}
330
29
100
AcDbVisualStyle
  2
Linepattern
 70
    14
 71
     2
 72
     2
 73
     0
 90
        0
 40
-0.6
 41
-30.0
 62
     5
 63
     7
421
 16777215
 74
     1
 91
        4
 64
     7
 65
   257
 75
     7
175
     7
 42
1.0
 92
        8
 66
     7
 43
1.0
 76
     1
 77
     6
 78
     2
 67
     7
 79
     5
170
     0
171
     0
290
     0
174
     0
 93
        1
 44
0.0
173
     0
291
     1
 45
0.0
1001
ACAD
1000
AcDbSavedByObjectVersion
1070
     0
1000
AcDbSavedByObjectVersion
1070
     0
1000
AcDbSavedByObjectVersion
1070
     0
  0
VISUALSTYLE
  5
3B
102
{ACAD_XDICTIONARY
360
C0D
102
}
102
{ACAD_REACTORS
330
29
102
}
330
29
100
AcDbVisualStyle
  2
OverhangOff
 70
    21
 71
     2
 72
     2
 73
     0
 90
        0
 40
-0.6
 41
-30.0
 62
     5
 63
     7
421
 16777215
 74
     1
 91
        4
 64
     7
 65
   257
 75
     1
175
     1
 42
1.0
 92
        9
 66
     7
 43
1.0
 76
     1
 77
     6
 78
     2
 67
     7
 79
     5
170
     0
171
     0
290
     0
174
     0
 93
        1
 44
0.0
173
     0
291
     1
 45
0.0
1001
ACAD
1000
AcDbSavedByObjectVersion
1070
     0
1000
AcDbSavedByObjectVersion
1070
     0
1000
AcDbSavedByObjectVersion
1070
     0
  0
VISUALSTYLE
  5
33
102
{ACAD_XDICTIONARY
360
BFD
102
}
102
{ACAD_REACTORS
330
29
102
}
330
29
100
AcDbVisualStyle
  2
Realistic
 70
     8
 71
     2
 72
     2
 73
     0
 90
        0
 40
-0.6
 41
-30.0
 62
     5
 63
     7
421
 16777215
 74
     1
 91
        0
 64
     7
 65
   257
 75
     1
175
     1
 42
1.0
 92
        8
 66
     8
424
  7895160
 43
1.0
 76
     1
 77
     6
 78
     2
 67
     7
 79
     5
170
     0
171
     0
290
     0
174
     0
 93
       13
 44
0.0
173
     0
291
     0
 45
0.0
1001
ACAD
1000
AcDbSavedByObjectVersion
1070
     0
1000
AcDbSavedByObjectVersion
1070
     0
1000
AcDbSavedByObjectVersion
1070
     0
  0
VISUALSTYLE
  5
36
102
{ACAD_XDICTIONARY
360
C03
102
}
102
{ACAD_REACTORS
330
29
102
}
330
29
100
AcDbVisualStyle
  2
Thicken
 70
    13
 71
     2
 72
     2
 73
     0
 90
        0
 40
-0.6
 41
-30.0
 62
     5
 63
     7
421
 16777215
 74
     1
 91
        4
 64
     7
 65
   257
 75
     1
175
     1
 42
1.0
 92
       12
 66
     7
 43
1.0
 76
     1
 77
     6
 78
     2
 67
     7
 79
     5
170
     0
171
     0
290
     0
174
     0
 93
        1
 44
0.0
173
     0
291
     1
 45
0.0
1001
ACAD
1000
AcDbSavedByObjectVersion
1070
     0
1000
AcDbSavedByObjectVersion
1070
     0
1000
AcDbSavedByObjectVersion
1070
     0
  0
DICTIONARYVAR
  5
C15
102
{ACAD_REACTORS
330
C12
102
}
330
C12
100
DictionaryVariables
280
     0
  1
1:1
  0
DICTIONARYVAR
  5
C14
102
{ACAD_REACTORS
330
C12
102
}
330
C12
100
DictionaryVariables
280
     0
  1
STANDARD
  0
DICTIONARYVAR
  5
C13
102
{ACAD_REACTORS
330
C12
102
}
330
C12
100
DictionaryVariables
280
     0
  1
STANDARD
  0
DICTIONARYVAR
  5
DA3
102
{ACAD_REACTORS
330
C12
102
}
330
C12
100
DictionaryVariables
280
     0
  1
0
  0
DICTIONARYVAR
  5
DA4
102
{ACAD_REACTORS
330
C12
102
}
330
C12
100
DictionaryVariables
280
     0
  1
0
  0
DICTIONARYVAR
  5
DA2
102
{ACAD_REACTORS
330
C12
102
}
330
C12
100
DictionaryVariables
280
     0
  1
2
  0
DICTIONARYVAR
  5
DA1
102
{ACAD_REACTORS
330
C12
102
}
330
C12
100
DictionaryVariables
280
     0
  1
1
  0
DICTIONARYVAR
  5
C16
102
{ACAD_REACTORS
330
C12
102
}
330
C12
100
DictionaryVariables
280
     0
  1
2
  0
DICTIONARY
  5
C8A
102
{ACAD_REACTORS
330
C7F
102
}
330
C7F
100
AcDbDictionary
281
     1
  0
DICTIONARY
  5
1A
330
19
100
AcDbDictionary
280
     1
281
     1
  3
ACAD_XREC_ROUNDTRIP
360
DB4
  3
BUMPTILE
360
1C
  3
DIFFUSETILE
360
1B
  3
OPACITYTILE
360
1F
  3
REFLECTIONTILE
360
1E
  3
REFRACTIONTILE
360
20
  3
SPECULARTILE
360
1D
  0
DICTIONARY
  5
12
330
11
100
AcDbDictionary
280
     1
281
     1
  3
ACAD_XREC_ROUNDTRIP
360
DB3
  3
BUMPTILE
360
14
  3
DIFFUSETILE
360
13
  3
OPACITYTILE
360
17
  3
REFLECTIONTILE
360
16
  3
REFRACTIONTILE
360
18
  3
SPECULARTILE
360
15
  0
DICTIONARY
  5
22
330
21
100
AcDbDictionary
280
     1
281
     1
  3
ACAD_XREC_ROUNDTRIP
360
DB5
  3
BUMPTILE
360
24
  3
DIFFUSETILE
360
23
  3
OPACITYTILE
360
27
  3
REFLECTIONTILE
360
26
  3
REFRACTIONTILE
360
28
  3
SPECULARTILE
360
25
  0
DICTIONARY
  5
BB8
330
70
100
AcDbDictionary
280
     1
281
     1
  3
ACAD_ROUNDTRIP_2008_TABLESTYLE_CELLSTYLEMAP
360
EF2
  3
ACAD_XREC_ROUNDTRIP
360
F01
  0
DICTIONARY
  5
BF5
330
2F
100
AcDbDictionary
280
     1
281
     1
  3
ACAD_XREC_ROUNDTRIP
360
BF6
  0
DICTIONARY
  5
BF9
330
31
100
AcDbDictionary
280
     1
281
     1
  3
ACAD_XREC_ROUNDTRIP
360
BFA
  0
DICTIONARY
  5
BF7
330
30
100
AcDbDictionary
280
     1
281
     1
  3
ACAD_XREC_ROUNDTRIP
360
BF8
  0
DICTIONARY
  5
BF3
330
2E
100
AcDbDictionary
280
     1
281
     1
  3
ACAD_XREC_ROUNDTRIP
360
BF4
  0
DICTIONARY
  5
C01
330
35
100
AcDbDictionary
280
     1
281
     1
  3
ACAD_XREC_ROUNDTRIP
360
C02
  0
DICTIONARY
  5
C09
330
39
100
AcDbDictionary
280
     1
281
     1
  3
ACAD_XREC_ROUNDTRIP
360
C0A
  0
DICTIONARY
  5
BFB
330
32
100
AcDbDictionary
280
     1
281
     1
  3
ACAD_XREC_ROUNDTRIP
360
BFC
  0
DICTIONARY
  5
BFF
330
34
100
AcDbDictionary
280
     1
281
     1
  3
ACAD_XREC_ROUNDTRIP
360
C00
  0
DICTIONARY
  5
C0F
330
3C
100
AcDbDictionary
280
     1
281
     1
  3
ACAD_XREC_ROUNDTRIP
360
C10
  0
DICTIONARY
  5
C07
330
38
100
AcDbDictionary
280
     1
281
     1
  3
ACAD_XREC_ROUNDTRIP
360
C08
  0
DICTIONARY
  5
BEB
330
2A
100
AcDbDictionary
280
     1
281
     1
  3
ACAD_XREC_ROUNDTRIP
360
BEC
  0
DICTIONARY
  5
BED
330
2B
100
AcDbDictionary
280
     1
281
     1
  3
ACAD_XREC_ROUNDTRIP
360
BEE
  0
DICTIONARY
  5
BEF
330
2C
100
AcDbDictionary
280
     1
281
     1
  3
ACAD_XREC_ROUNDTRIP
360
BF0
  0
DICTIONARY
  5
BF1
330
2D
100
AcDbDictionary
280
     1
281
     1
  3
ACAD_XREC_ROUNDTRIP
360
BF2
  0
DICTIONARY
  5
C0B
330
3A
100
AcDbDictionary
280
     1
281
     1
  3
ACAD_XREC_ROUNDTRIP
360
C0C
  0
DICTIONARY
  5
C05
330
37
100
AcDbDictionary
280
     1
281
     1
  3
ACAD_XREC_ROUNDTRIP
360
C06
  0
DICTIONARY
  5
C0D
330
3B
100
AcDbDictionary
280
     1
281
     1
  3
ACAD_XREC_ROUNDTRIP
360
C0E
  0
DICTIONARY
  5
BFD
330
33
100
AcDbDictionary
280
     1
281
     1
  3
ACAD_XREC_ROUNDTRIP
360
BFE
  0
DICTIONARY
  5
C03
330
36
100
AcDbDictionary
280
     1
281
     1
  3
ACAD_XREC_ROUNDTRIP
360
C04
  0
XRECORD
  5
DB4
102
{ACAD_REACTORS
330
1A
102
}
330
1A
100
AcDbXrecord
280
     1
102
MATERIAL
148
0.0
149
0.0
149
0.0
 93
        0
 94
      127
282
     0
 72
     0
 77
     0
171
     0
175
     0
179
     0
273
     0
  0
XRECORD
  5
1C
102
{ACAD_REACTORS
330
1A
102
}
330
1A
100
AcDbXrecord
280
     1
270
     1
271
     1
  0
XRECORD
  5
1B
102
{ACAD_REACTORS
330
1A
102
}
330
1A
100
AcDbXrecord
280
     1
270
     1
271
     1
  0
XRECORD
  5
1F
102
{ACAD_REACTORS
330
1A
102
}
330
1A
100
AcDbXrecord
280
     1
270
     1
271
     1
  0
XRECORD
  5
1E
102
{ACAD_REACTORS
330
1A
102
}
330
1A
100
AcDbXrecord
280
     1
270
     1
271
     1
  0
XRECORD
  5
20
102
{ACAD_REACTORS
330
1A
102
}
330
1A
100
AcDbXrecord
280
     1
270
     1
271
     1
  0
XRECORD
  5
1D
102
{ACAD_REACTORS
330
1A
102
}
330
1A
100
AcDbXrecord
280
     1
270
     1
271
     1
  0
XRECORD
  5
DB3
102
{ACAD_REACTORS
330
12
102
}
330
12
100
AcDbXrecord
280
     1
102
MATERIAL
148
0.0
149
0.0
149
0.0
 93
        0
 94
      127
282
     0
 72
     0
 77
     0
171
     0
175
     0
179
     0
273
     0
  0
XRECORD
  5
14
102
{ACAD_REACTORS
330
12
102
}
330
12
100
AcDbXrecord
280
     1
270
     1
271
     1
  0
XRECORD
  5
13
102
{ACAD_REACTORS
330
12
102
}
330
12
100
AcDbXrecord
280
     1
270
     1
271
     1
  0
XRECORD
  5
17
102
{ACAD_REACTORS
330
12
102
}
330
12
100
AcDbXrecord
280
     1
270
     1
271
     1
  0
XRECORD
  5
16
102
{ACAD_REACTORS
330
12
102
}
330
12
100
AcDbXrecord
280
     1
270
     1
271
     1
  0
XRECORD
  5
18
102
{ACAD_REACTORS
330
12
102
}
330
12
100
AcDbXrecord
280
     1
270
     1
271
     1
  0
XRECORD
  5
15
102
{ACAD_REACTORS
330
12
102
}
330
12
100
AcDbXrecord
280
     1
270
     1
271
     1
  0
XRECORD
  5
DB5
102
{ACAD_REACTORS
330
22
102
}
330
22
100
AcDbXrecord
280
     1
102
MATERIAL
148
0.0
149
0.0
149
0.0
 93
        0
 94
      127
282
     0
 72
     0
 77
     0
171
     0
175
     0
179
     0
273
     0
  0
XRECORD
  5
24
102
{ACAD_REACTORS
330
22
102
}
330
22
100
AcDbXrecord
280
     1
270
     1
271
     1
  0
XRECORD
  5
23
102
{ACAD_REACTORS
330
22
102
}
330
22
100
AcDbXrecord
280
     1
270
     1
271
     1
  0
XRECORD
  5
27
102
{ACAD_REACTORS
330
22
102
}
330
22
100
AcDbXrecord
280
     1
270
     1
271
     1
  0
XRECORD
  5
26
102
{ACAD_REACTORS
330
22
102
}
330
22
100
AcDbXrecord
280
     1
270
     1
271
     1
  0
XRECORD
  5
28
102
{ACAD_REACTORS
330
22
102
}
330
22
100
AcDbXrecord
280
     1
270
     1
271
     1
  0
XRECORD
  5
25
102
{ACAD_REACTORS
330
22
102
}
330
22
100
AcDbXrecord
280
     1
270
     1
271
     1
  0
CELLSTYLEMAP
  5
EF2
102
{ACAD_REACTORS
330
BB8
102
}
330
BB8
100
AcDbCellStyleMap
 90
        3
300
CELLSTYLE
  1
TABLEFORMAT_BEGIN
 90
        5
170
     1
 91
        0
 92
    32768
 62
   257
 93
        1
300
CONTENTFORMAT
  1
CONTENTFORMAT_BEGIN
 90
        0
 91
        0
 92
      512
 93
        0
300

 40
0.0
140
1.0
 94
        5
 62
     0
340
60
144
0.25
309
CONTENTFORMAT_END
171
     1
301
MARGIN
  1
CELLMARGIN_BEGIN
 40
0.06
 40
0.06
 40
0.06
 40
0.06
 40
0.18
 40
0.18
309
CELLMARGIN_END
 94
        6
 95
        1
302
GRIDFORMAT
  1
GRIDFORMAT_BEGIN
 90
        0
 91
        1
 62
     0
 92
       -2
340
0
 93
        0
 40
0.045
309
GRIDFORMAT_END
 95
        2
302
GRIDFORMAT
  1
GRIDFORMAT_BEGIN
 90
        0
 91
        1
 62
     0
 92
       -2
340
0
 93
        0
 40
0.045
309
GRIDFORMAT_END
 95
        4
302
GRIDFORMAT
  1
GRIDFORMAT_BEGIN
 90
        0
 91
        1
 62
     0
 92
       -2
340
0
 93
        0
 40
0.045
309
GRIDFORMAT_END
 95
        8
302
GRIDFORMAT
  1
GRIDFORMAT_BEGIN
 90
        0
 91
        1
 62
     0
 92
       -2
340
0
 93
        0
 40
0.045
309
GRIDFORMAT_END
 95
       16
302
GRIDFORMAT
  1
GRIDFORMAT_BEGIN
 90
        0
 91
        1
 62
     0
 92
       -2
340
0
 93
        0
 40
0.045
309
GRIDFORMAT_END
 95
       32
302
GRIDFORMAT
  1
GRIDFORMAT_BEGIN
 90
        0
 91
        1
 62
     0
 92
       -2
340
0
 93
        0
 40
0.045
309
GRIDFORMAT_END
309
TABLEFORMAT_END
  1
CELLSTYLE_BEGIN
 90
        1
 91
        1
300
_TITLE
309
CELLSTYLE_END
300
CELLSTYLE
  1
TABLEFORMAT_BEGIN
 90
        5
170
     1
 91
        0
 92
        0
 62
   257
 93
        1
300
CONTENTFORMAT
  1
CONTENTFORMAT_BEGIN
 90
        0
 91
        0
 92
      512
 93
        0
300

 40
0.0
140
1.0
 94
        5
 62
     0
340
60
144
0.18
309
CONTENTFORMAT_END
171
     1
301
MARGIN
  1
CELLMARGIN_BEGIN
 40
0.06
 40
0.06
 40
0.06
 40
0.06
 40
0.18
 40
0.18
309
CELLMARGIN_END
 94
        6
 95
        1
302
GRIDFORMAT
  1
GRIDFORMAT_BEGIN
 90
        0
 91
        1
 62
     0
 92
       -2
340
0
 93
        0
 40
0.045
309
GRIDFORMAT_END
 95
        2
302
GRIDFORMAT
  1
GRIDFORMAT_BEGIN
 90
        0
 91
        1
 62
     0
 92
       -2
340
0
 93
        0
 40
0.045
309
GRIDFORMAT_END
 95
        4
302
GRIDFORMAT
  1
GRIDFORMAT_BEGIN
 90
        0
 91
        1
 62
     0
 92
       -2
340
0
 93
        0
 40
0.045
309
GRIDFORMAT_END
 95
        8
302
GRIDFORMAT
  1
GRIDFORMAT_BEGIN
 90
        0
 91
        1
 62
     0
 92
       -2
340
0
 93
        0
 40
0.045
309
GRIDFORMAT_END
 95
       16
302
GRIDFORMAT
  1
GRIDFORMAT_BEGIN
 90
        0
 91
        1
 62
     0
 92
       -2
340
0
 93
        0
 40
0.045
309
GRIDFORMAT_END
 95
       32
302
GRIDFORMAT
  1
GRIDFORMAT_BEGIN
 90
        0
 91
        1
 62
     0
 92
       -2
340
0
 93
        0
 40
0.045
309
GRIDFORMAT_END
309
TABLEFORMAT_END
  1
CELLSTYLE_BEGIN
 90
        2
 91
        1
300
_HEADER
309
CELLSTYLE_END
300
CELLSTYLE
  1
TABLEFORMAT_BEGIN
 90
        5
170
     1
 91
        0
 92
        0
 62
   257
 93
        1
300
CONTENTFORMAT
  1
CONTENTFORMAT_BEGIN
 90
        0
 91
        0
 92
      512
 93
        0
300

 40
0.0
140
1.0
 94
        2
 62
     0
340
60
144
0.18
309
CONTENTFORMAT_END
171
     1
301
MARGIN
  1
CELLMARGIN_BEGIN
 40
0.06
 40
0.06
 40
0.06
 40
0.06
 40
0.18
 40
0.18
309
CELLMARGIN_END
 94
        6
 95
        1
302
GRIDFORMAT
  1
GRIDFORMAT_BEGIN
 90
        0
 91
        1
 62
     0
 92
       -2
340
0
 93
        0
 40
0.045
309
GRIDFORMAT_END
 95
        2
302
GRIDFORMAT
  1
GRIDFORMAT_BEGIN
 90
        0
 91
        1
 62
     0
 92
       -2
340
0
 93
        0
 40
0.045
309
GRIDFORMAT_END
 95
        4
302
GRIDFORMAT
  1
GRIDFORMAT_BEGIN
 90
        0
 91
        1
 62
     0
 92
       -2
340
0
 93
        0
 40
0.045
309
GRIDFORMAT_END
 95
        8
302
GRIDFORMAT
  1
GRIDFORMAT_BEGIN
 90
        0
 91
        1
 62
     0
 92
       -2
340
0
 93
        0
 40
0.045
309
GRIDFORMAT_END
 95
       16
302
GRIDFORMAT
  1
GRIDFORMAT_BEGIN
 90
        0
 91
        1
 62
     0
 92
       -2
340
0
 93
        0
 40
0.045
309
GRIDFORMAT_END
 95
       32
302
GRIDFORMAT
  1
GRIDFORMAT_BEGIN
 90
        0
 91
        1
 62
     0
 92
       -2
340
0
 93
        0
 40
0.045
309
GRIDFORMAT_END
309
TABLEFORMAT_END
  1
CELLSTYLE_BEGIN
 90
        3
 91
        2
300
_DATA
309
CELLSTYLE_END
  0
XRECORD
  5
F01
102
{ACAD_REACTORS
330
BB8
102
}
330
BB8
100
AcDbXrecord
280
     1
102
ACAD_ROUNDTRIP_PRE2007_TABLESTYLE
 90
      512
 91
        0
  1

 92
      512
 93
        0
  2

 94
      512
 95
        0
  3

  0
XRECORD
  5
BF6
102
{ACAD_REACTORS
330
BF5
102
}
330
BF5
100
AcDbXrecord
280
     1
102
RTVSPropertyOp0
 70
     1
102
RTVSPropertyOp1
 70
     1
102
RTVSPropertyOp2
 70
     1
102
RTVSPropertyOp3
 70
     1
102
RTVSPropertyOp4
 70
     1
102
RTVSPropertyOp5
 70
     1
102
RTVSPropertyOp6
 70
     1
102
RTVSPropertyOp7
 70
     1
102
RTVSPropertyOp8
 70
     1
102
RTVSPropertyOp9
 70
     1
102
RTVSPropertyOp10
 70
     1
102
RTVSPropertyOp11
 70
     1
102
RTVSPropertyOp12
 70
     1
102
RTVSPropertyOp13
 70
     1
102
RTVSPropertyOp14
 70
     1
102
RTVSPropertyOp15
 70
     1
102
RTVSPropertyOp16
 70
     1
102
RTVSPropertyOp17
 70
     1
102
RTVSPropertyOp18
 70
     1
102
RTVSPropertyOp19
 70
     1
102
RTVSPropertyOp20
 70
     1
102
RTVSPropertyOp21
 70
     1
102
RTVSPropertyOp22
 70
     1
102
RTVSPropertyOp23
 70
     1
102
RTVSPropertyOp24
 70
     1
102
RTVSPropertyOp25
 70
     1
102
RTVSPropertyOp26
 70
     1
102
RTVSPropertyOp27
 70
     1
  0
XRECORD
  5
BFA
102
{ACAD_REACTORS
330
BF9
102
}
330
BF9
100
AcDbXrecord
280
     1
102
RTVSPropertyOp0
 70
     1
102
RTVSPropertyOp1
 70
     1
102
RTVSPropertyOp2
 70
     1
102
RTVSPropertyOp3
 70
     1
102
RTVSPropertyOp4
 70
     1
102
RTVSPropertyOp5
 70
     1
102
RTVSPropertyOp6
 70
     1
102
RTVSPropertyOp7
 70
     1
102
RTVSPropertyOp8
 70
     1
102
RTVSPropertyOp9
 70
     1
102
RTVSPropertyOp10
 70
     1
102
RTVSPropertyOp11
 70
     1
102
RTVSPropertyOp12
 70
     1
102
RTVSPropertyOp13
 70
     1
102
RTVSPropertyOp14
 70
     1
102
RTVSPropertyOp15
 70
     1
102
RTVSPropertyOp16
 70
     1
102
RTVSPropertyOp17
 70
     1
102
RTVSPropertyOp18
 70
     1
102
RTVSPropertyOp19
 70
     1
102
RTVSPropertyOp20
 70
     1
102
RTVSPropertyOp21
 70
     1
102
RTVSPropertyOp22
 70
     1
102
RTVSPropertyOp23
 70
     1
102
RTVSPropertyOp24
 70
     1
102
RTVSPropertyOp25
 70
     1
102
RTVSPropertyOp26
 70
     1
102
RTVSPropertyOp27
 70
     1
  0
XRECORD
  5
BF8
102
{ACAD_REACTORS
330
BF7
102
}
330
BF7
100
AcDbXrecord
280
     1
102
RTVSPropertyOp0
 70
     1
102
RTVSPropertyOp1
 70
     1
102
RTVSPropertyOp2
 70
     1
102
RTVSPropertyOp3
 70
     1
102
RTVSPropertyOp4
 70
     1
102
RTVSPropertyOp5
 70
     1
102
RTVSPropertyOp6
 70
     1
102
RTVSPropertyOp7
 70
     1
102
RTVSPropertyOp8
 70
     1
102
RTVSPropertyOp9
 70
     1
102
RTVSPropertyOp10
 70
     1
102
RTVSPropertyOp11
 70
     1
102
RTVSPropertyOp12
 70
     1
102
RTVSPropertyOp13
 70
     1
102
RTVSPropertyOp14
 70
     1
102
RTVSPropertyOp15
 70
     1
102
RTVSPropertyOp16
 70
     1
102
RTVSPropertyOp17
 70
     1
102
RTVSPropertyOp18
 70
     1
102
RTVSPropertyOp19
 70
     1
102
RTVSPropertyOp20
 70
     1
102
RTVSPropertyOp21
 70
     1
102
RTVSPropertyOp22
 70
     1
102
RTVSPropertyOp23
 70
     1
102
RTVSPropertyOp24
 70
     1
102
RTVSPropertyOp25
 70
     1
102
RTVSPropertyOp26
 70
     1
102
RTVSPropertyOp27
 70
     1
  0
XRECORD
  5
BF4
102
{ACAD_REACTORS
330
BF3
102
}
330
BF3
100
AcDbXrecord
280
     1
102
RTVSPropertyOp0
 70
     1
102
RTVSPropertyOp1
 70
     1
102
RTVSPropertyOp2
 70
     1
102
RTVSPropertyOp3
 70
     1
102
RTVSPropertyOp4
 70
     1
102
RTVSPropertyOp5
 70
     1
102
RTVSPropertyOp6
 70
     1
102
RTVSPropertyOp7
 70
     1
102
RTVSPropertyOp8
 70
     1
102
RTVSPropertyOp9
 70
     1
102
RTVSPropertyOp10
 70
     1
102
RTVSPropertyOp11
 70
     1
102
RTVSPropertyOp12
 70
     1
102
RTVSPropertyOp13
 70
     1
102
RTVSPropertyOp14
 70
     1
102
RTVSPropertyOp15
 70
     1
102
RTVSPropertyOp16
 70
     1
102
RTVSPropertyOp17
 70
     1
102
RTVSPropertyOp18
 70
     1
102
RTVSPropertyOp19
 70
     1
102
RTVSPropertyOp20
 70
     1
102
RTVSPropertyOp21
 70
     1
102
RTVSPropertyOp22
 70
     1
102
RTVSPropertyOp23
 70
     1
102
RTVSPropertyOp24
 70
     1
102
RTVSPropertyOp25
 70
     1
102
RTVSPropertyOp26
 70
     1
102
RTVSPropertyOp27
 70
     1
  0
XRECORD
  5
C02
102
{ACAD_REACTORS
330
C01
102
}
330
C01
100
AcDbXrecord
280
     1
102
RTVSPropertyOp0
 70
     1
102
RTVSPropertyOp1
 70
     1
102
RTVSPropertyOp2
 70
     1
102
RTVSPropertyOp3
 70
     1
102
RTVSPropertyOp4
 70
     1
102
RTVSPropertyOp5
 70
     1
102
RTVSPropertyOp6
 70
     1
102
RTVSPropertyOp7
 70
     1
102
RTVSPropertyOp8
 70
     1
102
RTVSPropertyOp9
 70
     1
102
RTVSPropertyOp10
 70
     1
102
RTVSPropertyOp11
 70
     1
102
RTVSPropertyOp12
 70
     1
102
RTVSPropertyOp13
 70
     1
102
RTVSPropertyOp14
 70
     1
102
RTVSPropertyOp15
 70
     1
102
RTVSPropertyOp16
 70
     1
102
RTVSPropertyOp17
 70
     1
102
RTVSPropertyOp18
 70
     1
102
RTVSPropertyOp19
 70
     1
102
RTVSPropertyOp20
 70
     1
102
RTVSPropertyOp21
 70
     1
102
RTVSPropertyOp22
 70
     1
102
RTVSPropertyOp23
 70
     1
102
RTVSPropertyOp24
 70
     1
102
RTVSPropertyOp25
 70
     1
102
RTVSPropertyOp26
 70
     1
102
RTVSPropertyOp27
 70
     1
  0
XRECORD
  5
C0A
102
{ACAD_REACTORS
330
C09
102
}
330
C09
100
AcDbXrecord
280
     1
102
RTVSPropertyOp0
 70
     1
102
RTVSPropertyOp1
 70
     1
102
RTVSPropertyOp2
 70
     1
102
RTVSPropertyOp3
 70
     1
102
RTVSPropertyOp4
 70
     1
102
RTVSPropertyOp5
 70
     1
102
RTVSPropertyOp6
 70
     1
102
RTVSPropertyOp7
 70
     1
102
RTVSPropertyOp8
 70
     1
102
RTVSPropertyOp9
 70
     1
102
RTVSPropertyOp10
 70
     1
102
RTVSPropertyOp11
 70
     1
102
RTVSPropertyOp12
 70
     1
102
RTVSPropertyOp13
 70
     1
102
RTVSPropertyOp14
 70
     1
102
RTVSPropertyOp15
 70
     1
102
RTVSPropertyOp16
 70
     1
102
RTVSPropertyOp17
 70
     1
102
RTVSPropertyOp18
 70
     1
102
RTVSPropertyOp19
 70
     1
102
RTVSPropertyOp20
 70
     1
102
RTVSPropertyOp21
 70
     1
102
RTVSPropertyOp22
 70
     1
102
RTVSPropertyOp23
 70
     1
102
RTVSPropertyOp24
 70
     1
102
RTVSPropertyOp25
 70
     1
102
RTVSPropertyOp26
 70
     1
102
RTVSPropertyOp27
 70
     1
  0
XRECORD
  5
BFC
102
{ACAD_REACTORS
330
BFB
102
}
330
BFB
100
AcDbXrecord
280
     1
102
RTVSPropertyOp0
 70
     1
102
RTVSPropertyOp1
 70
     1
102
RTVSPropertyOp2
 70
     1
102
RTVSPropertyOp3
 70
     1
102
RTVSPropertyOp4
 70
     1
102
RTVSPropertyOp5
 70
     1
102
RTVSPropertyOp6
 70
     1
102
RTVSPropertyOp7
 70
     1
102
RTVSPropertyOp8
 70
     1
102
RTVSPropertyOp9
 70
     1
102
RTVSPropertyOp10
 70
     1
102
RTVSPropertyOp11
 70
     1
102
RTVSPropertyOp12
 70
     1
102
RTVSPropertyOp13
 70
     1
102
RTVSPropertyOp14
 70
     1
102
RTVSPropertyOp15
 70
     1
102
RTVSPropertyOp16
 70
     1
102
RTVSPropertyOp17
 70
     1
102
RTVSPropertyOp18
 70
     1
102
RTVSPropertyOp19
 70
     1
102
RTVSPropertyOp20
 70
     1
102
RTVSPropertyOp21
 70
     1
102
RTVSPropertyOp22
 70
     1
102
RTVSPropertyOp23
 70
     1
102
RTVSPropertyOp24
 70
     1
102
RTVSPropertyOp25
 70
     1
102
RTVSPropertyOp26
 70
     1
102
RTVSPropertyOp27
 70
     1
  0
XRECORD
  5
C00
102
{ACAD_REACTORS
330
BFF
102
}
330
BFF
100
AcDbXrecord
280
     1
102
RTVSPropertyOp0
 70
     1
102
RTVSPropertyOp1
 70
     1
102
RTVSPropertyOp2
 70
     1
102
RTVSPropertyOp3
 70
     1
102
RTVSPropertyOp4
 70
     1
102
RTVSPropertyOp5
 70
     1
102
RTVSPropertyOp6
 70
     1
102
RTVSPropertyOp7
 70
     1
102
RTVSPropertyOp8
 70
     1
102
RTVSPropertyOp9
 70
     1
102
RTVSPropertyOp10
 70
     1
102
RTVSPropertyOp11
 70
     1
102
RTVSPropertyOp12
 70
     1
102
RTVSPropertyOp13
 70
     1
102
RTVSPropertyOp14
 70
     1
102
RTVSPropertyOp15
 70
     1
102
RTVSPropertyOp16
 70
     1
102
RTVSPropertyOp17
 70
     1
102
RTVSPropertyOp18
 70
     1
102
RTVSPropertyOp19
 70
     1
102
RTVSPropertyOp20
 70
     1
102
RTVSPropertyOp21
 70
     1
102
RTVSPropertyOp22
 70
     1
102
RTVSPropertyOp23
 70
     1
102
RTVSPropertyOp24
 70
     1
102
RTVSPropertyOp25
 70
     1
102
RTVSPropertyOp26
 70
     1
102
RTVSPropertyOp27
 70
     1
  0
XRECORD
  5
C10
102
{ACAD_REACTORS
330
C0F
102
}
330
C0F
100
AcDbXrecord
280
     1
102
RTVSPropertyOp0
 70
     0
102
RTVSPropertyOp1
 70
     0
102
RTVSPropertyOp2
 70
     0
102
RTVSPropertyOp3
 70
     0
102
RTVSPropertyOp4
 70
     0
102
RTVSPropertyOp5
 70
     0
102
RTVSPropertyOp6
 70
     0
102
RTVSPropertyOp7
 70
     0
102
RTVSPropertyOp8
 70
     0
102
RTVSPropertyOp9
 70
     0
102
RTVSPropertyOp10
 70
     0
102
RTVSPropertyOp11
 70
     0
102
RTVSPropertyOp12
 70
     0
102
RTVSPropertyOp13
 70
     0
102
RTVSPropertyOp14
 70
     2
102
RTVSPropertyOp15
 70
     0
102
RTVSPropertyOp16
 70
     0
102
RTVSPropertyOp17
 70
     0
102
RTVSPropertyOp18
 70
     0
102
RTVSPropertyOp19
 70
     0
102
RTVSPropertyOp20
 70
     0
102
RTVSPropertyOp21
 70
     0
102
RTVSPropertyOp22
 70
     0
102
RTVSPropertyOp23
 70
     0
102
RTVSPropertyOp24
 70
     0
102
RTVSPropertyOp25
 70
     0
102
RTVSPropertyOp26
 70
     0
102
RTVSPropertyOp27
 70
     0
  0
XRECORD
  5
C08
102
{ACAD_REACTORS
330
C07
102
}
330
C07
100
AcDbXrecord
280
     1
102
RTVSPropertyOp0
 70
     1
102
RTVSPropertyOp1
 70
     1
102
RTVSPropertyOp2
 70
     1
102
RTVSPropertyOp3
 70
     1
102
RTVSPropertyOp4
 70
     1
102
RTVSPropertyOp5
 70
     1
102
RTVSPropertyOp6
 70
     1
102
RTVSPropertyOp7
 70
     1
102
RTVSPropertyOp8
 70
     1
102
RTVSPropertyOp9
 70
     1
102
RTVSPropertyOp10
 70
     1
102
RTVSPropertyOp11
 70
     1
102
RTVSPropertyOp12
 70
     1
102
RTVSPropertyOp13
 70
     1
102
RTVSPropertyOp14
 70
     1
102
RTVSPropertyOp15
 70
     1
102
RTVSPropertyOp16
 70
     1
102
RTVSPropertyOp17
 70
     1
102
RTVSPropertyOp18
 70
     1
102
RTVSPropertyOp19
 70
     1
102
RTVSPropertyOp20
 70
     1
102
RTVSPropertyOp21
 70
     1
102
RTVSPropertyOp22
 70
     1
102
RTVSPropertyOp23
 70
     1
102
RTVSPropertyOp24
 70
     1
102
RTVSPropertyOp25
 70
     1
102
RTVSPropertyOp26
 70
     1
102
RTVSPropertyOp27
 70
     1
  0
XRECORD
  5
BEC
102
{ACAD_REACTORS
330
BEB
102
}
330
BEB
100
AcDbXrecord
280
     1
102
RTVSPropertyOp0
 70
     1
102
RTVSPropertyOp1
 70
     1
102
RTVSPropertyOp2
 70
     1
102
RTVSPropertyOp3
 70
     1
102
RTVSPropertyOp4
 70
     1
102
RTVSPropertyOp5
 70
     1
102
RTVSPropertyOp6
 70
     1
102
RTVSPropertyOp7
 70
     1
102
RTVSPropertyOp8
 70
     1
102
RTVSPropertyOp9
 70
     1
102
RTVSPropertyOp10
 70
     1
102
RTVSPropertyOp11
 70
     1
102
RTVSPropertyOp12
 70
     1
102
RTVSPropertyOp13
 70
     1
102
RTVSPropertyOp14
 70
     1
102
RTVSPropertyOp15
 70
     1
102
RTVSPropertyOp16
 70
     1
102
RTVSPropertyOp17
 70
     1
102
RTVSPropertyOp18
 70
     1
102
RTVSPropertyOp19
 70
     1
102
RTVSPropertyOp20
 70
     1
102
RTVSPropertyOp21
 70
     1
102
RTVSPropertyOp22
 70
     1
102
RTVSPropertyOp23
 70
     1
102
RTVSPropertyOp24
 70
     1
102
RTVSPropertyOp25
 70
     1
102
RTVSPropertyOp26
 70
     1
102
RTVSPropertyOp27
 70
     1
  0
XRECORD
  5
BEE
102
{ACAD_REACTORS
330
BED
102
}
330
BED
100
AcDbXrecord
280
     1
102
RTVSPropertyOp0
 70
     1
102
RTVSPropertyOp1
 70
     1
102
RTVSPropertyOp2
 70
     1
102
RTVSPropertyOp3
 70
     1
102
RTVSPropertyOp4
 70
     1
102
RTVSPropertyOp5
 70
     1
102
RTVSPropertyOp6
 70
     1
102
RTVSPropertyOp7
 70
     1
102
RTVSPropertyOp8
 70
     1
102
RTVSPropertyOp9
 70
     1
102
RTVSPropertyOp10
 70
     1
102
RTVSPropertyOp11
 70
     1
102
RTVSPropertyOp12
 70
     1
102
RTVSPropertyOp13
 70
     1
102
RTVSPropertyOp14
 70
     1
102
RTVSPropertyOp15
 70
     1
102
RTVSPropertyOp16
 70
     1
102
RTVSPropertyOp17
 70
     1
102
RTVSPropertyOp18
 70
     1
102
RTVSPropertyOp19
 70
     1
102
RTVSPropertyOp20
 70
     1
102
RTVSPropertyOp21
 70
     1
102
RTVSPropertyOp22
 70
     1
102
RTVSPropertyOp23
 70
     1
102
RTVSPropertyOp24
 70
     1
102
RTVSPropertyOp25
 70
     1
102
RTVSPropertyOp26
 70
     1
102
RTVSPropertyOp27
 70
     1
  0
XRECORD
  5
BF0
102
{ACAD_REACTORS
330
BEF
102
}
330
BEF
100
AcDbXrecord
280
     1
102
RTVSPropertyOp0
 70
     1
102
RTVSPropertyOp1
 70
     1
102
RTVSPropertyOp2
 70
     1
102
RTVSPropertyOp3
 70
     1
102
RTVSPropertyOp4
 70
     1
102
RTVSPropertyOp5
 70
     1
102
RTVSPropertyOp6
 70
     1
102
RTVSPropertyOp7
 70
     1
102
RTVSPropertyOp8
 70
     1
102
RTVSPropertyOp9
 70
     1
102
RTVSPropertyOp10
 70
     1
102
RTVSPropertyOp11
 70
     1
102
RTVSPropertyOp12
 70
     1
102
RTVSPropertyOp13
 70
     1
102
RTVSPropertyOp14
 70
     1
102
RTVSPropertyOp15
 70
     1
102
RTVSPropertyOp16
 70
     1
102
RTVSPropertyOp17
 70
     1
102
RTVSPropertyOp18
 70
     1
102
RTVSPropertyOp19
 70
     1
102
RTVSPropertyOp20
 70
     1
102
RTVSPropertyOp21
 70
     1
102
RTVSPropertyOp22
 70
     1
102
RTVSPropertyOp23
 70
     1
102
RTVSPropertyOp24
 70
     1
102
RTVSPropertyOp25
 70
     1
102
RTVSPropertyOp26
 70
     1
102
RTVSPropertyOp27
 70
     1
  0
XRECORD
  5
BF2
102
{ACAD_REACTORS
330
BF1
102
}
330
BF1
100
AcDbXrecord
280
     1
102
RTVSPropertyOp0
 70
     1
102
RTVSPropertyOp1
 70
     1
102
RTVSPropertyOp2
 70
     1
102
RTVSPropertyOp3
 70
     1
102
RTVSPropertyOp4
 70
     1
102
RTVSPropertyOp5
 70
     1
102
RTVSPropertyOp6
 70
     1
102
RTVSPropertyOp7
 70
     1
102
RTVSPropertyOp8
 70
     1
102
RTVSPropertyOp9
 70
     1
102
RTVSPropertyOp10
 70
     1
102
RTVSPropertyOp11
 70
     1
102
RTVSPropertyOp12
 70
     1
102
RTVSPropertyOp13
 70
     1
102
RTVSPropertyOp14
 70
     1
102
RTVSPropertyOp15
 70
     1
102
RTVSPropertyOp16
 70
     1
102
RTVSPropertyOp17
 70
     1
102
RTVSPropertyOp18
 70
     1
102
RTVSPropertyOp19
 70
     1
102
RTVSPropertyOp20
 70
     1
102
RTVSPropertyOp21
 70
     1
102
RTVSPropertyOp22
 70
     1
102
RTVSPropertyOp23
 70
     1
102
RTVSPropertyOp24
 70
     1
102
RTVSPropertyOp25
 70
     1
102
RTVSPropertyOp26
 70
     1
102
RTVSPropertyOp27
 70
     1
  0
XRECORD
  5
C0C
102
{ACAD_REACTORS
330
C0B
102
}
330
C0B
100
AcDbXrecord
280
     1
102
RTVSPropertyOp0
 70
     0
102
RTVSPropertyOp1
 70
     0
102
RTVSPropertyOp2
 70
     0
102
RTVSPropertyOp3
 70
     0
102
RTVSPropertyOp4
 70
     0
102
RTVSPropertyOp5
 70
     0
102
RTVSPropertyOp6
 70
     0
102
RTVSPropertyOp7
 70
     0
102
RTVSPropertyOp8
 70
     0
102
RTVSPropertyOp9
 70
     0
102
RTVSPropertyOp10
 70
     0
102
RTVSPropertyOp11
 70
     0
102
RTVSPropertyOp12
 70
     0
102
RTVSPropertyOp13
 70
     0
102
RTVSPropertyOp14
 70
     2
102
RTVSPropertyOp15
 70
     0
102
RTVSPropertyOp16
 70
     0
102
RTVSPropertyOp17
 70
     0
102
RTVSPropertyOp18
 70
     0
102
RTVSPropertyOp19
 70
     0
102
RTVSPropertyOp20
 70
     0
102
RTVSPropertyOp21
 70
     0
102
RTVSPropertyOp22
 70
     0
102
RTVSPropertyOp23
 70
     0
102
RTVSPropertyOp24
 70
     0
102
RTVSPropertyOp25
 70
     0
102
RTVSPropertyOp26
 70
     0
102
RTVSPropertyOp27
 70
     0
  0
XRECORD
  5
C06
102
{ACAD_REACTORS
330
C05
102
}
330
C05
100
AcDbXrecord
280
     1
102
RTVSPropertyOp0
 70
     1
102
RTVSPropertyOp1
 70
     1
102
RTVSPropertyOp2
 70
     1
102
RTVSPropertyOp3
 70
     1
102
RTVSPropertyOp4
 70
     1
102
RTVSPropertyOp5
 70
     1
102
RTVSPropertyOp6
 70
     1
102
RTVSPropertyOp7
 70
     1
102
RTVSPropertyOp8
 70
     1
102
RTVSPropertyOp9
 70
     1
102
RTVSPropertyOp10
 70
     1
102
RTVSPropertyOp11
 70
     1
102
RTVSPropertyOp12
 70
     1
102
RTVSPropertyOp13
 70
     1
102
RTVSPropertyOp14
 70
     1
102
RTVSPropertyOp15
 70
     1
102
RTVSPropertyOp16
 70
     1
102
RTVSPropertyOp17
 70
     1
102
RTVSPropertyOp18
 70
     1
102
RTVSPropertyOp19
 70
     1
102
RTVSPropertyOp20
 70
     1
102
RTVSPropertyOp21
 70
     1
102
RTVSPropertyOp22
 70
     1
102
RTVSPropertyOp23
 70
     1
102
RTVSPropertyOp24
 70
     1
102
RTVSPropertyOp25
 70
     1
102
RTVSPropertyOp26
 70
     1
102
RTVSPropertyOp27
 70
     1
  0
XRECORD
  5
C0E
102
{ACAD_REACTORS
330
C0D
102
}
330
C0D
100
AcDbXrecord
280
     1
102
RTVSPropertyOp0
 70
     0
102
RTVSPropertyOp1
 70
     0
102
RTVSPropertyOp2
 70
     0
102
RTVSPropertyOp3
 70
     0
102
RTVSPropertyOp4
 70
     0
102
RTVSPropertyOp5
 70
     0
102
RTVSPropertyOp6
 70
     0
102
RTVSPropertyOp7
 70
     0
102
RTVSPropertyOp8
 70
     0
102
RTVSPropertyOp9
 70
     0
102
RTVSPropertyOp10
 70
     0
102
RTVSPropertyOp11
 70
     0
102
RTVSPropertyOp12
 70
     0
102
RTVSPropertyOp13
 70
     0
102
RTVSPropertyOp14
 70
     2
102
RTVSPropertyOp15
 70
     0
102
RTVSPropertyOp16
 70
     0
102
RTVSPropertyOp17
 70
     0
102
RTVSPropertyOp18
 70
     0
102
RTVSPropertyOp19
 70
     0
102
RTVSPropertyOp20
 70
     0
102
RTVSPropertyOp21
 70
     0
102
RTVSPropertyOp22
 70
     0
102
RTVSPropertyOp23
 70
     0
102
RTVSPropertyOp24
 70
     0
102
RTVSPropertyOp25
 70
     0
102
RTVSPropertyOp26
 70
     0
102
RTVSPropertyOp27
 70
     0
  0
XRECORD
  5
BFE
102
{ACAD_REACTORS
330
BFD
102
}
330
BFD
100
AcDbXrecord
280
     1
102
RTVSPropertyOp0
 70
     1
102
RTVSPropertyOp1
 70
     1
102
RTVSPropertyOp2
 70
     1
102
RTVSPropertyOp3
 70
     1
102
RTVSPropertyOp4
 70
     1
102
RTVSPropertyOp5
 70
     1
102
RTVSPropertyOp6
 70
     1
102
RTVSPropertyOp7
 70
     1
102
RTVSPropertyOp8
 70
     1
102
RTVSPropertyOp9
 70
     1
102
RTVSPropertyOp10
 70
     1
102
RTVSPropertyOp11
 70
     1
102
RTVSPropertyOp12
 70
     1
102
RTVSPropertyOp13
 70
     1
102
RTVSPropertyOp14
 70
     1
102
RTVSPropertyOp15
 70
     1
102
RTVSPropertyOp16
 70
     1
102
RTVSPropertyOp17
 70
     1
102
RTVSPropertyOp18
 70
     1
102
RTVSPropertyOp19
 70
     1
102
RTVSPropertyOp20
 70
     1
102
RTVSPropertyOp21
 70
     1
102
RTVSPropertyOp22
 70
     1
102
RTVSPropertyOp23
 70
     1
102
RTVSPropertyOp24
 70
     1
102
RTVSPropertyOp25
 70
     1
102
RTVSPropertyOp26
 70
     1
102
RTVSPropertyOp27
 70
     1
  0
XRECORD
  5
C04
102
{ACAD_REACTORS
330
C03
102
}
330
C03
100
AcDbXrecord
280
     1
102
RTVSPropertyOp0
 70
     1
102
RTVSPropertyOp1
 70
     1
102
RTVSPropertyOp2
 70
     1
102
RTVSPropertyOp3
 70
     1
102
RTVSPropertyOp4
 70
     1
102
RTVSPropertyOp5
 70
     1
102
RTVSPropertyOp6
 70
     1
102
RTVSPropertyOp7
 70
     1
102
RTVSPropertyOp8
 70
     1
102
RTVSPropertyOp9
 70
     1
102
RTVSPropertyOp10
 70
     1
102
RTVSPropertyOp11
 70
     1
102
RTVSPropertyOp12
 70
     1
102
RTVSPropertyOp13
 70
     1
102
RTVSPropertyOp14
 70
     1
102
RTVSPropertyOp15
 70
     1
102
RTVSPropertyOp16
 70
     1
102
RTVSPropertyOp17
 70
     1
102
RTVSPropertyOp18
 70
     1
102
RTVSPropertyOp19
 70
     1
102
RTVSPropertyOp20
 70
     1
102
RTVSPropertyOp21
 70
     1
102
RTVSPropertyOp22
 70
     1
102
RTVSPropertyOp23
 70
     1
102
RTVSPropertyOp24
 70
     1
102
RTVSPropertyOp25
 70
     1
102
RTVSPropertyOp26
 70
     1
102
RTVSPropertyOp27
 70
     1
  0
ENDSEC
  0
EOF
