  0
SECTION
  2
HEADER
  9
$ACADVER
  1
AC1018
  9
$ACADMAINTVER
 70
   104
  9
$DWGCODEPAGE
  3
ANSI_1250
  9
$AUTHOR
  1
tmrtka
  9
$LASTSAVEDBY
  1
onovak
  9
$REVISIONNUMBER
  1
000
  9
$CUSTOMPROPERTYTAG
  1
Vedoucí
  9
$CUSTOMPROPERTY
  1

  9
$CUSTOMPROPERTYTAG
  1
Společnost
  9
$CUSTOMPROPERTY
  1

  9
$CUSTOMPROPERTYTAG
  1
Kategorie
  9
$CUSTOMPROPERTY
  1

  9
$CUSTOMPROPERTYTAG
  1
Číslo součásti
  9
$CUSTOMPROPERTY
  1
408078
  9
$CUSTOMPROPERTYTAG
  1
Popis
  9
$CUSTOMPROPERTY
  1

  9
$CUSTOMPROPERTYTAG
  1
Projekt
  9
$CUSTOMPROPERTY
  1

  9
$CUSTOMPROPERTYTAG
  1
Kreslil
  9
$CUSTOMPROPERTY
  1
tmrtka
  9
$CUSTOMPROPERTYTAG
  1
Schválil
  9
$CUSTOMPROPERTY
  1

  9
$CUSTOMPROPERTYTAG
  1
Zodpovídá
  9
$CUSTOMPROPERTY
  1

  9
$CUSTOMPROPERTYTAG
  1
Nákladové středisko
  9
$CUSTOMPROPERTY
  1

  9
$CUSTOMPROPERTYTAG
  1
Dodavatel
  9
$CUSTOMPROPERTY
  1

  9
$CUSTOMPROPERTYTAG
  1
Uživatelský stav
  9
$CUSTOMPROPERTY
  1

  9
$CUSTOMPROPERTYTAG
  1
Stav návrhu
  9
$CUSTOMPROPERTY
  1
Rozpracováno
  9
$CUSTOMPROPERTYTAG
  1
Zkontroloval
  9
$CUSTOMPROPERTY
  1

  9
$CUSTOMPROPERTYTAG
  1
Techn. kontr. schválil
  9
$CUSTOMPROPERTY
  1

  9
$CUSTOMPROPERTYTAG
  1
Výrobu schválil
  9
$CUSTOMPROPERTY
  1

  9
$CUSTOMPROPERTYTAG
  1
VS_First
  9
$CUSTOMPROPERTY
  1

  9
$CUSTOMPROPERTYTAG
  1
VS_All
  9
$CUSTOMPROPERTY
  1
1:1,
  9
$CUSTOMPROPERTYTAG
  1
Model_Mass_Value
  9
$CUSTOMPROPERTY
  1
,0
  9
$CUSTOMPROPERTYTAG
  1
Model_Mass_Units
  9
$CUSTOMPROPERTY
  1
kg
  9
$CUSTOMPROPERTYTAG
  1
Model_Area_Value
  9
$CUSTOMPROPERTY
  1
2694,0
  9
$CUSTOMPROPERTYTAG
  1
Model_Area_Units
  9
$CUSTOMPROPERTY
  1
mm˛
  9
$CUSTOMPROPERTYTAG
  1
Model_Volume_Value
  9
$CUSTOMPROPERTY
  1
5471,0
  9
$CUSTOMPROPERTYTAG
  1
Model_Volume_Units
  9
$CUSTOMPROPERTY
  1
mmł
  9
$CUSTOMPROPERTYTAG
  1
Model_CogX_Value
  9
$CUSTOMPROPERTY
  1
,0
  9
$CUSTOMPROPERTYTAG
  1
Model_CogY_Value
  9
$CUSTOMPROPERTY
  1
,0
  9
$CUSTOMPROPERTYTAG
  1
Model_CogZ_Value
  9
$CUSTOMPROPERTY
  1
,0
  9
$CUSTOMPROPERTYTAG
  1
Model_Cog_Units
  9
$CUSTOMPROPERTY
  1
mm
  9
$CUSTOMPROPERTYTAG
  1
Model_Ixx_Value
  9
$CUSTOMPROPERTY
  1
,0
  9
$CUSTOMPROPERTYTAG
  1
Model_Iyy_Value
  9
$CUSTOMPROPERTY
  1
,0
  9
$CUSTOMPROPERTYTAG
  1
Model_Izz_Value
  9
$CUSTOMPROPERTY
  1
,0
  9
$CUSTOMPROPERTYTAG
  1
Model_Ixy_Value
  9
$CUSTOMPROPERTY
  1
,0
  9
$CUSTOMPROPERTYTAG
  1
Model_Iyz_Value
  9
$CUSTOMPROPERTY
  1
,0
  9
$CUSTOMPROPERTYTAG
  1
Model_Ixz_Value
  9
$CUSTOMPROPERTY
  1
,0
  9
$CUSTOMPROPERTYTAG
  1
Model_MassMom_Units
  9
$CUSTOMPROPERTY
  1
kg mm˛
  9
$CUSTOMPROPERTYTAG
  1
FirstViewScale
  9
$CUSTOMPROPERTY
  1

  9
$CUSTOMPROPERTYTAG
  1
AllViewScales
  9
$CUSTOMPROPERTY
  1

  9
$CUSTOMPROPERTYTAG
  1
SaveDate
  9
$CUSTOMPROPERTY
  1
09/12/2007
  9
$CUSTOMPROPERTYTAG
  1
SaveTime
  9
$CUSTOMPROPERTY
  1
10:32
  9
$CUSTOMPROPERTYTAG
  1
PaperSize
  9
$CUSTOMPROPERTY
  1
A3
  9
$CUSTOMPROPERTYTAG
  1
DateSaved
  9
$CUSTOMPROPERTY
  1
12.09.2007
  9
$CUSTOMPROPERTYTAG
  1
TimeSaved
  9
$CUSTOMPROPERTY
  1
10:32 dop.
  9
$INSBASE
 10
0.0
 20
0.0
 30
0.0
  9
$EXTMIN
 10
66.11531282043483
 20
98.41827550718813
 30
-0.0000000000112498
  9
$EXTMAX
 10
431.2246414318501
 20
569.5532240527136
 30
0.0000000000002956
  9
$LIMMIN
 10
0.0
 20
0.0
  9
$LIMMAX
 10
891.0
 20
630.0
  9
$ORTHOMODE
 70
     1
  9
$REGENMODE
 70
     1
  9
$FILLMODE
 70
     1
  9
$QTEXTMODE
 70
     0
  9
$MIRRTEXT
 70
     0
  9
$LTSCALE
 40
1.5
  9
$ATTMODE
 70
     1
  9
$TEXTSIZE
 40
0.2
  9
$TRACEWID
 40
0.05
  9
$TEXTSTYLE
  7
Standard
  9
$CLAYER
  8
0
  9
$CELTYPE
  6
ByLayer
  9
$CECOLOR
 62
   256
  9
$CELTSCALE
 40
1.0
  9
$DISPSILH
 70
     0
  9
$DIMSCALE
 40
1.0
  9
$DIMASZ
 40
1.799999999999999
  9
$DIMEXO
 40
0.0625
  9
$DIMDLI
 40
0.38
  9
$DIMRND
 40
0.0
  9
$DIMDLE
 40
0.0
  9
$DIMEXE
 40
0.18
  9
$DIMTP
 40
0.0
  9
$DIMTM
 40
0.0
  9
$DIMTXT
 40
0.3499999940395355
  9
$DIMCEN
 40
0.09
  9
$DIMTSZ
 40
0.0
  9
$DIMTOL
 70
     0
  9
$DIMLIM
 70
     0
  9
$DIMTIH
 70
     1
  9
$DIMTOH
 70
     1
  9
$DIMSE1
 70
     0
  9
$DIMSE2
 70
     0
  9
$DIMTAD
 70
     0
  9
$DIMZIN
 70
     0
  9
$DIMBLK
  1

  9
$DIMASO
 70
     1
  9
$DIMSHO
 70
     1
  9
$DIMPOST
  1

  9
$DIMAPOST
  1

  9
$DIMALT
 70
     0
  9
$DIMALTD
 70
     2
  9
$DIMALTF
 40
25.4
  9
$DIMLFAC
 40
1.0
  9
$DIMTOFL
 70
     0
  9
$DIMTVP
 40
0.0
  9
$DIMTIX
 70
     0
  9
$DIMSOXD
 70
     0
  9
$DIMSAH
 70
     0
  9
$DIMBLK1
  1

  9
$DIMBLK2
  1

  9
$DIMSTYLE
  2
Standard
  9
$DIMCLRD
 70
     0
  9
$DIMCLRE
 70
     0
  9
$DIMCLRT
 70
     0
  9
$DIMTFAC
 40
1.0
  9
$DIMGAP
 40
0.09
  9
$DIMJUST
 70
     0
  9
$DIMSD1
 70
     0
  9
$DIMSD2
 70
     0
  9
$DIMTOLJ
 70
     1
  9
$DIMTZIN
 70
     0
  9
$DIMALTZ
 70
     0
  9
$DIMALTTZ
 70
     0
  9
$DIMUPT
 70
     0
  9
$DIMDEC
 70
     4
  9
$DIMTDEC
 70
     4
  9
$DIMALTU
 70
     2
  9
$DIMALTTD
 70
     2
  9
$DIMTXSTY
  7
Standard
  9
$DIMAUNIT
 70
     0
  9
$DIMADEC
 70
     0
  9
$DIMALTRND
 40
0.0
  9
$DIMAZIN
 70
     0
  9
$DIMDSEP
 70
    46
  9
$DIMATFIT
 70
     3
  9
$DIMFRAC
 70
     0
  9
$DIMLDRBLK
  1

  9
$DIMLUNIT
 70
     2
  9
$DIMLWD
 70
    -2
  9
$DIMLWE
 70
    -2
  9
$DIMTMOVE
 70
     0
  9
$LUNITS
 70
     2
  9
$LUPREC
 70
     2
  9
$SKETCHINC
 40
0.1
  9
$FILLETRAD
 40
0.0
  9
$AUNITS
 70
     0
  9
$AUPREC
 70
     0
  9
$MENU
  1
.
  9
$ELEVATION
 40
0.0
  9
$PELEVATION
 40
0.0
  9
$THICKNESS
 40
0.0
  9
$LIMCHECK
 70
     0
  9
$CHAMFERA
 40
0.0
  9
$CHAMFERB
 40
0.0
  9
$CHAMFERC
 40
0.0
  9
$CHAMFERD
 40
0.0
  9
$SKPOLY
 70
     0
  9
$TDCREATE
 40
2456105.552306725
  9
$TDUCREATE
 40
2456105.468973391
  9
$TDUPDATE
 40
2456113.361863900
  9
$TDUUPDATE
 40
2456113.278530567
  9
$TDINDWG
 40
0.0289786806
  9
$TDUSRTIMER
 40
0.0289786806
  9
$USRTIMER
 70
     1
  9
$ANGBASE
 50
0.0
  9
$ANGDIR
 70
     0
  9
$PDMODE
 70
     0
  9
$PDSIZE
 40
0.0
  9
$PLINEWID
 40
0.0
  9
$SPLFRAME
 70
     0
  9
$SPLINETYPE
 70
     6
  9
$SPLINESEGS
 70
     8
  9
$HANDSEED
  5
3AD7
  9
$SURFTAB1
 70
     6
  9
$SURFTAB2
 70
     6
  9
$SURFTYPE
 70
     6
  9
$SURFU
 70
     6
  9
$SURFV
 70
     6
  9
$UCSBASE
  2

  9
$UCSNAME
  2

  9
$UCSORG
 10
0.0
 20
0.0
 30
0.0
  9
$UCSXDIR
 10
1.0
 20
0.0
 30
0.0
  9
$UCSYDIR
 10
0.0
 20
1.0
 30
0.0
  9
$UCSORTHOREF
  2

  9
$UCSORTHOVIEW
 70
     0
  9
$UCSORGTOP
 10
0.0
 20
0.0
 30
0.0
  9
$UCSORGBOTTOM
 10
0.0
 20
0.0
 30
0.0
  9
$UCSORGLEFT
 10
0.0
 20
0.0
 30
0.0
  9
$UCSORGRIGHT
 10
0.0
 20
0.0
 30
0.0
  9
$UCSORGFRONT
 10
0.0
 20
0.0
 30
0.0
  9
$UCSORGBACK
 10
0.0
 20
0.0
 30
0.0
  9
$PUCSBASE
  2

  9
$PUCSNAME
  2

  9
$PUCSORG
 10
0.0
 20
0.0
 30
0.0
  9
$PUCSXDIR
 10
1.0
 20
0.0
 30
0.0
  9
$PUCSYDIR
 10
0.0
 20
1.0
 30
0.0
  9
$PUCSORTHOREF
  2

  9
$PUCSORTHOVIEW
 70
     0
  9
$PUCSORGTOP
 10
0.0
 20
0.0
 30
0.0
  9
$PUCSORGBOTTOM
 10
0.0
 20
0.0
 30
0.0
  9
$PUCSORGLEFT
 10
0.0
 20
0.0
 30
0.0
  9
$PUCSORGRIGHT
 10
0.0
 20
0.0
 30
0.0
  9
$PUCSORGFRONT
 10
0.0
 20
0.0
 30
0.0
  9
$PUCSORGBACK
 10
0.0
 20
0.0
 30
0.0
  9
$USERI1
 70
     0
  9
$USERI2
 70
     0
  9
$USERI3
 70
     0
  9
$USERI4
 70
     0
  9
$USERI5
 70
     0
  9
$USERR1
 40
0.0
  9
$USERR2
 40
0.0
  9
$USERR3
 40
0.0
  9
$USERR4
 40
0.0
  9
$USERR5
 40
0.0
  9
$WORLDVIEW
 70
     1
  9
$SHADEDGE
 70
     3
  9
$SHADEDIF
 70
    70
  9
$TILEMODE
 70
     1
  9
$MAXACTVP
 70
    64
  9
$PINSBASE
 10
0.0
 20
0.0
 30
0.0
  9
$PLIMCHECK
 70
     0
  9
$PEXTMIN
 10
0.0
 20
0.0
 30
0.0
  9
$PEXTMAX
 10
891.0
 20
630.0
 30
0.0
  9
$PLIMMIN
 10
0.0
 20
0.0
  9
$PLIMMAX
 10
891.0
 20
630.0
  9
$UNITMODE
 70
     0
  9
$VISRETAIN
 70
     1
  9
$PLINEGEN
 70
     0
  9
$PSLTSCALE
 70
     1
  9
$TREEDEPTH
 70
  3020
  9
$CMLSTYLE
  2
Standard
  9
$CMLJUST
 70
     0
  9
$CMLSCALE
 40
1.0
  9
$PROXYGRAPHICS
 70
     1
  9
$MEASUREMENT
 70
     1
  9
$CELWEIGHT
370
    -1
  9
$ENDCAPS
280
     0
  9
$JOINSTYLE
280
     0
  9
$LWDISPLAY
290
     0
  9
$INSUNITS
 70
     4
  9
$HYPERLINKBASE
  1

  9
$STYLESHEET
  1

  9
$XEDIT
290
     1
  9
$CEPSNTYPE
380
     0
  9
$PSTYLEMODE
290
     1
  9
$FINGERPRINTGUID
  2
{0CC55FCA-82D4-4A92-87F1-FB5967F5F7A0}
  9
$VERSIONGUID
  2
{5294B1A5-84AC-4E82-9B2F-0AB9D8454353}
  9
$EXTNAMES
290
     1
  9
$PSVPSCALE
 40
0.0
  9
$OLESTARTUP
290
     0
  9
$SORTENTS
280
   127
  9
$INDEXCTL
280
     0
  9
$HIDETEXT
280
     1
  9
$XCLIPFRAME
290
     0
  9
$HALOGAP
280
     0
  9
$OBSCOLOR
 70
   257
  9
$OBSLTYPE
280
     0
  9
$INTERSECTIONDISPLAY
280
     0
  9
$INTERSECTIONCOLOR
 70
   257
  9
$DIMASSOC
280
     1
  9
$PROJECTNAME
  1

  0
ENDSEC
  0
SECTION
  2
CLASSES
  0
CLASS
  1
ACDBDICTIONARYWDFLT
  2
AcDbDictionaryWithDefault
  3
ObjectDBX Classes
 90
        0
 91
        1
280
     0
281
     0
  0
CLASS
  1
MATERIAL
  2
AcDbMaterial
  3
ObjectDBX Classes
 90
     1153
 91
        3
280
     0
281
     0
  0
CLASS
  1
VISUALSTYLE
  2
AcDbVisualStyle
  3
ObjectDBX Classes
 90
     4095
 91
       26
280
     0
281
     0
  0
CLASS
  1
SCALE
  2
AcDbScale
  3
ObjectDBX Classes
 90
     1153
 91
       17
280
     0
281
     0
  0
CLASS
  1
TABLESTYLE
  2
AcDbTableStyle
  3
ObjectDBX Classes
 90
     4095
 91
        1
280
     0
281
     0
  0
CLASS
  1
MLEADERSTYLE
  2
AcDbMLeaderStyle
  3
ACDB_MLEADERSTYLE_CLASS
 90
     4095
 91
        1
280
     0
281
     0
  0
CLASS
  1
DICTIONARYVAR
  2
AcDbDictionaryVar
  3
ObjectDBX Classes
 90
        0
 91
       12
280
     0
281
     0
  0
CLASS
  1
ACME_DOCUMENT
  2
AcMeDbDoc
  3
AcMeServices
 90
     1024
 91
        1
280
     0
281
     0
  0
CLASS
  1
AMGSETTINGSOBJ
  2
AmgSettingsObj
  3
"AcadM|Product Description: AutoCAD Mechanical|Company: Autodesk, Inc."
 90
     1024
 91
        2
280
     0
281
     0
  0
CLASS
  1
ACMESCOPE
  2
AcMeScope
  3
AcMeServices
 90
     1024
 91
        1
280
     0
281
     0
  0
CLASS
  1
ACMECOMMANDHISTORY
  2
AcMeCommandHistory
  3
AcMeServices
 90
     1024
 91
        1
280
     0
281
     0
  0
CLASS
  1
ACIMSYSVARMAN
  2
AcImSysVarManager
  3
AcMeServices
 90
     1024
 91
        5
280
     0
281
     0
  0
CLASS
  1
ACIMINTSYSVAR
  2
AcImIntSysVar
  3
AcMeServices
 90
     1024
 91
       27
280
     0
281
     0
  0
CLASS
  1
ACMEDRAWINGMAN
  2
AcMeDrawingMan
  3
AcMeServices
 90
     1024
 91
        1
280
     0
281
     0
  0
CLASS
  1
ACMEVIEW
  2
AcMeView
  3
AcMeServices
 90
     1024
 91
        1
280
     0
281
     0
  0
CLASS
  1
ACDBENTITYCACHE
  2
AcMeEntityCache
  3
AcMeServices
 90
     1024
 91
        1
280
     0
281
     0
  0
CLASS
  1
ACMESTATEMGR
  2
AcMeStateMgr
  3
AcMeServices
 90
     1024
 91
        1
280
     0
281
     0
  0
CLASS
  1
ACGREFMASTER
  2
AcGrefMaster
  3
AcAttribServices
 90
     1024
 91
        1
280
     0
281
     0
  0
CLASS
  1
AM_DRAWING_MGR
  2
AcDmDwgMgr
  3
AcMechDwgViewMgmt
 90
     1024
 91
        1
280
     0
281
     0
  0
CLASS
  1
AM_DWG_DOCUMENT
  2
AcDmDwgDocument
  3
AcMechDwgViewMgmt
 90
     1024
 91
        1
280
     0
281
     0
  0
CLASS
  1
AM_DWG_SHEET
  2
AcDmSheet
  3
AcMechDwgViewMgmt
 90
     1024
 91
        2
280
     0
281
     0
  0
CLASS
  1
AM_VIEWDIMPARMAP
  2
AcDmViewDimParMap
  3
AcMechDwgViewMgmt
 90
     1024
 91
        2
280
     0
281
     0
  0
CLASS
  1
AMDTINTERNALREACTOR
  2
AmdtInternalReactor
  3
AcMeServices
 90
     1024
 91
        1
280
     0
281
     0
  0
CLASS
  1
ACIMREALSYSVAR
  2
AcImRealSysVar
  3
AcMeServices
 90
     1024
 91
        1
280
     0
281
     0
  0
CLASS
  1
AM_DWGMGR_NAME
  2
AcDmDwgMgrName
  3
AcMechDwgViewMgmt
 90
     1024
 91
        1
280
     0
281
     0
  0
CLASS
  1
ACME_DATABASE
  2
AcMeDbDatabase
  3
AcMeServices
 90
     1024
 91
        1
280
     0
281
     0
  0
CLASS
  1
ACRFINSADJUSTERMGR
  2
AcRfInsAdjusterMgr
  3
AcMeServices
 90
     1024
 91
        1
280
     0
281
     0
  0
CLASS
  1
ACGREFACADMASTER
  2
AcGrefacadMaster
  3
AcGrefServices
 90
     1024
 91
        1
280
     0
281
     0
  0
CLASS
  1
AMDTMENUSTATEMGR
  2
AmdtMenuStateMgr
  3
McadcomServices
 90
     1024
 91
        1
280
     0
281
     0
  0
CLASS
  1
AMDTMCOMMENUSTATE
  2
AmdtMcomMenuState
  3
McadcomServices
 90
     1024
 91
        1
280
     0
281
     0
  0
CLASS
  1
AMIMASTER
  2
AmiMaster
  3
AmiServices
 90
     1024
 91
        1
280
     0
281
     0
  0
CLASS
  1
MAPIAMMOUDLE
  2
MApiAmModule
  3
MApiAmServices
 90
     1024
 91
        1
280
     0
281
     0
  0
CLASS
  1
ACIMSTRSYSVAR
  2
AcImStrSysVar
  3
AcMeServices
 90
     1024
 91
        5
280
     0
281
     0
  0
CLASS
  1
AMDTADMENUSTATE
  2
AmdtAdMenuState
  3
DesignerServices
 90
     1024
 91
        1
280
     0
281
     0
  0
CLASS
  1
ADAPPL
  2
AcAdAppl
  3
DesignerServices
 90
     1024
 91
        1
280
     0
281
     0
  0
CLASS
  1
DEPMGR
  2
AcAdDepMgr
  3
DesignerServices
 90
     1024
 91
        1
280
     0
281
     0
  0
CLASS
  1
PARAMMGR
  2
AcAdParamMgr
  3
DesignerServices
 90
     1024
 91
        1
280
     0
281
     0
  0
CLASS
  1
PARAMSCOPE
  2
AcAdParamScope
  3
DesignerServices
 90
     1024
 91
        1
280
     0
281
     0
  0
CLASS
  1
NAMEDAPPL
  2
AcAdNamedAppl
  3
DesignerServices
 90
     1024
 91
        1
280
     0
281
     0
  0
CLASS
  1
AMDTDMMENUSTATE
  2
AmdtDmMenuState
  3
AcMechDwgViewMgmt
 90
     1024
 91
        1
280
     0
281
     0
  0
CLASS
  1
AMDTAMMENUSTATE
  2
AmdtAmMenuState
  3
DesignerAssemblies
 90
     1024
 91
        1
280
     0
281
     0
  0
CLASS
  1
ACAMPROJECT
  2
AcAmProject
  3
DesignerAssemblies
 90
     1024
 91
        1
280
     0
281
     0
  0
CLASS
  1
ACAMGRCOMPDEF
  2
AcAmGrCompDef
  3
DesignerAssemblies
 90
     1024
 91
        1
280
     0
281
     0
  0
CLASS
  1
ACAMCOMPDEF
  2
AcAmCompDef
  3
DesignerAssemblies
 90
     1024
 91
        1
280
     0
281
     0
  0
CLASS
  1
ACAMCOMPDEFMGR
  2
AcAmCompDefMgr
  3
DesignerAssemblies
 90
     1024
 91
        1
280
     0
281
     0
  0
CLASS
  1
AMCONTEXTMGR
  2
AcAmContextMgr
  3
DesignerAssemblies
 90
     1024
 91
        1
280
     0
281
     0
  0
CLASS
  1
ACAMCONTEXTMODELER
  2
AcAmContextModeler
  3
DesignerAssemblies
 90
     1024
 91
        1
280
     0
281
     0
  0
CLASS
  1
ACMDATADICTIONARY
  2
AcmDataDictionary
  3
"AcmSymBB|Product Description: AutoCAD Mechanical|Company: Autodesk, Inc."
 90
     1024
 91
        1
280
     0
281
     0
  0
CLASS
  1
CATALOGSTATE
  2
AcAmCatalogState
  3
DesignerAssemblies
 90
     1024
 91
        1
280
     0
281
     0
  0
CLASS
  1
ACAMGRCOMPDEFSET
  2
AcAmGrCompDefSet
  3
DesignerAssemblies
 90
     1024
 91
        1
280
     0
281
     0
  0
CLASS
  1
AMDTBROWSERDBTAB
  2
AmdtBrowserDbTab
  3
McadcomServices
 90
     1024
 91
        1
280
     0
281
     0
  0
CLASS
  1
CBROWSERAPPOBJECT
  2
CBrowserAppObject
  3
McadcomServices
 90
     1024
 91
        2
280
     0
281
     0
  0
CLASS
  1
DM_PLACEHOLDER
  2
AcDmSelsetPlaceholder
  3
AcMechDwgViewMgmt
 90
     1024
 91
        1
280
     0
281
     0
  0
CLASS
  1
ACMSTANDARDISO
  2
AcmStandardISO
  3
"Amdt_StdImp|Product Description: AutoCAD Mechanical|Company: Autodesk, Inc."
 90
     1024
 91
        1
280
     0
281
     0
  0
CLASS
  1
AMDTEDGESTANDARDISO13715
  2
AmdtEdgeStdISO13715
  3
"Amdt_StdImp|Product Description: AutoCAD Mechanical|Company: Autodesk, Inc."
 90
     1024
 91
        1
280
     0
281
     0
  0
CLASS
  1
ACMSURFSTANDARDISO2002
  2
AcmSurfTextStdISO2002
  3
"Amdt_StdImp|Product Description: AutoCAD Mechanical|Company: Autodesk, Inc."
 90
     1024
 91
        1
280
     0
281
     0
  0
CLASS
  1
ACMFCFSTANDARDISO
  2
AcmFCFStdISO
  3
"Amdt_StdImp|Product Description: AutoCAD Mechanical|Company: Autodesk, Inc."
 90
     1024
 91
        1
280
     0
281
     0
  0
CLASS
  1
ACMWELDSTANDARDISO
  2
AcmWeldingStdISO
  3
"Amdt_StdImp|Product Description: AutoCAD Mechanical|Company: Autodesk, Inc."
 90
     1024
 91
        1
280
     0
281
     0
  0
CLASS
  1
ACMIDSTANDARDISO
  2
AcmIdStdISO
  3
"Amdt_StdImp|Product Description: AutoCAD Mechanical|Company: Autodesk, Inc."
 90
     1024
 91
        1
280
     0
281
     0
  0
CLASS
  1
ACMDATUMSTANDARDISO
  2
AcmDatumStdISO
  3
"Amdt_StdImp|Product Description: AutoCAD Mechanical|Company: Autodesk, Inc."
 90
     1024
 91
        1
280
     0
281
     0
  0
CLASS
  1
ACMBOMSTANDARDISO
  2
AcmBOMStdISO
  3
"Amdt_StdImp|Product Description: AutoCAD Mechanical|Company: Autodesk, Inc."
 90
     1024
 91
        1
280
     0
281
     0
  0
CLASS
  1
ACMDETAILSTANDARDISO
  2
AmdtDetailSymStdISO
  3
"Amdt_StdImp|Product Description: AutoCAD Mechanical|Company: Autodesk, Inc."
 90
     1024
 91
        1
280
     0
281
     0
  0
CLASS
  1
ACMSECTIONSTANDARDISO2001
  2
AmdtSectionSymStdISO2001
  3
"Amdt_StdImp|Product Description: AutoCAD Mechanical|Company: Autodesk, Inc."
 90
     1024
 91
        1
280
     0
281
     0
  0
CLASS
  1
ACMCENTERLINESTANDARDISO
  2
AmdtCenterLineStdISO
  3
"Amdt_StdImp|Product Description: AutoCAD Mechanical|Company: Autodesk, Inc."
 90
     1024
 91
        1
280
     0
281
     0
  0
CLASS
  1
ACMTHREADLINESTANDARDISO
  2
AmdtThreadLineStdISO
  3
"Amdt_StdImp|Product Description: AutoCAD Mechanical|Company: Autodesk, Inc."
 90
     1024
 91
        1
280
     0
281
     0
  0
CLASS
  1
ACMNOTESTANDARDISO
  2
AmdtNoteStdISO
  3
"Amdt_StdImp|Product Description: AutoCAD Mechanical|Company: Autodesk, Inc."
 90
     1024
 91
        1
280
     0
281
     0
  0
CLASS
  1
ACMTAPERSTANDARDISO
  2
AcmTaperStdISO
  3
"Amdt_StdImp|Product Description: AutoCAD Mechanical|Company: Autodesk, Inc."
 90
     1024
 91
        1
280
     0
281
     0
  0
CLASS
  1
ACMANOOTATIONVIEWSTANDARDISO
  2
AmdtAnViewStdISO
  3
"Amdt_StdImp|Product Description: AutoCAD Mechanical|Company: Autodesk, Inc."
 90
     1024
 91
        1
280
     0
281
     0
  0
CLASS
  1
ACAMGLAYSTD
  2
AcAmgLayStd
  3
"AmgLay|Product Description: AutoCAD Mechanical|Company: Autodesk, Inc."
 90
     1024
 91
        1
280
     0
281
     0
  0
CLASS
  1
ACAMGDIMSTD
  2
AcAmgDimStd
  3
"AmgDim|Product Description: AutoCAD Mechanical|Company: Autodesk, Inc."
 90
     1024
 91
        1
280
     0
281
     0
  0
CLASS
  1
AMGOBJPROPCFG
  2
AmgObjPropCfg
  3
"AmgLay|Product Description: AutoCAD Mechanical|Company: Autodesk, Inc."
 90
     1025
 91
        1
280
     0
281
     0
  0
CLASS
  1
ACAMGHOLECHARTSTDISO
  2
AcAmgHoleChartStdISO
  3
AmgDim|Product Description: AutoCAD Mechanical|Company: Autodesk, Inc.
 90
     1024
 91
        1
280
     0
281
     0
  0
CLASS
  1
ACAMGTITLESTD
  2
AcAmgTitleStd
  3
"AmgTitle|Product Description: AutoCAD Mechanical|Company: Autodesk, Inc."
 90
     4095
 91
        1
280
     0
281
     0
  0
CLASS
  1
AMDTNOTETEMPLATEDB
  2
AmdtNoteTemplateDB
  3
AcmSymBB|Product Description: AutoCAD Mechanical|Company: Autodesk, Inc.
 90
     1024
 91
        6
280
     0
281
     0
  0
CLASS
  1
ACAMGFILTERDAT
  2
AcAmgFilterDat
  3
"AcadM|Product Description: AutoCAD Mechanical|Company: Autodesk, Inc."
 90
     1024
 91
        0
280
     0
281
     0
  0
CLASS
  1
AEC_REFEDIT_STATUS_TRACKER
  2
AecDbRefEditStatusTracker
  3
AecArchBase60|Product Desc: Autodesk Architectural Desktop 2007 |Company: Autodesk,Inc. |WEB Address: www.autodesk.com
 90
      129
 91
        0
280
     0
281
     0
  0
CLASS
  1
NPOCOLLECTION
  2
AcDbImpNonPersistentObjectsCollection
  3
ObjectDBX Classes
 90
     1153
 91
        0
280
     0
281
     0
  0
CLASS
  1
CAMSSTRUCTBTNSTATE
  2
StructBtnState
  3
DesignerAssemblies
 90
     1024
 91
        0
280
     0
281
     0
  0
CLASS
  1
CELLSTYLEMAP
  2
AcDbCellStyleMap
  3
ObjectDBX Classes
 90
     1152
 91
        4
280
     0
281
     0
  0
ENDSEC
  0
SECTION
  2
TABLES
  0
TABLE
  2
VPORT
  5
8
330
0
100
AcDbSymbolTable
 70
     1
  0
VPORT
  5
57
330
8
100
AcDbSymbolTableRecord
100
AcDbViewportTableRecord
  2
*Active
 70
     0
 10
0.0
 20
0.0
 11
1.0
 21
1.0
 12
248.6699771261425
 22
333.9857497799509
 13
0.0
 23
0.0
 14
1.0
 24
1.0
 15
0.0
 25
0.0
 16
0.0
 26
0.0
 36
1.0
 17
0.0
 27
0.0
 37
0.0
 40
474.1582744185448
 41
1.576017130620984
 42
50.0
 43
0.0
 44
0.0
 50
0.0
 51
0.0
 71
     0
 72
   100
 73
     1
 74
     1
 75
     0
 76
     0
 77
     0
 78
     0
281
     0
 65
     0
110
0.0
120
0.0
130
0.0
111
1.0
121
0.0
131
0.0
112
0.0
122
1.0
132
0.0
 79
     0
146
0.0
  0
ENDTAB
  0
TABLE
  2
LTYPE
  5
5
330
0
100
AcDbSymbolTable
 70
    16
  0
LTYPE
  5
5B
330
5
100
AcDbSymbolTableRecord
100
AcDbLinetypeTableRecord
  2
ByBlock
 70
     0
  3

 72
    65
 73
     0
 40
0.0
  0
LTYPE
  5
5C
330
5
100
AcDbSymbolTableRecord
100
AcDbLinetypeTableRecord
  2
ByLayer
 70
     0
  3

 72
    65
 73
     0
 40
0.0
  0
LTYPE
  5
5D
330
5
100
AcDbSymbolTableRecord
100
AcDbLinetypeTableRecord
  2
Continuous
 70
     0
  3
Solid line
 72
    65
 73
     0
 40
0.0
  0
LTYPE
  5
2E74
330
5
100
AcDbSymbolTableRecord
100
AcDbLinetypeTableRecord
  2
HIDDEN
 70
     0
  3
Skrytá __ __ __ __ __ __ __ __ __ __ __ __ __ __
 72
    65
 73
     2
 40
9.525
 49
6.349999999999997
 74
     0
 49
-3.174999999999998
 74
     0
  0
LTYPE
  5
2E75
330
5
100
AcDbSymbolTableRecord
100
AcDbLinetypeTableRecord
  2
PHANTOM2
 70
     0
  3
Sdružená (.5x) ___ _ _ ___ _ _ ___ _ _ ___ _ _
 72
    65
 73
     6
 40
31.75
 49
15.875
 74
     0
 49
-3.174999999999998
 74
     0
 49
3.174999999999998
 74
     0
 49
-3.174999999999998
 74
     0
 49
3.174999999999998
 74
     0
 49
-3.174999999999998
 74
     0
  0
LTYPE
  5
2E76
330
5
100
AcDbSymbolTableRecord
100
AcDbLinetypeTableRecord
  2
CENTER
 70
     0
  3
Středová ____ _ ____ _ ____ _ ____ _ ____ _ ____
 72
    65
 73
     4
 40
50.8
 49
31.75
 74
     0
 49
-6.349999999999997
 74
     0
 49
6.349999999999997
 74
     0
 49
-6.349999999999997
 74
     0
  0
LTYPE
  5
2EBC
330
5
100
AcDbSymbolTableRecord
100
AcDbLinetypeTableRecord
  2
AM_ISO02W050
 70
     0
  3
__ __ __ __ __ __ __ __ __ __ __ __ __ __ __
 72
    65
 73
     2
 40
7.5
 49
6.0
 74
     0
 49
-1.5
 74
     0
  0
LTYPE
  5
2EBD
330
5
100
AcDbSymbolTableRecord
100
AcDbLinetypeTableRecord
  2
AM_ISO08W050
 70
     0
  3
____ . ____ . ____ . ____ . ____ . ____ . ____
 72
    65
 73
     4
 40
18.0
 49
12.0
 74
     0
 49
-1.5
 74
     0
 49
3.0
 74
     0
 49
-1.5
 74
     0
  0
LTYPE
  5
2EBE
330
5
100
AcDbSymbolTableRecord
100
AcDbLinetypeTableRecord
  2
AM_ISO09W050
 70
     0
  3
_____ . . _____ . . _____ . . ____ .. ____
 72
    65
 73
     6
 40
22.5
 49
12.0
 74
     0
 49
-1.5
 74
     0
 49
3.0
 74
     0
 49
-1.5
 74
     0
 49
3.0
 74
     0
 49
-1.5
 74
     0
  0
LTYPE
  5
2EBF
330
5
100
AcDbSymbolTableRecord
100
AcDbLinetypeTableRecord
  2
Amconstr
 70
     0
  3
_______________________
 72
    65
 73
     2
 40
9999.0
 49
9999.0
 74
     0
 49
0.0
 74
     0
  0
LTYPE
  5
2EC0
330
5
100
AcDbSymbolTableRecord
100
AcDbLinetypeTableRecord
  2
AM_ISO08W050x2
 70
     0
  3
__ . __ . __ . __ . __ . __
 72
    65
 73
     4
 40
9.0
 49
6.0
 74
     0
 49
-0.75
 74
     0
 49
1.5
 74
     0
 49
-0.75
 74
     0
  0
LTYPE
  5
2EC1
330
5
100
AcDbSymbolTableRecord
100
AcDbLinetypeTableRecord
  2
AM_ISO02W050x2
 70
     0
  3
 _ _ _ _ _ _ _ _ _ _ _ _
 72
    65
 73
     2
 40
3.75
 49
3.0
 74
     0
 49
-0.75
 74
     0
  0
LTYPE
  5
2EC4
330
5
100
AcDbSymbolTableRecord
100
AcDbLinetypeTableRecord
  2
Amzigzag
 70
     0
  3
/\/-/\/-/\/-/\/-/\/-/\/
 72
    65
 73
     2
 40
11.0001
 49
0.0001
 74
     4
 75
   136
340
2EC3
 46
0.04
 50
0.0
 44
0.0
 45
0.0
 49
-11.0
 74
     0
  0
LTYPE
  5
2ED3
330
5
100
AcDbSymbolTableRecord
100
AcDbLinetypeTableRecord
  2
ACISOWELD
 70
     0
  3
_ _ _ _ _
 72
    65
 73
     2
 40
2.0
 49
2.0
 74
     0
 49
-1.0
 74
     0
  0
LTYPE
  5
2ED4
330
5
100
AcDbSymbolTableRecord
100
AcDbLinetypeTableRecord
  2
ACISOTGB
 70
     0
  3
__ . . __ . .
 72
    65
 73
     6
 40
9.0
 49
4.0
 74
     0
 49
-1.0
 74
     0
 49
1.0
 74
     0
 49
-1.0
 74
     0
 49
1.0
 74
     0
 49
-1.0
 74
     0
  0
LTYPE
  5
2ED5
330
5
100
AcDbSymbolTableRecord
100
AcDbLinetypeTableRecord
  2
ACISOTGL
 70
     0
  3
_ _ _ _ _
 72
    65
 73
     2
 40
3.0
 49
2.0
 74
     0
 49
-1.0
 74
     0
  0
LTYPE
  5
2F2C
330
5
100
AcDbSymbolTableRecord
100
AcDbLinetypeTableRecord
  2
GEN7
 70
     0
  3
____ . ____ . ____ . ____ . ____ . ____ . ____
 72
    65
 73
     4
 40
13.75
 49
10.0
 74
     0
 49
-1.25
 74
     0
 49
1.25
 74
     0
 49
-1.25
 74
     0
  0
ENDTAB
  0
TABLE
  2
LAYER
  5
2
102
{ACAD_XDICTIONARY
360
2F34
102
}
330
0
100
AcDbSymbolTable
 70
    19
  0
LAYER
  5
54
330
2
100
AcDbSymbolTableRecord
100
AcDbLayerTableRecord
  2
0
 70
     0
 62
     7
  6
Continuous
370
    -3
390
F
  0
LAYER
  5
78
330
2
100
AcDbSymbolTableRecord
100
AcDbLayerTableRecord
  2
Geometrie náčrtu (ISO)
 70
     0
 62
     7
  6
Continuous
370
     9
390
F
  0
LAYER
  5
79
330
2
100
AcDbSymbolTableRecord
100
AcDbLayerTableRecord
  2
KOPF
 70
     0
 62
     8
420
  8421504
  6
Continuous
370
     9
390
F
  0
LAYER
  5
7A
330
2
100
AcDbSymbolTableRecord
100
AcDbLayerTableRecord
  2
Kóta (ISO)
 70
     0
 62
     5
420
      255
  6
Continuous
370
     9
390
F
  0
LAYER
  5
7B
330
2
100
AcDbSymbolTableRecord
100
AcDbLayerTableRecord
  2
Nadpis (ISO)
 70
     0
 62
     7
  6
Continuous
370
    18
390
F
  0
LAYER
  5
7C
330
2
100
AcDbSymbolTableRecord
100
AcDbLayerTableRecord
  2
Neviditelná tenká (ISO)
 70
     0
 62
   142
420
    32960
  6
Continuous
370
     9
390
F
  0
LAYER
  5
7D
330
2
100
AcDbSymbolTableRecord
100
AcDbLayerTableRecord
  2
Osa (ISO)
 70
     0
 62
     1
420
 16711680
  6
Continuous
370
     9
390
F
  0
LAYER
  5
85
330
2
100
AcDbSymbolTableRecord
100
AcDbLayerTableRecord
  2
Rámeček (ISO)
 70
     0
 62
     7
  6
Continuous
370
    35
390
F
  0
LAYER
  5
88
330
2
100
AcDbSymbolTableRecord
100
AcDbLayerTableRecord
  2
Skrytá (ISO)
 70
     0
 62
   142
420
    32960
  6
Continuous
370
     9
390
F
  0
LAYER
  5
89
330
2
100
AcDbSymbolTableRecord
100
AcDbLayerTableRecord
  2
Středová značka (ISO)
 70
     0
 62
     1
420
 16711680
  6
Continuous
370
     9
390
F
  0
LAYER
  5
8B
330
2
100
AcDbSymbolTableRecord
100
AcDbLayerTableRecord
  2
TEXT35
 70
     0
 62
    12
420
 13369344
  6
Continuous
370
    20
390
F
  0
LAYER
  5
8C
330
2
100
AcDbSymbolTableRecord
100
AcDbLayerTableRecord
  2
TEXT50
 70
     0
 62
     7
  6
Continuous
370
    20
390
F
  0
LAYER
  5
8D
330
2
100
AcDbSymbolTableRecord
100
AcDbLayerTableRecord
  2
Viditelná (ISO)
 70
     0
 62
     7
  6
Continuous
370
    35
390
F
  0
LAYER
  5
8E
330
2
100
AcDbSymbolTableRecord
100
AcDbLayerTableRecord
  2
Viditelná tenká (ISO)
 70
     0
 62
     7
  6
Continuous
370
     9
390
F
  0
LAYER
  5
8F
330
2
100
AcDbSymbolTableRecord
100
AcDbLayerTableRecord
  2
Značka (ISO)
 70
     0
 62
     5
420
      255
  6
Continuous
370
     9
390
F
  0
LAYER
  5
2873
330
2
100
AcDbSymbolTableRecord
100
AcDbLayerTableRecord
  2
Defpoints
 70
     0
 62
     7
  6
Continuous
290
     0
370
    -3
390
F
  0
LAYER
  5
2F2D
102
{ACAD_XDICTIONARY
360
2F2E
102
}
330
2
100
AcDbSymbolTableRecord
100
AcDbLayerTableRecord
  2
7
 70
     0
 62
     4
  6
GEN7
370
    -3
390
F
  0
LAYER
  5
2F2F
102
{ACAD_XDICTIONARY
360
2F30
102
}
330
2
100
AcDbSymbolTableRecord
100
AcDbLayerTableRecord
  2
5
 70
     0
 62
     3
  6
Continuous
370
    -3
390
F
  0
LAYER
  5
3532
330
2
100
AcDbSymbolTableRecord
100
AcDbLayerTableRecord
  2
AM_5
 70
     0
 62
    92
  6
Continuous
370
    25
390
F
1001
AcAecLayerStandard
1000

1000

  0
ENDTAB
  0
TABLE
  2
STYLE
  5
3
330
0
100
AcDbSymbolTable
 70
    21
  0
STYLE
  5
55
330
3
100
AcDbSymbolTableRecord
100
AcDbTextStyleTableRecord
  2
Standard
 70
     0
 40
0.0
 41
1.0
 50
0.0
 71
     0
 42
0.2
  3
TAHOMA.TTF
  4

1001
ACAD
1000
Tahoma
1071
      256
  0
STYLE
  5
5A
330
3
100
AcDbSymbolTableRecord
100
AcDbTextStyleTableRecord
  2
Annotative
 70
     0
 40
0.0
 41
1.0
 50
0.0
 71
     0
 42
0.2
  3
txt
  4

1001
AcadAnnotative
1000
AnnotativeData
1002
{
1070
     1
1070
     1
1002
}
  0
STYLE
  5
90
330
3
100
AcDbSymbolTableRecord
100
AcDbTextStyleTableRecord
  2
ITALICC8_57
 70
     0
 40
0.0
 41
1.0
 50
0.0
 71
     0
 42
0.2
  3
TAHOMA.TTF
  4

1001
ACAD
1000
Tahoma
1071
      256
  0
STYLE
  5
91
330
3
100
AcDbSymbolTableRecord
100
AcDbTextStyleTableRecord
  2
kusovnik
 70
     0
 40
0.0
 41
1.0
 50
0.0
 71
     0
 42
0.2
  3
ARIAL.TTF
  4

1001
ACAD
1000
Arial
1071
      256
  0
STYLE
  5
92
330
3
100
AcDbSymbolTableRecord
100
AcDbTextStyleTableRecord
  2
ROMANS8_69
 70
     0
 40
0.0
 41
1.0
 50
0.0
 71
     0
 42
0.2
  3
TAHOMA.TTF
  4

1001
ACAD
1000
Tahoma
1071
      256
  0
STYLE
  5
93
330
3
100
AcDbSymbolTableRecord
100
AcDbTextStyleTableRecord
  2
Text popisu (ISO)
 70
     0
 40
0.0
 41
1.0
 50
0.0
 71
     0
 42
0.2
  3
TAHOMA.TTF
  4

1001
ACAD
1000
Tahoma
1071
      256
  0
STYLE
  5
94
330
3
100
AcDbSymbolTableRecord
100
AcDbTextStyleTableRecord
  2
Text poznámky (DIN)
 70
     0
 40
0.0
 41
1.0
 50
0.0
 71
     0
 42
0.2
  3
isocpeur.ttf
  4

1001
ACAD
1000
ISOCPEUR
1071
      256
  0
STYLE
  5
95
330
3
100
AcDbSymbolTableRecord
100
AcDbTextStyleTableRecord
  2
Text poznámky (ISO)
 70
     0
 40
0.0
 41
1.0
 50
0.0
 71
     0
 42
0.2
  3
TAHOMA.TTF
  4

1001
ACAD
1000
Tahoma
1071
      256
  0
STYLE
  5
96
330
3
100
AcDbSymbolTableRecord
100
AcDbTextStyleTableRecord
  2
TEXT20_41
 70
     0
 40
0.0
 41
1.0
 50
0.0
 71
     0
 42
0.2
  3
TAHOMA.TTF
  4

1001
ACAD
1000
Tahoma
1071
      256
  0
STYLE
  5
97
330
3
100
AcDbSymbolTableRecord
100
AcDbTextStyleTableRecord
  2
TEXT20_59
 70
     0
 40
0.0
 41
1.0
 50
0.0
 71
     0
 42
0.2
  3
TAHOMA.TTF
  4

1001
ACAD
1000
Tahoma
1071
      256
  0
STYLE
  5
1C2
330
3
100
AcDbSymbolTableRecord
100
AcDbTextStyleTableRecord
  2
Styl textu62
 70
     0
 40
0.0
 41
0.8000000119209289
 50
0.0
 71
     0
 42
0.2
  3
TAHOMA.TTF
  4

1001
ACAD
1000
Tahoma
1071
      256
  0
STYLE
  5
1C9
330
3
100
AcDbSymbolTableRecord
100
AcDbTextStyleTableRecord
  2
Styl textu58
 70
     0
 40
0.0
 41
0.8000000119209289
 50
0.0
 71
     0
 42
0.2
  3
TAHOMA.TTF
  4

1001
ACAD
1000
Tahoma
1071
      256
  0
STYLE
  5
1CB
330
3
100
AcDbSymbolTableRecord
100
AcDbTextStyleTableRecord
  2
Styl textu63
 70
     0
 40
0.0
 41
0.75
 50
0.0
 71
     0
 42
0.2
  3
TAHOMA.TTF
  4

1001
ACAD
1000
Tahoma
1071
      256
  0
STYLE
  5
1CE
330
3
100
AcDbSymbolTableRecord
100
AcDbTextStyleTableRecord
  2
Styl textu72
 70
     0
 40
0.0
 41
0.6999999880790711
 50
0.0
 71
     0
 42
0.2
  3
TAHOMA.TTF
  4

1001
ACAD
1000
Tahoma
1071
      256
  0
STYLE
  5
1D1
330
3
100
AcDbSymbolTableRecord
100
AcDbTextStyleTableRecord
  2
Styl textu75
 70
     0
 40
0.0
 41
0.8000000119209289
 50
0.0
 71
     0
 42
0.2
  3
TAHOMA.TTF
  4

1001
ACAD
1000
Tahoma
1071
      256
  0
STYLE
  5
1E8
330
3
100
AcDbSymbolTableRecord
100
AcDbTextStyleTableRecord
  2
Styl textu9
 70
     0
 40
0.0
 41
1.0
 50
0.0
 71
     0
 42
0.2
  3
ARIAL.TTF
  4

1001
ACAD
1000
Arial
1071
      256
  0
STYLE
  5
1EC
330
3
100
AcDbSymbolTableRecord
100
AcDbTextStyleTableRecord
  2
Styl textu40
 70
     0
 40
0.0
 41
1.0
 50
0.0
 71
     0
 42
0.2
  3
ARIAL.TTF
  4

1001
ACAD
1000
Arial
1071
      256
  0
STYLE
  5
1F1
330
3
100
AcDbSymbolTableRecord
100
AcDbTextStyleTableRecord
  2
Styl textu94
 70
     0
 40
0.0
 41
1.0
 50
0.0
 71
     0
 42
0.2
  3
TAHOMA.TTF
  4

1001
ACAD
1000
Tahoma
1071
      256
  0
STYLE
  5
2EC3
330
3
100
AcDbSymbolTableRecord
100
AcDbTextStyleTableRecord
  2

 70
     1
 40
0.0
 41
1.0
 50
0.0
 71
     0
 42
0.2
  3
genltshp.shx
  4

  0
STYLE
  5
2ED1
330
3
100
AcDbSymbolTableRecord
100
AcDbTextStyleTableRecord
  2
ACISOTS
 70
     0
 40
1.0
 41
1.0
 50
0.0
 71
     0
 42
0.2
  3
isocp.shx
  4

  0
STYLE
  5
2ED2
330
3
100
AcDbSymbolTableRecord
100
AcDbTextStyleTableRecord
  2
ACISOGDT
 70
     0
 40
0.0
 41
1.0
 50
0.0
 71
     0
 42
0.2
  3
amgdt.shx
  4

  0
ENDTAB
  0
TABLE
  2
VIEW
  5
6
330
0
100
AcDbSymbolTable
 70
     0
  0
ENDTAB
  0
TABLE
  2
UCS
  5
7
330
0
100
AcDbSymbolTable
 70
     0
  0
ENDTAB
  0
TABLE
  2
APPID
  5
9
330
0
100
AcDbSymbolTable
 70
    21
  0
APPID
  5
56
330
9
100
AcDbSymbolTableRecord
100
AcDbRegAppTableRecord
  2
ACAD
 70
     0
  0
APPID
  5
5E
330
9
100
AcDbSymbolTableRecord
100
AcDbRegAppTableRecord
  2
AcadAnnotative
 70
     0
  0
APPID
  5
1EB
330
9
100
AcDbSymbolTableRecord
100
AcDbRegAppTableRecord
  2
AcadAnnoPO
 70
     0
  0
APPID
  5
2E47
330
9
100
AcDbSymbolTableRecord
100
AcDbRegAppTableRecord
  2
MCAD_NO_VIS
 70
     0
  0
APPID
  5
2E48
330
9
100
AcDbSymbolTableRecord
100
AcDbRegAppTableRecord
  2
ACAD_TEMP_GRAPHIC
 70
     0
  0
APPID
  5
2E78
330
9
100
AcDbSymbolTableRecord
100
AcDbRegAppTableRecord
  2
AD_DRAW
 70
     0
  0
APPID
  5
2E7B
330
9
100
AcDbSymbolTableRecord
100
AcDbRegAppTableRecord
  2
ACATTRIBSERVICES
 70
     0
  0
APPID
  5
2E9B
330
9
100
AcDbSymbolTableRecord
100
AcDbRegAppTableRecord
  2
DESIGNERASSEMBLIES
 70
     0
  0
APPID
  5
2EA1
330
9
100
AcDbSymbolTableRecord
100
AcDbRegAppTableRecord
  2
ACADM_DIM_EDIT
 70
     0
  0
APPID
  5
2EA2
330
9
100
AcDbSymbolTableRecord
100
AcDbRegAppTableRecord
  2
AMDT_DM_ADJ
 70
     0
  0
APPID
  5
2EB9
330
9
100
AcDbSymbolTableRecord
100
AcDbRegAppTableRecord
  2
ACAD_DSTYLE_DIMJAG
 70
     0
  0
APPID
  5
2EBA
330
9
100
AcDbSymbolTableRecord
100
AcDbRegAppTableRecord
  2
ACAD_DSTYLE_DIMBREAK
 70
     0
  0
APPID
  5
2F32
330
9
100
AcDbSymbolTableRecord
100
AcDbRegAppTableRecord
  2
ACAD_DSTYLE_DIMINSPECT
 70
     0
  0
APPID
  5
2F33
330
9
100
AcDbSymbolTableRecord
100
AcDbRegAppTableRecord
  2
ACAD_DSTYLE_DIMTALN
 70
     0
  0
APPID
  5
3533
330
9
100
AcDbSymbolTableRecord
100
AcDbRegAppTableRecord
  2
AcAecLayerStandard
 70
     0
  0
APPID
  5
37B1
330
9
100
AcDbSymbolTableRecord
100
AcDbRegAppTableRecord
  2
ACAD_MLEADERVER
 70
     0
  0
APPID
  5
37E0
330
9
100
AcDbSymbolTableRecord
100
AcDbRegAppTableRecord
  2
ACAD_DSTYLE_DIMARC_LENGTH_SYMBOL
 70
     0
  0
APPID
  5
37E1
330
9
100
AcDbSymbolTableRecord
100
AcDbRegAppTableRecord
  2
ACAD_DSTYLE_DIM_LINETYPE
 70
     0
  0
APPID
  5
37E2
330
9
100
AcDbSymbolTableRecord
100
AcDbRegAppTableRecord
  2
ACAD_DSTYLE_DIM_EXT1_LINETYPE
 70
     0
  0
APPID
  5
37E3
330
9
100
AcDbSymbolTableRecord
100
AcDbRegAppTableRecord
  2
ACAD_DSTYLE_DIM_EXT2_LINETYPE
 70
     0
  0
APPID
  5
395E
330
9
100
AcDbSymbolTableRecord
100
AcDbRegAppTableRecord
  2
ACAD_EXEMPT_FROM_CAD_STANDARDS
 70
     0
  0
ENDTAB
  0
TABLE
  2
DIMSTYLE
  5
A
330
0
100
AcDbSymbolTable
 70
    26
100
AcDbDimStyleTable
 71
     3
340
58
340
2F31
340
B1
  0
DIMSTYLE
105
58
330
A
100
AcDbSymbolTableRecord
100
AcDbDimStyleTableRecord
  2
Standard
 70
     0
340
55
  0
DIMSTYLE
105
59
330
A
100
AcDbSymbolTableRecord
100
AcDbDimStyleTableRecord
  2
Annotative
 70
     0
340
55
1001
AcadAnnotative
1000
AnnotativeData
1002
{
1070
     1
1070
     1
1002
}
  0
DIMSTYLE
105
A7
330
A
100
AcDbSymbolTableRecord
100
AcDbDimStyleTableRecord
  2
Různé objekty (ISO)
 70
     0
 40
1.5
 41
2.5
 42
0.0
 43
5.999999999999999
 44
1.0
 45
0.00000001
 46
10.0
 73
     0
 74
     0
 77
     1
 78
     8
 79
     2
140
5.25
143
0.03937
146
0.6676571709769112
147
0.762
171
     3
172
     1
176
   256
177
   256
178
   256
179
     2
271
     2
272
     2
274
     3
278
    44
284
     8
340
93
341
98
371
    -1
372
    -1
  0
DIMSTYLE
105
A8
330
A
100
AcDbSymbolTableRecord
100
AcDbDimStyleTableRecord
  2
Různé objekty (ISO)$7
 70
     0
 40
1.5
 41
5.0
 42
0.0
 43
5.999999999999999
 44
1.0
 45
0.00000001
 46
10.0
 73
     0
 74
     0
 77
     1
 78
     8
 79
     2
140
5.25
143
0.03937
146
0.6676571709769112
147
0.762
171
     3
172
     1
176
   256
177
   256
178
   256
179
     2
271
     2
272
     2
274
     3
278
    44
284
     8
340
93
341
98
371
    25
372
    -1
  0
DIMSTYLE
105
A9
330
A
100
AcDbSymbolTableRecord
100
AcDbDimStyleTableRecord
  2
Výchozí - Metoda 1b (ISO)
 70
     0
 40
1.5
 41
2.5
 42
0.0
 43
5.999999999999999
 44
1.0
 45
0.00000001
 46
10.0
 73
     0
 77
     1
 78
     8
 79
     2
140
3.5
143
0.03937
147
0.762
171
     3
172
     1
176
   256
177
   256
178
   256
179
     2
271
     2
272
     2
274
     3
278
    44
284
     8
286
     8
340
95
371
    -1
372
    -1
  0
DIMSTYLE
105
AA
330
A
100
AcDbSymbolTableRecord
100
AcDbDimStyleTableRecord
  2
Výchozí - Metoda 1b (ISO)$7
 70
     0
 40
1.5
 41
2.5
 42
0.0
 43
5.999999999999999
 44
1.0
 45
0.00000001
 46
10.0
 73
     0
 77
     1
 78
     8
 79
     2
140
3.5
143
0.03937
147
0.762
171
     3
172
     1
176
   256
177
   256
178
   256
179
     2
271
     2
272
     2
274
     3
278
    44
284
     8
286
     8
340
95
371
    -1
372
    -1
  0
DIMSTYLE
105
AB
330
A
100
AcDbSymbolTableRecord
100
AcDbDimStyleTableRecord
  2
Výchozí - Metoda 2a (ISO)
 70
     0
 40
1.5
 41
2.5
 42
0.0
 43
5.999999999999999
 44
1.0
 45
0.00000001
 46
10.0
 77
     1
 78
     8
 79
     2
140
3.5
143
0.03937
147
0.762
171
     3
172
     1
176
   256
177
   256
178
   256
179
     2
271
     2
272
     2
274
     3
278
    44
284
     8
286
     8
340
95
371
    -1
372
    -1
  0
DIMSTYLE
105
AC
330
A
100
AcDbSymbolTableRecord
100
AcDbDimStyleTableRecord
  2
Výchozí - Metoda 2a (ISO)$7
 70
     0
 40
1.5
 41
2.5
 42
0.0
 43
5.999999999999999
 44
1.0
 45
0.00000001
 46
10.0
 77
     1
 78
     8
 79
     2
140
3.5
143
0.03937
147
0.762
171
     3
172
     1
176
   256
177
   256
178
   256
179
     2
271
     2
272
     2
274
     3
278
    44
284
     8
286
     8
340
95
371
    -1
372
    -1
  0
DIMSTYLE
105
AD
330
A
100
AcDbSymbolTableRecord
100
AcDbDimStyleTableRecord
  2
Výchozí - Metoda 2b (ISO)
 70
     0
 40
1.5
 41
2.5
 42
0.0
 43
5.999999999999999
 44
1.0
 45
0.00000001
 46
10.0
 77
     1
 78
     8
 79
     2
140
3.5
143
0.03937
147
0.762
171
     3
172
     1
176
   256
177
   256
178
   256
179
     2
271
     2
272
     2
274
     3
278
    44
284
     8
286
     8
340
95
371
    -1
372
    -1
  0
DIMSTYLE
105
AE
330
A
100
AcDbSymbolTableRecord
100
AcDbDimStyleTableRecord
  2
Výchozí - Metoda 2b (ISO)$7
 70
     0
 40
1.5
 41
2.5
 42
0.0
 43
5.999999999999999
 44
1.0
 45
0.00000001
 46
10.0
 77
     1
 78
     8
 79
     2
140
3.5
143
0.03937
147
0.762
171
     3
172
     1
176
   256
177
   256
178
   256
179
     2
271
     2
272
     2
274
     3
278
    44
284
     8
286
     8
340
95
371
    -1
372
    -1
  0
DIMSTYLE
105
AF
330
A
100
AcDbSymbolTableRecord
100
AcDbDimStyleTableRecord
  2
Výchozí - mm [palce] (ISO)
 70
     0
  4
 in
 40
1.5
 41
2.5
 42
0.0
 43
5.999999999999999
 44
3.174999999999998
 45
0.00000001
 46
10.0
 73
     0
 74
     0
 77
     1
 78
     8
 79
     2
140
3.5
143
0.03937
147
0.762
170
     1
171
     3
172
     1
176
   256
177
   256
178
   256
179
     3
271
     3
272
     2
274
     3
275
     1
278
    44
284
     8
285
     8
286
     8
340
95
371
    -1
372
    -1
  0
DIMSTYLE
105
B0
330
A
100
AcDbSymbolTableRecord
100
AcDbDimStyleTableRecord
  2
Výchozí - mm [palce] (ISO)$7
 70
     0
  4
 in
 40
1.5
 41
2.5
 42
0.0
 43
5.999999999999999
 44
3.174999999999998
 45
0.00000001
 46
10.0
 73
     0
 74
     0
 77
     1
 78
     8
 79
     2
140
3.5
143
0.03937
147
0.762
170
     1
171
     3
172
     1
176
   256
177
   256
178
   256
179
     3
271
     3
272
     2
274
     3
275
     1
278
    44
284
     8
285
     8
286
     8
340
95
371
    -1
372
    -1
  0
DIMSTYLE
105
B1
330
A
100
AcDbSymbolTableRecord
100
AcDbDimStyleTableRecord
  2
Výchozí (ISO)
 70
     0
 40
1.5
 41
2.5
 42
0.0
 43
5.999999999999999
 44
1.0
 45
0.00000001
 46
10.0
 73
     0
 74
     0
 77
     1
 78
     8
 79
     2
140
3.5
143
0.03937
146
1.001485756465366
147
0.762
171
     3
172
     1
176
   256
177
   256
178
   256
179
     2
271
     2
272
     2
274
     3
278
    44
284
     8
340
95
371
    -1
372
    -1
  0
DIMSTYLE
105
B2
330
A
100
AcDbSymbolTableRecord
100
AcDbDimStyleTableRecord
  2
Výchozí (ISO)$7
 70
     0
 40
1.5
 41
2.5
 42
0.0
 43
5.999999999999999
 44
1.0
 45
0.00000001
 46
10.0
 73
     0
 74
     0
 77
     1
 78
     8
 79
     2
140
3.5
143
0.03937
146
1.001485756465366
147
0.762
171
     3
172
     1
176
   256
177
   256
178
   256
179
     2
271
     2
272
     2
274
     3
278
    44
284
     8
340
95
371
    -1
372
    -1
  0
DIMSTYLE
105
B3
330
A
100
AcDbSymbolTableRecord
100
AcDbDimStyleTableRecord
  2
Alternativní (ISO)
 70
     0
 40
1.5
 41
2.5
340
55
342
B4
  0
DIMSTYLE
105
C5
330
A
100
AcDbSymbolTableRecord
100
AcDbDimStyleTableRecord
  2
Základny (ISO)
 70
     0
 40
1.5
 41
2.5
340
55
342
B4
  0
DIMSTYLE
105
2EB8
102
{ACAD_REACTORS
330
3944
102
}
330
A
100
AcDbSymbolTableRecord
100
AcDbDimStyleTableRecord
  2
AM_ISO
 70
     0
  4
"
 41
3.5
 42
1.0
 43
10.0
 44
1.0
 47
0.1
 48
0.1
 73
     0
 74
     0
 77
     1
 78
     8
 79
     2
140
3.5
141
0.0
143
0.0393701
146
0.71
147
1.5
172
     1
176
   256
177
   256
178
   140
271
     2
272
     3
274
     4
283
     0
284
     8
340
55
371
    -1
372
    -1
1001
ACAD_DSTYLE_DIMJAG
1070
   388
1040
1.5
1001
ACAD_DSTYLE_DIMBREAK
1070
   391
1040
3.75
1001
ACAD_DSTYLE_DIMARC_LENGTH_SYMBOL
1070
   379
1070
     1
1001
ACAD_DSTYLE_DIM_LINETYPE
1070
   380
1005
5B
1001
ACAD_DSTYLE_DIM_EXT1_LINETYPE
1070
   381
1005
5B
1001
ACAD_DSTYLE_DIM_EXT2_LINETYPE
1070
   382
1005
5B
  0
DIMSTYLE
105
2EC5
330
A
100
AcDbSymbolTableRecord
100
AcDbDimStyleTableRecord
  2
AM_ISO$3
 70
     0
  4
"
 41
3.5
 42
1.0
 43
10.0
 44
1.0
 47
0.1
 48
0.1
 73
     0
 77
     1
 78
     8
 79
     2
140
3.5
141
0.0
143
0.0393701
146
0.71
147
1.5
176
   256
177
   256
178
   140
271
     2
272
     3
274
     4
283
     0
284
     8
288
     1
289
     0
340
55
371
    -1
372
    -1
1001
ACAD_DSTYLE_DIMBREAK
1070
   391
1040
3.75
1001
ACAD_DSTYLE_DIMJAG
1070
   388
1040
1.5
1001
ACAD_DSTYLE_DIMARC_LENGTH_SYMBOL
1070
   379
1070
     1
1001
ACAD_DSTYLE_DIM_LINETYPE
1070
   380
1005
5B
1001
ACAD_DSTYLE_DIM_EXT1_LINETYPE
1070
   381
1005
5B
1001
ACAD_DSTYLE_DIM_EXT2_LINETYPE
1070
   382
1005
5B
  0
DIMSTYLE
105
2EC6
330
A
100
AcDbSymbolTableRecord
100
AcDbDimStyleTableRecord
  2
AM_ISO$4
 70
     0
  4
"
 41
3.5
 42
1.0
 43
10.0
 44
1.0
 47
0.1
 48
0.1
 73
     0
 77
     1
 78
     8
 79
     2
140
3.5
141
0.0
143
0.0393701
146
0.71
147
1.5
176
   256
177
   256
178
   140
271
     2
272
     3
274
     4
283
     0
284
     8
288
     1
289
     0
340
55
371
    -1
372
    -1
1001
ACAD_DSTYLE_DIMBREAK
1070
   391
1040
3.75
1001
ACAD_DSTYLE_DIMJAG
1070
   388
1040
1.5
1001
ACAD_DSTYLE_DIMARC_LENGTH_SYMBOL
1070
   379
1070
     1
1001
ACAD_DSTYLE_DIM_LINETYPE
1070
   380
1005
5B
1001
ACAD_DSTYLE_DIM_EXT1_LINETYPE
1070
   381
1005
5B
1001
ACAD_DSTYLE_DIM_EXT2_LINETYPE
1070
   382
1005
5B
  0
DIMSTYLE
105
2EC7
330
A
100
AcDbSymbolTableRecord
100
AcDbDimStyleTableRecord
  2
AM_ISO$6
 70
     0
  4
"
 41
3.5
 42
1.0
 43
10.0
 44
1.0
 47
0.1
 48
0.1
 73
     0
 74
     0
 78
     8
 79
     2
140
3.5
141
0.0
143
0.0393701
146
0.71
147
1.5
172
     1
176
   256
177
   256
178
   140
271
     2
272
     3
274
     4
283
     0
284
     8
340
55
371
    -1
372
    -1
1001
ACAD_DSTYLE_DIMBREAK
1070
   391
1040
3.75
1001
ACAD_DSTYLE_DIMJAG
1070
   388
1040
1.5
1001
ACAD_DSTYLE_DIMARC_LENGTH_SYMBOL
1070
   379
1070
     1
1001
ACAD_DSTYLE_DIM_LINETYPE
1070
   380
1005
5B
1001
ACAD_DSTYLE_DIM_EXT1_LINETYPE
1070
   381
1005
5B
1001
ACAD_DSTYLE_DIM_EXT2_LINETYPE
1070
   382
1005
5B
  0
DIMSTYLE
105
2EC8
330
A
100
AcDbSymbolTableRecord
100
AcDbDimStyleTableRecord
  2
AM_ISO$7
 70
     0
  4
"
 41
3.5
 42
1.0
 43
10.0
 44
1.0
 47
0.1
 48
0.1
 73
     0
 74
     0
 77
     1
 78
     8
 79
     2
140
3.5
141
0.0
143
0.0393701
146
0.71
147
1.5
172
     1
176
   256
177
   256
178
   140
271
     2
272
     3
274
     4
283
     0
284
     8
340
55
371
    -1
372
    -1
1001
ACAD_DSTYLE_DIMBREAK
1070
   391
1040
3.75
1001
ACAD_DSTYLE_DIMJAG
1070
   388
1040
1.5
1001
ACAD_DSTYLE_DIMARC_LENGTH_SYMBOL
1070
   379
1070
     1
1001
ACAD_DSTYLE_DIM_LINETYPE
1070
   380
1005
5B
1001
ACAD_DSTYLE_DIM_EXT1_LINETYPE
1070
   381
1005
5B
1001
ACAD_DSTYLE_DIM_EXT2_LINETYPE
1070
   382
1005
5B
  0
DIMSTYLE
105
2EC9
330
A
100
AcDbSymbolTableRecord
100
AcDbDimStyleTableRecord
  2
AM_ISO$SF
 70
     0
  4
"
 41
3.5
 42
1.0
 43
10.0
 44
1.0
 47
0.1
 48
0.1
 73
     0
 74
     0
 75
     1
 76
     1
 77
     1
 78
     8
 79
     2
140
3.5
141
0.0
143
0.0393701
146
0.71
147
1.5
172
     1
176
   256
177
   256
178
   140
271
     2
272
     3
274
     4
283
     0
284
     8
340
55
371
    -1
372
    -1
1001
ACAD_DSTYLE_DIMBREAK
1070
   391
1040
3.75
1001
ACAD_DSTYLE_DIMJAG
1070
   388
1040
1.5
1001
ACAD_DSTYLE_DIMARC_LENGTH_SYMBOL
1070
   379
1070
     1
1001
ACAD_DSTYLE_DIM_LINETYPE
1070
   380
1005
5B
1001
ACAD_DSTYLE_DIM_EXT1_LINETYPE
1070
   381
1005
5B
1001
ACAD_DSTYLE_DIM_EXT2_LINETYPE
1070
   382
1005
5B
  0
DIMSTYLE
105
2ECE
330
A
100
AcDbSymbolTableRecord
100
AcDbDimStyleTableRecord
  2
AM_ISO$SH
 70
     0
  4
"
 41
3.5
 42
1.0
 43
10.0
 44
1.0
 47
0.1
 48
0.1
 73
     0
 74
     0
 75
     1
 76
     1
 77
     1
 78
     8
 79
     2
140
3.5
141
0.0
143
0.0393701
144
2.0
146
0.71
147
1.5
172
     1
173
     1
176
   256
177
   256
178
   140
271
     2
272
     3
274
     4
283
     0
284
     8
340
55
343
2ECA
371
    -1
372
    -1
1001
ACAD_DSTYLE_DIMBREAK
1070
   391
1040
3.75
1001
ACAD_DSTYLE_DIMJAG
1070
   388
1040
1.5
1001
ACAD_DSTYLE_DIMARC_LENGTH_SYMBOL
1070
   379
1070
     1
1001
ACAD_DSTYLE_DIM_LINETYPE
1070
   380
1005
5B
1001
ACAD_DSTYLE_DIM_EXT1_LINETYPE
1070
   381
1005
5B
1001
ACAD_DSTYLE_DIM_EXT2_LINETYPE
1070
   382
1005
5B
  0
DIMSTYLE
105
2F31
102
{ACAD_REACTORS
330
35C8
330
35A6
330
3536
330
360C
330
3584
330
3562
330
35EA
102
}
330
A
100
AcDbSymbolTableRecord
100
AcDbDimStyleTableRecord
  2
GEN-ISO
 70
     0
  3
<>
  4
"
 40
2.0
 41
2.5
 42
1.0
 43
7.0
 44
1.0
 47
0.1
 48
0.1
 73
     0
 74
     0
 77
     1
 78
     8
140
7.0
141
0.0
143
0.0393701
146
0.71
147
0.6
172
     1
176
   256
177
   256
178
     7
271
     2
272
     2
283
     0
340
55
1001
ACAD_DSTYLE_DIMJAG
1070
   388
1040
1.5
1001
ACAD_DSTYLE_DIMTALN
1070
   392
1070
     0
  0
DIMSTYLE
105
3534
330
A
100
AcDbSymbolTableRecord
100
AcDbDimStyleTableRecord
  2
Standard$0
 70
     0
340
55
1001
ACAD_DSTYLE_DIMBREAK
1070
   391
1040
3.75
1001
ACAD_DSTYLE_DIMJAG
1070
   388
1040
1.5
  0
ENDTAB
  0
TABLE
  2
BLOCK_RECORD
  5
1
330
0
100
AcDbSymbolTable
 70
    48
  0
BLOCK_RECORD
  5
6C
330
1
100
AcDbSymbolTableRecord
100
AcDbBlockTableRecord
  2
*Model_Space
340
6F
  0
BLOCK_RECORD
  5
68
330
1
100
AcDbSymbolTableRecord
100
AcDbBlockTableRecord
  2
*Paper_Space
340
6B
  0
BLOCK_RECORD
  5
70
330
1
100
AcDbSymbolTableRecord
100
AcDbBlockTableRecord
  2
*Paper_Space0
340
73
  0
BLOCK_RECORD
  5
98
330
1
100
AcDbSymbolTableRecord
100
AcDbBlockTableRecord
  2
Filled-1
340
0
  0
BLOCK_RECORD
  5
B4
330
1
100
AcDbSymbolTableRecord
100
AcDbBlockTableRecord
  2
_Closed
340
0
  0
BLOCK_RECORD
  5
BB
330
1
100
AcDbSymbolTableRecord
100
AcDbBlockTableRecord
  2
DatumFilled45
340
0
  0
BLOCK_RECORD
  5
C6
330
1
100
AcDbSymbolTableRecord
100
AcDbBlockTableRecord
  2
WIG-svarovani
340
0
  0
BLOCK_RECORD
  5
CB
330
1
100
AcDbSymbolTableRecord
100
AcDbBlockTableRecord
  2
Popis kotvy_srouby
340
0
  0
BLOCK_RECORD
  5
CF
330
1
100
AcDbSymbolTableRecord
100
AcDbBlockTableRecord
  2
Mater. provedeni Art.
340
0
  0
BLOCK_RECORD
  5
F1
330
1
100
AcDbSymbolTableRecord
100
AcDbBlockTableRecord
  2
Art. s popisy
340
0
  0
BLOCK_RECORD
  5
113
330
1
100
AcDbSymbolTableRecord
100
AcDbBlockTableRecord
  2
Tryskat
340
0
  0
BLOCK_RECORD
  5
117
330
1
100
AcDbSymbolTableRecord
100
AcDbBlockTableRecord
  2
Morit
340
0
  0
BLOCK_RECORD
  5
11B
330
1
100
AcDbSymbolTableRecord
100
AcDbBlockTableRecord
  2
zinkovat
340
0
  0
BLOCK_RECORD
  5
11F
330
1
100
AcDbSymbolTableRecord
100
AcDbBlockTableRecord
  2
Nater
340
0
  0
BLOCK_RECORD
  5
123
330
1
100
AcDbSymbolTableRecord
100
AcDbBlockTableRecord
  2
Brus
340
0
  0
BLOCK_RECORD
  5
127
330
1
100
AcDbSymbolTableRecord
100
AcDbBlockTableRecord
  2
Elektroliticky lestit
340
0
  0
BLOCK_RECORD
  5
12C
330
1
100
AcDbSymbolTableRecord
100
AcDbBlockTableRecord
  2
Rámečky Default Border
340
0
  0
BLOCK_RECORD
  5
183
330
1
100
AcDbSymbolTableRecord
100
AcDbBlockTableRecord
  2
Rohová razítka ACO-razitko
340
0
  0
BLOCK_RECORD
  5
281F
330
1
100
AcDbSymbolTableRecord
100
AcDbBlockTableRecord
  2
KUSOVNÍK
340
0
  0
BLOCK_RECORD
  5
2874
330
1
100
AcDbSymbolTableRecord
100
AcDbBlockTableRecord
  2
*D17
340
0
  0
BLOCK_RECORD
  5
295A
330
1
100
AcDbSymbolTableRecord
100
AcDbBlockTableRecord
  2
*D18
340
0
  0
BLOCK_RECORD
  5
2A35
330
1
100
AcDbSymbolTableRecord
100
AcDbBlockTableRecord
  2
Pozice1
340
0
  0
BLOCK_RECORD
  5
2A48
330
1
100
AcDbSymbolTableRecord
100
AcDbBlockTableRecord
  2
*D20
340
0
  0
BLOCK_RECORD
  5
2B2A
330
1
100
AcDbSymbolTableRecord
100
AcDbBlockTableRecord
  2
*D21
340
0
  0
BLOCK_RECORD
  5
2C10
330
1
100
AcDbSymbolTableRecord
100
AcDbBlockTableRecord
  2
*D22
340
0
  0
BLOCK_RECORD
  5
2CED
330
1
100
AcDbSymbolTableRecord
100
AcDbBlockTableRecord
  2
*D23
340
0
  0
BLOCK_RECORD
  5
2DCE
330
1
100
AcDbSymbolTableRecord
100
AcDbBlockTableRecord
  2
Pozice2
340
0
  0
BLOCK_RECORD
  5
2DE0
330
1
100
AcDbSymbolTableRecord
100
AcDbBlockTableRecord
  2
Pozice3
340
0
  0
BLOCK_RECORD
  5
2ECA
330
1
100
AcDbSymbolTableRecord
100
AcDbBlockTableRecord
  2
GENAXEH
340
0
  0
BLOCK_RECORD
  5
2EE4
330
1
100
AcDbSymbolTableRecord
100
AcDbBlockTableRecord
  2
*D27
340
0
  0
BLOCK_RECORD
  5
2EF0
330
1
100
AcDbSymbolTableRecord
100
AcDbBlockTableRecord
  2
*D28
340
0
  0
BLOCK_RECORD
  5
2EFC
330
1
100
AcDbSymbolTableRecord
100
AcDbBlockTableRecord
  2
*D29
340
0
  0
BLOCK_RECORD
  5
2F08
330
1
100
AcDbSymbolTableRecord
100
AcDbBlockTableRecord
  2
*D30
340
0
  0
BLOCK_RECORD
  5
2F14
330
1
100
AcDbSymbolTableRecord
100
AcDbBlockTableRecord
  2
*D31
340
0
  0
BLOCK_RECORD
  5
2F20
330
1
100
AcDbSymbolTableRecord
100
AcDbBlockTableRecord
  2
*D32
340
0
  0
BLOCK_RECORD
  5
3493
330
1
100
AcDbSymbolTableRecord
100
AcDbBlockTableRecord
  2
*D33
340
0
  0
BLOCK_RECORD
  5
349F
330
1
100
AcDbSymbolTableRecord
100
AcDbBlockTableRecord
  2
*D34
340
0
  0
BLOCK_RECORD
  5
34AB
330
1
100
AcDbSymbolTableRecord
100
AcDbBlockTableRecord
  2
*D35
340
0
  0
BLOCK_RECORD
  5
34B7
330
1
100
AcDbSymbolTableRecord
100
AcDbBlockTableRecord
  2
*D36
340
0
  0
BLOCK_RECORD
  5
34C3
330
1
100
AcDbSymbolTableRecord
100
AcDbBlockTableRecord
  2
*D37
340
0
  0
BLOCK_RECORD
  5
34CF
330
1
100
AcDbSymbolTableRecord
100
AcDbBlockTableRecord
  2
*D38
340
0
  0
BLOCK_RECORD
  5
3537
330
1
100
AcDbSymbolTableRecord
100
AcDbBlockTableRecord
  2
*D39
340
0
  0
BLOCK_RECORD
  5
3563
330
1
100
AcDbSymbolTableRecord
100
AcDbBlockTableRecord
  2
*D40
340
0
  0
BLOCK_RECORD
  5
3585
330
1
100
AcDbSymbolTableRecord
100
AcDbBlockTableRecord
  2
*D41
340
0
  0
BLOCK_RECORD
  5
35A7
330
1
100
AcDbSymbolTableRecord
100
AcDbBlockTableRecord
  2
*D42
340
0
  0
BLOCK_RECORD
  5
35C9
330
1
100
AcDbSymbolTableRecord
100
AcDbBlockTableRecord
  2
*D43
340
0
  0
BLOCK_RECORD
  5
35EB
330
1
100
AcDbSymbolTableRecord
100
AcDbBlockTableRecord
  2
*D44
340
0
  0
BLOCK_RECORD
  5
360D
330
1
100
AcDbSymbolTableRecord
100
AcDbBlockTableRecord
  2
*D45
340
0
  0
ENDTAB
  0
ENDSEC
  0
SECTION
  2
BLOCKS
  0
BLOCK
  5
6D
330
6C
100
AcDbEntity
  8
0
100
AcDbBlockBegin
  2
*Model_Space
 70
     0
 10
0.0
 20
0.0
 30
0.0
  3
*Model_Space
  1

  0
ENDBLK
  5
6E
330
6C
100
AcDbEntity
  8
0
100
AcDbBlockEnd
  0
BLOCK
  5
69
330
68
100
AcDbEntity
 67
     1
  8
0
100
AcDbBlockBegin
  2
*Paper_Space
 70
     0
 10
0.0
 20
0.0
 30
0.0
  3
*Paper_Space
  1

  0
ENDBLK
  5
6A
330
68
100
AcDbEntity
 67
     1
  8
0
100
AcDbBlockEnd
  0
BLOCK
  5
71
330
70
100
AcDbEntity
 67
     1
  8
0
100
AcDbBlockBegin
  2
*Paper_Space0
 70
     0
 10
0.0
 20
0.0
 30
0.0
  3
*Paper_Space0
  1

  0
ENDBLK
  5
72
330
70
100
AcDbEntity
 67
     1
  8
0
100
AcDbBlockEnd
  0
BLOCK
  5
99
330
98
100
AcDbEntity
  8
0
100
AcDbBlockBegin
  2
Filled-1
 70
     0
 10
0.0
 20
0.0
 30
0.0
  3
Filled-1
  1

  0
LINE
  5
9B
330
98
100
AcDbEntity
  8
0
 62
     0
100
AcDbLine
 10
-1.0
 20
0.0
 30
0.0
 11
0.0
 21
0.0
 31
0.0
  0
POLYLINE
  5
9D
330
98
100
AcDbEntity
  8
0
 62
     0
100
AcDb2dPolyline
 66
     1
 10
0.0
 20
0.0
 30
0.0
 70
   128
  0
VERTEX
  5
9E
330
9D
100
AcDbEntity
  8
0
 62
     0
100
AcDbVertex
100
AcDb2dVertex
 10
-1.0
 20
-0.1
 30
0.0
  0
VERTEX
  5
9F
330
9D
100
AcDbEntity
  8
0
 62
     0
100
AcDbVertex
100
AcDb2dVertex
 10
0.0
 20
0.0
 30
0.0
  0
VERTEX
  5
A1
330
9D
100
AcDbEntity
  8
0
 62
     0
100
AcDbVertex
100
AcDb2dVertex
 10
-1.0
 20
0.1
 30
0.0
  0
VERTEX
  5
A2
330
9D
100
AcDbEntity
  8
0
 62
     0
100
AcDbVertex
100
AcDb2dVertex
 10
-1.0
 20
-0.1
 30
0.0
  0
SEQEND
  5
A0
330
9D
100
AcDbEntity
  8
0
 62
     0
  0
SOLID
  5
A3
330
98
100
AcDbEntity
  8
0
 62
     0
100
AcDbTrace
 10
-1.0
 20
-0.1
 30
0.0
 11
0.0
 21
0.0
 31
0.0
 12
-1.0
 22
0.1
 32
0.0
 13
-1.0
 23
-0.1
 33
0.0
  0
LINE
  5
A4
330
98
100
AcDbEntity
  8
0
 62
     0
100
AcDbLine
 10
-1.0
 20
-0.1
 30
0.0
 11
0.0
 21
0.0
 31
0.0
  0
LINE
  5
A5
330
98
100
AcDbEntity
  8
0
 62
     0
100
AcDbLine
 10
0.0
 20
0.0
 30
0.0
 11
-1.0
 21
0.1
 31
0.0
  0
LINE
  5
A6
330
98
100
AcDbEntity
  8
0
 62
     0
100
AcDbLine
 10
-1.0
 20
0.1
 30
0.0
 11
-1.0
 21
-0.1
 31
0.0
  0
ENDBLK
  5
9A
330
98
100
AcDbEntity
  8
0
100
AcDbBlockEnd
  0
BLOCK
  5
B9
330
B4
100
AcDbEntity
  8
0
100
AcDbBlockBegin
  2
_Closed
 70
     0
 10
0.0
 20
0.0
 30
0.0
  3
_Closed
  1

  0
LINE
  5
B5
330
B4
100
AcDbEntity
  8
0
  6
ByBlock
 62
     0
370
    -2
100
AcDbLine
 10
-1.0
 20
0.1666666666666666
 30
0.0
 11
0.0
 21
0.0
 31
0.0
  0
LINE
  5
B6
330
B4
100
AcDbEntity
  8
0
  6
ByBlock
 62
     0
370
    -2
100
AcDbLine
 10
0.0
 20
0.0
 30
0.0
 11
-1.0
 21
-0.1666666666666666
 31
0.0
  0
LINE
  5
B7
330
B4
100
AcDbEntity
  8
0
  6
ByBlock
 62
     0
370
    -2
100
AcDbLine
 10
-1.0
 20
0.1666666666666666
 30
0.0
 11
-1.0
 21
-0.1666666666666666
 31
0.0
  0
LINE
  5
B8
330
B4
100
AcDbEntity
  8
0
  6
ByBlock
 62
     0
370
    -2
100
AcDbLine
 10
0.0
 20
0.0
 30
0.0
 11
-1.0
 21
0.0
 31
0.0
  0
ENDBLK
  5
BA
330
B4
100
AcDbEntity
  8
0
100
AcDbBlockEnd
  0
BLOCK
  5
BC
330
BB
100
AcDbEntity
  8
0
100
AcDbBlockBegin
  2
DatumFilled45
 70
     0
 10
0.0
 20
0.0
 30
0.0
  3
DatumFilled45
  1

  0
POLYLINE
  5
BE
330
BB
100
AcDbEntity
  8
0
 62
     0
100
AcDb2dPolyline
 66
     1
 10
0.0
 20
0.0
 30
0.0
 70
   128
  0
VERTEX
  5
BF
330
BE
100
AcDbEntity
  8
0
 62
     0
100
AcDbVertex
100
AcDb2dVertex
 10
0.0
 20
1.0
 30
0.0
  0
VERTEX
  5
C0
330
BE
100
AcDbEntity
  8
0
 62
     0
100
AcDbVertex
100
AcDb2dVertex
 10
0.0
 20
-1.0
 30
0.0
  0
VERTEX
  5
C2
330
BE
100
AcDbEntity
  8
0
 62
     0
100
AcDbVertex
100
AcDb2dVertex
 10
-1.0
 20
0.0
 30
0.0
  0
VERTEX
  5
C3
330
BE
100
AcDbEntity
  8
0
 62
     0
100
AcDbVertex
100
AcDb2dVertex
 10
0.0
 20
1.0
 30
0.0
  0
SEQEND
  5
C1
330
BE
100
AcDbEntity
  8
0
 62
     0
  0
SOLID
  5
C4
330
BB
100
AcDbEntity
  8
0
 62
     0
100
AcDbTrace
 10
0.0
 20
1.0
 30
0.0
 11
0.0
 21
-1.0
 31
0.0
 12
-1.0
 22
0.0
 32
0.0
 13
0.0
 23
1.0
 33
0.0
  0
ENDBLK
  5
BD
330
BB
100
AcDbEntity
  8
0
100
AcDbBlockEnd
  0
BLOCK
  5
C7
330
C6
100
AcDbEntity
  8
0
100
AcDbBlockBegin
  2
WIG-svarovani
 70
     0
 10
0.0
 20
0.0
 30
0.0
  3
WIG-svarovani
  1

  0
MTEXT
  5
C9
102
{ACAD_XDICTIONARY
360
3A5E
102
}
330
C6
100
AcDbEntity
  8
Značka (ISO)
100
AcDbMText
 10
-57.87338256835937
 20
16.31795931607484
 30
0.0
 40
3.499999940395355
 41
115.7467651367187
 71
     1
 72
     1
  1
WIG Schweisung, Nahte sauber geschliffen und poliert\PSichtstege geschliffen mit 240 Korn und abgeklebt.\P{\H0.85714x; \P\H1.1667x;WIG svarovani- svary dle potreby zabrousit.\PPohledove plochy brousit (vel. brusnych zrn 240)\Pa polepit paskou}
  7
Text poznámky (ISO)
 73
     1
 44
0.9596589207649227
  0
ENDBLK
  5
C8
330
C6
100
AcDbEntity
  8
0
100
AcDbBlockEnd
  0
BLOCK
  5
CC
330
CB
100
AcDbEntity
  8
0
100
AcDbBlockBegin
  2
Popis kotvy_srouby
 70
     0
 10
0.0
 20
0.0
 30
0.0
  3
Popis kotvy_srouby
  1

  0
MTEXT
  5
CE
330
CB
100
AcDbEntity
  8
Značka (ISO)
100
AcDbMText
 10
-39.79761123657226
 20
21.84130281209946
 30
0.0
 40
3.499999940395355
 41
0.0
 71
     1
 72
     1
  1
Vzdalenost nivel. sroubu ca. 1500\PVzdalenost kotev ca. 400\PVzdalenost dist. koliku ca. 250\P\PAbstand der Nivellieschraben ca.1500\PAbstand der Maueranker ca.400\PAbstand der Distanzstege ca.250\P
  7
Text poznámky (ISO)
 73
     2
 44
0.9878841638565063
  0
ENDBLK
  5
CD
330
CB
100
AcDbEntity
  8
0
100
AcDbBlockEnd
  0
BLOCK
  5
D0
330
CF
100
AcDbEntity
  8
0
100
AcDbBlockBegin
  2
Mater. provedeni Art.
 70
     0
 10
0.0
 20
0.0
 30
0.0
  3
Mater. provedeni Art.
  1

  0
LINE
  5
D2
330
CF
100
AcDbEntity
  8
Geometrie náčrtu (ISO)
100
AcDbLine
 10
-35.0
 20
-22.5
 30
0.0
 11
35.0
 21
-22.5
 31
0.0
  0
LINE
  5
D3
330
CF
100
AcDbEntity
  8
Geometrie náčrtu (ISO)
100
AcDbLine
 10
35.0
 20
-22.5
 30
0.0
 11
34.99999999999996
 21
-13.49999999999998
 31
0.0
  0
LINE
  5
D4
330
CF
100
AcDbEntity
  8
Geometrie náčrtu (ISO)
100
AcDbLine
 10
34.99999999999996
 20
-13.49999999999998
 30
0.0
 11
-35.00000000000003
 21
-13.49999999999998
 31
0.0
  0
LINE
  5
D5
330
CF
100
AcDbEntity
  8
Geometrie náčrtu (ISO)
100
AcDbLine
 10
-35.00000000000003
 20
-13.49999999999998
 30
0.0
 11
-35.0
 21
-22.5
 31
0.0
  0
LINE
  5
D6
330
CF
100
AcDbEntity
  8
Geometrie náčrtu (ISO)
100
AcDbLine
 10
-35.00000000000003
 20
-13.49999999999998
 30
0.0
 11
34.99999999999996
 21
-13.49999999999998
 31
0.0
  0
LINE
  5
D7
330
CF
100
AcDbEntity
  8
Geometrie náčrtu (ISO)
100
AcDbLine
 10
34.99999999999996
 20
-13.49999999999998
 30
0.0
 11
34.99999999999996
 21
-4.499999999999992
 31
0.0
  0
LINE
  5
D8
330
CF
100
AcDbEntity
  8
Geometrie náčrtu (ISO)
100
AcDbLine
 10
34.99999999999996
 20
-4.499999999999992
 30
0.0
 11
-35.00000000000003
 21
-4.499999999999992
 31
0.0
  0
LINE
  5
D9
330
CF
100
AcDbEntity
  8
Geometrie náčrtu (ISO)
100
AcDbLine
 10
-35.00000000000003
 20
-4.499999999999992
 30
0.0
 11
-35.00000000000003
 21
-13.49999999999998
 31
0.0
  0
LINE
  5
DA
330
CF
100
AcDbEntity
  8
Geometrie náčrtu (ISO)
100
AcDbLine
 10
-35.00000000000003
 20
-4.499999999999992
 30
0.0
 11
34.99999999999996
 21
-4.499999999999992
 31
0.0
  0
LINE
  5
DB
330
CF
100
AcDbEntity
  8
Geometrie náčrtu (ISO)
100
AcDbLine
 10
34.99999999999996
 20
-4.499999999999992
 30
0.0
 11
34.99999999999996
 21
4.499999999999992
 31
0.0
  0
LINE
  5
DC
330
CF
100
AcDbEntity
  8
Geometrie náčrtu (ISO)
100
AcDbLine
 10
34.99999999999996
 20
4.499999999999992
 30
0.0
 11
-35.00000000000003
 21
4.499999999999992
 31
0.0
  0
LINE
  5
DD
330
CF
100
AcDbEntity
  8
Geometrie náčrtu (ISO)
100
AcDbLine
 10
-35.00000000000003
 20
4.499999999999992
 30
0.0
 11
-35.00000000000003
 21
-4.499999999999992
 31
0.0
  0
LINE
  5
DE
330
CF
100
AcDbEntity
  8
Geometrie náčrtu (ISO)
100
AcDbLine
 10
-35.00000000000003
 20
4.499999999999992
 30
0.0
 11
34.99999999999996
 21
4.499999999999992
 31
0.0
  0
LINE
  5
DF
330
CF
100
AcDbEntity
  8
Geometrie náčrtu (ISO)
100
AcDbLine
 10
34.99999999999996
 20
4.499999999999992
 30
0.0
 11
34.99999999999996
 21
13.50000000000001
 31
0.0
  0
LINE
  5
E0
330
CF
100
AcDbEntity
  8
Geometrie náčrtu (ISO)
100
AcDbLine
 10
34.99999999999996
 20
13.50000000000001
 30
0.0
 11
-35.00000000000003
 21
13.50000000000001
 31
0.0
  0
LINE
  5
E1
330
CF
100
AcDbEntity
  8
Geometrie náčrtu (ISO)
100
AcDbLine
 10
-35.00000000000003
 20
13.50000000000001
 30
0.0
 11
-35.00000000000003
 21
4.499999999999992
 31
0.0
  0
LINE
  5
E2
330
CF
100
AcDbEntity
  8
Geometrie náčrtu (ISO)
100
AcDbLine
 10
-35.00000000000003
 20
13.50000000000001
 30
0.0
 11
34.99999999999996
 21
13.50000000000001
 31
0.0
  0
LINE
  5
E3
330
CF
100
AcDbEntity
  8
Geometrie náčrtu (ISO)
100
AcDbLine
 10
34.99999999999996
 20
13.50000000000001
 30
0.0
 11
34.99999999999996
 21
22.5
 31
0.0
  0
LINE
  5
E4
330
CF
100
AcDbEntity
  8
Geometrie náčrtu (ISO)
100
AcDbLine
 10
34.99999999999996
 20
22.5
 30
0.0
 11
-35.00000000000003
 21
22.5
 31
0.0
  0
LINE
  5
E5
330
CF
100
AcDbEntity
  8
Geometrie náčrtu (ISO)
100
AcDbLine
 10
-35.00000000000003
 20
22.5
 30
0.0
 11
-35.00000000000003
 21
13.50000000000001
 31
0.0
  0
LINE
  5
E6
330
CF
100
AcDbEntity
  8
Geometrie náčrtu (ISO)
100
AcDbLine
 10
-6.999999999999992
 20
22.5
 30
0.0
 11
-6.999999999999992
 21
-22.5
 31
0.0
  0
MTEXT
  5
E7
330
CF
100
AcDbEntity
  8
Značka (ISO)
100
AcDbMText
 10
-5.126613448311374
 20
11.7684641726084
 30
0.0
 40
5.0
 41
0.0
 71
     1
 72
     1
  1
\fTahoma|b0|i0;\H5.0000;xxxxxxxxxxx
  7
Text poznámky (ISO)
 73
     1
 44
1.0
  0
MTEXT
  5
E8
330
CF
100
AcDbEntity
  8
Značka (ISO)
100
AcDbMText
 10
-33.0130165251342
 20
11.7684641726084
 30
0.0
 40
5.0
 41
20.42139291763306
 71
     1
 72
     1
  1
\fTahoma|b0|i0;\H5.0000;xxxxxx
  7
Text poznámky (ISO)
 73
     1
 44
1.0
  0
MTEXT
  5
E9
330
CF
100
AcDbEntity
  8
Značka (ISO)
100
AcDbMText
 10
-32.07756235018873
 20
20.30710993714994
 30
0.0
 40
5.0
 41
13.92583036716939
 71
     1
 72
     1
  1
\fTahoma|b0|i0;\H5.0000;Art.
  7
Text poznámky (ISO)
 73
     1
 44
1.0
  0
MTEXT
  5
EA
330
CF
100
AcDbEntity
  8
Značka (ISO)
100
AcDbMText
 10
4.291672002492318
 20
20.30710993714994
 30
0.0
 40
5.0
 41
0.0
 71
     1
 72
     1
  1
\fTahoma|b0|i0;\H5.0000;Mat.
  7
Text poznámky (ISO)
 73
     1
 44
1.0
  0
MTEXT
  5
EB
330
CF
100
AcDbEntity
  8
Značka (ISO)
100
AcDbMText
 10
-33.0130165251342
 20
2.473781856899818
 30
0.0
 40
5.0
 41
20.42139291763306
 71
     1
 72
     1
  1
\fTahoma|b0|i0;\H5.0000;xxxxxx
  7
Text poznámky (ISO)
 73
     1
 44
1.0
  0
MTEXT
  5
EC
330
CF
100
AcDbEntity
  8
Značka (ISO)
100
AcDbMText
 10
-5.126613448311374
 20
2.473781856899818
 30
0.0
 40
5.0
 41
0.0
 71
     1
 72
     1
  1
\fTahoma|b0|i0;\H5.0000;xxxxxxxxxxx
  7
Text poznámky (ISO)
 73
     1
 44
1.0
  0
MTEXT
  5
ED
330
CF
100
AcDbEntity
  8
Značka (ISO)
100
AcDbMText
 10
-33.0130165251342
 20
-6.862452441171491
 30
0.0
 40
5.0
 41
20.42139291763306
 71
     1
 72
     1
  1
\fTahoma|b0|i0;\H5.0000;xxxxxx
  7
Text poznámky (ISO)
 73
     1
 44
1.0
  0
MTEXT
  5
EE
330
CF
100
AcDbEntity
  8
Značka (ISO)
100
AcDbMText
 10
-5.126613448311374
 20
-6.862452441171491
 30
0.0
 40
5.0
 41
0.0
 71
     1
 72
     1
  1
\fTahoma|b0|i0;\H5.0000;xxxxxxxxxxx
  7
Text poznámky (ISO)
 73
     1
 44
1.0
  0
MTEXT
  5
EF
330
CF
100
AcDbEntity
  8
Značka (ISO)
100
AcDbMText
 10
-33.0130165251342
 20
-15.52177565039578
 30
0.0
 40
5.0
 41
20.42139291763306
 71
     1
 72
     1
  1
\fTahoma|b0|i0;\H5.0000;xxxxxx
  7
Text poznámky (ISO)
 73
     1
 44
1.0
  0
MTEXT
  5
F0
330
CF
100
AcDbEntity
  8
Značka (ISO)
100
AcDbMText
 10
-5.126613448311374
 20
-15.52177565039578
 30
0.0
 40
5.0
 41
0.0
 71
     1
 72
     1
  1
\fTahoma|b0|i0;\H5.0000;xxxxxxxxxxx
  7
Text poznámky (ISO)
 73
     1
 44
1.0
  0
ENDBLK
  5
D1
330
CF
100
AcDbEntity
  8
0
100
AcDbBlockEnd
  0
BLOCK
  5
F2
330
F1
100
AcDbEntity
  8
0
100
AcDbBlockBegin
  2
Art. s popisy
 70
     0
 10
0.0
 20
0.0
 30
0.0
  3
Art. s popisy
  1

  0
LINE
  5
F4
330
F1
100
AcDbEntity
  8
Geometrie náčrtu (ISO)
100
AcDbLine
 10
-60.00000000000081
 20
-22.5
 30
0.0
 11
59.99999999999911
 21
-22.5
 31
0.0
  0
LINE
  5
F5
330
F1
100
AcDbEntity
  8
Geometrie náčrtu (ISO)
100
AcDbLine
 10
59.99999999999911
 20
-22.5
 30
0.0
 11
60.00000000000081
 21
-13.50000000000001
 31
0.0
  0
LINE
  5
F6
330
F1
100
AcDbEntity
  8
Geometrie náčrtu (ISO)
100
AcDbLine
 10
60.00000000000081
 20
-13.50000000000001
 30
0.0
 11
-60.00000000000081
 21
-13.49999999999998
 31
0.0
  0
LINE
  5
F7
330
F1
100
AcDbEntity
  8
Geometrie náčrtu (ISO)
100
AcDbLine
 10
-60.00000000000081
 20
-13.49999999999998
 30
0.0
 11
-60.00000000000081
 21
-22.5
 31
0.0
  0
LINE
  5
F8
330
F1
100
AcDbEntity
  8
Geometrie náčrtu (ISO)
100
AcDbLine
 10
-60.00000000000081
 20
-13.49999999999998
 30
0.0
 11
60.00000000000081
 21
-13.50000000000001
 31
0.0
  0
LINE
  5
F9
330
F1
100
AcDbEntity
  8
Geometrie náčrtu (ISO)
100
AcDbLine
 10
60.00000000000081
 20
-13.50000000000001
 30
0.0
 11
59.99999999999911
 21
-4.500000000000028
 31
0.0
  0
LINE
  5
FA
330
F1
100
AcDbEntity
  8
Geometrie náčrtu (ISO)
100
AcDbLine
 10
59.99999999999911
 20
-4.500000000000028
 30
0.0
 11
-60.00000000000081
 21
-4.499999999999992
 31
0.0
  0
LINE
  5
FB
330
F1
100
AcDbEntity
  8
Geometrie náčrtu (ISO)
100
AcDbLine
 10
-60.00000000000081
 20
-4.499999999999992
 30
0.0
 11
-60.00000000000081
 21
-13.49999999999998
 31
0.0
  0
LINE
  5
FC
330
F1
100
AcDbEntity
  8
Geometrie náčrtu (ISO)
100
AcDbLine
 10
-60.00000000000081
 20
-4.499999999999992
 30
0.0
 11
59.99999999999911
 21
-4.500000000000028
 31
0.0
  0
LINE
  5
FD
330
F1
100
AcDbEntity
  8
Geometrie náčrtu (ISO)
100
AcDbLine
 10
59.99999999999911
 20
-4.500000000000028
 30
0.0
 11
59.99999999999911
 21
4.499999999999957
 31
0.0
  0
LINE
  5
FE
330
F1
100
AcDbEntity
  8
Geometrie náčrtu (ISO)
100
AcDbLine
 10
59.99999999999911
 20
4.499999999999957
 30
0.0
 11
-60.00000000000081
 21
4.499999999999992
 31
0.0
  0
LINE
  5
FF
330
F1
100
AcDbEntity
  8
Geometrie náčrtu (ISO)
100
AcDbLine
 10
-60.00000000000081
 20
4.499999999999992
 30
0.0
 11
-60.00000000000081
 21
-4.499999999999992
 31
0.0
  0
LINE
  5
100
330
F1
100
AcDbEntity
  8
Geometrie náčrtu (ISO)
100
AcDbLine
 10
-60.00000000000081
 20
4.499999999999992
 30
0.0
 11
59.99999999999911
 21
4.499999999999957
 31
0.0
  0
LINE
  5
101
330
F1
100
AcDbEntity
  8
Geometrie náčrtu (ISO)
100
AcDbLine
 10
59.99999999999911
 20
4.499999999999957
 30
0.0
 11
59.99999999999911
 21
13.49999999999998
 31
0.0
  0
LINE
  5
102
330
F1
100
AcDbEntity
  8
Geometrie náčrtu (ISO)
100
AcDbLine
 10
59.99999999999911
 20
13.49999999999998
 30
0.0
 11
-60.00000000000081
 21
13.50000000000001
 31
0.0
  0
LINE
  5
103
330
F1
100
AcDbEntity
  8
Geometrie náčrtu (ISO)
100
AcDbLine
 10
-60.00000000000081
 20
13.50000000000001
 30
0.0
 11
-60.00000000000081
 21
4.499999999999992
 31
0.0
  0
LINE
  5
104
330
F1
100
AcDbEntity
  8
Geometrie náčrtu (ISO)
100
AcDbLine
 10
-60.00000000000081
 20
13.50000000000001
 30
0.0
 11
59.99999999999911
 21
13.49999999999998
 31
0.0
  0
LINE
  5
105
330
F1
100
AcDbEntity
  8
Geometrie náčrtu (ISO)
100
AcDbLine
 10
59.99999999999911
 20
13.49999999999998
 30
0.0
 11
59.99999999999911
 21
22.49999999999996
 31
0.0
  0
LINE
  5
106
330
F1
100
AcDbEntity
  8
Geometrie náčrtu (ISO)
100
AcDbLine
 10
59.99999999999911
 20
22.49999999999996
 30
0.0
 11
-60.00000000000081
 21
22.5
 31
0.0
  0
LINE
  5
107
330
F1
100
AcDbEntity
  8
Geometrie náčrtu (ISO)
100
AcDbLine
 10
-60.00000000000081
 20
22.5
 30
0.0
 11
-60.00000000000081
 21
13.50000000000001
 31
0.0
  0
LINE
  5
108
330
F1
100
AcDbEntity
  8
Geometrie náčrtu (ISO)
100
AcDbLine
 10
-32.00000000000081
 20
22.5
 30
0.0
 11
-32.00000000000081
 21
-22.5
 31
0.0
  0
MTEXT
  5
109
330
F1
100
AcDbEntity
  8
Značka (ISO)
100
AcDbMText
 10
-27.63552601875791
 20
11.7684641726084
 30
0.0
 40
5.0
 41
0.0
 71
     1
 72
     1
  1
\fTahoma|b0|i0;\H5.0000;xxxxxxxxxxx
  7
Text poznámky (ISO)
 73
     1
 44
1.0
  0
MTEXT
  5
10A
330
F1
100
AcDbEntity
  8
Značka (ISO)
100
AcDbMText
 10
-55.52192909558073
 20
11.7684641726084
 30
0.0
 40
5.0
 41
20.42139291763306
 71
     1
 72
     1
  1
\fTahoma|b0|i0;\H5.0000;xxxxxx
  7
Text poznámky (ISO)
 73
     1
 44
1.0
  0
MTEXT
  5
10B
330
F1
100
AcDbEntity
  8
Značka (ISO)
100
AcDbMText
 10
-54.58647492063526
 20
20.30710993714994
 30
0.0
 40
5.0
 41
13.92583036716939
 71
     1
 72
     1
  1
\fTahoma|b0|i0;\H5.0000;Art.
  7
Text poznámky (ISO)
 73
     1
 44
1.0
  0
MTEXT
  5
10C
330
F1
100
AcDbEntity
  8
Značka (ISO)
100
AcDbMText
 10
-18.21724056795421
 20
20.30710993714994
 30
0.0
 40
5.0
 41
0.0
 71
     1
 72
     1
  1
\fTahoma|b0|i0;\H5.0000;Popis.
  7
Text poznámky (ISO)
 73
     1
 44
1.0
  0
MTEXT
  5
10D
330
F1
100
AcDbEntity
  8
Značka (ISO)
100
AcDbMText
 10
-55.52192909558073
 20
2.473781856899818
 30
0.0
 40
5.0
 41
20.42139291763306
 71
     1
 72
     1
  1
\fTahoma|b0|i0;\H5.0000;xxxxxx
  7
Text poznámky (ISO)
 73
     1
 44
1.0
  0
MTEXT
  5
10E
330
F1
100
AcDbEntity
  8
Značka (ISO)
100
AcDbMText
 10
-27.63552601875791
 20
2.473781856899818
 30
0.0
 40
5.0
 41
0.0
 71
     1
 72
     1
  1
\fTahoma|b0|i0;\H5.0000;xxxxxxxxxxx
  7
Text poznámky (ISO)
 73
     1
 44
1.0
  0
MTEXT
  5
10F
330
F1
100
AcDbEntity
  8
Značka (ISO)
100
AcDbMText
 10
-55.52192909558073
 20
-6.862452441171491
 30
0.0
 40
5.0
 41
20.42139291763306
 71
     1
 72
     1
  1
\fTahoma|b0|i0;\H5.0000;xxxxxx
  7
Text poznámky (ISO)
 73
     1
 44
1.0
  0
MTEXT
  5
110
330
F1
100
AcDbEntity
  8
Značka (ISO)
100
AcDbMText
 10
-27.63552601875791
 20
-6.862452441171491
 30
0.0
 40
5.0
 41
0.0
 71
     1
 72
     1
  1
\fTahoma|b0|i0;\H5.0000;xxxxxxxxxxx
  7
Text poznámky (ISO)
 73
     1
 44
1.0
  0
MTEXT
  5
111
330
F1
100
AcDbEntity
  8
Značka (ISO)
100
AcDbMText
 10
-55.52192909558073
 20
-15.52177565039578
 30
0.0
 40
5.0
 41
20.42139291763306
 71
     1
 72
     1
  1
\fTahoma|b0|i0;\H5.0000;xxxxxx
  7
Text poznámky (ISO)
 73
     1
 44
1.0
  0
MTEXT
  5
112
330
F1
100
AcDbEntity
  8
Značka (ISO)
100
AcDbMText
 10
-27.63552601875791
 20
-15.52177565039578
 30
0.0
 40
5.0
 41
0.0
 71
     1
 72
     1
  1
\fTahoma|b0|i0;\H5.0000;xxxxxxxxxxx
  7
Text poznámky (ISO)
 73
     1
 44
1.0
  0
ENDBLK
  5
F3
330
F1
100
AcDbEntity
  8
0
100
AcDbBlockEnd
  0
BLOCK
  5
114
330
113
100
AcDbEntity
  8
0
100
AcDbBlockBegin
  2
Tryskat
 70
     0
 10
0.0
 20
0.0
 30
0.0
  3
Tryskat
  1

  0
MTEXT
  5
116
330
113
100
AcDbEntity
  8
Značka (ISO)
100
AcDbMText
 10
-30.20239114761352
 20
5.036920197308063
 30
0.0
 40
3.499999940395355
 41
0.0
 71
     1
 72
     1
  1
Tryskat \P( Blasted , Glasperlstrahken)
  7
Text poznámky (ISO)
 73
     2
 44
0.9878841638565063
  0
ENDBLK
  5
115
330
113
100
AcDbEntity
  8
0
100
AcDbBlockEnd
  0
BLOCK
  5
118
330
117
100
AcDbEntity
  8
0
100
AcDbBlockBegin
  2
Morit
 70
     0
 10
0.0
 20
0.0
 30
0.0
  3
Morit
  1

  0
MTEXT
  5
11A
330
117
100
AcDbEntity
  8
Značka (ISO)
100
AcDbMText
 10
-19.08124089241028
 20
5.11633675545454
 30
0.0
 40
3.499999940395355
 41
0.0
 71
     1
 72
     1
  1
Morit a pasivovat\P(Pickled, gebeitzt)
  7
Text poznámky (ISO)
 73
     2
 44
0.9878841638565063
  0
ENDBLK
  5
119
330
117
100
AcDbEntity
  8
0
100
AcDbBlockEnd
  0
BLOCK
  5
11C
330
11B
100
AcDbEntity
  8
0
100
AcDbBlockBegin
  2
zinkovat
 70
     0
 10
0.0
 20
0.0
 30
0.0
  3
zinkovat
  1

  0
MTEXT
  5
11E
330
11B
100
AcDbEntity
  8
Značka (ISO)
100
AcDbMText
 10
-27.74189710617065
 20
5.049683563411233
 30
0.0
 40
3.499999940395355
 41
0.0
 71
     1
 72
     1
  1
Zarove zinkovat\P(hot galvanized, verzinkt )
  7
Text poznámky (ISO)
 73
     2
 44
0.9878841638565063
  0
ENDBLK
  5
11D
330
11B
100
AcDbEntity
  8
0
100
AcDbBlockEnd
  0
BLOCK
  5
120
330
11F
100
AcDbEntity
  8
0
100
AcDbBlockBegin
  2
Nater
 70
     0
 10
0.0
 20
0.0
 30
0.0
  3
Nater
  1

  0
MTEXT
  5
122
330
11F
100
AcDbEntity
  8
Značka (ISO)
100
AcDbMText
 10
-25.88411808013916
 20
1.864870421122757
 30
0.0
 40
3.499999940395355
 41
0.0
 71
     1
 72
     1
  1
Lackiert Farbe RAL 5002
  7
Text poznámky (ISO)
 73
     1
 44
1.0
  0
ENDBLK
  5
121
330
11F
100
AcDbEntity
  8
0
100
AcDbBlockEnd
  0
BLOCK
  5
124
330
123
100
AcDbEntity
  8
0
100
AcDbBlockBegin
  2
Brus
 70
     0
 10
0.0
 20
0.0
 30
0.0
  3
Brus
  1

  0
MTEXT
  5
126
330
123
100
AcDbEntity
  8
Značka (ISO)
100
AcDbMText
 10
-23.46616744995117
 20
5.11633675545454
 30
0.0
 40
3.499999940395355
 41
0.0
 71
     1
 72
     1
  1
Brousit\P(geburstet , brushed )
  7
Text poznámky (ISO)
 73
     2
 44
0.9878841638565063
  0
ENDBLK
  5
125
330
123
100
AcDbEntity
  8
0
100
AcDbBlockEnd
  0
BLOCK
  5
128
330
127
100
AcDbEntity
  8
0
100
AcDbBlockBegin
  2
Elektroliticky lestit
 70
     0
 10
0.0
 20
0.0
 30
0.0
  3
Elektroliticky lestit
  1

  0
MTEXT
  5
12A
330
127
100
AcDbEntity
  8
Značka (ISO)
100
AcDbMText
 10
-18.68841171264648
 20
5.036920197308063
 30
0.0
 40
3.499999940395355
 41
0.0
 71
     1
 72
     1
  1
Elektrolit. lestit\P(Elektropolished )
  7
Text poznámky (ISO)
 73
     2
 44
0.9878841638565063
  0
ENDBLK
  5
129
330
127
100
AcDbEntity
  8
0
100
AcDbBlockEnd
  0
BLOCK
  5
12D
330
12C
100
AcDbEntity
  8
0
100
AcDbBlockBegin
  2
Rámečky Default Border
 70
     0
 10
0.0
 20
0.0
 30
0.0
  3
Rámečky Default Border
  1

  0
POLYLINE
  5
12F
330
12C
100
AcDbEntity
  8
Rámeček (ISO)
100
AcDb2dPolyline
 66
     1
 10
0.0
 20
0.0
 30
0.0
 70
   128
  0
VERTEX
  5
130
330
12F
100
AcDbEntity
  8
Rámeček (ISO)
100
AcDbVertex
100
AcDb2dVertex
 10
10.0
 20
10.0
 30
0.0
  0
VERTEX
  5
131
330
12F
100
AcDbEntity
  8
Rámeček (ISO)
100
AcDbVertex
100
AcDb2dVertex
 10
10.0
 20
410.0
 30
0.0
  0
VERTEX
  5
133
330
12F
100
AcDbEntity
  8
Rámeček (ISO)
100
AcDbVertex
100
AcDb2dVertex
 10
584.0000152587889
 20
410.0
 30
0.0
  0
VERTEX
  5
134
330
12F
100
AcDbEntity
  8
Rámeček (ISO)
100
AcDbVertex
100
AcDb2dVertex
 10
584.0000152587889
 20
10.0
 30
0.0
  0
VERTEX
  5
135
330
12F
100
AcDbEntity
  8
Rámeček (ISO)
100
AcDbVertex
100
AcDb2dVertex
 10
10.0
 20
10.0
 30
0.0
  0
SEQEND
  5
132
330
12F
100
AcDbEntity
  8
Rámeček (ISO)
  0
POLYLINE
  5
136
330
12C
100
AcDbEntity
  8
Rámeček (ISO)
100
AcDb2dPolyline
 66
     1
 10
0.0
 20
0.0
 30
0.0
 70
   128
  0
VERTEX
  5
137
330
136
100
AcDbEntity
  8
Rámeček (ISO)
100
AcDbVertex
100
AcDb2dVertex
 10
297.0000076293946
 20
0.0
 30
0.0
  0
VERTEX
  5
138
330
136
100
AcDbEntity
  8
Rámeček (ISO)
100
AcDbVertex
100
AcDb2dVertex
 10
297.0000076293946
 20
10.0
 30
0.0
  0
VERTEX
  5
13A
330
136
100
AcDbEntity
  8
Rámeček (ISO)
100
AcDbVertex
100
AcDb2dVertex
 10
294.1132545471191
 20
5.0
 30
0.0
  0
VERTEX
  5
13B
330
136
100
AcDbEntity
  8
Rámeček (ISO)
100
AcDbVertex
100
AcDb2dVertex
 10
299.8867607116699
 20
5.0
 30
0.0
  0
VERTEX
  5
13C
330
136
100
AcDbEntity
  8
Rámeček (ISO)
100
AcDbVertex
100
AcDb2dVertex
 10
297.0000076293946
 20
10.0
 30
0.0
  0
SEQEND
  5
139
330
136
100
AcDbEntity
  8
Rámeček (ISO)
  0
POLYLINE
  5
13D
330
12C
100
AcDbEntity
  8
Rámeček (ISO)
100
AcDb2dPolyline
 66
     1
 10
0.0
 20
0.0
 30
0.0
 70
   128
  0
VERTEX
  5
13E
330
13D
100
AcDbEntity
  8
Rámeček (ISO)
100
AcDbVertex
100
AcDb2dVertex
 10
297.0000076293946
 20
420.0
 30
0.0
  0
VERTEX
  5
13F
330
13D
100
AcDbEntity
  8
Rámeček (ISO)
100
AcDbVertex
100
AcDb2dVertex
 10
297.0000076293946
 20
410.0
 30
0.0
  0
VERTEX
  5
141
330
13D
100
AcDbEntity
  8
Rámeček (ISO)
100
AcDbVertex
100
AcDb2dVertex
 10
294.1132545471191
 20
415.0
 30
0.0
  0
VERTEX
  5
142
330
13D
100
AcDbEntity
  8
Rámeček (ISO)
100
AcDbVertex
100
AcDb2dVertex
 10
299.8867607116699
 20
415.0
 30
0.0
  0
VERTEX
  5
143
330
13D
100
AcDbEntity
  8
Rámeček (ISO)
100
AcDbVertex
100
AcDb2dVertex
 10
297.0000076293946
 20
410.0
 30
0.0
  0
SEQEND
  5
140
330
13D
100
AcDbEntity
  8
Rámeček (ISO)
  0
POLYLINE
  5
144
330
12C
100
AcDbEntity
  8
Rámeček (ISO)
100
AcDb2dPolyline
 66
     1
 10
0.0
 20
0.0
 30
0.0
 70
   128
  0
VERTEX
  5
145
330
144
100
AcDbEntity
  8
Rámeček (ISO)
100
AcDbVertex
100
AcDb2dVertex
 10
0.0
 20
210.0
 30
0.0
  0
VERTEX
  5
146
330
144
100
AcDbEntity
  8
Rámeček (ISO)
100
AcDbVertex
100
AcDb2dVertex
 10
10.0
 20
210.0
 30
0.0
  0
VERTEX
  5
148
330
144
100
AcDbEntity
  8
Rámeček (ISO)
100
AcDbVertex
100
AcDb2dVertex
 10
5.0
 20
212.8867530822754
 30
0.0
  0
VERTEX
  5
149
330
144
100
AcDbEntity
  8
Rámeček (ISO)
100
AcDbVertex
100
AcDb2dVertex
 10
5.0
 20
207.1132469177246
 30
0.0
  0
VERTEX
  5
14A
330
144
100
AcDbEntity
  8
Rámeček (ISO)
100
AcDbVertex
100
AcDb2dVertex
 10
10.0
 20
210.0
 30
0.0
  0
SEQEND
  5
147
330
144
100
AcDbEntity
  8
Rámeček (ISO)
  0
POLYLINE
  5
14B
330
12C
100
AcDbEntity
  8
Rámeček (ISO)
100
AcDb2dPolyline
 66
     1
 10
0.0
 20
0.0
 30
0.0
 70
   128
  0
VERTEX
  5
14C
330
14B
100
AcDbEntity
  8
Rámeček (ISO)
100
AcDbVertex
100
AcDb2dVertex
 10
594.0000152587892
 20
210.0
 30
0.0
  0
VERTEX
  5
14D
330
14B
100
AcDbEntity
  8
Rámeček (ISO)
100
AcDbVertex
100
AcDb2dVertex
 10
584.0000152587889
 20
210.0
 30
0.0
  0
VERTEX
  5
14F
330
14B
100
AcDbEntity
  8
Rámeček (ISO)
100
AcDbVertex
100
AcDb2dVertex
 10
589.0000152587889
 20
212.8867530822754
 30
0.0
  0
VERTEX
  5
150
330
14B
100
AcDbEntity
  8
Rámeček (ISO)
100
AcDbVertex
100
AcDb2dVertex
 10
589.0000152587889
 20
207.1132469177246
 30
0.0
  0
VERTEX
  5
151
330
14B
100
AcDbEntity
  8
Rámeček (ISO)
100
AcDbVertex
100
AcDb2dVertex
 10
584.0000152587889
 20
210.0
 30
0.0
  0
SEQEND
  5
14E
330
14B
100
AcDbEntity
  8
Rámeček (ISO)
  0
LINE
  5
152
330
12C
100
AcDbEntity
  8
Rámeček (ISO)
100
AcDbLine
 10
74.25000190734862
 20
10.0
 30
0.0
 11
74.25000190734862
 21
6.100000143051147
 31
0.0
  0
LINE
  5
153
330
12C
100
AcDbEntity
  8
Rámeček (ISO)
100
AcDbLine
 10
74.25000190734862
 20
410.0
 30
0.0
 11
74.25000190734862
 21
413.8999938964841
 31
0.0
  0
LINE
  5
154
330
12C
100
AcDbEntity
  8
Rámeček (ISO)
100
AcDbLine
 10
148.5000038146973
 20
10.0
 30
0.0
 11
148.5000038146973
 21
6.100000143051147
 31
0.0
  0
LINE
  5
155
330
12C
100
AcDbEntity
  8
Rámeček (ISO)
100
AcDbLine
 10
148.5000038146973
 20
410.0
 30
0.0
 11
148.5000038146973
 21
413.8999938964841
 31
0.0
  0
LINE
  5
156
330
12C
100
AcDbEntity
  8
Rámeček (ISO)
100
AcDbLine
 10
222.7499961853027
 20
10.0
 30
0.0
 11
222.7499961853027
 21
6.100000143051147
 31
0.0
  0
LINE
  5
157
330
12C
100
AcDbEntity
  8
Rámeček (ISO)
100
AcDbLine
 10
222.7499961853027
 20
410.0
 30
0.0
 11
222.7499961853027
 21
413.8999938964841
 31
0.0
  0
LINE
  5
158
330
12C
100
AcDbEntity
  8
Rámeček (ISO)
100
AcDbLine
 10
371.25
 20
10.0
 30
0.0
 11
371.25
 21
6.100000143051147
 31
0.0
  0
LINE
  5
159
330
12C
100
AcDbEntity
  8
Rámeček (ISO)
100
AcDbLine
 10
371.25
 20
410.0
 30
0.0
 11
371.25
 21
413.8999938964841
 31
0.0
  0
LINE
  5
15A
330
12C
100
AcDbEntity
  8
Rámeček (ISO)
100
AcDbLine
 10
445.4999923706052
 20
10.0
 30
0.0
 11
445.4999923706052
 21
6.100000143051147
 31
0.0
  0
LINE
  5
15B
330
12C
100
AcDbEntity
  8
Rámeček (ISO)
100
AcDbLine
 10
445.4999923706052
 20
410.0
 30
0.0
 11
445.4999923706052
 21
413.8999938964841
 31
0.0
  0
LINE
  5
15C
330
12C
100
AcDbEntity
  8
Rámeček (ISO)
100
AcDbLine
 10
519.7499847412108
 20
10.0
 30
0.0
 11
519.7499847412108
 21
6.100000143051147
 31
0.0
  0
LINE
  5
15D
330
12C
100
AcDbEntity
  8
Rámeček (ISO)
100
AcDbLine
 10
519.7499847412108
 20
410.0
 30
0.0
 11
519.7499847412108
 21
413.8999938964841
 31
0.0
  0
MTEXT
  5
15E
330
12C
100
AcDbEntity
  8
Rámeček (ISO)
100
AcDbMText
 10
556.0853922448459
 20
410.4
 30
0.0
 40
3.499999940395355
 41
0.0
 71
     7
 72
     1
  1
1
  7
Text poznámky (ISO)
 73
     1
 44
1.0
  0
MTEXT
  5
15F
330
12C
100
AcDbEntity
  8
Rámeček (ISO)
100
AcDbMText
 10
556.0853922448459
 20
6.100000059604642
 30
0.0
 40
3.499999940395355
 41
0.0
 71
     7
 72
     1
  1
1
  7
Text poznámky (ISO)
 73
     1
 44
1.0
  0
MTEXT
  5
160
330
12C
100
AcDbEntity
  8
Rámeček (ISO)
100
AcDbMText
 10
481.5637915541735
 20
410.4
 30
0.0
 40
3.499999940395355
 41
0.0
 71
     7
 72
     1
  1
2
  7
Text poznámky (ISO)
 73
     1
 44
1.0
  0
MTEXT
  5
161
330
12C
100
AcDbEntity
  8
Rámeček (ISO)
100
AcDbMText
 10
481.5637915541735
 20
6.100000059604642
 30
0.0
 40
3.499999940395355
 41
0.0
 71
     7
 72
     1
  1
2
  7
Text poznámky (ISO)
 73
     1
 44
1.0
  0
MTEXT
  5
162
330
12C
100
AcDbEntity
  8
Rámeček (ISO)
100
AcDbMText
 10
407.2857914829701
 20
410.3262560764327
 30
0.0
 40
3.499999940395355
 41
0.0
 71
     7
 72
     1
  1
3
  7
Text poznámky (ISO)
 73
     1
 44
1.0
  0
MTEXT
  5
163
330
12C
100
AcDbEntity
  8
Rámeček (ISO)
100
AcDbMText
 10
407.2857914829701
 20
6.026256136037407
 30
0.0
 40
3.499999940395355
 41
0.0
 71
     7
 72
     1
  1
3
  7
Text poznámky (ISO)
 73
     1
 44
1.0
  0
MTEXT
  5
164
330
12C
100
AcDbEntity
  8
Rámeček (ISO)
100
AcDbMText
 10
332.9041911483145
 20
410.4
 30
0.0
 40
3.499999940395355
 41
0.0
 71
     7
 72
     1
  1
4
  7
Text poznámky (ISO)
 73
     1
 44
1.0
  0
MTEXT
  5
165
330
12C
100
AcDbEntity
  8
Rámeček (ISO)
100
AcDbMText
 10
332.9041911483145
 20
6.100000059604642
 30
0.0
 40
3.499999940395355
 41
0.0
 71
     7
 72
     1
  1
4
  7
Text poznámky (ISO)
 73
     1
 44
1.0
  0
MTEXT
  5
166
330
12C
100
AcDbEntity
  8
Rámeček (ISO)
100
AcDbMText
 10
258.8501916467381
 20
410.3262560764327
 30
0.0
 40
3.499999940395355
 41
0.0
 71
     7
 72
     1
  1
5
  7
Text poznámky (ISO)
 73
     1
 44
1.0
  0
MTEXT
  5
167
330
12C
100
AcDbEntity
  8
Rámeček (ISO)
100
AcDbMText
 10
258.8501916467381
 20
6.026256136037407
 30
0.0
 40
3.499999940395355
 41
0.0
 71
     7
 72
     1
  1
5
  7
Text poznámky (ISO)
 73
     1
 44
1.0
  0
MTEXT
  5
168
330
12C
100
AcDbEntity
  8
Rámeček (ISO)
100
AcDbMText
 10
184.5077914117669
 20
410.3262560764327
 30
0.0
 40
3.499999940395355
 41
0.0
 71
     7
 72
     1
  1
6
  7
Text poznámky (ISO)
 73
     1
 44
1.0
  0
MTEXT
  5
169
330
12C
100
AcDbEntity
  8
Rámeček (ISO)
100
AcDbMText
 10
184.5077914117669
 20
6.026256136037407
 30
0.0
 40
3.499999940395355
 41
0.0
 71
     7
 72
     1
  1
6
  7
Text poznámky (ISO)
 73
     1
 44
1.0
  0
MTEXT
  5
16A
330
12C
100
AcDbEntity
  8
Rámeček (ISO)
100
AcDbMText
 10
110.2913914972109
 20
410.4
 30
0.0
 40
3.499999940395355
 41
0.0
 71
     7
 72
     1
  1
7
  7
Text poznámky (ISO)
 73
     1
 44
1.0
  0
MTEXT
  5
16B
330
12C
100
AcDbEntity
  8
Rámeček (ISO)
100
AcDbMText
 10
110.2913914972109
 20
6.100000059604642
 30
0.0
 40
3.499999940395355
 41
0.0
 71
     7
 72
     1
  1
7
  7
Text poznámky (ISO)
 73
     1
 44
1.0
  0
MTEXT
  5
16C
330
12C
100
AcDbEntity
  8
Rámeček (ISO)
100
AcDbMText
 10
35.9825913476839
 20
410.3205834697932
 30
0.0
 40
3.499999940395355
 41
0.0
 71
     7
 72
     1
  1
8
  7
Text poznámky (ISO)
 73
     1
 44
1.0
  0
MTEXT
  5
16D
330
12C
100
AcDbEntity
  8
Rámeček (ISO)
100
AcDbMText
 10
35.9825913476839
 20
6.020583529397844
 30
0.0
 40
3.499999940395355
 41
0.0
 71
     7
 72
     1
  1
8
  7
Text poznámky (ISO)
 73
     1
 44
1.0
  0
LINE
  5
16E
330
12C
100
AcDbEntity
  8
Rámeček (ISO)
100
AcDbLine
 10
10.0
 20
70.0
 30
0.0
 11
6.100000143051147
 21
70.0
 31
0.0
  0
LINE
  5
16F
330
12C
100
AcDbEntity
  8
Rámeček (ISO)
100
AcDbLine
 10
584.0000152587889
 20
70.0
 30
0.0
 11
587.9000091552732
 21
70.0
 31
0.0
  0
LINE
  5
170
330
12C
100
AcDbEntity
  8
Rámeček (ISO)
100
AcDbLine
 10
10.0
 20
140.0
 30
0.0
 11
6.100000143051147
 21
140.0
 31
0.0
  0
LINE
  5
171
330
12C
100
AcDbEntity
  8
Rámeček (ISO)
100
AcDbLine
 10
584.0000152587889
 20
140.0
 30
0.0
 11
587.9000091552732
 21
140.0
 31
0.0
  0
LINE
  5
172
330
12C
100
AcDbEntity
  8
Rámeček (ISO)
100
AcDbLine
 10
10.0
 20
280.0
 30
0.0
 11
6.100000143051147
 21
280.0
 31
0.0
  0
LINE
  5
173
330
12C
100
AcDbEntity
  8
Rámeček (ISO)
100
AcDbLine
 10
584.0000152587889
 20
280.0
 30
0.0
 11
587.9000091552732
 21
280.0
 31
0.0
  0
LINE
  5
174
330
12C
100
AcDbEntity
  8
Rámeček (ISO)
100
AcDbLine
 10
10.0
 20
350.0
 30
0.0
 11
6.100000143051147
 21
350.0
 31
0.0
  0
LINE
  5
175
330
12C
100
AcDbEntity
  8
Rámeček (ISO)
100
AcDbLine
 10
584.0000152587889
 20
350.0
 30
0.0
 11
587.9000091552732
 21
350.0
 31
0.0
  0
MTEXT
  5
176
330
12C
100
AcDbEntity
  8
Rámeček (ISO)
100
AcDbMText
 10
6.361230343933396
 20
33.25000002980232
 30
0.0
 40
3.499999940395355
 41
0.0
 71
     7
 72
     1
  1
A
  7
Text poznámky (ISO)
 73
     1
 44
1.0
  0
MTEXT
  5
177
330
12C
100
AcDbEntity
  8
Rámeček (ISO)
100
AcDbMText
 10
584.6612302843287
 20
33.25000002980232
 30
0.0
 40
3.499999940395355
 41
0.0
 71
     7
 72
     1
  1
A
  7
Text poznámky (ISO)
 73
     1
 44
1.0
  0
MTEXT
  5
178
330
12C
100
AcDbEntity
  8
Rámeček (ISO)
100
AcDbMText
 10
6.781848468328937
 20
103.2500000298023
 30
0.0
 40
3.499999940395355
 41
0.0
 71
     7
 72
     1
  1
B
  7
Text poznámky (ISO)
 73
     1
 44
1.0
  0
MTEXT
  5
179
330
12C
100
AcDbEntity
  8
Rámeček (ISO)
100
AcDbMText
 10
585.0818484087242
 20
103.2500000298023
 30
0.0
 40
3.499999940395355
 41
0.0
 71
     7
 72
     1
  1
B
  7
Text poznámky (ISO)
 73
     1
 44
1.0
  0
MTEXT
  5
17A
330
12C
100
AcDbEntity
  8
Rámeček (ISO)
100
AcDbMText
 10
6.558903094188357
 20
173.1876013241708
 30
0.0
 40
3.499999940395355
 41
0.0
 71
     7
 72
     1
  1
C
  7
Text poznámky (ISO)
 73
     1
 44
1.0
  0
MTEXT
  5
17B
330
12C
100
AcDbEntity
  8
Rámeček (ISO)
100
AcDbMText
 10
584.8589030345837
 20
173.1876013241708
 30
0.0
 40
3.499999940395355
 41
0.0
 71
     7
 72
     1
  1
C
  7
Text poznámky (ISO)
 73
     1
 44
1.0
  0
MTEXT
  5
17C
330
12C
100
AcDbEntity
  8
Rámeček (ISO)
100
AcDbMText
 10
6.56770745709084
 20
243.2500000298023
 30
0.0
 40
3.499999940395355
 41
0.0
 71
     7
 72
     1
  1
D
  7
Text poznámky (ISO)
 73
     1
 44
1.0
  0
MTEXT
  5
17D
330
12C
100
AcDbEntity
  8
Rámeček (ISO)
100
AcDbMText
 10
584.8677073974861
 20
243.2500000298023
 30
0.0
 40
3.499999940395355
 41
0.0
 71
     7
 72
     1
  1
D
  7
Text poznámky (ISO)
 73
     1
 44
1.0
  0
MTEXT
  5
17E
330
12C
100
AcDbEntity
  8
Rámeček (ISO)
100
AcDbMText
 10
6.849919803883061
 20
313.2500000298023
 30
0.0
 40
3.499999940395355
 41
0.0
 71
     7
 72
     1
  1
E
  7
Text poznámky (ISO)
 73
     1
 44
1.0
  0
MTEXT
  5
17F
330
12C
100
AcDbEntity
  8
Rámeček (ISO)
100
AcDbMText
 10
585.1499197442782
 20
313.2500000298023
 30
0.0
 40
3.499999940395355
 41
0.0
 71
     7
 72
     1
  1
E
  7
Text poznámky (ISO)
 73
     1
 44
1.0
  0
MTEXT
  5
180
330
12C
100
AcDbEntity
  8
Rámeček (ISO)
100
AcDbMText
 10
6.944936015154347
 20
383.2500000298023
 30
0.0
 40
3.499999940395355
 41
0.0
 71
     7
 72
     1
  1
F
  7
Text poznámky (ISO)
 73
     1
 44
1.0
  0
MTEXT
  5
181
330
12C
100
AcDbEntity
  8
Rámeček (ISO)
100
AcDbMText
 10
585.2449359555496
 20
383.2500000298023
 30
0.0
 40
3.499999940395355
 41
0.0
 71
     7
 72
     1
  1
F
  7
Text poznámky (ISO)
 73
     1
 44
1.0
  0
ENDBLK
  5
12E
330
12C
100
AcDbEntity
  8
0
100
AcDbBlockEnd
  0
BLOCK
  5
184
330
183
100
AcDbEntity
  8
0
100
AcDbBlockBegin
  2
Rohová razítka ACO-razitko
 70
     2
 10
0.0
 20
0.0
 30
0.0
  3
Rohová razítka ACO-razitko
  1

  0
LINE
  5
186
330
183
100
AcDbEntity
  8
KOPF
  6
Continuous
370
    25
100
AcDbLine
 10
264.0
 20
94.01203200000001
 30
0.0
 11
264.0
 21
74.00000000000003
 31
0.0
  0
LINE
  5
187
330
183
100
AcDbEntity
  8
KOPF
  6
Continuous
370
    25
100
AcDbLine
 10
264.0
 20
94.01203200000001
 30
0.0
 11
264.0
 21
74.00000000000003
 31
0.0
  0
CIRCLE
  5
188
330
183
100
AcDbEntity
  8
TEXT50
  6
Continuous
370
    25
100
AcDbCircle
 10
247.5054493575618
 20
83.04852954632861
 30
0.0
 40
1.979948192651899
  0
LINE
  5
189
330
183
100
AcDbEntity
  8
TEXT50
  6
Continuous
370
    25
100
AcDbLine
 10
262.4910595621649
 20
85.02847773898061
 30
0.0
 11
262.4910595621649
 21
81.06858135367653
 31
0.0
  0
LINE
  5
18A
330
183
100
AcDbEntity
  8
TEXT50
  6
Continuous
370
    25
100
AcDbLine
 10
253.9413433929653
 20
87.07146289795376
 30
0.0
 11
253.9413433929653
 21
79.02559619470344
 31
0.0
  0
LINE
  5
18B
330
183
100
AcDbEntity
  8
TEXT50
  6
Continuous
370
    25
100
AcDbLine
 10
262.4910595621649
 20
85.02847773898061
 30
0.0
 11
253.9413433929653
 21
87.07146289795376
 31
0.0
  0
CIRCLE
  5
18C
330
183
100
AcDbEntity
  8
TEXT50
  6
Continuous
370
    25
100
AcDbCircle
 10
247.5054493575618
 20
83.04852954632861
 30
0.0
 40
4.022933351625178
  0
LINE
  5
18D
330
183
100
AcDbEntity
  8
TEXT50
  6
Continuous
370
    25
100
AcDbLine
 10
253.9413433929653
 20
79.02559619470344
 30
0.0
 11
262.4910595621649
 21
81.06858135367653
 31
0.0
  0
CIRCLE
  5
18E
330
183
100
AcDbEntity
  8
TEXT35
  6
Continuous
370
    25
100
AcDbCircle
 10
221.0936673107637
 20
101.9131972309053
 30
0.0
 40
2.281499999999998
  0
CIRCLE
  5
18F
330
183
100
AcDbEntity
  8
TEXT35
  6
Continuous
370
    25
100
AcDbCircle
 10
221.0936673107637
 20
101.9131972309053
 30
0.0
 40
1.579499999999999
  0
ARC
  5
190
330
183
100
AcDbEntity
  8
TEXT35
  6
Continuous
370
    25
100
AcDbCircle
 10
214.6291610736662
 20
101.9131972309054
 30
0.0
 40
1.57950000000007
100
AcDbArc
 50
31.05580049908738
 51
329.9999999999987
  0
LINE
  5
191
330
183
100
AcDbEntity
  8
TEXT35
  6
Continuous
370
    25
100
AcDbLine
 10
215.9822639109751
 20
102.7280180465864
 30
0.0
 11
216.5902852082589
 21
103.0790593062462
 31
0.0
  0
ARC
  5
192
330
183
100
AcDbEntity
  8
TEXT35
  6
Continuous
370
    25
100
AcDbCircle
 10
214.6291610736662
 20
101.9131972309052
 30
0.0
 40
2.281500000000015
100
AcDbArc
 50
30.73091726592628
 51
330.0000000000017
  0
LINE
  5
193
330
183
100
AcDbEntity
  8
TEXT35
  6
Continuous
370
    25
100
AcDbLine
 10
216.6049980324005
 20
100.7724472309053
 30
0.0
 11
215.9970481989438
 21
101.1234472309053
 31
0.0
  0
LINE
  5
194
330
183
100
AcDbEntity
  8
TEXT35
  6
Continuous
370
    25
100
AcDbLine
 10
211.8347763192409
 20
111.6789659312995
 30
0.0
 11
211.8347763192409
 21
98.44416361029551
 31
0.0
  0
LINE
  5
195
330
183
100
AcDbEntity
  8
TEXT35
  6
Continuous
370
    25
100
AcDbLine
 10
211.8347763192409
 20
98.44416361029551
 30
0.0
 11
217.4235458280916
 21
98.44416361029551
 31
0.0
  0
LINE
  5
196
330
183
100
AcDbEntity
  8
TEXT35
  6
Continuous
370
    25
100
AcDbLine
 10
217.4235458280916
 20
98.44416361029551
 30
0.0
 11
217.4235458280916
 21
111.6789659312995
 31
0.0
  0
LINE
  5
197
330
183
100
AcDbEntity
  8
TEXT35
  6
Continuous
370
    25
100
AcDbLine
 10
217.4235458280916
 20
111.6789659312995
 30
0.0
 11
211.8347763192409
 21
111.6789659312995
 31
0.0
  0
LINE
  5
198
330
183
100
AcDbEntity
  8
TEXT35
  6
Continuous
370
    25
100
AcDbLine
 10
223.888052065189
 20
111.6789659312995
 30
0.0
 11
223.888052065189
 21
98.44416361029551
 31
0.0
  0
LINE
  5
199
330
183
100
AcDbEntity
  8
TEXT35
  6
Continuous
370
    25
100
AcDbLine
 10
223.888052065189
 20
98.44416361029551
 30
0.0
 11
218.2992825563384
 21
98.44416361029551
 31
0.0
  0
LINE
  5
19A
330
183
100
AcDbEntity
  8
TEXT35
  6
Continuous
370
    25
100
AcDbLine
 10
218.2992825563384
 20
98.44416361029551
 30
0.0
 11
218.2992825563384
 21
111.6789659312995
 31
0.0
  0
LINE
  5
19B
330
183
100
AcDbEntity
  8
TEXT35
  6
Continuous
370
    25
100
AcDbLine
 10
218.2992825563384
 20
111.6789659312995
 30
0.0
 11
223.888052065189
 21
111.6789659312995
 31
0.0
  0
ARC
  5
19C
330
183
100
AcDbEntity
  8
TEXT35
  6
Continuous
370
    25
100
AcDbCircle
 10
211.499154836569
 20
99.57623034270234
 30
0.0
 40
4.914000000000251
100
AcDbArc
 50
172.305837035409
 51
179.7113029220757
  0
LINE
  5
19D
330
183
100
AcDbEntity
  8
TEXT35
  6
Continuous
370
    25
100
AcDbLine
 10
206.6293963427935
 20
100.2341423522474
 30
0.0
 11
209.6999133303443
 21
100.2341423522474
 31
0.0
  0
ARC
  5
19E
330
183
100
AcDbEntity
  8
TEXT35
  6
Continuous
370
    25
100
AcDbCircle
 10
204.8301548365688
 20
99.57623034270323
 30
0.0
 40
4.914000000000132
100
AcDbArc
 50
0.2886970779141535
 51
7.694162964580896
  0
LINE
  5
19F
330
183
100
AcDbEntity
  8
TEXT35
  6
Continuous
370
    25
100
AcDbLine
 10
209.7440924568018
 20
99.60099048123304
 30
0.0
 11
210.4461002543538
 21
99.60099048123304
 31
0.0
  0
ARC
  5
1A0
330
183
100
AcDbEntity
  8
TEXT35
  6
Continuous
370
    25
100
AcDbCircle
 10
204.8301548365688
 20
99.5762303427033
 30
0.0
 40
5.616000000000016
100
AcDbArc
 50
0.2526096926473688
 51
53.57642635766914
  0
ARC
  5
1A1
330
183
100
AcDbEntity
  8
TEXT35
  6
Continuous
370
    25
100
AcDbCircle
 10
211.4991548365688
 20
99.57623034270323
 30
0.0
 40
5.616000000000023
100
AcDbArc
 50
126.4235736423304
 51
179.7473903073512
  0
LINE
  5
1A2
330
183
100
AcDbEntity
  8
TEXT35
  6
Continuous
370
    25
100
AcDbLine
 10
205.8832094187838
 20
99.60099048123304
 30
0.0
 11
206.5852172163358
 21
99.60099048123304
 31
0.0
  0
LINE
  5
1A3
330
183
100
AcDbEntity
  8
TEXT35
  6
Continuous
370
    25
100
AcDbLine
 10
205.3702700821435
 20
111.6789659312995
 30
0.0
 11
205.3702700821435
 21
98.44416361029551
 31
0.0
  0
LINE
  5
1A4
330
183
100
AcDbEntity
  8
TEXT35
  6
Continuous
370
    25
100
AcDbLine
 10
205.3702700821435
 20
98.44416361029551
 30
0.0
 11
210.9590395909941
 21
98.44416361029551
 31
0.0
  0
LINE
  5
1A5
330
183
100
AcDbEntity
  8
TEXT35
  6
Continuous
370
    25
100
AcDbLine
 10
210.9590395909941
 20
98.44416361029551
 30
0.0
 11
210.9590395909941
 21
111.6789659312995
 31
0.0
  0
LINE
  5
1A6
330
183
100
AcDbEntity
  8
TEXT35
  6
Continuous
370
    25
100
AcDbLine
 10
210.9590395909941
 20
111.6789659312995
 30
0.0
 11
205.3702700821435
 21
111.6789659312995
 31
0.0
  0
ARC
  5
1A7
330
183
100
AcDbEntity
  8
TEXT35
  6
Continuous
370
    25
100
AcDbCircle
 10
204.830154836569
 20
99.57623034270341
 30
0.0
 40
4.913999999999818
100
AcDbArc
 50
16.0658750272321
 51
47.26788995739759
  0
LINE
  5
1A8
330
183
100
AcDbEntity
  8
TEXT35
  6
Continuous
370
    25
100
AcDbLine
 10
209.5522343918387
 20
100.9361423522474
 30
0.0
 11
206.7770752812989
 21
100.9361423522474
 31
0.0
  0
ARC
  5
1A9
330
183
100
AcDbEntity
  8
TEXT35
  6
Continuous
370
    25
100
AcDbCircle
 10
211.4991548365683
 20
99.57623034270341
 30
0.0
 40
4.913999999999566
100
AcDbArc
 50
132.7321100425983
 51
163.9341249727667
  0
LINE
  5
1AA
330
183
100
AcDbEntity
  8
Nadpis (ISO)
100
AcDbLine
 10
299.0
 20
114.0
 30
0.0
 11
299.0
 21
45.0
 31
0.0
  0
LINE
  5
1AB
330
183
100
AcDbEntity
  8
Nadpis (ISO)
100
AcDbLine
 10
299.0
 20
45.0
 30
0.0
 11
117.0
 21
44.99999999999999
 31
0.0
  0
LINE
  5
1AC
330
183
100
AcDbEntity
  8
Nadpis (ISO)
100
AcDbLine
 10
117.0
 20
44.99999999999999
 30
0.0
 11
117.0
 21
114.0
 31
0.0
  0
LINE
  5
1AD
330
183
100
AcDbEntity
  8
Nadpis (ISO)
100
AcDbLine
 10
117.0
 20
114.0
 30
0.0
 11
299.0
 21
114.0
 31
0.0
  0
LINE
  5
1AE
330
183
100
AcDbEntity
  8
Nadpis (ISO)
100
AcDbLine
 10
199.0
 20
114.0
 30
0.0
 11
199.0
 21
93.99999999999998
 31
0.0
  0
LINE
  5
1AF
330
183
100
AcDbEntity
  8
KOPF
100
AcDbLine
 10
199.0
 20
104.0
 30
0.0
 11
117.0
 21
104.0
 31
0.0
  0
LINE
  5
1B0
330
183
100
AcDbEntity
  8
Nadpis (ISO)
100
AcDbLine
 10
199.0
 20
93.99999999999998
 30
0.0
 11
117.0
 21
93.99999999999996
 31
0.0
  0
LINE
  5
1B1
330
183
100
AcDbEntity
  8
KOPF
100
AcDbLine
 10
158.0
 20
93.99999999999998
 30
0.0
 11
158.0
 21
114.0
 31
0.0
  0
LINE
  5
1B2
330
183
100
AcDbEntity
  8
Nadpis (ISO)
100
AcDbLine
 10
199.0
 20
93.99999999999998
 30
0.0
 11
299.0
 21
93.99999999999998
 31
0.0
  0
LINE
  5
1B3
330
183
100
AcDbEntity
  8
Nadpis (ISO)
100
AcDbLine
 10
216.0
 20
94.00000000000003
 30
0.0
 11
216.0
 21
44.99999999999999
 31
0.0
  0
LINE
  5
1B4
330
183
100
AcDbEntity
  8
Nadpis (ISO)
100
AcDbLine
 10
299.0
 20
74.00000000000004
 30
0.0
 11
117.0
 21
73.99999999999998
 31
0.0
  0
LINE
  5
1B5
330
183
100
AcDbEntity
  8
Nadpis (ISO)
100
AcDbLine
 10
186.0
 20
94.0
 30
0.0
 11
186.0
 21
74.00000000000002
 31
0.0
  0
LINE
  5
1B6
330
183
100
AcDbEntity
  8
KOPF
100
AcDbLine
 10
137.0
 20
93.99999999999998
 30
0.0
 11
137.0
 21
74.0
 31
0.0
  0
LINE
  5
1B7
330
183
100
AcDbEntity
  8
KOPF
100
AcDbLine
 10
162.0
 20
93.99999999999998
 30
0.0
 11
162.0
 21
74.0
 31
0.0
  0
LINE
  5
1B8
330
183
100
AcDbEntity
  8
KOPF
100
AcDbLine
 10
186.0
 20
84.0
 30
0.0
 11
117.0
 21
83.99999999999996
 31
0.0
  0
LINE
  5
1B9
330
183
100
AcDbEntity
  8
KOPF
100
AcDbLine
 10
186.0
 20
79.0
 30
0.0
 11
117.0
 21
78.99999999999997
 31
0.0
  0
LINE
  5
1BA
330
183
100
AcDbEntity
  8
KOPF
100
AcDbLine
 10
186.0
 20
89.0
 30
0.0
 11
117.0
 21
88.99999999999996
 31
0.0
  0
LINE
  5
1BB
330
183
100
AcDbEntity
  8
KOPF
100
AcDbLine
 10
216.0
 20
50.0
 30
0.0
 11
299.0
 21
50.0
 31
0.0
  0
LINE
  5
1BC
330
183
100
AcDbEntity
  8
Nadpis (ISO)
100
AcDbLine
 10
216.0
 20
55.0
 30
0.0
 11
299.0
 21
55.0
 31
0.0
  0
LINE
  5
1BD
330
183
100
AcDbEntity
  8
KOPF
100
AcDbLine
 10
238.0000000000001
 20
93.99999999999998
 30
0.0
 11
238.0000000000001
 21
74.00000000000003
 31
0.0
  0
LINE
  5
1BE
330
183
100
AcDbEntity
  8
KOPF
100
AcDbLine
 10
238.0000000000001
 20
84.00000000000003
 30
0.0
 11
216.0
 21
84.00000000000003
 31
0.0
  0
LINE
  5
1BF
330
183
100
AcDbEntity
  8
Nadpis (ISO)
100
AcDbLine
 10
287.0
 20
74.00000000000004
 30
0.0
 11
287.0
 21
55.0
 31
0.0
  0
LINE
  5
1C0
330
183
100
AcDbEntity
  8
KOPF
100
AcDbLine
 10
289.0
 20
50.0
 30
0.0
 11
289.0
 21
45.0
 31
0.0
  0
LINE
  5
1C1
330
183
100
AcDbEntity
  8
Nadpis (ISO)
100
AcDbLine
 10
260.9160465310349
 20
50.0
 30
0.0
 11
260.9160465310349
 21
45.0
 31
0.0
  0
TEXT
  5
1C3
330
183
100
AcDbEntity
  8
Viditelná tenká (ISO)
100
AcDbText
 10
266.0
 20
84.97994933403729
 30
0.0
 40
1.539999991655349
  1
zum Zweck anderweitiger Benutzung
 41
0.7999999523162842
  7
Styl textu62
100
AcDbText
  0
TEXT
  5
1C5
330
183
100
AcDbEntity
  8
Viditelná tenká (ISO)
100
AcDbText
 10
266.0
 20
82.63814072439631
 30
0.0
 40
1.539999991655349
  1
mitgeteilt werden und bleibt unser
 41
0.7999999523162842
  7
Styl textu62
100
AcDbText
  0
TEXT
  5
1C6
330
183
100
AcDbEntity
  8
Viditelná tenká (ISO)
100
AcDbText
 10
266.0
 20
87.26106040199921
 30
0.0
 40
1.539999991655349
  1
noch dritten Personen, insbesondere
 41
0.7999999523162842
  7
Styl textu62
100
AcDbText
  0
TEXT
  5
1C7
330
183
100
AcDbEntity
  8
Viditelná tenká (ISO)
100
AcDbText
 10
266.0
 20
89.6282322587214
 30
0.0
 40
1.539999991655349
  1
Diese Zeichnung darf weder kopiert
 41
0.7999999523162842
  7
Styl textu62
100
AcDbText
  0
TEXT
  5
1C8
330
183
100
AcDbEntity
  8
Viditelná tenká (ISO)
100
AcDbText
 10
266.0
 20
80.37532604459597
 30
0.0
 40
1.539999991655349
  1
Eigentum.
 41
0.7999999523162842
  7
Styl textu62
100
AcDbText
  0
TEXT
  5
1CA
330
183
100
AcDbEntity
  8
Viditelná tenká (ISO)
100
AcDbText
 10
241.877559521167
 20
90.82431699999998
 30
0.0
 40
2.000000029802321
  1
Projektion: ISO-E
 41
0.7999999523162842
  7
Styl textu58
100
AcDbText
  0
TEXT
  5
1CC
330
183
100
AcDbEntity
  8
Viditelná tenká (ISO)
100
AcDbText
 10
266.0
 20
77.30982488917627
 30
0.0
 40
1.539999991655349
  1
Schutzvermerk nach DIN 34 beachten
 41
0.75
  7
Styl textu63
100
AcDbText
  0
TEXT
  5
1CD
330
183
100
AcDbEntity
  8
Viditelná tenká (ISO)
100
AcDbText
 10
236.2487793316645
 20
99.38243367792949
 30
0.0
 40
2.000000029802321
  1
582 22 Přibyslav
 41
0.7999999523162842
  7
Styl textu58
100
AcDbText
  0
TEXT
  5
1CF
330
183
100
AcDbEntity
  8
Viditelná tenká (ISO)
100
AcDbText
 10
261.6984261202779
 20
99.57784645000472
 30
0.0
 40
2.099999934434889
  1
Fax: 0451 / 482529
 41
0.7000000476837159
  7
Styl textu72
100
AcDbText
  0
TEXT
  5
1D0
330
183
100
AcDbEntity
  8
Viditelná tenká (ISO)
100
AcDbText
 10
236.5351154208068
 20
103.0087314099309
 30
0.0
 40
2.000000029802321
  1
Havličkova 260
 41
0.7999999523162842
  7
Styl textu58
100
AcDbText
  0
TEXT
  5
1D2
330
183
100
AcDbEntity
  8
TEXT35
100
AcDbText
 10
235.9801354774567
 20
108.2018007493417
 30
0.0
 40
3.000000119209288
  1
ACO Stavebni prvky k.s
 41
0.7999999523162842
  7
Styl textu75
100
AcDbText
  0
TEXT
  5
1D3
330
183
100
AcDbEntity
  8
Viditelná tenká (ISO)
100
AcDbText
 10
261.6456899832647
 20
102.9064533471121
 30
0.0
 40
2.099999934434889
  1
Tel.: 0451 / 491660
 41
0.7000000476837159
  7
Styl textu72
100
AcDbText
  0
MTEXT
  5
1D4
330
183
100
AcDbEntity
  8
Viditelná tenká (ISO)
100
AcDbMText
 10
217.3570092483237
 20
73.27889989032858
 30
0.0
 40
2.000000029802321
 41
0.0
 71
     1
 72
     1
  1
\fArial|b0|i0;\H2.0000;Zeichnung Nr.
  7
Text poznámky (ISO)
 73
     1
 44
1.0
  0
MTEXT
  5
1D5
330
183
100
AcDbEntity
  8
Viditelná tenká (ISO)
100
AcDbMText
 10
287.9433731401013
 20
72.84063462326732
 30
0.0
 40
2.000000029802321
 41
0.0
 71
     1
 72
     1
  1
\fArial|b0|i0;\H2.0000;Index
  7
Text poznámky (ISO)
 73
     1
 44
1.0
  0
MTEXT
  5
1D6
330
183
100
AcDbEntity
  8
Viditelná tenká (ISO)
100
AcDbMText
 10
217.1230582952341
 20
52.63510416823109
 30
0.0
 40
2.000000029802321
 41
0.0
 71
     1
 72
     1
  1
\fArial|b0|i0;\H2.0000;Ersatz fur\PErsatz durch
  7
Text poznámky (ISO)
 73
     2
 44
0.9442214369773862
  0
MTEXT
  5
1D7
330
183
100
AcDbEntity
  8
Viditelná tenká (ISO)
100
AcDbMText
 10
188.9161081342839
 20
93.0
 30
0.0
 40
2.000000029802321
 41
0.0
 71
     1
 72
     1
  1
\fArial|b0|i0;\H2.0000;Massstab
  7
Text poznámky (ISO)
 73
     1
 44
1.0
  0
MTEXT
  5
1D8
330
183
100
AcDbEntity
  8
Viditelná tenká (ISO)
100
AcDbMText
 10
217.0
 20
93.0
 30
0.0
 40
2.000000029802321
 41
0.0
 71
     1
 72
     1
  1
\fArial|b0|i0;\H2.0000;Masseinheit
  7
Text poznámky (ISO)
 73
     1
 44
1.0
  0
MTEXT
  5
1D9
330
183
100
AcDbEntity
  8
Viditelná tenká (ISO)
100
AcDbMText
 10
118.0
 20
113.0
 30
0.0
 40
2.000000029802321
 41
0.0
 71
     1
 72
     1
  1
\fArial|b0|i0;\H2.0000;Werkstoff.
  7
Text poznámky (ISO)
 73
     1
 44
1.0
  0
MTEXT
  5
1DA
330
183
100
AcDbEntity
  8
Viditelná tenká (ISO)
100
AcDbMText
 10
159.0
 20
113.0
 30
0.0
 40
2.000000029802321
 41
0.0
 71
     1
 72
     1
  1
\fArial|b0|i0;\H2.0000;Hmotnost
  7
Text poznámky (ISO)
 73
     1
 44
1.0
  0
MTEXT
  5
1DB
330
183
100
AcDbEntity
  8
Viditelná tenká (ISO)
100
AcDbMText
 10
118.0
 20
103.0
 30
0.0
 40
2.000000029802321
 41
0.0
 71
     1
 72
     1
  1
\fArial|b0|i0;\H2.0000;zul.Abweich.
  7
Text poznámky (ISO)
 73
     1
 44
1.0
  0
MTEXT
  5
1DC
330
183
100
AcDbEntity
  8
Viditelná tenká (ISO)
100
AcDbMText
 10
159.0
 20
103.0
 30
0.0
 40
2.000000029802321
 41
0.0
 71
     1
 72
     1
  1
\fArial|b0|i0;\H2.0000;Oberflache
  7
Text poznámky (ISO)
 73
     1
 44
1.0
  0
MTEXT
  5
1DD
330
183
100
AcDbEntity
  8
Viditelná tenká (ISO)
100
AcDbMText
 10
118.2064366962235
 20
87.52498463872976
 30
0.0
 40
2.000000029802321
 41
0.0
 71
     1
 72
     1
  1
\fArial|b0|i0;\H2.0000;Gezeichnet
  7
Text poznámky (ISO)
 73
     1
 44
1.0
  0
MTEXT
  5
1DE
330
183
100
AcDbEntity
  8
Viditelná tenká (ISO)
100
AcDbMText
 10
118.2064366962235
 20
82.79398756785594
 30
0.0
 40
2.000000029802321
 41
0.0
 71
     1
 72
     1
  1
\fArial|b0|i0;\H2.0000;Gepruft
  7
Text poznámky (ISO)
 73
     1
 44
1.0
  0
MTEXT
  5
1DF
330
183
100
AcDbEntity
  8
Viditelná tenká (ISO)
100
AcDbMText
 10
118.2064366962235
 20
77.59713566222233
 30
0.0
 40
2.000000029802321
 41
0.0
 71
     1
 72
     1
  1
\fArial|b0|i0;\H2.0000;Update
  7
Text poznámky (ISO)
 73
     1
 44
1.0
  0
MTEXT
  5
1E0
330
183
100
AcDbEntity
  8
Viditelná tenká (ISO)
100
AcDbMText
 10
143.0
 20
93.0
 30
0.0
 40
2.000000029802321
 41
0.0
 71
     1
 72
     1
  1
\fArial|b0|i0;\H2.0000;Datum
  7
Text poznámky (ISO)
 73
     1
 44
1.0
  0
MTEXT
  5
1E1
330
183
100
AcDbEntity
  8
Viditelná tenká (ISO)
100
AcDbMText
 10
170.0
 20
93.0
 30
0.0
 40
2.000000029802321
 41
0.0
 71
     1
 72
     1
  1
\fArial|b0|i0;\H2.0000;Name
  7
Text poznámky (ISO)
 73
     1
 44
1.0
  0
MTEXT
  5
1E2
102
{ACAD_XDICTIONARY
360
3AA9
102
}
330
183
100
AcDbEntity
  8
Nadpis (ISO)
100
AcDbMText
 10
118.0
 20
71.0
 30
0.0
 40
3.499999940395355
 41
0.0
 71
     1
 72
     1
  1
Effidrai sestava dvoud\U+00EDln\U+00E1  157 vodorovn\U+00E1
  7
Text poznámky (ISO)
 73
     1
 44
1.0
  0
MTEXT
  5
1E3
330
183
100
AcDbEntity
  8
Nadpis (ISO)
100
AcDbMText
 10
138.6542642016321
 20
87.78242706242744
 30
0.0
 40
2.000000029802321
 41
0.0
 71
     1
 72
     1
  1
\fTahoma|b0|i0;\H2.0000;11.8.2009
  7
Text poznámky (ISO)
 73
     1
 44
1.0
  0
MTEXT
  5
1E4
330
183
100
AcDbEntity
  8
Nadpis (ISO)
100
AcDbMText
 10
118.9147684950603
 20
98.79632878646518
 30
0.0
 40
3.499999940395355
 41
0.0
 71
     1
 72
     1
  1
ISO 2768-m
  7
Text poznámky (ISO)
 73
     1
 44
1.0
  0
MTEXT
  5
1E5
330
183
100
AcDbEntity
  8
Nadpis (ISO)
100
AcDbMText
 10
162.5831033854
 20
99.20167780246003
 30
0.0
 40
3.499999940395355
 41
0.0
 71
     1
 72
     1
  1
DIN ISO 1302
  7
Text poznámky (ISO)
 73
     1
 44
1.0
  0
MTEXT
  5
1E6
330
183
100
AcDbEntity
  8
Nadpis (ISO)
100
AcDbMText
 10
262.4743825961981
 20
49.17778241269704
 30
0.0
 40
3.499999940395355
 41
0.0
 71
     1
 72
     1
  1
\fArial|b0|i0;\H3.5000;List:\fArial|b0|i0;\H3.5000;1 \fArial|b0|i0;\H3.5000;/\fArial|b0|i0;\H3.5000;1 
  7
Text poznámky (ISO)
 73
     1
 44
1.0
  0
MTEXT
  5
1E7
102
{ACAD_XDICTIONARY
360
3AAB
102
}
330
183
100
AcDbEntity
  8
Nadpis (ISO)
100
AcDbMText
 10
159.4396788094336
 20
109.2360383310952
 30
0.0
 40
3.499999940395355
 41
29.10098367733216
 71
     1
 72
     1
  1
Nen\U+00ED k dispozici
  7
Text poznámky (ISO)
 73
     2
 44
0.9878841638565063
  0
ATTDEF
  5
1E9
102
{ACAD_XDICTIONARY
360
2DF9
102
}
330
183
100
AcDbEntity
  8
Nadpis (ISO)
100
AcDbText
 10
287.4393862219839
 20
62.4856753668063
 30
0.0
 40
3.499999940395355
  1
000
  7
Styl textu9
100
AcDbAttributeDefinition
  3
ČÍSLO REVIZE
  2
ČÍSLO_REVIZE_001
 70
     0
  0
ATTDEF
  5
1ED
102
{ACAD_XDICTIONARY
360
2DFC
102
}
330
183
100
AcDbEntity
  8
Nadpis (ISO)
100
AcDbText
 10
289.7753402652471
 20
46.32882590415592
 30
0.0
 40
2.000000029802321
  1
A2
  7
Styl textu40
100
AcDbAttributeDefinition
  3
Sheet Size
  2
Sheet_Size_001
 70
     0
  0
ATTDEF
  5
1EE
102
{ACAD_XDICTIONARY
360
2DFF
102
}
330
183
100
AcDbEntity
  8
Nadpis (ISO)
100
AcDbText
 10
230.1305737493188
 20
51.10091360311345
 30
0.0
 40
2.000000029802321
  1
C:\Inventor_DATA\Projekty\Guly\Effidrain\Effidrain sestava dvoudílná  157 vodorovná\408078.iam
  7
Styl textu40
100
AcDbAttributeDefinition
  3
FILENAME AND PATH
  2
FILENAME_AND_PATH_001
 70
     0
  0
ATTDEF
  5
1EF
102
{ACAD_XDICTIONARY
360
2E02
102
}
330
183
100
AcDbEntity
  8
Nadpis (ISO)
100
AcDbText
 10
217.9059771674843
 20
62.42008065196634
 30
0.0
 40
3.499999940395355
  1
408078
  7
Text poznámky (ISO)
100
AcDbAttributeDefinition
  3
PART NUMBER
  2
PART_NUMBER_001
 70
     0
  0
ATTDEF
  5
1F0
102
{ACAD_XDICTIONARY
360
2E05
102
}
330
183
100
AcDbEntity
  8
Nadpis (ISO)
100
AcDbText
 10
118.0
 20
56.50000005960464
 30
0.0
 40
3.499999940395355
  1

  7
Text poznámky (ISO)
 11
118.0
 21
60.0
 31
0.0
100
AcDbAttributeDefinition
  3
PROJECT
  2
PROJECT
 70
     0
 74
     3
  0
ATTDEF
  5
1F2
102
{ACAD_XDICTIONARY
360
2E08
102
}
330
183
100
AcDbEntity
  8
Nadpis (ISO)
100
AcDbText
 10
117.8119543349687
 20
47.73407435882505
 30
0.0
 40
6.99999988079071
  1
408078
  7
Styl textu94
100
AcDbAttributeDefinition
  3
SKLADOVÉ ČÍSLO
  2
SKLADOVÉ_ČÍSLO_001
 70
     0
  0
ATTDEF
  5
1F3
102
{ACAD_XDICTIONARY
360
2E0B
102
}
330
183
100
AcDbEntity
  8
Nadpis (ISO)
100
AcDbText
 10
117.5939056808251
 20
105.1756658592857
 30
0.0
 40
3.499999940395355
  1

  7
Text poznámky (ISO)
 11
117.5939056808251
 21
108.6756657996811
 31
0.0
100
AcDbAttributeDefinition
  3
MATERIAL
  2
MATERIAL
 70
     0
 74
     3
  0
ATTDEF
  5
1F4
102
{ACAD_XDICTIONARY
360
2E0E
102
}
330
183
100
AcDbEntity
  8
Nadpis (ISO)
100
AcDbText
 10
165.0470513532835
 20
85.78242703262512
 30
0.0
 40
2.000000029802321
  1
pmacoun
  7
Styl textu40
100
AcDbAttributeDefinition
  3
AUTHOR
  2
AUTHOR_001
 70
     0
  0
ATTDEF
  5
1F5
102
{ACAD_XDICTIONARY
360
2E11
102
}
330
183
100
AcDbEntity
  8
Nadpis (ISO)
100
AcDbText
 10
189.1855699863978
 20
82.50038826992808
 30
0.0
 40
3.499999940395355
  1

  7
Text poznámky (ISO)
 11
189.1855699863978
 21
86.00038821032343
 31
0.0
100
AcDbAttributeDefinition
  3
VS_First
  2
VS_First
 70
     0
 74
     3
  0
ENDBLK
  5
185
330
183
100
AcDbEntity
  8
0
100
AcDbBlockEnd
  0
BLOCK
  5
2820
330
281F
100
AcDbEntity
  8
0
100
AcDbBlockBegin
  2
KUSOVNÍK
 70
     0
 10
0.0
 20
0.0
 30
0.0
  3
KUSOVNÍK
  1

  0
LINE
  5
2822
330
281F
100
AcDbEntity
  8
Značka (ISO)
100
AcDbLine
 10
584.0
 20
142.4870119690895
 30
0.0
 11
345.1362884209809
 21
142.4870119690895
 31
0.0
  0
LINE
  5
2823
330
281F
100
AcDbEntity
  8
Značka (ISO)
100
AcDbLine
 10
584.0
 20
142.4870119690895
 30
0.0
 11
584.0
 21
136.1383107721806
 31
0.0
  0
LINE
  5
2824
330
281F
100
AcDbEntity
  8
Značka (ISO)
100
AcDbLine
 10
345.1362884209809
 20
142.4870119690895
 30
0.0
 11
345.1362884209809
 21
136.1383107721806
 31
0.0
  0
MTEXT
  5
2825
102
{ACAD_XDICTIONARY
360
3AAD
102
}
330
281F
100
AcDbEntity
  8
Značka (ISO)
100
AcDbMText
 10
454.0247657989598
 20
136.8629860192537
 30
0.0
 40
3.499999940395355
 41
0.0
 71
     7
 72
     1
  1
KUSOVN\U+00CDK
  7
Text poznámky (DIN)
 73
     1
 44
1.0
  0
LINE
  5
2827
330
281F
100
AcDbEntity
  8
Značka (ISO)
100
AcDbLine
 10
584.0
 20
136.1383107721806
 30
0.0
 11
345.1362884209809
 21
136.1383107721806
 31
0.0
  0
LINE
  5
2828
330
281F
100
AcDbEntity
  8
Značka (ISO)
100
AcDbLine
 10
584.0
 20
136.1383107721806
 30
0.0
 11
584.0
 21
129.7896095752717
 31
0.0
  0
MTEXT
  5
2829
102
{ACAD_XDICTIONARY
360
3AAF
102
}
330
281F
100
AcDbEntity
  8
Značka (ISO)
100
AcDbMText
 10
546.2201448374856
 20
130.5142848223448
 30
0.0
 40
3.499999940395355
 41
0.0
 71
     7
 72
     1
  1
MATERI\U+00C1L
  7
Text poznámky (DIN)
 73
     1
 44
1.0
  0
LINE
  5
282A
330
281F
100
AcDbEntity
  8
Značka (ISO)
100
AcDbLine
 10
528.8257477843483
 20
136.1383107721806
 30
0.0
 11
528.8257477843483
 21
129.7896095752717
 31
0.0
  0
MTEXT
  5
282B
330
281F
100
AcDbEntity
  8
Značka (ISO)
100
AcDbMText
 10
505.0580189680784
 20
131.2139602035284
 30
0.0
 40
3.499999940395355
 41
0.0
 71
     7
 72
     1
  1
HMOTNOST
  7
Text poznámky (DIN)
 73
     1
 44
1.0
  0
LINE
  5
282C
330
281F
100
AcDbEntity
  8
Značka (ISO)
100
AcDbLine
 10
503.4257477843483
 20
136.1383107721806
 30
0.0
 11
503.4257477843483
 21
129.7896095752717
 31
0.0
  0
MTEXT
  5
282D
102
{ACAD_XDICTIONARY
360
3AB1
102
}
330
281F
100
AcDbEntity
  8
Značka (ISO)
100
AcDbMText
 10
479.8333436464994
 20
130.5142848223448
 30
0.0
 40
3.499999940395355
 41
0.0
 71
     7
 72
     1
  1
SKLADOV\U+00C9
  7
Text poznámky (DIN)
 73
     1
 44
1.0
  0
LINE
  5
282E
330
281F
100
AcDbEntity
  8
Značka (ISO)
100
AcDbLine
 10
478.0257477843483
 20
136.1383107721806
 30
0.0
 11
478.0257477843483
 21
129.7896095752717
 31
0.0
  0
MTEXT
  5
282F
330
281F
100
AcDbEntity
  8
Značka (ISO)
100
AcDbMText
 10
417.530821503897
 20
131.2139602035284
 30
0.0
 40
3.499999940395355
 41
0.0
 71
     7
 72
     1
  1
POPIS
  7
Text poznámky (DIN)
 73
     1
 44
1.0
  0
LINE
  5
2830
330
281F
100
AcDbEntity
  8
Značka (ISO)
100
AcDbLine
 10
368.6745994017778
 20
136.1383107721806
 30
0.0
 11
368.6745994017778
 21
129.7896095752717
 31
0.0
  0
MTEXT
  5
2831
330
281F
100
AcDbEntity
  8
Značka (ISO)
100
AcDbMText
 10
362.4795977173513
 20
131.2139602035284
 30
0.0
 40
3.499999940395355
 41
0.0
 71
     7
 72
     1
  1
KS
  7
Text poznámky (DIN)
 73
     1
 44
1.0
  0
LINE
  5
2832
330
281F
100
AcDbEntity
  8
Značka (ISO)
100
AcDbLine
 10
361.2771969483552
 20
136.1383107721806
 30
0.0
 11
361.2771969483552
 21
129.7896095752717
 31
0.0
  0
MTEXT
  5
2833
330
281F
100
AcDbEntity
  8
Značka (ISO)
100
AcDbMText
 10
346.3386891899771
 20
131.2139602035284
 30
0.0
 40
3.499999940395355
 41
0.0
 71
     7
 72
     1
  1
POZICE
  7
Text poznámky (DIN)
 73
     1
 44
1.0
  0
LINE
  5
2834
330
281F
100
AcDbEntity
  8
Značka (ISO)
100
AcDbLine
 10
345.1362884209809
 20
136.1383107721806
 30
0.0
 11
345.1362884209809
 21
129.7896095752717
 31
0.0
  0
MTEXT
  5
2835
330
281F
100
AcDbEntity
  8
Značka (ISO)
100
AcDbMText
 10
530.0281485533445
 20
124.8652590066195
 30
0.0
 40
3.499999940395355
 41
0.0
 71
     7
 72
     1
  1
AISI 304
  7
Text poznámky (DIN)
 73
     1
 44
1.0
  0
MTEXT
  5
2836
102
{ACAD_XDICTIONARY
360
3AB3
102
}
330
281F
100
AcDbEntity
  8
Značka (ISO)
100
AcDbMText
 10
504.6281485533445
 20
123.6428564041853
 30
0.0
 40
3.499999940395355
 41
0.0
 71
     7
 72
     1
  1
P\U+0159\U+00EDstup 
  7
Text poznámky (DIN)
 73
     1
 44
1.0
  0
MTEXT
  5
2837
102
{ACAD_XDICTIONARY
360
3AB5
102
}
330
281F
100
AcDbEntity
  8
Značka (ISO)
100
AcDbMText
 10
504.6281485533445
 20
118.342856541276
 30
0.0
 40
3.499999940395355
 41
0.0
 71
     7
 72
     1
  1
\U+010Dlena se 
  7
Text poznámky (DIN)
 73
     1
 44
1.0
  0
MTEXT
  5
2838
102
{ACAD_XDICTIONARY
360
3AB7
102
}
330
281F
100
AcDbEntity
  8
Značka (ISO)
100
AcDbMText
 10
504.6281485533445
 20
111.9941554218531
 30
0.0
 40
3.499999940395355
 41
0.0
 71
     7
 72
     1
  1
nezda\U+0159il
  7
Text poznámky (DIN)
 73
     1
 44
1.0
  0
MTEXT
  5
2839
330
281F
100
AcDbEntity
  8
Značka (ISO)
100
AcDbMText
 10
479.2281485533445
 20
124.8652590066195
 30
0.0
 40
3.499999940395355
 41
0.0
 71
     7
 72
     1
  1
E23620
  7
Text poznámky (DIN)
 73
     1
 44
1.0
  0
MTEXT
  5
283A
102
{ACAD_XDICTIONARY
360
3AB9
102
}
330
281F
100
AcDbEntity
  8
Značka (ISO)
100
AcDbMText
 10
369.8770001707738
 20
124.6915576606989
 30
0.0
 40
3.499999940395355
 41
0.0
 71
     7
 72
     1
  1
Effidrai dvoud\U+00EDln\U+00E1  157/DN100 vodorovn\U+00E1 12mm 
  7
Text poznámky (DIN)
 73
     1
 44
1.0
  0
MTEXT
  5
283B
102
{ACAD_XDICTIONARY
360
3ABB
102
}
330
281F
100
AcDbEntity
  8
Značka (ISO)
100
AcDbMText
 10
369.8770001707738
 20
117.2941552847624
 30
0.0
 40
3.499999940395355
 41
0.0
 71
     7
 72
     1
  1
p\U+0159\U+00EDruba AISI 304
  7
Text poznámky (DIN)
 73
     1
 44
1.0
  0
MTEXT
  5
283C
330
281F
100
AcDbEntity
  8
Značka (ISO)
100
AcDbMText
 10
364.4004989518435
 20
124.8652590066195
 30
0.0
 40
3.499999940395355
 41
0.0
 71
     7
 72
     1
  1
1
  7
Text poznámky (DIN)
 73
     1
 44
1.0
  0
MTEXT
  5
283D
330
281F
100
AcDbEntity
  8
Značka (ISO)
100
AcDbMText
 10
352.6313434614452
 20
124.8652590066195
 30
0.0
 40
3.499999940395355
 41
0.0
 71
     7
 72
     1
  1
1
  7
Text poznámky (DIN)
 73
     1
 44
1.0
  0
LINE
  5
283E
330
281F
100
AcDbEntity
  8
Značka (ISO)
100
AcDbLine
 10
584.0
 20
129.7896095752717
 30
0.0
 11
345.1362884209809
 21
129.7896095752717
 31
0.0
  0
MTEXT
  5
283F
330
281F
100
AcDbEntity
  8
Značka (ISO)
100
AcDbMText
 10
530.0281485533445
 20
105.8191554158926
 30
0.0
 40
3.499999940395355
 41
0.0
 71
     7
 72
     1
  1
PVC-U
  7
Text poznámky (DIN)
 73
     1
 44
1.0
  0
MTEXT
  5
2840
330
281F
100
AcDbEntity
  8
Značka (ISO)
100
AcDbMText
 10
504.6281485533445
 20
104.770454159379
 30
0.0
 40
3.499999940395355
 41
0.0
 71
     7
 72
     1
  1
0,069 kg
  7
Text poznámky (DIN)
 73
     1
 44
1.0
  0
MTEXT
  5
2841
330
281F
100
AcDbEntity
  8
Značka (ISO)
100
AcDbMText
 10
479.2281485533445
 20
105.8191554158926
 30
0.0
 40
3.499999940395355
 41
0.0
 71
     7
 72
     1
  1
NM 6702
  7
Text poznámky (DIN)
 73
     1
 44
1.0
  0
MTEXT
  5
2842
102
{ACAD_XDICTIONARY
360
3ABD
102
}
330
281F
100
AcDbEntity
  8
Značka (ISO)
100
AcDbMText
 10
369.8770001707738
 20
104.5967528134585
 30
0.0
 40
3.499999940395355
 41
0.0
 71
     7
 72
     1
  1
n\U+00E1vlek sunap-DN100
  7
Text poznámky (DIN)
 73
     1
 44
1.0
  0
MTEXT
  5
2843
330
281F
100
AcDbEntity
  8
Značka (ISO)
100
AcDbMText
 10
364.4004989518435
 20
105.8191554158926
 30
0.0
 40
3.499999940395355
 41
0.0
 71
     7
 72
     1
  1
1
  7
Text poznámky (DIN)
 73
     1
 44
1.0
  0
MTEXT
  5
2844
330
281F
100
AcDbEntity
  8
Značka (ISO)
100
AcDbMText
 10
352.2851175187296
 20
105.8191554158926
 30
0.0
 40
3.499999940395355
 41
0.0
 71
     7
 72
     1
  1
2
  7
Text poznámky (DIN)
 73
     1
 44
1.0
  0
LINE
  5
2845
330
281F
100
AcDbEntity
  8
Značka (ISO)
100
AcDbLine
 10
584.0
 20
110.7435059845448
 30
0.0
 11
345.1362884209809
 21
110.7435059845448
 31
0.0
  0
MTEXT
  5
2846
330
281F
100
AcDbEntity
  8
Značka (ISO)
100
AcDbMText
 10
529.7257477843483
 20
99.47045421898373
 30
0.0
 40
3.499999940395355
 41
0.0
 71
     7
 72
     1
  1
 
  7
Text poznámky (DIN)
 73
     1
 44
1.0
  0
MTEXT
  5
2847
330
281F
100
AcDbEntity
  8
Značka (ISO)
100
AcDbMText
 10
504.6281485533445
 20
98.42175296247013
 30
0.0
 40
3.499999940395355
 41
0.0
 71
     7
 72
     1
  1
0,476 kg
  7
Text poznámky (DIN)
 73
     1
 44
1.0
  0
MTEXT
  5
2848
330
281F
100
AcDbEntity
  8
Značka (ISO)
100
AcDbMText
 10
479.2281485533445
 20
99.47045421898373
 30
0.0
 40
3.499999940395355
 41
0.0
 71
     7
 72
     1
  1
408205
  7
Text poznámky (DIN)
 73
     1
 44
1.0
  0
MTEXT
  5
2849
102
{ACAD_XDICTIONARY
360
3ABF
102
}
330
281F
100
AcDbEntity
  8
Značka (ISO)
100
AcDbMText
 10
369.8770001707738
 20
98.24805161654957
 30
0.0
 40
3.499999940395355
 41
0.0
 71
     7
 72
     1
  1
Effidrain dren\U+00E1\U+017En\U+00ED krou\U+017Eek komplet 157 + karton
  7
Text poznámky (DIN)
 73
     1
 44
1.0
  0
MTEXT
  5
284A
330
281F
100
AcDbEntity
  8
Značka (ISO)
100
AcDbMText
 10
364.4004989518435
 20
99.47045421898373
 30
0.0
 40
3.499999940395355
 41
0.0
 71
     7
 72
     1
  1
1
  7
Text poznámky (DIN)
 73
     1
 44
1.0
  0
MTEXT
  5
284B
330
281F
100
AcDbEntity
  8
Značka (ISO)
100
AcDbMText
 10
352.2851175187296
 20
99.47045421898373
 30
0.0
 40
3.499999940395355
 41
0.0
 71
     7
 72
     1
  1
3
  7
Text poznámky (DIN)
 73
     1
 44
1.0
  0
LINE
  5
284C
330
281F
100
AcDbEntity
  8
Značka (ISO)
100
AcDbLine
 10
584.0
 20
104.3948047876358
 30
0.0
 11
345.1362884209809
 21
104.3948047876358
 31
0.0
  0
MTEXT
  5
284D
102
{ACAD_XDICTIONARY
360
3AC1
102
}
330
281F
100
AcDbEntity
  8
Značka (ISO)
100
AcDbMText
 10
530.0281485533445
 20
91.8993504196406
 30
0.0
 40
3.499999940395355
 41
0.0
 71
     7
 72
     1
  1
Polykarbon\U+00E1t, kou\U+0159ov\U+00FD
  7
Text poznámky (DIN)
 73
     1
 44
1.0
  0
MTEXT
  5
284E
330
281F
100
AcDbEntity
  8
Značka (ISO)
100
AcDbMText
 10
504.6281485533445
 20
92.07305176556117
 30
0.0
 40
3.499999940395355
 41
0.0
 71
     7
 72
     1
  1
0,020 kg
  7
Text poznámky (DIN)
 73
     1
 44
1.0
  0
MTEXT
  5
284F
330
281F
100
AcDbEntity
  8
Značka (ISO)
100
AcDbMText
 10
479.2281485533445
 20
93.12175302207476
 30
0.0
 40
3.499999940395355
 41
0.0
 71
     7
 72
     1
  1
E29863
  7
Text poznámky (DIN)
 73
     1
 44
1.0
  0
MTEXT
  5
2850
102
{ACAD_XDICTIONARY
360
3AC3
102
}
330
281F
100
AcDbEntity
  8
Značka (ISO)
100
AcDbMText
 10
369.8770001707738
 20
91.8993504196406
 30
0.0
 40
3.499999940395355
 41
0.0
 71
     7
 72
     1
  1
Effidrain kryt plastov\U+00FD 157 pro balen\U+00ED PP 12mm
  7
Text poznámky (DIN)
 73
     1
 44
1.0
  0
MTEXT
  5
2851
330
281F
100
AcDbEntity
  8
Značka (ISO)
100
AcDbMText
 10
364.4004989518435
 20
93.12175302207476
 30
0.0
 40
3.499999940395355
 41
0.0
 71
     7
 72
     1
  1
1
  7
Text poznámky (DIN)
 73
     1
 44
1.0
  0
MTEXT
  5
2852
330
281F
100
AcDbEntity
  8
Značka (ISO)
100
AcDbMText
 10
352.1097928403086
 20
93.12175302207476
 30
0.0
 40
3.499999940395355
 41
0.0
 71
     7
 72
     1
  1
4
  7
Text poznámky (DIN)
 73
     1
 44
1.0
  0
LINE
  5
2853
330
281F
100
AcDbEntity
  8
Značka (ISO)
100
AcDbLine
 10
584.0
 20
98.04610359072693
 30
0.0
 11
345.1362884209809
 21
98.04610359072693
 31
0.0
  0
MTEXT
  5
2854
330
281F
100
AcDbEntity
  8
Značka (ISO)
100
AcDbMText
 10
530.0281485533445
 20
86.77305182516581
 30
0.0
 40
3.499999940395355
 41
0.0
 71
     7
 72
     1
  1
Mosaz
  7
Text poznámky (DIN)
 73
     1
 44
1.0
  0
MTEXT
  5
2855
330
281F
100
AcDbEntity
  8
Značka (ISO)
100
AcDbMText
 10
504.6281485533445
 20
85.72435056865222
 30
0.0
 40
3.499999940395355
 41
0.0
 71
     7
 72
     1
  1
0,005 kg
  7
Text poznámky (DIN)
 73
     1
 44
1.0
  0
MTEXT
  5
2856
330
281F
100
AcDbEntity
  8
Značka (ISO)
100
AcDbMText
 10
479.2281485533445
 20
86.77305182516581
 30
0.0
 40
3.499999940395355
 41
0.0
 71
     7
 72
     1
  1
90678
  7
Text poznámky (DIN)
 73
     1
 44
1.0
  0
MTEXT
  5
2857
102
{ACAD_XDICTIONARY
360
3AC5
102
}
330
281F
100
AcDbEntity
  8
Značka (ISO)
100
AcDbMText
 10
369.8770001707738
 20
86.07337644398219
 30
0.0
 40
3.499999940395355
 41
0.0
 71
     7
 72
     1
  1
\U+0160estihrann\U+00E1 matice M8 DIN 934
  7
Text poznámky (DIN)
 73
     1
 44
1.0
  0
MTEXT
  5
2858
330
281F
100
AcDbEntity
  8
Značka (ISO)
100
AcDbMText
 10
364.4004989518435
 20
86.77305182516581
 30
0.0
 40
3.499999940395355
 41
0.0
 71
     7
 72
     1
  1
1
  7
Text poznámky (DIN)
 73
     1
 44
1.0
  0
MTEXT
  5
2859
330
281F
100
AcDbEntity
  8
Značka (ISO)
100
AcDbMText
 10
352.2851175187296
 20
86.77305182516581
 30
0.0
 40
3.499999940395355
 41
0.0
 71
     7
 72
     1
  1
5
  7
Text poznámky (DIN)
 73
     1
 44
1.0
  0
LINE
  5
285A
330
281F
100
AcDbEntity
  8
Značka (ISO)
100
AcDbLine
 10
584.0
 20
91.69740239381795
 30
0.0
 11
345.1362884209809
 21
91.69740239381795
 31
0.0
  0
MTEXT
  5
285B
330
281F
100
AcDbEntity
  8
Značka (ISO)
100
AcDbMText
 10
530.0281485533445
 20
80.42435062825687
 30
0.0
 40
3.499999940395355
 41
0.0
 71
     7
 72
     1
  1
Plast ABS
  7
Text poznámky (DIN)
 73
     1
 44
1.0
  0
MTEXT
  5
285C
330
281F
100
AcDbEntity
  8
Značka (ISO)
100
AcDbMText
 10
504.6281485533445
 20
79.37564937174328
 30
0.0
 40
3.499999940395355
 41
0.0
 71
     7
 72
     1
  1
0,002 kg
  7
Text poznámky (DIN)
 73
     1
 44
1.0
  0
MTEXT
  5
285D
330
281F
100
AcDbEntity
  8
Značka (ISO)
100
AcDbMText
 10
479.2281485533445
 20
80.42435062825687
 30
0.0
 40
3.499999940395355
 41
0.0
 71
     7
 72
     1
  1
91024
  7
Text poznámky (DIN)
 73
     1
 44
1.0
  0
MTEXT
  5
285E
102
{ACAD_XDICTIONARY
360
3AC7
102
}
330
281F
100
AcDbEntity
  8
Značka (ISO)
100
AcDbMText
 10
369.8770001707738
 20
79.20194802582272
 30
0.0
 40
3.499999940395355
 41
0.0
 71
     7
 72
     1
  1
Krytka  matic 130-034-148 \U+0161estihrann\U+00E1, \U+010Dern\U+00E1
  7
Text poznámky (DIN)
 73
     1
 44
1.0
  0
MTEXT
  5
285F
330
281F
100
AcDbEntity
  8
Značka (ISO)
100
AcDbMText
 10
364.0542730091281
 20
80.42435062825687
 30
0.0
 40
3.499999940395355
 41
0.0
 71
     7
 72
     1
  1
9
  7
Text poznámky (DIN)
 73
     1
 44
1.0
  0
MTEXT
  5
2860
330
281F
100
AcDbEntity
  8
Značka (ISO)
100
AcDbMText
 10
352.2851175187296
 20
80.42435062825687
 30
0.0
 40
3.499999940395355
 41
0.0
 71
     7
 72
     1
  1
6
  7
Text poznámky (DIN)
 73
     1
 44
1.0
  0
LINE
  5
2861
330
281F
100
AcDbEntity
  8
Značka (ISO)
100
AcDbLine
 10
584.0
 20
85.34870119690902
 30
0.0
 11
345.1362884209809
 21
85.34870119690902
 31
0.0
  0
MTEXT
  5
2862
102
{ACAD_XDICTIONARY
360
3AC9
102
}
330
281F
100
AcDbEntity
  8
Značka (ISO)
100
AcDbMText
 10
530.0281485533445
 20
72.85324682891377
 30
0.0
 40
3.499999940395355
 41
0.0
 71
     7
 72
     1
  1
Pap\U+00EDr
  7
Text poznámky (DIN)
 73
     1
 44
1.0
  0
MTEXT
  5
2863
330
281F
100
AcDbEntity
  8
Značka (ISO)
100
AcDbMText
 10
504.6281485533445
 20
73.02694817483433
 30
0.0
 40
3.499999940395355
 41
0.0
 71
     7
 72
     1
  1
0,001 kg
  7
Text poznámky (DIN)
 73
     1
 44
1.0
  0
MTEXT
  5
2864
330
281F
100
AcDbEntity
  8
Značka (ISO)
100
AcDbMText
 10
479.2281485533445
 20
74.07564943134793
 30
0.0
 40
3.499999940395355
 41
0.0
 71
     7
 72
     1
  1
91018
  7
Text poznámky (DIN)
 73
     1
 44
1.0
  0
MTEXT
  5
2865
330
281F
100
AcDbEntity
  8
Značka (ISO)
100
AcDbMText
 10
369.8770001707738
 20
74.07564943134793
 30
0.0
 40
3.499999940395355
 41
0.0
 71
     7
 72
     1
  1
Etiketa
  7
Text poznámky (DIN)
 73
     1
 44
1.0
  0
MTEXT
  5
2866
330
281F
100
AcDbEntity
  8
Značka (ISO)
100
AcDbMText
 10
364.4004989518435
 20
74.07564943134793
 30
0.0
 40
3.499999940395355
 41
0.0
 71
     7
 72
     1
  1
1
  7
Text poznámky (DIN)
 73
     1
 44
1.0
  0
MTEXT
  5
2867
330
281F
100
AcDbEntity
  8
Značka (ISO)
100
AcDbMText
 10
352.2823175116093
 20
74.07564943134793
 30
0.0
 40
3.499999940395355
 41
0.0
 71
     7
 72
     1
  1
7
  7
Text poznámky (DIN)
 73
     1
 44
1.0
  0
LINE
  5
2868
330
281F
100
AcDbEntity
  8
Značka (ISO)
100
AcDbLine
 10
584.0
 20
79.00000000000007
 30
0.0
 11
345.1362884209809
 21
79.00000000000007
 31
0.0
  0
LINE
  5
2869
330
281F
100
AcDbEntity
  8
Značka (ISO)
100
AcDbLine
 10
584.0
 20
72.65129880309112
 30
0.0
 11
345.1362884209809
 21
72.65129880309112
 31
0.0
  0
LINE
  5
286A
330
281F
100
AcDbEntity
  8
Značka (ISO)
100
AcDbLine
 10
584.0
 20
129.7896095752717
 30
0.0
 11
584.0
 21
72.65129880309112
 31
0.0
  0
LINE
  5
286B
330
281F
100
AcDbEntity
  8
Značka (ISO)
100
AcDbLine
 10
528.8257477843483
 20
129.7896095752717
 30
0.0
 11
528.8257477843483
 21
72.65129880309112
 31
0.0
  0
LINE
  5
286C
330
281F
100
AcDbEntity
  8
Značka (ISO)
100
AcDbLine
 10
503.4257477843483
 20
129.7896095752717
 30
0.0
 11
503.4257477843483
 21
72.65129880309112
 31
0.0
  0
LINE
  5
286D
330
281F
100
AcDbEntity
  8
Značka (ISO)
100
AcDbLine
 10
478.0257477843483
 20
129.7896095752717
 30
0.0
 11
478.0257477843483
 21
72.65129880309112
 31
0.0
  0
LINE
  5
286E
330
281F
100
AcDbEntity
  8
Značka (ISO)
100
AcDbLine
 10
368.6745994017778
 20
129.7896095752717
 30
0.0
 11
368.6745994017778
 21
72.65129880309112
 31
0.0
  0
LINE
  5
286F
330
281F
100
AcDbEntity
  8
Značka (ISO)
100
AcDbLine
 10
361.2771969483552
 20
129.7896095752717
 30
0.0
 11
361.2771969483552
 21
72.65129880309112
 31
0.0
  0
LINE
  5
2870
330
281F
100
AcDbEntity
  8
Značka (ISO)
100
AcDbLine
 10
345.1362884209809
 20
129.7896095752717
 30
0.0
 11
345.1362884209809
 21
72.65129880309112
 31
0.0
  0
ENDBLK
  5
2821
330
281F
100
AcDbEntity
  8
0
100
AcDbBlockEnd
  0
BLOCK
  5
2875
330
2874
100
AcDbEntity
  8
0
100
AcDbBlockBegin
  2
*D17
 70
     1
 10
0.0
 20
0.0
 30
0.0
  3
*D17
  1

  0
LINE
  5
2950
330
2874
100
AcDbEntity
  8
Kóta (ISO)
440
 16777216
100
AcDbLine
 10
358.1200436431276
 20
384.9604192544073
 30
0.0
 11
358.1200436431276
 21
341.4604192544073
 31
0.0
  0
LINE
  5
2951
330
2874
100
AcDbEntity
  8
Kóta (ISO)
440
 16777216
100
AcDbLine
 10
111.1200436431275
 20
405.4604192544072
 30
0.0
 11
111.1200436431275
 21
341.4604192544073
 31
0.0
  0
LINE
  5
2952
330
2874
100
AcDbEntity
  8
Kóta (ISO)
440
 16777216
100
AcDbLine
 10
354.3700436431276
 20
342.9604192544073
 30
0.0
 11
114.8700436431276
 21
342.9604192544073
 31
0.0
  0
SOLID
  5
2953
330
2874
100
AcDbEntity
  8
Kóta (ISO)
440
 16777216
100
AcDbTrace
 10
354.3700436431276
 20
343.5854192544073
 30
0.0
 11
354.3700436431276
 21
342.3354192544073
 31
0.0
 12
358.1200436431276
 22
342.9604192544073
 32
0.0
 13
358.1200436431276
 23
342.9604192544073
 33
0.0
  0
SOLID
  5
2954
330
2874
100
AcDbEntity
  8
Kóta (ISO)
440
 16777216
100
AcDbTrace
 10
114.8700436431276
 20
343.5854192544073
 30
0.0
 11
114.8700436431276
 21
342.3354192544073
 31
0.0
 12
111.1200436431275
 22
342.9604192544073
 32
0.0
 13
111.1200436431275
 23
342.9604192544073
 33
0.0
  0
MTEXT
  5
2955
102
{ACAD_XDICTIONARY
360
3ACB
102
}
330
2874
100
AcDbEntity
  8
Kóta (ISO)
440
 16777216
100
AcDbMText
 10
221.9187617595197
 20
349.4706831899344
 30
0.0
 40
5.25
 41
0.0
 71
     1
 72
     1
  1
\A1;247{\H5.257800;\U+00B12}
  7
Text poznámky (ISO)
 73
     1
 44
1.0
  0
POINT
  5
2956
330
2874
100
AcDbEntity
  8
Defpoints
 62
     0
440
 16777216
100
AcDbPoint
 10
358.1200436431276
 20
384.9604192544073
 30
0.0
  0
POINT
  5
2957
330
2874
100
AcDbEntity
  8
Defpoints
 62
     0
440
 16777216
100
AcDbPoint
 10
111.1200436431275
 20
405.4604192544072
 30
0.0
  0
POINT
  5
2958
330
2874
100
AcDbEntity
  8
Defpoints
 62
     0
440
 16777216
100
AcDbPoint
 10
111.1200436431275
 20
342.9604192544073
 30
0.0
  0
ENDBLK
  5
2876
330
2874
100
AcDbEntity
  8
0
100
AcDbBlockEnd
  0
BLOCK
  5
295B
330
295A
100
AcDbEntity
  8
0
100
AcDbBlockBegin
  2
*D18
 70
     1
 10
0.0
 20
0.0
 30
0.0
  3
*D18
  1

  0
LINE
  5
2A2C
330
295A
100
AcDbEntity
  8
Kóta (ISO)
440
 16777216
100
AcDbLine
 10
111.1200436431275
 20
405.4604192544072
 30
0.0
 11
111.1200436431275
 21
368.0062923446382
 31
0.0
  0
LINE
  5
2A2D
330
295A
100
AcDbEntity
  8
Kóta (ISO)
440
 16777216
100
AcDbLine
 10
268.1200436431276
 20
500.0572380970496
 30
0.0
 11
268.1200436431276
 21
368.0062923446382
 31
0.0
  0
LINE
  5
2A2E
330
295A
100
AcDbEntity
  8
Kóta (ISO)
440
 16777216
100
AcDbLine
 10
114.8700436431276
 20
369.5062923446382
 30
0.0
 11
264.3700436431276
 21
369.5062923446382
 31
0.0
  0
SOLID
  5
2A2F
330
295A
100
AcDbEntity
  8
Kóta (ISO)
440
 16777216
100
AcDbTrace
 10
114.8700436431276
 20
370.1312923446382
 30
0.0
 11
114.8700436431276
 21
368.8812923446382
 31
0.0
 12
111.1200436431275
 22
369.5062923446382
 32
0.0
 13
111.1200436431275
 23
369.5062923446382
 33
0.0
  0
SOLID
  5
2A30
330
295A
100
AcDbEntity
  8
Kóta (ISO)
440
 16777216
100
AcDbTrace
 10
264.3700436431276
 20
370.1312923446382
 30
0.0
 11
264.3700436431276
 21
368.8812923446382
 31
0.0
 12
268.1200436431276
 22
369.5062923446382
 32
0.0
 13
268.1200436431276
 23
369.5062923446382
 33
0.0
  0
MTEXT
  5
2A31
102
{ACAD_XDICTIONARY
360
3ACD
102
}
330
295A
100
AcDbEntity
  8
Kóta (ISO)
440
 16777216
100
AcDbMText
 10
181.3995097277481
 20
376.6326704507497
 30
0.0
 40
5.25
 41
0.0
 71
     1
 72
     1
  1
\A1;{\U+00D8}157
  7
Text poznámky (ISO)
 73
     1
 44
1.0
  0
POINT
  5
2A32
330
295A
100
AcDbEntity
  8
Defpoints
 62
     0
440
 16777216
100
AcDbPoint
 10
111.1200436431275
 20
405.4604192544072
 30
0.0
  0
POINT
  5
2A33
330
295A
100
AcDbEntity
  8
Defpoints
 62
     0
440
 16777216
100
AcDbPoint
 10
268.1200436431276
 20
500.0572380970496
 30
0.0
  0
POINT
  5
2A34
330
295A
100
AcDbEntity
  8
Defpoints
 62
     0
440
 16777216
100
AcDbPoint
 10
268.1200436431276
 20
369.5062923446382
 30
0.0
  0
ENDBLK
  5
295C
330
295A
100
AcDbEntity
  8
0
100
AcDbBlockEnd
  0
BLOCK
  5
2A36
330
2A35
100
AcDbEntity
  8
0
100
AcDbBlockBegin
  2
Pozice1
 70
     0
 10
0.0
 20
0.0
 30
0.0
  3
Pozice1
  1

  0
LINE
  5
2A38
330
2A35
100
AcDbEntity
  8
Značka (ISO)
100
AcDbLine
 10
72.4001004013717
 20
295.923230653972
 30
0.0
 11
74.08002909541838
 21
297.7746732220573
 31
0.0
  0
POLYLINE
  5
2A39
330
2A35
100
AcDbEntity
  8
Značka (ISO)
100
AcDb2dPolyline
 66
     1
 10
0.0
 20
0.0
 30
0.0
 70
   128
  0
VERTEX
  5
2A3A
330
2A39
100
AcDbEntity
  8
Značka (ISO)
100
AcDbVertex
100
AcDb2dVertex
 10
72.77039051055908
 20
295.5872535705566
 30
0.0
  0
VERTEX
  5
2A3B
330
2A39
100
AcDbEntity
  8
Značka (ISO)
100
AcDbVertex
100
AcDb2dVertex
 10
74.08002853393554
 20
297.7746772766113
 30
0.0
  0
VERTEX
  5
2A3D
330
2A39
100
AcDbEntity
  8
Značka (ISO)
100
AcDbVertex
100
AcDb2dVertex
 10
72.02980995178221
 20
296.2592124938965
 30
0.0
  0
VERTEX
  5
2A3E
330
2A39
100
AcDbEntity
  8
Značka (ISO)
100
AcDbVertex
100
AcDb2dVertex
 10
72.77039051055908
 20
295.5872535705566
 30
0.0
  0
SEQEND
  5
2A3C
330
2A39
100
AcDbEntity
  8
Značka (ISO)
  0
SOLID
  5
2A3F
330
2A35
100
AcDbEntity
  8
Značka (ISO)
100
AcDbTrace
 10
72.77039051055908
 20
295.5872535705566
 30
0.0
 11
74.08002853393554
 21
297.7746772766113
 31
0.0
 12
72.02980995178221
 22
296.2592124938965
 32
0.0
 13
72.77039051055908
 23
295.5872535705566
 33
0.0
  0
LINE
  5
2A40
330
2A35
100
AcDbEntity
  8
Značka (ISO)
100
AcDbLine
 10
72.7703889149888
 20
295.5872449151627
 30
0.0
 11
74.08002909541838
 21
297.7746732220573
 31
0.0
  0
LINE
  5
2A41
330
2A35
100
AcDbEntity
  8
Značka (ISO)
100
AcDbLine
 10
74.08002909541838
 20
297.7746732220573
 30
0.0
 11
72.02981188775464
 21
296.2592163927813
 31
0.0
  0
LINE
  5
2A42
330
2A35
100
AcDbEntity
  8
Značka (ISO)
100
AcDbLine
 10
72.02981188775464
 20
296.2592163927813
 30
0.0
 11
72.7703889149888
 21
295.5872449151627
 31
0.0
  0
LINE
  5
2A43
330
2A35
100
AcDbEntity
  8
Značka (ISO)
100
AcDbLine
 10
72.4001004013717
 20
295.923230653972
 30
0.0
 11
62.4481716462758
 21
284.955250526581
 31
0.0
  0
MTEXT
  5
2A44
330
2A35
100
AcDbEntity
  8
Značka (ISO)
100
AcDbMText
 10
54.57317200390367
 20
291.5262590896227
 30
0.0
 40
5.24999976158142
 41
0.0
 71
     5
 72
     1
  1
1
  7
Text popisu (ISO)
 73
     1
 44
1.0
  0
LINE
  5
2A45
330
2A35
100
AcDbEntity
  8
Značka (ISO)
100
AcDbLine
 10
62.4481716462758
 20
284.955250526581
 30
0.0
 11
46.69817236153153
 21
284.955250526581
 31
0.0
  0
ENDBLK
  5
2A37
330
2A35
100
AcDbEntity
  8
0
100
AcDbBlockEnd
  0
BLOCK
  5
2A49
330
2A48
100
AcDbEntity
  8
0
100
AcDbBlockBegin
  2
*D20
 70
     1
 10
0.0
 20
0.0
 30
0.0
  3
*D20
  1

  0
LINE
  5
2B20
330
2A48
100
AcDbEntity
  8
Kóta (ISO)
440
 16777216
100
AcDbLine
 10
349.8337815987377
 20
382.9604192544073
 30
0.0
 11
397.2599426733834
 21
382.9604192544073
 31
0.0
  0
LINE
  5
2B21
330
2A48
100
AcDbEntity
  8
Kóta (ISO)
440
 16777216
100
AcDbLine
 10
349.8337815987377
 20
492.9604192544072
 30
0.0
 11
397.2599426733835
 21
492.9604192544072
 31
0.0
  0
LINE
  5
2B22
330
2A48
100
AcDbEntity
  8
Kóta (ISO)
440
 16777216
100
AcDbLine
 10
395.7599426733835
 20
386.7104192544073
 30
0.0
 11
395.7599426733835
 21
489.2104192544072
 31
0.0
  0
SOLID
  5
2B23
330
2A48
100
AcDbEntity
  8
Kóta (ISO)
440
 16777216
100
AcDbTrace
 10
395.1349426733835
 20
386.7104192544073
 30
0.0
 11
396.3849426733835
 21
386.7104192544073
 31
0.0
 12
395.7599426733834
 22
382.9604192544073
 32
0.0
 13
395.7599426733834
 23
382.9604192544073
 33
0.0
  0
SOLID
  5
2B24
330
2A48
100
AcDbEntity
  8
Kóta (ISO)
440
 16777216
100
AcDbTrace
 10
395.1349426733835
 20
489.2104192544072
 30
0.0
 11
396.3849426733835
 21
489.2104192544072
 31
0.0
 12
395.7599426733835
 22
492.9604192544072
 32
0.0
 13
395.7599426733835
 23
492.9604192544072
 33
0.0
  0
MTEXT
  5
2B25
102
{ACAD_XDICTIONARY
360
3ACF
102
}
330
2A48
100
AcDbEntity
  8
Kóta (ISO)
440
 16777216
100
AcDbMText
 10
388.6335645672719
 20
429.7557516922848
 30
0.0
 40
5.25
 41
0.0
 71
     1
 72
     1
  1
\A1;{\U+00D8}110
  7
Text poznámky (ISO)
 11
0.0000000000000001
 21
1.0
 31
0.0
 73
     1
 44
1.0
  0
POINT
  5
2B26
330
2A48
100
AcDbEntity
  8
Defpoints
 62
     0
440
 16777216
100
AcDbPoint
 10
349.8337815987377
 20
382.9604192544073
 30
0.0
  0
POINT
  5
2B27
330
2A48
100
AcDbEntity
  8
Defpoints
 62
     0
440
 16777216
100
AcDbPoint
 10
349.8337815987377
 20
492.9604192544072
 30
0.0
  0
POINT
  5
2B28
330
2A48
100
AcDbEntity
  8
Defpoints
 62
     0
440
 16777216
100
AcDbPoint
 10
395.7599426733835
 20
492.9604192544072
 30
0.0
  0
ENDBLK
  5
2A4A
330
2A48
100
AcDbEntity
  8
0
100
AcDbBlockEnd
  0
BLOCK
  5
2B2B
330
2B2A
100
AcDbEntity
  8
0
100
AcDbBlockBegin
  2
*D21
 70
     1
 10
0.0
 20
0.0
 30
0.0
  3
*D21
  1

  0
LINE
  5
2C06
330
2B2A
100
AcDbEntity
  8
Kóta (ISO)
440
 16777216
100
AcDbLine
 10
349.8337815987377
 20
382.9604192544073
 30
0.0
 11
425.2320846713995
 21
382.9604192544073
 31
0.0
  0
LINE
  5
2C07
330
2B2A
100
AcDbEntity
  8
Kóta (ISO)
440
 16777216
100
AcDbLine
 10
280.6200436431276
 20
535.9604192544071
 30
0.0
 11
425.2320846713995
 21
535.9604192544071
 31
0.0
  0
LINE
  5
2C08
330
2B2A
100
AcDbEntity
  8
Kóta (ISO)
440
 16777216
100
AcDbLine
 10
423.7320846713997
 20
386.7104192544073
 30
0.0
 11
423.7320846713997
 21
532.2104192544071
 31
0.0
  0
SOLID
  5
2C09
330
2B2A
100
AcDbEntity
  8
Kóta (ISO)
440
 16777216
100
AcDbTrace
 10
423.1070846713995
 20
386.7104192544073
 30
0.0
 11
424.3570846713995
 21
386.7104192544073
 31
0.0
 12
423.7320846713996
 22
382.9604192544073
 32
0.0
 13
423.7320846713996
 23
382.9604192544073
 33
0.0
  0
SOLID
  5
2C0A
330
2B2A
100
AcDbEntity
  8
Kóta (ISO)
440
 16777216
100
AcDbTrace
 10
423.1070846713995
 20
532.2104192544071
 30
0.0
 11
424.3570846713995
 21
532.2104192544071
 31
0.0
 12
423.7320846713997
 22
535.9604192544071
 32
0.0
 13
423.7320846713997
 23
535.9604192544071
 33
0.0
  0
MTEXT
  5
2C0B
102
{ACAD_XDICTIONARY
360
3AD1
102
}
330
2B2A
100
AcDbEntity
  8
Kóta (ISO)
440
 16777216
100
AcDbMText
 10
417.1125191912113
 20
446.3646465936058
 30
0.0
 40
5.25
 41
0.0
 71
     1
 72
     1
  1
\A1;153{\H5.257800;\U+00B12}
  7
Text poznámky (ISO)
 11
0.0000000000000001
 21
1.0
 31
0.0
 73
     1
 44
1.0
  0
POINT
  5
2C0C
330
2B2A
100
AcDbEntity
  8
Defpoints
 62
     0
440
 16777216
100
AcDbPoint
 10
349.8337815987377
 20
382.9604192544073
 30
0.0
  0
POINT
  5
2C0D
330
2B2A
100
AcDbEntity
  8
Defpoints
 62
     0
440
 16777216
100
AcDbPoint
 10
280.6200436431276
 20
535.9604192544071
 30
0.0
  0
POINT
  5
2C0E
330
2B2A
100
AcDbEntity
  8
Defpoints
 62
     0
440
 16777216
100
AcDbPoint
 10
423.7320846713997
 20
535.9604192544071
 30
0.0
  0
ENDBLK
  5
2B2C
330
2B2A
100
AcDbEntity
  8
0
100
AcDbBlockEnd
  0
BLOCK
  5
2C11
330
2C10
100
AcDbEntity
  8
0
100
AcDbBlockBegin
  2
*D22
 70
     1
 10
0.0
 20
0.0
 30
0.0
  3
*D22
  1

  0
LINE
  5
2CE3
330
2C10
100
AcDbEntity
  8
Kóta (ISO)
440
 16777216
100
AcDbLine
 10
280.6200436431276
 20
535.9604192544071
 30
0.0
 11
280.6200436431276
 21
513.2547772669453
 31
0.0
  0
LINE
  5
2CE4
330
2C10
100
AcDbEntity
  8
Kóta (ISO)
440
 16777216
100
AcDbLine
 10
98.62004364312756
 20
535.9604192544071
 30
0.0
 11
98.62004364312756
 21
513.2547772669453
 31
0.0
  0
LINE
  5
2CE5
330
2C10
100
AcDbEntity
  8
Kóta (ISO)
440
 16777216
100
AcDbLine
 10
276.8700436431276
 20
514.7547772669453
 30
0.0
 11
102.3700436431275
 21
514.7547772669453
 31
0.0
  0
SOLID
  5
2CE6
330
2C10
100
AcDbEntity
  8
Kóta (ISO)
440
 16777216
100
AcDbTrace
 10
276.8700436431276
 20
515.3797772669453
 30
0.0
 11
276.8700436431276
 21
514.1297772669453
 31
0.0
 12
280.6200436431276
 22
514.7547772669453
 32
0.0
 13
280.6200436431276
 23
514.7547772669453
 33
0.0
  0
SOLID
  5
2CE7
330
2C10
100
AcDbEntity
  8
Kóta (ISO)
440
 16777216
100
AcDbTrace
 10
102.3700436431275
 20
515.3797772669453
 30
0.0
 11
102.3700436431275
 21
514.1297772669453
 31
0.0
 12
98.62004364312756
 22
514.7547772669453
 32
0.0
 13
98.62004364312756
 23
514.7547772669453
 33
0.0
  0
MTEXT
  5
2CE8
330
2C10
100
AcDbEntity
  8
Kóta (ISO)
440
 16777216
100
AcDbMText
 10
196.3685362487594
 20
523.7969231276548
 30
0.0
 40
5.25
 41
0.0
 71
     1
 72
     1
  1
\A1;{\fAIGDT|b0|i0;\H5.2500;\ln\fTahoma|b0|i0;\H5.2500;}182
  7
Text poznámky (ISO)
 73
     1
 44
1.0
  0
POINT
  5
2CE9
330
2C10
100
AcDbEntity
  8
Defpoints
 62
     0
440
 16777216
100
AcDbPoint
 10
280.6200436431276
 20
535.9604192544071
 30
0.0
  0
POINT
  5
2CEA
330
2C10
100
AcDbEntity
  8
Defpoints
 62
     0
440
 16777216
100
AcDbPoint
 10
98.62004364312756
 20
535.9604192544071
 30
0.0
  0
POINT
  5
2CEB
330
2C10
100
AcDbEntity
  8
Defpoints
 62
     0
440
 16777216
100
AcDbPoint
 10
98.62004364312756
 20
514.7547772669453
 30
0.0
  0
ENDBLK
  5
2C12
330
2C10
100
AcDbEntity
  8
0
100
AcDbBlockEnd
  0
BLOCK
  5
2CEE
330
2CED
100
AcDbEntity
  8
0
100
AcDbBlockBegin
  2
*D23
 70
     1
 10
0.0
 20
0.0
 30
0.0
  3
*D23
  1

  0
LINE
  5
2DC5
330
2CED
100
AcDbEntity
  8
Kóta (ISO)
440
 16777216
100
AcDbLine
 10
127.6200436431275
 20
388.9604192544073
 30
0.0
 11
54.96848373250748
 21
388.9604192544073
 31
0.0
  0
LINE
  5
2DC6
330
2CED
100
AcDbEntity
  8
Kóta (ISO)
440
 16777216
100
AcDbLine
 10
98.62004364312756
 20
534.4604192544071
 30
0.0
 11
54.96848373250752
 21
534.4604192544071
 31
0.0
  0
LINE
  5
2DC7
330
2CED
100
AcDbEntity
  8
Kóta (ISO)
440
 16777216
100
AcDbLine
 10
56.46848373250747
 20
392.7104192544073
 30
0.0
 11
56.46848373250751
 21
530.7104192544072
 31
0.0
  0
SOLID
  5
2DC8
330
2CED
100
AcDbEntity
  8
Kóta (ISO)
440
 16777216
100
AcDbTrace
 10
55.84348373250747
 20
392.7104192544073
 30
0.0
 11
57.09348373250747
 21
392.7104192544073
 31
0.0
 12
56.46848373250747
 22
388.9604192544073
 32
0.0
 13
56.46848373250747
 23
388.9604192544073
 33
0.0
  0
SOLID
  5
2DC9
330
2CED
100
AcDbEntity
  8
Kóta (ISO)
440
 16777216
100
AcDbTrace
 10
55.84348373250751
 20
530.7104192544072
 30
0.0
 11
57.09348373250751
 21
530.7104192544072
 31
0.0
 12
56.46848373250751
 22
534.4604192544071
 32
0.0
 13
56.46848373250751
 23
534.4604192544071
 33
0.0
  0
MTEXT
  5
2DCA
330
2CED
100
AcDbEntity
  8
Kóta (ISO)
440
 16777216
100
AcDbMText
 10
48.75328762773913
 20
453.3206442376176
 30
0.0
 40
5.25
 41
0.0
 71
     1
 72
     1
  1
\A1;145,5
  7
Text poznámky (ISO)
 11
0.0000000000000001
 21
1.0
 31
0.0
 73
     1
 44
1.0
  0
POINT
  5
2DCB
330
2CED
100
AcDbEntity
  8
Defpoints
 62
     0
440
 16777216
100
AcDbPoint
 10
127.6200436431275
 20
388.9604192544073
 30
0.0
  0
POINT
  5
2DCC
330
2CED
100
AcDbEntity
  8
Defpoints
 62
     0
440
 16777216
100
AcDbPoint
 10
98.62004364312756
 20
534.4604192544071
 30
0.0
  0
POINT
  5
2DCD
330
2CED
100
AcDbEntity
  8
Defpoints
 62
     0
440
 16777216
100
AcDbPoint
 10
56.46848373250751
 20
534.4604192544071
 30
0.0
  0
ENDBLK
  5
2CEF
330
2CED
100
AcDbEntity
  8
0
100
AcDbBlockEnd
  0
BLOCK
  5
2DCF
330
2DCE
100
AcDbEntity
  8
0
100
AcDbBlockBegin
  2
Pozice2
 70
     0
 10
0.0
 20
0.0
 30
0.0
  3
Pozice2
  1

  0
LINE
  5
2DD1
330
2DCE
100
AcDbEntity
  8
Značka (ISO)
100
AcDbLine
 10
220.8955895366924
 20
332.074713122571
 30
0.0
 11
219.1278225837258
 21
330.3069461696049
 31
0.0
  0
POLYLINE
  5
2DD2
330
2DCE
100
AcDbEntity
  8
Značka (ISO)
100
AcDb2dPolyline
 66
     1
 10
0.0
 20
0.0
 30
0.0
 70
   128
  0
VERTEX
  5
2DD3
330
2DD2
100
AcDbEntity
  8
Značka (ISO)
100
AcDbVertex
100
AcDb2dVertex
 10
220.5420303344727
 20
332.4282836914063
 30
0.0
  0
VERTEX
  5
2DD4
330
2DD2
100
AcDbEntity
  8
Značka (ISO)
100
AcDbVertex
100
AcDb2dVertex
 10
219.1278266906738
 20
330.3069305419922
 30
0.0
  0
VERTEX
  5
2DD6
330
2DD2
100
AcDbEntity
  8
Značka (ISO)
100
AcDbVertex
100
AcDb2dVertex
 10
221.2491416931152
 20
331.7211532592773
 30
0.0
  0
VERTEX
  5
2DD7
330
2DD2
100
AcDbEntity
  8
Značka (ISO)
100
AcDbVertex
100
AcDb2dVertex
 10
220.5420303344727
 20
332.4282836914063
 30
0.0
  0
SEQEND
  5
2DD5
330
2DD2
100
AcDbEntity
  8
Značka (ISO)
  0
SOLID
  5
2DD8
330
2DCE
100
AcDbEntity
  8
Značka (ISO)
100
AcDbTrace
 10
220.5420303344727
 20
332.4282836914063
 30
0.0
 11
219.1278266906738
 21
330.3069305419922
 31
0.0
 12
221.2491416931152
 22
331.7211532592773
 32
0.0
 13
220.5420303344727
 23
332.4282836914063
 33
0.0
  0
LINE
  5
2DD9
330
2DCE
100
AcDbEntity
  8
Značka (ISO)
100
AcDbLine
 10
220.5420361460992
 20
332.4282665131643
 30
0.0
 11
219.1278225837258
 21
330.3069461696049
 31
0.0
  0
LINE
  5
2DDA
330
2DCE
100
AcDbEntity
  8
Značka (ISO)
100
AcDbLine
 10
219.1278225837258
 20
330.3069461696049
 30
0.0
 11
221.2491429272856
 21
331.7211597319777
 31
0.0
  0
LINE
  5
2DDB
330
2DCE
100
AcDbEntity
  8
Značka (ISO)
100
AcDbLine
 10
221.2491429272856
 20
331.7211597319777
 30
0.0
 11
220.5420361460992
 21
332.4282665131643
 31
0.0
  0
LINE
  5
2DDC
330
2DCE
100
AcDbEntity
  8
Značka (ISO)
100
AcDbLine
 10
220.8955895366924
 20
332.074713122571
 30
0.0
 11
229.284208371473
 21
340.4633319573491
 31
0.0
  0
MTEXT
  5
2DDD
330
2DCE
100
AcDbEntity
  8
Značka (ISO)
100
AcDbMText
 10
237.1592080138452
 20
347.0811394052594
 30
0.0
 40
5.24999976158142
 41
0.0
 71
     5
 72
     1
  1
2
  7
Text popisu (ISO)
 73
     1
 44
1.0
  0
LINE
  5
2DDE
330
2DCE
100
AcDbEntity
  8
Značka (ISO)
100
AcDbLine
 10
229.284208371473
 20
340.4633319573491
 30
0.0
 11
245.0342076562173
 21
340.4633319573491
 31
0.0
  0
ENDBLK
  5
2DD0
330
2DCE
100
AcDbEntity
  8
0
100
AcDbBlockEnd
  0
BLOCK
  5
2DE1
330
2DE0
100
AcDbEntity
  8
0
100
AcDbBlockBegin
  2
Pozice3
 70
     0
 10
0.0
 20
0.0
 30
0.0
  3
Pozice3
  1

  0
LINE
  5
2DE3
330
2DE0
100
AcDbEntity
  8
Značka (ISO)
100
AcDbLine
 10
181.4348434003353
 20
371.553236283974
 30
0.0
 11
179.1881293088605
 21
372.6497196587537
 31
0.0
  0
POLYLINE
  5
2DE4
330
2DE0
100
AcDbEntity
  8
Značka (ISO)
100
AcDb2dPolyline
 66
     1
 10
0.0
 20
0.0
 30
0.0
 70
   128
  0
VERTEX
  5
2DE5
330
2DE4
100
AcDbEntity
  8
Značka (ISO)
100
AcDbVertex
100
AcDb2dVertex
 10
181.6541481018066
 20
372.0025634765625
 30
0.0
  0
VERTEX
  5
2DE6
330
2DE4
100
AcDbEntity
  8
Značka (ISO)
100
AcDbVertex
100
AcDb2dVertex
 10
179.1881370544433
 20
372.6497268676758
 30
0.0
  0
VERTEX
  5
2DE8
330
2DE4
100
AcDbEntity
  8
Značka (ISO)
100
AcDbVertex
100
AcDb2dVertex
 10
181.2155532836914
 20
371.1038970947265
 30
0.0
  0
VERTEX
  5
2DE9
330
2DE4
100
AcDbEntity
  8
Značka (ISO)
100
AcDbVertex
100
AcDb2dVertex
 10
181.6541481018066
 20
372.0025634765625
 30
0.0
  0
SEQEND
  5
2DE7
330
2DE4
100
AcDbEntity
  8
Značka (ISO)
  0
SOLID
  5
2DEA
330
2DE0
100
AcDbEntity
  8
Značka (ISO)
100
AcDbTrace
 10
181.6541481018066
 20
372.0025634765625
 30
0.0
 11
179.1881370544433
 21
372.6497268676758
 31
0.0
 12
181.2155532836914
 22
371.1038970947265
 32
0.0
 13
181.6541481018066
 23
372.0025634765625
 33
0.0
  0
LINE
  5
2DEB
330
2DE0
100
AcDbEntity
  8
Značka (ISO)
100
AcDbLine
 10
181.6541400752914
 20
372.002579102269
 30
0.0
 11
179.1881293088605
 21
372.6497196587537
 31
0.0
  0
LINE
  5
2DEC
330
2DE0
100
AcDbEntity
  8
Značka (ISO)
100
AcDbLine
 10
179.1881293088605
 20
372.6497196587537
 30
0.0
 11
181.2155467253795
 21
371.103893465679
 31
0.0
  0
LINE
  5
2DED
330
2DE0
100
AcDbEntity
  8
Značka (ISO)
100
AcDbLine
 10
181.2155467253795
 20
371.103893465679
 30
0.0
 11
181.6541400752914
 21
372.002579102269
 31
0.0
  0
LINE
  5
2DEE
330
2DE0
100
AcDbEntity
  8
Značka (ISO)
100
AcDbLine
 10
181.4348434003353
 20
371.553236283974
 30
0.0
 11
202.525975192029
 21
361.2599482093457
 31
0.0
  0
MTEXT
  5
2DEF
330
2DE0
100
AcDbEntity
  8
Značka (ISO)
100
AcDbMText
 10
210.4009748344012
 20
368.04367946782
 30
0.0
 40
5.24999976158142
 41
0.0
 71
     5
 72
     1
  1
3
  7
Text popisu (ISO)
 73
     1
 44
1.0
  0
LINE
  5
2DF0
330
2DE0
100
AcDbEntity
  8
Značka (ISO)
100
AcDbLine
 10
202.525975192029
 20
361.2599482093457
 30
0.0
 11
218.2759744767733
 21
361.2599482093457
 31
0.0
  0
ENDBLK
  5
2DE2
330
2DE0
100
AcDbEntity
  8
0
100
AcDbBlockEnd
  0
BLOCK
  5
2ECC
330
2ECA
100
AcDbEntity
  8
0
100
AcDbBlockBegin
  2
GENAXEH
 70
     0
 10
0.0
 20
0.0
 30
0.0
  3
GENAXEH
  1

  0
LINE
  5
2ECB
330
2ECA
100
AcDbEntity
  8
0
100
AcDbLine
 10
-1.0
 20
0.0
 30
0.0
 11
1.0
 21
0.0
 31
0.0
  0
ENDBLK
  5
2ECD
330
2ECA
100
AcDbEntity
  8
0
100
AcDbBlockEnd
  0
BLOCK
  5
2EE5
330
2EE4
100
AcDbEntity
  8
0
100
AcDbBlockBegin
  2
*D27
 70
     1
 10
0.0
 20
0.0
 30
0.0
  3
*D27
  1

  0
LINE
  5
2EE6
330
2EE4
100
AcDbEntity
  8
5
370
    -2
100
AcDbLine
 10
611.3838323712747
 20
651.6924695386181
 30
0.0
 11
611.3838323712747
 21
688.0488903671962
 31
0.0
  0
LINE
  5
2EE7
330
2EE4
100
AcDbEntity
  8
5
370
    -2
100
AcDbLine
 10
969.3838323712743
 20
651.6924695386181
 30
0.0
 11
969.3838323712743
 21
688.0488903671962
 31
0.0
  0
LINE
  5
2EE8
330
2EE4
100
AcDbEntity
  8
5
370
    -2
100
AcDbLine
 10
616.3838323712747
 20
686.0488903671964
 30
0.0
 11
964.3838323712744
 21
686.0488903671964
 31
0.0
  0
SOLID
  5
2EE9
330
2EE4
100
AcDbEntity
  8
5
100
AcDbTrace
 10
616.3838323712747
 20
686.8822237005298
 30
0.0
 11
616.3838323712747
 21
685.2155570338631
 31
0.0
 12
611.3838323712747
 22
686.0488903671964
 32
0.0
 13
611.3838323712747
 23
686.0488903671964
 33
0.0
  0
SOLID
  5
2EEA
330
2EE4
100
AcDbEntity
  8
5
100
AcDbTrace
 10
964.3838323712744
 20
686.8822237005298
 30
0.0
 11
964.3838323712744
 21
685.2155570338631
 31
0.0
 12
969.3838323712743
 22
686.0488903671964
 32
0.0
 13
969.3838323712743
 23
686.0488903671964
 33
0.0
  0
MTEXT
  5
2EEB
330
2EE4
100
AcDbEntity
  8
5
 62
     7
100
AcDbMText
 10
790.3838323712745
 20
695.2267278420118
 30
0.0
 40
14.0
 41
0.0
 71
     5
 72
     1
  1
%%c358
 73
     1
 44
1.0
  0
POINT
  5
2EEC
330
2EE4
100
AcDbEntity
  8
Defpoints
 62
     0
100
AcDbPoint
 10
611.3838323712747
 20
649.6924695386178
 30
0.0
  0
POINT
  5
2EED
330
2EE4
100
AcDbEntity
  8
Defpoints
 62
     0
100
AcDbPoint
 10
969.3838323712743
 20
649.6924695386182
 30
0.0
  0
POINT
  5
2EEE
330
2EE4
100
AcDbEntity
  8
Defpoints
 62
     0
100
AcDbPoint
 10
969.3838323712743
 20
686.0488903671964
 30
0.0
  0
ENDBLK
  5
2EEF
330
2EE4
100
AcDbEntity
  8
0
100
AcDbBlockEnd
  0
BLOCK
  5
2EF1
330
2EF0
100
AcDbEntity
  8
0
100
AcDbBlockBegin
  2
*D28
 70
     1
 10
0.0
 20
0.0
 30
0.0
  3
*D28
  1

  0
LINE
  5
2EF2
330
2EF0
100
AcDbEntity
  8
5
370
    -2
100
AcDbLine
 10
952.7897152897176
 20
577.6924695386177
 30
0.0
 11
980.760732759105
 21
577.6924695386177
 31
0.0
  0
LINE
  5
2EF3
330
2EF0
100
AcDbEntity
  8
5
370
    -2
100
AcDbLine
 10
952.7897152897176
 20
502.6924695386178
 30
0.0
 11
980.760732759105
 21
502.6924695386178
 31
0.0
  0
LINE
  5
2EF4
330
2EF0
100
AcDbEntity
  8
5
370
    -2
100
AcDbLine
 10
978.760732759105
 20
572.692469538618
 30
0.0
 11
978.760732759105
 21
507.6924695386177
 31
0.0
  0
SOLID
  5
2EF5
330
2EF0
100
AcDbEntity
  8
5
100
AcDbTrace
 10
977.9273994257717
 20
572.692469538618
 30
0.0
 11
979.5940660924383
 21
572.692469538618
 31
0.0
 12
978.760732759105
 22
577.6924695386177
 32
0.0
 13
978.760732759105
 23
577.6924695386177
 33
0.0
  0
SOLID
  5
2EF6
330
2EF0
100
AcDbEntity
  8
5
100
AcDbTrace
 10
977.9273994257717
 20
507.6924695386177
 30
0.0
 11
979.5940660924383
 21
507.6924695386177
 31
0.0
 12
978.760732759105
 22
502.6924695386178
 32
0.0
 13
978.760732759105
 23
502.6924695386178
 33
0.0
  0
MTEXT
  5
2EF7
330
2EF0
100
AcDbEntity
  8
5
 62
     7
100
AcDbMText
 10
969.5828952842894
 20
540.1924695386177
 30
0.0
 40
14.0
 41
0.0
 71
     5
 72
     1
  1
%%c75
 11
0.0000000000000001
 21
1.0
 31
0.0
 73
     1
 44
1.0
  0
POINT
  5
2EF8
330
2EF0
100
AcDbEntity
  8
Defpoints
 62
     0
100
AcDbPoint
 10
950.789715289718
 20
577.6924695386177
 30
0.0
  0
POINT
  5
2EF9
330
2EF0
100
AcDbEntity
  8
Defpoints
 62
     0
100
AcDbPoint
 10
950.789715289718
 20
502.6924695386178
 30
0.0
  0
POINT
  5
2EFA
330
2EF0
100
AcDbEntity
  8
Defpoints
 62
     0
100
AcDbPoint
 10
978.760732759105
 20
502.6924695386178
 30
0.0
  0
ENDBLK
  5
2EFB
330
2EF0
100
AcDbEntity
  8
0
100
AcDbBlockEnd
  0
BLOCK
  5
2EFD
330
2EFC
100
AcDbEntity
  8
0
100
AcDbBlockBegin
  2
*D29
 70
     1
 10
0.0
 20
0.0
 30
0.0
  3
*D29
  1

  0
LINE
  5
2EFE
330
2EFC
100
AcDbEntity
  8
5
370
    -2
100
AcDbLine
 10
981.9054301289543
 20
540.1924695386177
 30
0.0
 11
1000.970751484253
 21
540.1924695386177
 31
0.0
  0
LINE
  5
2EFF
330
2EFC
100
AcDbEntity
  8
5
370
    -2
100
AcDbLine
 10
971.3838323712744
 20
649.6924695386182
 30
0.0
 11
1000.970751484253
 21
649.6924695386182
 31
0.0
  0
LINE
  5
2F00
330
2EFC
100
AcDbEntity
  8
5
370
    -2
100
AcDbLine
 10
998.9707514842534
 20
545.1924695386177
 30
0.0
 11
998.9707514842534
 21
644.6924695386179
 31
0.0
  0
SOLID
  5
2F01
330
2EFC
100
AcDbEntity
  8
5
100
AcDbTrace
 10
998.1374181509199
 20
545.1924695386177
 30
0.0
 11
999.8040848175868
 21
545.1924695386177
 31
0.0
 12
998.9707514842534
 22
540.1924695386177
 32
0.0
 13
998.9707514842534
 23
540.1924695386177
 33
0.0
  0
SOLID
  5
2F02
330
2EFC
100
AcDbEntity
  8
5
100
AcDbTrace
 10
998.1374181509199
 20
644.6924695386179
 30
0.0
 11
999.8040848175868
 21
644.6924695386179
 31
0.0
 12
998.9707514842534
 22
649.6924695386182
 32
0.0
 13
998.9707514842534
 23
649.6924695386182
 33
0.0
  0
MTEXT
  5
2F03
330
2EFC
100
AcDbEntity
  8
5
 62
     7
100
AcDbMText
 10
990.4839818401963
 20
594.9424695386182
 30
0.0
 40
14.0
 41
0.0
 71
     5
 72
     1
  1
110
 11
0.0000000000000001
 21
1.0
 31
0.0
 73
     1
 44
1.0
  0
POINT
  5
2F04
330
2EFC
100
AcDbEntity
  8
Defpoints
 62
     0
100
AcDbPoint
 10
979.9054301289542
 20
540.1924695386177
 30
0.0
  0
POINT
  5
2F05
330
2EFC
100
AcDbEntity
  8
Defpoints
 62
     0
100
AcDbPoint
 10
969.3838323712743
 20
649.6924695386182
 30
0.0
  0
POINT
  5
2F06
330
2EFC
100
AcDbEntity
  8
Defpoints
 62
     0
100
AcDbPoint
 10
998.9707514842534
 20
649.6924695386182
 30
0.0
  0
ENDBLK
  5
2F07
330
2EFC
100
AcDbEntity
  8
0
100
AcDbBlockEnd
  0
BLOCK
  5
2F09
330
2F08
100
AcDbEntity
  8
0
100
AcDbBlockBegin
  2
*D30
 70
     1
 10
0.0
 20
0.0
 30
0.0
  3
*D30
  1

  0
LINE
  5
2F0A
330
2F08
100
AcDbEntity
  8
5
370
    -2
100
AcDbLine
 10
953.966412100547
 20
502.8089854844725
 30
0.0
 11
1026.182180634446
 21
502.8089854844725
 31
0.0
  0
LINE
  5
2F0B
330
2F08
100
AcDbEntity
  8
5
370
    -2
100
AcDbLine
 10
971.3838323712744
 20
649.6924695386178
 30
0.0
 11
1026.182180634446
 21
649.6924695386178
 31
0.0
  0
LINE
  5
2F0C
330
2F08
100
AcDbEntity
  8
5
370
    -2
100
AcDbLine
 10
1024.182180634446
 20
507.8089854844725
 30
0.0
 11
1024.182180634446
 21
644.6924695386178
 31
0.0
  0
SOLID
  5
2F0D
330
2F08
100
AcDbEntity
  8
5
100
AcDbTrace
 10
1023.348847301113
 20
507.8089854844725
 30
0.0
 11
1025.015513967779
 21
507.8089854844725
 31
0.0
 12
1024.182180634446
 22
502.8089854844725
 32
0.0
 13
1024.182180634446
 23
502.8089854844725
 33
0.0
  0
SOLID
  5
2F0E
330
2F08
100
AcDbEntity
  8
5
100
AcDbTrace
 10
1023.348847301113
 20
644.6924695386178
 30
0.0
 11
1025.015513967779
 21
644.6924695386178
 31
0.0
 12
1024.182180634446
 22
649.6924695386178
 32
0.0
 13
1024.182180634446
 23
649.6924695386178
 33
0.0
  0
MTEXT
  5
2F0F
330
2F08
100
AcDbEntity
  8
5
 62
     7
100
AcDbMText
 10
1015.958674925917
 20
576.2507275115454
 30
0.0
 40
14.0
 41
0.0
 71
     5
 72
     1
  1
147
 11
0.0000000000000001
 21
1.0
 31
0.0
 73
     1
 44
1.0
  0
POINT
  5
2F10
330
2F08
100
AcDbEntity
  8
Defpoints
 62
     0
100
AcDbPoint
 10
951.9664121005471
 20
502.8089854844725
 30
0.0
  0
POINT
  5
2F11
330
2F08
100
AcDbEntity
  8
Defpoints
 62
     0
100
AcDbPoint
 10
969.3838323712743
 20
649.6924695386178
 30
0.0
  0
POINT
  5
2F12
330
2F08
100
AcDbEntity
  8
Defpoints
 62
     0
100
AcDbPoint
 10
1024.182180634446
 20
649.6924695386178
 30
0.0
  0
ENDBLK
  5
2F13
330
2F08
100
AcDbEntity
  8
0
100
AcDbBlockEnd
  0
BLOCK
  5
2F15
330
2F14
100
AcDbEntity
  8
0
100
AcDbBlockBegin
  2
*D31
 70
     1
 10
0.0
 20
0.0
 30
0.0
  3
*D31
  1

  0
LINE
  5
2F16
330
2F14
100
AcDbEntity
  8
5
370
    -2
100
AcDbLine
 10
868.8838323712746
 20
580.6924695386177
 30
0.0
 11
868.8838323712746
 21
480.7916271917445
 31
0.0
  0
LINE
  5
2F17
330
2F14
100
AcDbEntity
  8
5
370
    -2
100
AcDbLine
 10
711.8838323712745
 20
517.1924695386177
 30
0.0
 11
711.8838323712745
 21
480.7916271917445
 31
0.0
  0
LINE
  5
2F18
330
2F14
100
AcDbEntity
  8
5
370
    -2
100
AcDbLine
 10
863.8838323712745
 20
482.7916271917445
 30
0.0
 11
716.8838323712746
 21
482.7916271917445
 31
0.0
  0
SOLID
  5
2F19
330
2F14
100
AcDbEntity
  8
5
100
AcDbTrace
 10
863.8838323712745
 20
483.6249605250777
 30
0.0
 11
863.8838323712745
 21
481.9582938584112
 31
0.0
 12
868.8838323712746
 22
482.7916271917445
 32
0.0
 13
868.8838323712746
 23
482.7916271917445
 33
0.0
  0
SOLID
  5
2F1A
330
2F14
100
AcDbEntity
  8
5
100
AcDbTrace
 10
716.8838323712746
 20
483.6249605250777
 30
0.0
 11
716.8838323712746
 21
481.9582938584112
 31
0.0
 12
711.8838323712745
 22
482.7916271917445
 32
0.0
 13
711.8838323712745
 23
482.7916271917445
 33
0.0
  0
MTEXT
  5
2F1B
330
2F14
100
AcDbEntity
  8
5
 62
     7
100
AcDbMText
 10
790.3838323712745
 20
491.1608682931547
 30
0.0
 40
14.0
 41
0.0
 71
     5
 72
     1
  1
157
 73
     1
 44
1.0
  0
POINT
  5
2F1C
330
2F14
100
AcDbEntity
  8
Defpoints
 62
     0
100
AcDbPoint
 10
868.8838323712746
 20
582.6924695386177
 30
0.0
  0
POINT
  5
2F1D
330
2F14
100
AcDbEntity
  8
Defpoints
 62
     0
100
AcDbPoint
 10
711.8838323712745
 20
519.1924695386177
 30
0.0
  0
POINT
  5
2F1E
330
2F14
100
AcDbEntity
  8
Defpoints
 62
     0
100
AcDbPoint
 10
711.8838323712745
 20
482.7916271917445
 30
0.0
  0
ENDBLK
  5
2F1F
330
2F14
100
AcDbEntity
  8
0
100
AcDbBlockEnd
  0
BLOCK
  5
2F21
330
2F20
100
AcDbEntity
  8
0
100
AcDbBlockBegin
  2
*D32
 70
     1
 10
0.0
 20
0.0
 30
0.0
  3
*D32
  1

  0
LINE
  5
2F22
330
2F20
100
AcDbEntity
  8
5
370
    -2
100
AcDbLine
 10
958.8838323712746
 20
502.192469538618
 30
0.0
 11
958.8838323712746
 21
459.8835374451089
 31
0.0
  0
LINE
  5
2F23
330
2F20
100
AcDbEntity
  8
5
370
    -2
100
AcDbLine
 10
790.3838323712745
 20
477.2835512098701
 30
0.0
 11
790.3838323712745
 21
459.8835374451089
 31
0.0
  0
LINE
  5
2F24
330
2F20
100
AcDbEntity
  8
5
370
    -2
100
AcDbLine
 10
953.8838323712743
 20
461.8835374451087
 30
0.0
 11
795.3838323712745
 21
461.8835374451087
 31
0.0
  0
SOLID
  5
2F25
330
2F20
100
AcDbEntity
  8
5
100
AcDbTrace
 10
953.8838323712743
 20
462.7168707784421
 30
0.0
 11
953.8838323712743
 21
461.0502041117753
 31
0.0
 12
958.8838323712746
 22
461.8835374451087
 32
0.0
 13
958.8838323712746
 23
461.8835374451087
 33
0.0
  0
SOLID
  5
2F26
330
2F20
100
AcDbEntity
  8
5
100
AcDbTrace
 10
795.3838323712745
 20
462.7168707784421
 30
0.0
 11
795.3838323712745
 21
461.0502041117753
 31
0.0
 12
790.3838323712745
 22
461.8835374451087
 32
0.0
 13
790.3838323712745
 23
461.8835374451087
 33
0.0
  0
MTEXT
  5
2F27
330
2F20
100
AcDbEntity
  8
5
 62
     7
100
AcDbMText
 10
874.6338323712746
 20
470.4032150811062
 30
0.0
 40
14.0
 41
0.0
 71
     5
 72
     1
  1
168
 73
     1
 44
1.0
  0
POINT
  5
2F28
330
2F20
100
AcDbEntity
  8
Defpoints
 62
     0
100
AcDbPoint
 10
958.8838323712746
 20
504.1924695386177
 30
0.0
  0
POINT
  5
2F29
330
2F20
100
AcDbEntity
  8
Defpoints
 62
     0
100
AcDbPoint
 10
790.3838323712745
 20
479.2835512098702
 30
0.0
  0
POINT
  5
2F2A
330
2F20
100
AcDbEntity
  8
Defpoints
 62
     0
100
AcDbPoint
 10
790.3838323712745
 20
461.8835374451087
 30
0.0
  0
ENDBLK
  5
2F2B
330
2F20
100
AcDbEntity
  8
0
100
AcDbBlockEnd
  0
BLOCK
  5
3494
330
3493
100
AcDbEntity
  8
0
100
AcDbBlockBegin
  2
*D33
 70
     1
 10
0.0
 20
0.0
 30
0.0
  3
*D33
  1

  0
LINE
  5
34DB
330
3493
100
AcDbEntity
  8
5
370
    -2
100
AcDbLine
 10
511.8749096959203
 20
482.9176967574146
 30
0.0
 11
511.8749096959203
 21
519.2741175859929
 31
0.0
  0
LINE
  5
34DC
330
3493
100
AcDbEntity
  8
5
370
    -2
100
AcDbLine
 10
869.8749096959197
 20
482.9176967574148
 30
0.0
 11
869.8749096959197
 21
519.2741175859929
 31
0.0
  0
LINE
  5
34DD
330
3493
100
AcDbEntity
  8
5
370
    -2
100
AcDbLine
 10
516.8749096959203
 20
517.2741175859929
 30
0.0
 11
864.8749096959198
 21
517.2741175859929
 31
0.0
  0
SOLID
  5
34DE
330
3493
100
AcDbEntity
  8
5
100
AcDbTrace
 10
516.8749096959203
 20
518.1074509193264
 30
0.0
 11
516.8749096959203
 21
516.4407842526595
 31
0.0
 12
511.8749096959203
 22
517.2741175859929
 32
0.0
 13
511.8749096959203
 23
517.2741175859929
 33
0.0
  0
SOLID
  5
34DF
330
3493
100
AcDbEntity
  8
5
100
AcDbTrace
 10
864.8749096959198
 20
518.1074509193264
 30
0.0
 11
864.8749096959198
 21
516.4407842526595
 31
0.0
 12
869.8749096959197
 22
517.2741175859929
 32
0.0
 13
869.8749096959197
 23
517.2741175859929
 33
0.0
  0
MTEXT
  5
34E0
330
3493
100
AcDbEntity
  8
5
 62
     7
100
AcDbMText
 10
690.87490969592
 20
526.4519550608083
 30
0.0
 40
14.0
 41
0.0
 71
     5
 72
     1
  1
%%c358
 73
     1
 44
1.0
  0
POINT
  5
34E1
330
3493
100
AcDbEntity
  8
Defpoints
 62
     0
100
AcDbPoint
 10
511.8749096959203
 20
480.9176967574146
 30
0.0
  0
POINT
  5
34E2
330
3493
100
AcDbEntity
  8
Defpoints
 62
     0
100
AcDbPoint
 10
869.8749096959197
 20
480.9176967574146
 30
0.0
  0
POINT
  5
34E3
330
3493
100
AcDbEntity
  8
Defpoints
 62
     0
100
AcDbPoint
 10
869.8749096959197
 20
517.2741175859929
 30
0.0
  0
ENDBLK
  5
3495
330
3493
100
AcDbEntity
  8
0
100
AcDbBlockEnd
  0
BLOCK
  5
34A0
330
349F
100
AcDbEntity
  8
0
100
AcDbBlockBegin
  2
*D34
 70
     1
 10
0.0
 20
0.0
 30
0.0
  3
*D34
  1

  0
LINE
  5
34E4
330
349F
100
AcDbEntity
  8
5
370
    -2
100
AcDbLine
 10
853.2807926143632
 20
408.9176967574145
 30
0.0
 11
881.2518100837504
 21
408.9176967574145
 31
0.0
  0
LINE
  5
34E5
330
349F
100
AcDbEntity
  8
5
370
    -2
100
AcDbLine
 10
853.2807926143632
 20
333.9176967574145
 30
0.0
 11
881.2518100837504
 21
333.9176967574145
 31
0.0
  0
LINE
  5
34E6
330
349F
100
AcDbEntity
  8
5
370
    -2
100
AcDbLine
 10
879.2518100837503
 20
403.9176967574143
 30
0.0
 11
879.2518100837503
 21
338.9176967574146
 31
0.0
  0
SOLID
  5
34E7
330
349F
100
AcDbEntity
  8
5
100
AcDbTrace
 10
878.418476750417
 20
403.9176967574143
 30
0.0
 11
880.0851434170837
 21
403.9176967574143
 31
0.0
 12
879.2518100837503
 22
408.9176967574145
 32
0.0
 13
879.2518100837503
 23
408.9176967574145
 33
0.0
  0
SOLID
  5
34E8
330
349F
100
AcDbEntity
  8
5
100
AcDbTrace
 10
878.418476750417
 20
338.9176967574146
 30
0.0
 11
880.0851434170837
 21
338.9176967574146
 31
0.0
 12
879.2518100837503
 22
333.9176967574145
 32
0.0
 13
879.2518100837503
 23
333.9176967574145
 33
0.0
  0
MTEXT
  5
34E9
330
349F
100
AcDbEntity
  8
5
 62
     7
100
AcDbMText
 10
870.0739726089349
 20
371.4176967574145
 30
0.0
 40
14.0
 41
0.0
 71
     5
 72
     1
  1
%%c75
 11
0.0000000000000001
 21
1.0
 31
0.0
 73
     1
 44
1.0
  0
POINT
  5
34EA
330
349F
100
AcDbEntity
  8
Defpoints
 62
     0
100
AcDbPoint
 10
851.2807926143633
 20
408.9176967574145
 30
0.0
  0
POINT
  5
34EB
330
349F
100
AcDbEntity
  8
Defpoints
 62
     0
100
AcDbPoint
 10
851.2807926143633
 20
333.9176967574145
 30
0.0
  0
POINT
  5
34EC
330
349F
100
AcDbEntity
  8
Defpoints
 62
     0
100
AcDbPoint
 10
879.2518100837503
 20
333.9176967574145
 30
0.0
  0
ENDBLK
  5
34A1
330
349F
100
AcDbEntity
  8
0
100
AcDbBlockEnd
  0
BLOCK
  5
34AC
330
34AB
100
AcDbEntity
  8
0
100
AcDbBlockBegin
  2
*D35
 70
     1
 10
0.0
 20
0.0
 30
0.0
  3
*D35
  1

  0
LINE
  5
34ED
330
34AB
100
AcDbEntity
  8
5
370
    -2
100
AcDbLine
 10
882.3965074535998
 20
371.4176967574145
 30
0.0
 11
901.4618288088987
 21
371.4176967574145
 31
0.0
  0
LINE
  5
34EE
330
34AB
100
AcDbEntity
  8
5
370
    -2
100
AcDbLine
 10
871.8749096959198
 20
480.9176967574146
 30
0.0
 11
901.4618288088987
 21
480.9176967574146
 31
0.0
  0
LINE
  5
34EF
330
34AB
100
AcDbEntity
  8
5
370
    -2
100
AcDbLine
 10
899.4618288088988
 20
376.4176967574145
 30
0.0
 11
899.4618288088988
 21
475.9176967574147
 31
0.0
  0
SOLID
  5
34F0
330
34AB
100
AcDbEntity
  8
5
100
AcDbTrace
 10
898.6284954755655
 20
376.4176967574145
 30
0.0
 11
900.2951621422322
 21
376.4176967574145
 31
0.0
 12
899.4618288088988
 22
371.4176967574145
 32
0.0
 13
899.4618288088988
 23
371.4176967574145
 33
0.0
  0
SOLID
  5
34F1
330
34AB
100
AcDbEntity
  8
5
100
AcDbTrace
 10
898.6284954755655
 20
475.9176967574147
 30
0.0
 11
900.2951621422322
 21
475.9176967574147
 31
0.0
 12
899.4618288088988
 22
480.9176967574146
 32
0.0
 13
899.4618288088988
 23
480.9176967574146
 33
0.0
  0
MTEXT
  5
34F2
330
34AB
100
AcDbEntity
  8
5
 62
     7
100
AcDbMText
 10
890.9750591648423
 20
426.1676967574147
 30
0.0
 40
14.0
 41
0.0
 71
     5
 72
     1
  1
110
 11
0.0000000000000001
 21
1.0
 31
0.0
 73
     1
 44
1.0
  0
POINT
  5
34F3
330
34AB
100
AcDbEntity
  8
Defpoints
 62
     0
100
AcDbPoint
 10
880.3965074535996
 20
371.4176967574145
 30
0.0
  0
POINT
  5
34F4
330
34AB
100
AcDbEntity
  8
Defpoints
 62
     0
100
AcDbPoint
 10
869.8749096959197
 20
480.9176967574146
 30
0.0
  0
POINT
  5
34F5
330
34AB
100
AcDbEntity
  8
Defpoints
 62
     0
100
AcDbPoint
 10
899.4618288088988
 20
480.9176967574146
 30
0.0
  0
ENDBLK
  5
34AD
330
34AB
100
AcDbEntity
  8
0
100
AcDbBlockEnd
  0
BLOCK
  5
34B8
330
34B7
100
AcDbEntity
  8
0
100
AcDbBlockBegin
  2
*D36
 70
     1
 10
0.0
 20
0.0
 30
0.0
  3
*D36
  1

  0
LINE
  5
34F6
330
34B7
100
AcDbEntity
  8
5
370
    -2
100
AcDbLine
 10
854.4574894251924
 20
334.0342127032692
 30
0.0
 11
926.6732579590916
 21
334.034212703269
 31
0.0
  0
LINE
  5
34F7
330
34B7
100
AcDbEntity
  8
5
370
    -2
100
AcDbLine
 10
871.8749096959198
 20
480.9176967574146
 30
0.0
 11
926.6732579590916
 21
480.9176967574146
 31
0.0
  0
LINE
  5
34F8
330
34B7
100
AcDbEntity
  8
5
370
    -2
100
AcDbLine
 10
924.6732579590917
 20
339.034212703269
 30
0.0
 11
924.6732579590917
 21
475.9176967574146
 31
0.0
  0
SOLID
  5
34F9
330
34B7
100
AcDbEntity
  8
5
100
AcDbTrace
 10
923.8399246257582
 20
339.034212703269
 30
0.0
 11
925.506591292425
 21
339.034212703269
 31
0.0
 12
924.6732579590917
 22
334.034212703269
 32
0.0
 13
924.6732579590917
 23
334.034212703269
 33
0.0
  0
SOLID
  5
34FA
330
34B7
100
AcDbEntity
  8
5
100
AcDbTrace
 10
923.8399246257582
 20
475.9176967574146
 30
0.0
 11
925.506591292425
 21
475.9176967574146
 31
0.0
 12
924.6732579590917
 22
480.9176967574146
 32
0.0
 13
924.6732579590917
 23
480.9176967574146
 33
0.0
  0
MTEXT
  5
34FB
330
34B7
100
AcDbEntity
  8
5
 62
     7
100
AcDbMText
 10
916.4497522505625
 20
407.4759547303417
 30
0.0
 40
14.0
 41
0.0
 71
     5
 72
     1
  1
147
 11
0.0000000000000001
 21
1.0
 31
0.0
 73
     1
 44
1.0
  0
POINT
  5
34FC
330
34B7
100
AcDbEntity
  8
Defpoints
 62
     0
100
AcDbPoint
 10
852.4574894251923
 20
334.0342127032692
 30
0.0
  0
POINT
  5
34FD
330
34B7
100
AcDbEntity
  8
Defpoints
 62
     0
100
AcDbPoint
 10
869.8749096959197
 20
480.9176967574146
 30
0.0
  0
POINT
  5
34FE
330
34B7
100
AcDbEntity
  8
Defpoints
 62
     0
100
AcDbPoint
 10
924.6732579590917
 20
480.9176967574146
 30
0.0
  0
ENDBLK
  5
34B9
330
34B7
100
AcDbEntity
  8
0
100
AcDbBlockEnd
  0
BLOCK
  5
34C4
330
34C3
100
AcDbEntity
  8
0
100
AcDbBlockBegin
  2
*D37
 70
     1
 10
0.0
 20
0.0
 30
0.0
  3
*D37
  1

  0
LINE
  5
34FF
330
34C3
100
AcDbEntity
  8
5
370
    -2
100
AcDbLine
 10
769.37490969592
 20
411.9176967574143
 30
0.0
 11
769.37490969592
 21
312.0168544105411
 31
0.0
  0
LINE
  5
3500
330
34C3
100
AcDbEntity
  8
5
370
    -2
100
AcDbLine
 10
612.3749096959199
 20
348.4176967574145
 30
0.0
 11
612.3749096959199
 21
312.0168544105411
 31
0.0
  0
LINE
  5
3501
330
34C3
100
AcDbEntity
  8
5
370
    -2
100
AcDbLine
 10
764.37490969592
 20
314.0168544105411
 30
0.0
 11
617.3749096959197
 21
314.0168544105411
 31
0.0
  0
SOLID
  5
3502
330
34C3
100
AcDbEntity
  8
5
100
AcDbTrace
 10
764.37490969592
 20
314.8501877438743
 30
0.0
 11
764.37490969592
 21
313.1835210772078
 31
0.0
 12
769.37490969592
 22
314.0168544105411
 32
0.0
 13
769.37490969592
 23
314.0168544105411
 33
0.0
  0
SOLID
  5
3503
330
34C3
100
AcDbEntity
  8
5
100
AcDbTrace
 10
617.3749096959197
 20
314.8501877438743
 30
0.0
 11
617.3749096959197
 21
313.1835210772078
 31
0.0
 12
612.3749096959199
 22
314.0168544105411
 32
0.0
 13
612.3749096959199
 23
314.0168544105411
 33
0.0
  0
MTEXT
  5
3504
330
34C3
100
AcDbEntity
  8
5
 62
     7
100
AcDbMText
 10
690.87490969592
 20
322.3860955119515
 30
0.0
 40
14.0
 41
0.0
 71
     5
 72
     1
  1
157
 73
     1
 44
1.0
  0
POINT
  5
3505
330
34C3
100
AcDbEntity
  8
Defpoints
 62
     0
100
AcDbPoint
 10
769.37490969592
 20
413.9176967574145
 30
0.0
  0
POINT
  5
3506
330
34C3
100
AcDbEntity
  8
Defpoints
 62
     0
100
AcDbPoint
 10
612.3749096959199
 20
350.4176967574145
 30
0.0
  0
POINT
  5
3507
330
34C3
100
AcDbEntity
  8
Defpoints
 62
     0
100
AcDbPoint
 10
612.3749096959199
 20
314.0168544105411
 30
0.0
  0
ENDBLK
  5
34C5
330
34C3
100
AcDbEntity
  8
0
100
AcDbBlockEnd
  0
BLOCK
  5
34D0
330
34CF
100
AcDbEntity
  8
0
100
AcDbBlockBegin
  2
*D38
 70
     1
 10
0.0
 20
0.0
 30
0.0
  3
*D38
  1

  0
LINE
  5
3508
330
34CF
100
AcDbEntity
  8
5
370
    -2
100
AcDbLine
 10
859.37490969592
 20
333.4176967574145
 30
0.0
 11
859.37490969592
 21
291.1087646639055
 31
0.0
  0
LINE
  5
3509
330
34CF
100
AcDbEntity
  8
5
370
    -2
100
AcDbLine
 10
690.87490969592
 20
308.5087784286668
 30
0.0
 11
690.87490969592
 21
291.1087646639055
 31
0.0
  0
LINE
  5
350A
330
34CF
100
AcDbEntity
  8
5
370
    -2
100
AcDbLine
 10
854.3749096959198
 20
293.1087646639055
 30
0.0
 11
695.8749096959198
 21
293.1087646639055
 31
0.0
  0
SOLID
  5
350B
330
34CF
100
AcDbEntity
  8
5
100
AcDbTrace
 10
854.3749096959198
 20
293.9420979972388
 30
0.0
 11
854.3749096959198
 21
292.2754313305722
 31
0.0
 12
859.37490969592
 22
293.1087646639055
 32
0.0
 13
859.37490969592
 23
293.1087646639055
 33
0.0
  0
SOLID
  5
350C
330
34CF
100
AcDbEntity
  8
5
100
AcDbTrace
 10
695.8749096959198
 20
293.9420979972388
 30
0.0
 11
695.8749096959198
 21
292.2754313305722
 31
0.0
 12
690.87490969592
 22
293.1087646639055
 32
0.0
 13
690.87490969592
 23
293.1087646639055
 33
0.0
  0
MTEXT
  5
350D
330
34CF
100
AcDbEntity
  8
5
 62
     7
100
AcDbMText
 10
775.12490969592
 20
301.6284422999028
 30
0.0
 40
14.0
 41
0.0
 71
     5
 72
     1
  1
168
 73
     1
 44
1.0
  0
POINT
  5
350E
330
34CF
100
AcDbEntity
  8
Defpoints
 62
     0
100
AcDbPoint
 10
859.37490969592
 20
335.4176967574145
 30
0.0
  0
POINT
  5
350F
330
34CF
100
AcDbEntity
  8
Defpoints
 62
     0
100
AcDbPoint
 10
690.87490969592
 20
310.5087784286668
 30
0.0
  0
POINT
  5
3510
330
34CF
100
AcDbEntity
  8
Defpoints
 62
     0
100
AcDbPoint
 10
690.87490969592
 20
293.1087646639055
 30
0.0
  0
ENDBLK
  5
34D1
330
34CF
100
AcDbEntity
  8
0
100
AcDbBlockEnd
  0
BLOCK
  5
3538
330
3537
100
AcDbEntity
  8
0
100
AcDbBlockBegin
  2
*D39
 70
     1
 10
0.0
 20
0.0
 30
0.0
  3
*D39
  1

  0
LINE
  5
369A
330
3537
100
AcDbEntity
  8
5
370
    -2
100
AcDbLine
 10
351.8337815987376
 20
492.9604192544072
 30
0.0
 11
384.4714598904701
 21
492.9604192544072
 31
0.0
  0
LINE
  5
369B
330
3537
100
AcDbEntity
  8
5
370
    -2
100
AcDbLine
 10
351.8337815987376
 20
382.9604192544073
 30
0.0
 11
384.4714598904701
 21
382.9604192544073
 31
0.0
  0
LINE
  5
369C
330
3537
100
AcDbEntity
  8
5
370
    -2
100
AcDbLine
 10
382.4714598904701
 20
487.960419254407
 30
0.0
 11
382.4714598904701
 21
387.9604192544073
 31
0.0
  0
SOLID
  5
369D
330
3537
100
AcDbEntity
  8
5
100
AcDbTrace
 10
381.6381265571369
 20
487.960419254407
 30
0.0
 11
383.3047932238034
 21
487.960419254407
 31
0.0
 12
382.4714598904701
 22
492.9604192544072
 32
0.0
 13
382.4714598904701
 23
492.9604192544072
 33
0.0
  0
SOLID
  5
369E
330
3537
100
AcDbEntity
  8
5
100
AcDbTrace
 10
381.6381265571369
 20
387.9604192544073
 30
0.0
 11
383.3047932238034
 21
387.9604192544073
 31
0.0
 12
382.4714598904701
 22
382.9604192544073
 32
0.0
 13
382.4714598904701
 23
382.9604192544073
 33
0.0
  0
MTEXT
  5
369F
330
3537
100
AcDbEntity
  8
5
 62
     7
100
AcDbMText
 10
373.2936224156547
 20
437.9604192544073
 30
0.0
 40
14.0
 41
0.0
 71
     5
 72
     1
  1
%%c110
 11
0.0000000000000001
 21
1.0
 31
0.0
 73
     1
 44
1.0
  0
POINT
  5
36A0
330
3537
100
AcDbEntity
  8
Defpoints
 62
     0
100
AcDbPoint
 10
349.8337815987377
 20
492.9604192544072
 30
0.0
  0
POINT
  5
36A1
330
3537
100
AcDbEntity
  8
Defpoints
 62
     0
100
AcDbPoint
 10
349.8337815987377
 20
382.9604192544073
 30
0.0
  0
POINT
  5
36A2
330
3537
100
AcDbEntity
  8
Defpoints
 62
     0
100
AcDbPoint
 10
382.4714598904701
 20
382.9604192544073
 30
0.0
  0
ENDBLK
  5
3539
330
3537
100
AcDbEntity
  8
0
100
AcDbBlockEnd
  0
BLOCK
  5
3564
330
3563
100
AcDbEntity
  8
0
100
AcDbBlockBegin
  2
*D40
 70
     1
 10
0.0
 20
0.0
 30
0.0
  3
*D40
  1

  0
LINE
  5
365B
330
3563
100
AcDbEntity
  8
5
370
    -2
100
AcDbLine
 10
268.1200436431276
 20
498.0572380970497
 30
0.0
 11
268.1200436431276
 21
368.32954502183
 31
0.0
  0
LINE
  5
365C
330
3563
100
AcDbEntity
  8
5
370
    -2
100
AcDbLine
 10
111.1200436431275
 20
403.4604192544072
 30
0.0
 11
111.1200436431275
 21
368.32954502183
 31
0.0
  0
LINE
  5
365D
330
3563
100
AcDbEntity
  8
5
370
    -2
100
AcDbLine
 10
263.1200436431276
 20
370.32954502183
 30
0.0
 11
116.1200436431275
 21
370.32954502183
 31
0.0
  0
SOLID
  5
365E
330
3563
100
AcDbEntity
  8
5
100
AcDbTrace
 10
263.1200436431276
 20
371.1628783551633
 30
0.0
 11
263.1200436431276
 21
369.4962116884966
 31
0.0
 12
268.1200436431276
 22
370.32954502183
 32
0.0
 13
268.1200436431276
 23
370.32954502183
 33
0.0
  0
SOLID
  5
365F
330
3563
100
AcDbEntity
  8
5
100
AcDbTrace
 10
116.1200436431275
 20
371.1628783551633
 30
0.0
 11
116.1200436431275
 21
369.4962116884966
 31
0.0
 12
111.1200436431275
 22
370.32954502183
 32
0.0
 13
111.1200436431275
 23
370.32954502183
 33
0.0
  0
MTEXT
  5
3660
330
3563
100
AcDbEntity
  8
5
 62
     7
100
AcDbMText
 10
189.6200436431276
 20
378.6987861232403
 30
0.0
 40
14.0
 41
0.0
 71
     5
 72
     1
  1
157
 73
     1
 44
1.0
  0
POINT
  5
3661
330
3563
100
AcDbEntity
  8
Defpoints
 62
     0
100
AcDbPoint
 10
268.1200436431276
 20
500.0572380970496
 30
0.0
  0
POINT
  5
3662
330
3563
100
AcDbEntity
  8
Defpoints
 62
     0
100
AcDbPoint
 10
111.1200436431275
 20
405.4604192544072
 30
0.0
  0
POINT
  5
3663
330
3563
100
AcDbEntity
  8
Defpoints
 62
     0
100
AcDbPoint
 10
111.1200436431275
 20
370.32954502183
 30
0.0
  0
ENDBLK
  5
3565
330
3563
100
AcDbEntity
  8
0
100
AcDbBlockEnd
  0
BLOCK
  5
3586
330
3585
100
AcDbEntity
  8
0
100
AcDbBlockBegin
  2
*D41
 70
     1
 10
0.0
 20
0.0
 30
0.0
  3
*D41
  1

  0
LINE
  5
366D
330
3585
100
AcDbEntity
  8
5
370
    -2
100
AcDbLine
 10
189.6200436431275
 20
363.018453493266
 30
0.0
 11
189.6200436431275
 21
344.9756808173618
 31
0.0
  0
LINE
  5
366E
330
3585
100
AcDbEntity
  8
5
370
    -2
100
AcDbLine
 10
358.1200436431276
 20
382.9604192544073
 30
0.0
 11
358.1200436431276
 21
344.9756808173618
 31
0.0
  0
LINE
  5
366F
330
3585
100
AcDbEntity
  8
5
370
    -2
100
AcDbLine
 10
194.6200436431275
 20
346.9756808173618
 30
0.0
 11
353.1200436431276
 21
346.9756808173618
 31
0.0
  0
SOLID
  5
3670
330
3585
100
AcDbEntity
  8
5
100
AcDbTrace
 10
194.6200436431275
 20
347.8090141506951
 30
0.0
 11
194.6200436431275
 21
346.1423474840284
 31
0.0
 12
189.6200436431275
 22
346.9756808173618
 32
0.0
 13
189.6200436431275
 23
346.9756808173618
 33
0.0
  0
SOLID
  5
3671
330
3585
100
AcDbEntity
  8
5
100
AcDbTrace
 10
353.1200436431276
 20
347.8090141506951
 30
0.0
 11
353.1200436431276
 21
346.1423474840284
 31
0.0
 12
358.1200436431276
 22
346.9756808173618
 32
0.0
 13
358.1200436431276
 23
346.9756808173618
 33
0.0
  0
MTEXT
  5
3672
330
3585
100
AcDbEntity
  8
5
 62
     7
100
AcDbMText
 10
273.8700436431276
 20
355.4624504614182
 30
0.0
 40
14.0
 41
0.0
 71
     5
 72
     1
  1
169
 73
     1
 44
1.0
  0
POINT
  5
3673
330
3585
100
AcDbEntity
  8
Defpoints
 62
     0
100
AcDbPoint
 10
189.6200436431275
 20
365.0184534932658
 30
0.0
  0
POINT
  5
3674
330
3585
100
AcDbEntity
  8
Defpoints
 62
     0
100
AcDbPoint
 10
358.1200436431276
 20
384.9604192544073
 30
0.0
  0
POINT
  5
3675
330
3585
100
AcDbEntity
  8
Defpoints
 62
     0
100
AcDbPoint
 10
358.1200436431276
 20
346.9756808173618
 30
0.0
  0
ENDBLK
  5
3587
330
3585
100
AcDbEntity
  8
0
100
AcDbBlockEnd
  0
BLOCK
  5
35A8
330
35A7
100
AcDbEntity
  8
0
100
AcDbBlockBegin
  2
*D42
 70
     1
 10
0.0
 20
0.0
 30
0.0
  3
*D42
  1

  0
LINE
  5
367F
330
35A7
100
AcDbEntity
  8
5
370
    -2
100
AcDbLine
 10
384.4714598904701
 20
438.4604192544072
 30
0.0
 11
407.4954989334366
 21
438.4604192544072
 31
0.0
  0
LINE
  5
3680
330
35A7
100
AcDbEntity
  8
5
370
    -2
100
AcDbLine
 10
282.6200436431276
 20
535.9604192544074
 30
0.0
 11
407.4954989334366
 21
535.9604192544074
 31
0.0
  0
LINE
  5
3681
330
35A7
100
AcDbEntity
  8
5
370
    -2
100
AcDbLine
 10
405.4954989334366
 20
443.4604192544072
 30
0.0
 11
405.4954989334366
 21
530.9604192544071
 31
0.0
  0
SOLID
  5
3682
330
35A7
100
AcDbEntity
  8
5
100
AcDbTrace
 10
404.6621656001033
 20
443.4604192544072
 30
0.0
 11
406.32883226677
 21
443.4604192544072
 31
0.0
 12
405.4954989334366
 22
438.4604192544072
 32
0.0
 13
405.4954989334366
 23
438.4604192544072
 33
0.0
  0
SOLID
  5
3683
330
35A7
100
AcDbEntity
  8
5
100
AcDbTrace
 10
404.6621656001033
 20
530.9604192544071
 30
0.0
 11
406.32883226677
 21
530.9604192544071
 31
0.0
 12
405.4954989334366
 22
535.9604192544074
 32
0.0
 13
405.4954989334366
 23
535.9604192544074
 33
0.0
  0
MTEXT
  5
3684
330
35A7
100
AcDbEntity
  8
5
 62
     7
100
AcDbMText
 10
396.9758212974393
 20
487.2104192544073
 30
0.0
 40
14.0
 41
0.0
 71
     5
 72
     1
  1
98
 11
0.0000000000000001
 21
1.0
 31
0.0
 73
     1
 44
1.0
  0
POINT
  5
3685
330
35A7
100
AcDbEntity
  8
Defpoints
 62
     0
100
AcDbPoint
 10
382.4714598904701
 20
438.4604192544072
 30
0.0
  0
POINT
  5
3686
330
35A7
100
AcDbEntity
  8
Defpoints
 62
     0
100
AcDbPoint
 10
280.6200436431276
 20
535.9604192544074
 30
0.0
  0
POINT
  5
3687
330
35A7
100
AcDbEntity
  8
Defpoints
 62
     0
100
AcDbPoint
 10
405.4954989334366
 20
535.9604192544074
 30
0.0
  0
ENDBLK
  5
35A9
330
35A7
100
AcDbEntity
  8
0
100
AcDbBlockEnd
  0
BLOCK
  5
35CA
330
35C9
100
AcDbEntity
  8
0
100
AcDbBlockBegin
  2
*D43
 70
     1
 10
0.0
 20
0.0
 30
0.0
  3
*D43
  1

  0
LINE
  5
36B5
330
35C9
100
AcDbEntity
  8
5
370
    -2
100
AcDbLine
 10
352.613378345253
 20
383.0112824335884
 30
0.0
 11
430.6955364338061
 21
383.0112824335884
 31
0.0
  0
LINE
  5
36B6
330
35C9
100
AcDbEntity
  8
5
370
    -2
100
AcDbLine
 10
352.613378345253
 20
535.9604192544074
 30
0.0
 11
430.6955364338063
 21
535.9604192544074
 31
0.0
  0
LINE
  5
36B7
330
35C9
100
AcDbEntity
  8
5
370
    -2
100
AcDbLine
 10
428.6955364338061
 20
388.0112824335884
 30
0.0
 11
428.6955364338061
 21
530.9604192544071
 31
0.0
  0
SOLID
  5
36B8
330
35C9
100
AcDbEntity
  8
5
100
AcDbTrace
 10
427.8622031004728
 20
388.0112824335884
 30
0.0
 11
429.5288697671396
 21
388.0112824335884
 31
0.0
 12
428.6955364338061
 22
383.0112824335884
 32
0.0
 13
428.6955364338061
 23
383.0112824335884
 33
0.0
  0
SOLID
  5
36B9
330
35C9
100
AcDbEntity
  8
5
100
AcDbTrace
 10
427.8622031004728
 20
530.9604192544071
 30
0.0
 11
429.5288697671396
 21
530.9604192544071
 31
0.0
 12
428.6955364338061
 22
535.9604192544074
 32
0.0
 13
428.6955364338061
 23
535.9604192544074
 33
0.0
  0
MTEXT
  5
36BA
330
35C9
100
AcDbEntity
  8
5
 62
     7
100
AcDbMText
 10
420.2040656480439
 20
459.4858508439978
 30
0.0
 40
14.0
 41
0.0
 71
     5
 72
     1
  1
153
 11
0.0000000000000001
 21
1.0
 31
0.0
 73
     1
 44
1.0
  0
POINT
  5
36BB
330
35C9
100
AcDbEntity
  8
Defpoints
 62
     0
100
AcDbPoint
 10
350.613378345253
 20
383.0112824335884
 30
0.0
  0
POINT
  5
36BC
330
35C9
100
AcDbEntity
  8
Defpoints
 62
     0
100
AcDbPoint
 10
350.613378345253
 20
535.9604192544074
 30
0.0
  0
POINT
  5
36BD
330
35C9
100
AcDbEntity
  8
Defpoints
 62
     0
100
AcDbPoint
 10
428.6955364338061
 20
535.9604192544074
 30
0.0
  0
ENDBLK
  5
35CB
330
35C9
100
AcDbEntity
  8
0
100
AcDbBlockEnd
  0
BLOCK
  5
35EC
330
35EB
100
AcDbEntity
  8
0
100
AcDbBlockBegin
  2
*D44
 70
     1
 10
0.0
 20
0.0
 30
0.0
  3
*D44
  1

  0
LINE
  5
3664
330
35EB
100
AcDbEntity
  8
5
370
    -2
100
AcDbLine
 10
125.6200436431275
 20
388.9604192544073
 30
0.0
 11
84.62004364312756
 21
388.9604192544073
 31
0.0
  0
LINE
  5
3665
330
35EB
100
AcDbEntity
  8
5
370
    -2
100
AcDbLine
 10
96.62004364312757
 20
535.9604192544074
 30
0.0
 11
84.62004364312759
 21
535.9604192544074
 31
0.0
  0
LINE
  5
3666
330
35EB
100
AcDbEntity
  8
5
370
    -2
100
AcDbLine
 10
86.62004364312755
 20
393.9604192544073
 30
0.0
 11
86.62004364312759
 21
530.9604192544071
 31
0.0
  0
SOLID
  5
3667
330
35EB
100
AcDbEntity
  8
5
100
AcDbTrace
 10
85.78671030979423
 20
393.9604192544073
 30
0.0
 11
87.45337697646091
 21
393.9604192544073
 31
0.0
 12
86.62004364312755
 22
388.9604192544073
 32
0.0
 13
86.62004364312755
 23
388.9604192544073
 33
0.0
  0
SOLID
  5
3668
330
35EB
100
AcDbEntity
  8
5
100
AcDbTrace
 10
85.78671030979426
 20
530.9604192544071
 30
0.0
 11
87.45337697646091
 21
530.9604192544071
 31
0.0
 12
86.62004364312759
 22
535.9604192544074
 32
0.0
 13
86.62004364312759
 23
535.9604192544074
 33
0.0
  0
MTEXT
  5
3669
330
35EB
100
AcDbEntity
  8
5
 62
     7
100
AcDbMText
 10
78.39653793459828
 20
462.4604192544071
 30
0.0
 40
14.0
 41
0.0
 71
     5
 72
     1
  1
147
 11
0.0000000000000001
 21
1.0
 31
0.0
 73
     1
 44
1.0
  0
POINT
  5
366A
330
35EB
100
AcDbEntity
  8
Defpoints
 62
     0
100
AcDbPoint
 10
127.6200436431276
 20
388.9604192544073
 30
0.0
  0
POINT
  5
366B
330
35EB
100
AcDbEntity
  8
Defpoints
 62
     0
100
AcDbPoint
 10
98.62004364312756
 20
535.9604192544074
 30
0.0
  0
POINT
  5
366C
330
35EB
100
AcDbEntity
  8
Defpoints
 62
     0
100
AcDbPoint
 10
86.62004364312759
 20
535.9604192544074
 30
0.0
  0
ENDBLK
  5
35ED
330
35EB
100
AcDbEntity
  8
0
100
AcDbBlockEnd
  0
BLOCK
  5
360E
330
360D
100
AcDbEntity
  8
0
100
AcDbBlockBegin
  2
*D45
 70
     1
 10
0.0
 20
0.0
 30
0.0
  3
*D45
  1

  0
LINE
  5
36AC
330
360D
100
AcDbEntity
  8
5
370
    -2
100
AcDbLine
 10
98.62004364312756
 20
537.9604192544071
 30
0.0
 11
98.62004364312756
 21
549.9604192544071
 31
0.0
  0
LINE
  5
36AD
330
360D
100
AcDbEntity
  8
5
370
    -2
100
AcDbLine
 10
280.6200436431276
 20
537.9604192544071
 30
0.0
 11
280.6200436431276
 21
549.9604192544071
 31
0.0
  0
LINE
  5
36AE
330
360D
100
AcDbEntity
  8
5
370
    -2
100
AcDbLine
 10
103.6200436431275
 20
547.9604192544071
 30
0.0
 11
275.6200436431276
 21
547.9604192544071
 31
0.0
  0
SOLID
  5
36AF
330
360D
100
AcDbEntity
  8
5
100
AcDbTrace
 10
103.6200436431275
 20
548.7937525877406
 30
0.0
 11
103.6200436431275
 21
547.1270859210736
 31
0.0
 12
98.62004364312756
 22
547.9604192544071
 32
0.0
 13
98.62004364312756
 23
547.9604192544071
 33
0.0
  0
SOLID
  5
36B0
330
360D
100
AcDbEntity
  8
5
100
AcDbTrace
 10
275.6200436431276
 20
548.7937525877406
 30
0.0
 11
275.6200436431276
 21
547.1270859210736
 31
0.0
 12
280.6200436431276
 22
547.9604192544071
 32
0.0
 13
280.6200436431276
 23
547.9604192544071
 33
0.0
  0
MTEXT
  5
36B1
330
360D
100
AcDbEntity
  8
5
 62
     7
100
AcDbMText
 10
189.6200436431275
 20
557.1382567292224
 30
0.0
 40
14.0
 41
0.0
 71
     5
 72
     1
  1
%%c182
 73
     1
 44
1.0
  0
POINT
  5
36B2
330
360D
100
AcDbEntity
  8
Defpoints
 62
     0
100
AcDbPoint
 10
98.62004364312756
 20
535.9604192544074
 30
0.0
  0
POINT
  5
36B3
330
360D
100
AcDbEntity
  8
Defpoints
 62
     0
100
AcDbPoint
 10
280.6200436431276
 20
535.9604192544074
 30
0.0
  0
POINT
  5
36B4
330
360D
100
AcDbEntity
  8
Defpoints
 62
     0
100
AcDbPoint
 10
280.6200436431276
 20
547.9604192544071
 30
0.0
  0
ENDBLK
  5
360F
330
360D
100
AcDbEntity
  8
0
100
AcDbBlockEnd
  0
ENDSEC
  0
SECTION
  2
ENTITIES
  0
LINE
  5
202
330
6C
100
AcDbEntity
  8
0
100
AcDbLine
 10
98.62004364312756
 20
535.9604192544074
 30
0.0
 11
280.6200436431276
 21
535.9604192544074
 31
0.0
  0
LINE
  5
203
330
6C
100
AcDbEntity
  8
0
100
AcDbLine
 10
98.62004364312756
 20
534.4604192544071
 30
0.0
 11
280.6200436431276
 21
534.4604192544071
 31
0.0
  0
LINE
  5
204
330
6C
100
AcDbEntity
  8
0
100
AcDbLine
 10
280.6200436431276
 20
535.9604192544074
 30
0.0
 11
280.6200436431276
 21
534.4604192544071
 31
0.0
  0
LINE
  5
205
330
6C
100
AcDbEntity
  8
0
100
AcDbLine
 10
98.62004364312756
 20
535.9604192544074
 30
0.0
 11
98.62004364312756
 21
534.4604192544071
 31
0.0
  0
LINE
  5
218
330
6C
100
AcDbEntity
  8
0
100
AcDbLine
 10
273.1200436431276
 20
487.960419254407
 30
0.0
 11
273.1200436431276
 21
388.9604192544073
 31
0.0
  0
LINE
  5
219
330
6C
100
AcDbEntity
  8
0
100
AcDbLine
 10
273.1200436431276
 20
388.9604192544073
 30
0.0
 11
251.6200436431275
 21
388.9604192544073
 31
0.0
  0
LINE
  5
21A
330
6C
100
AcDbEntity
  8
0
100
AcDbLine
 10
273.1200436431276
 20
487.9604192544073
 30
0.0
 11
271.4224283488969
 21
487.9604192544073
 31
0.0
  0
LINE
  5
21B
330
6C
100
AcDbEntity
  8
0
100
AcDbLine
 10
251.6200436431275
 20
388.9604192544073
 30
0.0
 11
127.6200436431276
 21
388.9604192544073
 31
0.0
  0
LINE
  5
21C
330
6C
100
AcDbEntity
  8
0
100
AcDbLine
 10
111.1200436431276
 20
500.0572380970496
 30
0.0
 11
111.1200436431276
 21
528.4604192544072
 31
0.0
  0
LINE
  5
21D
330
6C
100
AcDbEntity
  8
0
100
AcDbLine
 10
268.1200436431276
 20
500.0572380970496
 30
0.0
 11
268.1200436431276
 21
528.4604192544072
 31
0.0
  0
ARC
  5
21E
330
6C
100
AcDbEntity
  8
0
100
AcDbCircle
 10
264.6200436431275
 20
487.8636004117645
 30
0.0
 40
3.5
100
AcDbArc
 50
36.84309839098214
 51
59.99999999999975
  0
ARC
  5
21F
330
6C
100
AcDbEntity
  8
0
100
AcDbCircle
 10
114.6200436431275
 20
487.8636004117645
 30
0.0
 40
3.5
100
AcDbArc
 50
120.0000000000002
 51
180.0
  0
LINE
  5
220
330
6C
100
AcDbEntity
  8
0
100
AcDbLine
 10
111.1200436431275
 20
405.4604192544072
 30
0.0
 11
111.1200436431275
 21
487.8636004117645
 31
0.0
  0
ARC
  5
221
330
6C
100
AcDbEntity
  8
0
100
AcDbCircle
 10
127.6200436431276
 20
405.4604192544072
 30
0.0
 40
16.49999999999999
100
AcDbArc
 50
180.0
 51
270.0
  0
LINE
  5
222
330
6C
100
AcDbEntity
  8
0
100
AcDbLine
 10
264.8100436431276
 20
491.7953557449462
 30
0.0
 11
266.3700436431275
 21
490.8946893250104
 31
0.0
  0
LINE
  5
223
330
6C
100
AcDbEntity
  8
0
100
AcDbLine
 10
114.4300436431276
 20
491.7953557449462
 30
0.0
 11
112.8700436431275
 21
490.8946893250104
 31
0.0
  0
ARC
  5
224
330
6C
100
AcDbEntity
  8
0
100
AcDbCircle
 10
266.0600436431276
 20
493.9604192544073
 30
0.0
 40
2.5
100
AcDbArc
 50
119.9999999999998
 51
240.0000000000002
  0
ARC
  5
225
330
6C
100
AcDbEntity
  8
0
100
AcDbCircle
 10
113.1800436431275
 20
493.9604192544073
 30
0.0
 40
2.5
100
AcDbArc
 50
299.9999999999989
 51
59.99999999999992
  0
LINE
  5
226
330
6C
100
AcDbEntity
  8
0
100
AcDbLine
 10
114.4300436431276
 20
496.1254827638684
 30
0.0
 11
112.8700436431276
 21
497.0261491838042
 31
0.0
  0
LINE
  5
227
330
6C
100
AcDbEntity
  8
0
100
AcDbLine
 10
264.8100436431276
 20
496.1254827638684
 30
0.0
 11
266.3700436431275
 21
497.0261491838042
 31
0.0
  0
ARC
  5
228
330
6C
100
AcDbEntity
  8
0
100
AcDbCircle
 10
264.6200436431275
 20
500.0572380970496
 30
0.0
 40
3.5
100
AcDbArc
 50
300.0000000000002
 51
0.0
  0
ARC
  5
229
330
6C
100
AcDbEntity
  8
0
100
AcDbCircle
 10
114.6200436431276
 20
500.0572380970496
 30
0.0
 40
3.5
100
AcDbArc
 50
180.0
 51
239.9999999999996
  0
ARC
  5
22C
330
6C
100
AcDbEntity
  8
0
100
AcDbCircle
 10
105.1200436431275
 20
528.4604192544072
 30
0.0
 40
6.0
100
AcDbArc
 50
0.0
 51
90.0
  0
ARC
  5
22D
330
6C
100
AcDbEntity
  8
0
100
AcDbCircle
 10
274.1200436431275
 20
528.4604192544072
 30
0.0
 40
6.0
100
AcDbArc
 50
90.0
 51
180.0
  0
ARC
  5
22E
330
6C
100
AcDbEntity
  8
0
100
AcDbCircle
 10
271.4224283488969
 20
492.9604192544072
 30
0.0
 40
5.0
100
AcDbArc
 50
216.8430983909815
 51
270.0
  0
LINE
  5
231
330
6C
100
AcDbEntity
  8
0
100
AcDbLine
 10
358.1200436431276
 20
438.2104192544072
 30
0.0
 11
358.1200436431276
 21
384.9604192544073
 31
0.0
  0
ARC
  5
232
330
6C
100
AcDbEntity
  8
0
100
AcDbCircle
 10
349.8337815987377
 20
486.9604192544072
 30
0.0
 40
6.000000000000027
100
AcDbArc
 50
75.06858282186262
 51
90.0
  0
ARC
  5
233
330
6C
100
AcDbEntity
  8
0
100
AcDbCircle
 10
349.8337815987377
 20
388.9604192544073
 30
0.0
 40
6.000000000000027
100
AcDbArc
 50
269.9999999999995
 51
284.9314171781368
  0
LINE
  5
234
330
6C
100
AcDbEntity
  8
0
100
AcDbLine
 10
349.8337815987377
 20
382.9604192544073
 30
0.0
 11
320.1200436431276
 21
382.9604192544073
 31
0.0
  0
LINE
  5
235
330
6C
100
AcDbEntity
  8
0
100
AcDbLine
 10
349.8337815987377
 20
492.9604192544072
 30
0.0
 11
320.1200436431276
 21
492.9604192544072
 31
0.0
  0
LINE
  5
244
330
6C
100
AcDbEntity
  8
0
100
AcDbLine
 10
358.1200436431276
 20
384.9604192544073
 30
0.0
 11
351.3797575020995
 21
383.1630096167998
 31
0.0
  0
LINE
  5
245
330
6C
100
AcDbEntity
  8
0
100
AcDbLine
 10
358.1200436431276
 20
490.9604192544072
 30
0.0
 11
351.3797575020995
 21
492.7578288920146
 31
0.0
  0
LINE
  5
246
330
6C
100
AcDbEntity
  8
0
100
AcDbLine
 10
320.1200436431276
 20
382.9604192544073
 30
0.0
 11
283.3131198277758
 21
382.9604192544073
 31
0.0
  0
LINE
  5
247
330
6C
100
AcDbEntity
  8
0
100
AcDbLine
 10
320.1200436431276
 20
492.9604192544072
 30
0.0
 11
283.3131198277758
 21
492.9604192544072
 31
0.0
  0
ARC
  5
248
330
6C
100
AcDbEntity
  8
0
100
AcDbCircle
 10
283.3131198277758
 20
486.9604192544072
 30
0.0
 40
5.999999999999997
100
AcDbArc
 50
90.00000000000047
 51
130.1559996249195
  0
ARC
  5
249
330
6C
100
AcDbEntity
  8
0
100
AcDbCircle
 10
283.3131198277758
 20
388.9604192544073
 30
0.0
 40
5.999999999999997
100
AcDbArc
 50
229.8440003750805
 51
270.0
  0
LINE
  5
24A
330
6C
100
AcDbEntity
  8
0
100
AcDbLine
 10
273.1200436431276
 20
486.2104192544073
 30
0.0
 11
279.4438941925171
 21
491.5461681554543
 31
0.0
  0
LINE
  5
24B
330
6C
100
AcDbEntity
  8
0
100
AcDbLine
 10
273.1200436431276
 20
389.7104192544073
 30
0.0
 11
279.4438941925171
 21
384.37467035336
 31
0.0
  0
LINE
  5
258
330
6C
100
AcDbEntity
  8
0
100
AcDbLine
 10
358.1200436431276
 20
490.9604192544072
 30
0.0
 11
358.1200436431276
 21
438.2104192544073
 31
0.0
  0
LINE
  5
1579
330
6C
100
AcDbEntity
  8
0
100
AcDbLine
 10
273.1200436428285
 20
242.6824909748976
 30
0.0
 11
273.1200436428285
 21
232.0605920412435
 31
0.0
  0
LINE
  5
157A
330
6C
100
AcDbEntity
  8
0
100
AcDbLine
 10
273.1200436428285
 20
154.3043899085698
 30
0.0
 11
273.1200436428285
 21
143.6824909748976
 31
0.0
  0
LINE
  5
157B
330
6C
100
AcDbEntity
  8
0
100
AcDbLine
 10
273.1200436428285
 20
143.6824909748976
 30
0.0
 11
267.2956945414486
 21
143.6824909748976
 31
0.0
  0
LINE
  5
157C
330
6C
100
AcDbEntity
  8
0
100
AcDbLine
 10
273.1200436428285
 20
242.6824909748976
 30
0.0
 11
267.2956945414486
 21
242.6824909748976
 31
0.0
  0
ARC
  5
158C
330
6C
100
AcDbEntity
  8
0
100
AcDbCircle
 10
349.8337815984383
 20
242.1824909748974
 30
0.0
 40
6.000000000000031
100
AcDbArc
 50
75.06858282186313
 51
90.0
  0
ARC
  5
158D
330
6C
100
AcDbEntity
  8
0
100
AcDbCircle
 10
349.8337815984383
 20
144.1824909748974
 30
0.0
 40
6.000000000000031
100
AcDbArc
 50
269.9999999999995
 51
284.9314171781368
  0
LINE
  5
158E
330
6C
100
AcDbEntity
  8
0
100
AcDbLine
 10
349.8337815984383
 20
138.1824909748974
 30
0.0
 11
345.8839756653286
 21
138.1824909748974
 31
0.0
  0
LINE
  5
158F
330
6C
100
AcDbEntity
  8
0
100
AcDbLine
 10
340.3561116203282
 20
138.1824909748974
 30
0.0
 11
335.8839756653286
 21
138.1824909748974
 31
0.0
  0
LINE
  5
1590
330
6C
100
AcDbEntity
  8
0
100
AcDbLine
 10
332.3561116203283
 20
138.1824909748974
 30
0.0
 11
327.8839756653287
 21
138.1824909748974
 31
0.0
  0
LINE
  5
1591
330
6C
100
AcDbEntity
  8
0
100
AcDbLine
 10
349.8337815984383
 20
248.1824909748974
 30
0.0
 11
345.8839756653286
 21
248.1824909748974
 31
0.0
  0
LINE
  5
1592
330
6C
100
AcDbEntity
  8
0
100
AcDbLine
 10
340.3561116203283
 20
248.1824909748974
 30
0.0
 11
335.8839756653286
 21
248.1824909748974
 31
0.0
  0
LINE
  5
1593
330
6C
100
AcDbEntity
  8
0
100
AcDbLine
 10
332.3561116203283
 20
248.1824909748974
 30
0.0
 11
327.8839756653287
 21
248.1824909748974
 31
0.0
  0
LINE
  5
15A2
330
6C
100
AcDbEntity
  8
0
100
AcDbLine
 10
358.1200436428284
 20
140.1824909748974
 30
0.0
 11
351.3797575018005
 21
138.3850813372899
 31
0.0
  0
LINE
  5
15A3
330
6C
100
AcDbEntity
  8
0
100
AcDbLine
 10
358.1200436428284
 20
246.1824909748974
 30
0.0
 11
351.3797575018005
 21
247.9799006125049
 31
0.0
  0
LINE
  5
15A7
330
6C
100
AcDbEntity
  8
0
100
AcDbLine
 10
320.1200436428285
 20
138.1824909748974
 30
0.0
 11
283.3131198274767
 21
138.1824909748974
 31
0.0
  0
LINE
  5
15A8
330
6C
100
AcDbEntity
  8
0
100
AcDbLine
 10
320.1200436428285
 20
248.1824909748974
 30
0.0
 11
283.3131198274767
 21
248.1824909748974
 31
0.0
  0
ARC
  5
15A9
330
6C
100
AcDbEntity
  8
0
100
AcDbCircle
 10
283.3131198274767
 20
242.1824909748974
 30
0.0
 40
5.999999999999999
100
AcDbArc
 50
89.99999999999948
 51
130.1559996249195
  0
ARC
  5
15AA
330
6C
100
AcDbEntity
  8
0
100
AcDbCircle
 10
283.3131198274767
 20
144.1824909748974
 30
0.0
 40
6.0
100
AcDbArc
 50
229.8440003750807
 51
270.0
  0
LINE
  5
15AB
330
6C
100
AcDbEntity
  8
0
100
AcDbLine
 10
273.1200436428285
 20
241.4324909748974
 30
0.0
 11
279.443894192218
 21
246.7682398759448
 31
0.0
  0
LINE
  5
15AC
330
6C
100
AcDbEntity
  8
0
100
AcDbLine
 10
273.1200436428285
 20
144.9324909748974
 30
0.0
 11
279.443894192218
 21
139.59674207385
 31
0.0
  0
LINE
  5
15BA
330
6C
100
AcDbEntity
  8
0
100
AcDbLine
 10
358.1200436428285
 20
246.1824909748976
 30
0.0
 11
358.1200436428285
 21
140.1824909748976
 31
0.0
  0
LINE
  5
15BB
330
6C
100
AcDbEntity
  8
0
100
AcDbLine
 10
327.8839756653287
 20
138.1824909748976
 30
0.0
 11
320.1200436428285
 21
138.1824909748976
 31
0.0
  0
LINE
  5
15BC
330
6C
100
AcDbEntity
  8
0
100
AcDbLine
 10
327.8839756653287
 20
248.1824909748976
 30
0.0
 11
320.1200436428285
 21
248.1824909748976
 31
0.0
  0
LINE
  5
15BF
330
6C
100
AcDbEntity
  8
0
100
AcDbLine
 10
335.8839756653286
 20
138.1824909748976
 30
0.0
 11
332.3561116203283
 21
138.1824909748976
 31
0.0
  0
LINE
  5
15C0
330
6C
100
AcDbEntity
  8
0
100
AcDbLine
 10
335.8839756653286
 20
248.1824909748975
 30
0.0
 11
332.3561116203283
 21
248.1824909748976
 31
0.0
  0
LINE
  5
15C3
330
6C
100
AcDbEntity
  8
0
100
AcDbLine
 10
345.8839756653286
 20
138.1824909748976
 30
0.0
 11
340.3561116203283
 21
138.1824909748976
 31
0.0
  0
LINE
  5
15C4
330
6C
100
AcDbEntity
  8
0
100
AcDbLine
 10
345.8839756653286
 20
248.1824909748975
 30
0.0
 11
340.3561116203283
 21
248.1824909748975
 31
0.0
  0
ARC
  5
1884
330
6C
100
AcDbEntity
  8
0
100
AcDbCircle
 10
189.6200438877398
 20
193.1824925693479
 30
0.0
 40
92.10731260713448
100
AcDbArc
 50
225.6498044209394
 51
270.6498047536162
  0
ARC
  5
1885
330
6C
100
AcDbEntity
  8
0
100
AcDbCircle
 10
189.6200436428286
 20
193.1824909749319
 30
0.0
 40
92.1073110155986
100
AcDbArc
 50
270.6498049172026
 51
315.6498049172029
  0
ARC
  5
1886
330
6C
100
AcDbEntity
  8
0
100
AcDbCircle
 10
189.6200436428288
 20
193.1824909749321
 30
0.0
 40
92.10731101559879
100
AcDbArc
 50
315.6498049172026
 51
8.119749871943929
  0
ARC
  5
1887
330
6C
100
AcDbEntity
  8
0
100
AcDbCircle
 10
189.6200436428278
 20
193.182490974932
 30
0.0
 40
92.10731101559973
100
AcDbArc
 50
8.119749871943971
 51
53.11974987194371
  0
ARC
  5
1888
330
6C
100
AcDbEntity
  8
0
100
AcDbCircle
 10
189.6200436428284
 20
193.1824909749325
 30
0.0
 40
92.10731101559895
100
AcDbArc
 50
53.11974987194385
 51
90.64980491720282
  0
ARC
  5
1889
330
6C
100
AcDbEntity
  8
0
100
AcDbCircle
 10
189.6200436428284
 20
193.1824909749326
 30
0.0
 40
92.10731101559892
100
AcDbArc
 50
90.64980491720275
 51
135.6498049172028
  0
ARC
  5
188A
330
6C
100
AcDbEntity
  8
0
100
AcDbCircle
 10
189.6200436428284
 20
193.1824909749323
 30
0.0
 40
92.10731101559908
100
AcDbArc
 50
180.6498049172025
 51
225.6498049172028
  0
ARC
  5
188B
330
6C
100
AcDbEntity
  8
0
100
AcDbCircle
 10
189.6200436428284
 20
193.1824909749323
 30
0.0
 40
92.10731101559904
100
AcDbArc
 50
135.6498049172027
 51
180.6498049172025
  0
LINE
  5
281A
330
6C
100
AcDbEntity
  8
7
  6
Continuous
100
AcDbLine
 10
367.4330592308339
 20
438.4604192544072
 30
0.0
 11
247.8700436431276
 21
438.4604192544072
 31
0.0
  0
LINE
  5
281B
330
6C
100
AcDbEntity
  8
7
  6
Continuous
100
AcDbLine
 10
189.6200436431275
 20
388.9604192544073
 30
0.0
 11
189.6200436431275
 21
532.2104192544071
 31
0.0
  0
LINE
  5
281C
330
6C
100
AcDbEntity
  8
7
  6
Continuous
100
AcDbLine
 10
367.8953128565843
 20
193.1824909749265
 30
0.0
 11
94.87004364282842
 21
193.1824909749265
 31
0.0
  0
LINE
  5
281D
330
6C
100
AcDbEntity
  8
7
  6
Continuous
100
AcDbLine
 10
189.6200436428284
 20
287.9324909749266
 30
0.0
 11
189.6200436428284
 21
98.43249097492652
 31
0.0
  0
CIRCLE
  5
352F
330
6C
100
AcDbEntity
  8
0
100
AcDbCircle
 10
189.6200436428284
 20
193.1824909749265
 30
0.0
 40
76.9999999997009
  0
CIRCLE
  5
3530
330
6C
100
AcDbEntity
  8
0
100
AcDbCircle
 10
189.6200436428284
 20
193.1824909749265
 30
0.0
 40
72.4399999997009
  0
DIMENSION
  5
3536
330
6C
100
AcDbEntity
  8
5
100
AcDbDimension
  2
*D39
 10
382.4714598904701
 20
382.9604192544073
 30
0.0
 11
382.4714598904701
 21
437.9604192544073
 31
0.0
 70
   160
  1
%%c<>
 71
     5
 42
109.9999999999999
  3
GEN-ISO
100
AcDbAlignedDimension
 13
349.8337815987377
 23
492.9604192544072
 33
0.0
 14
349.8337815987377
 24
382.9604192544073
 34
0.0
 50
90.00000000000005
100
AcDbRotatedDimension
1001
ACAD
1000
DSTYLE
1002
{
1070
     3
1000

1070
   271
1070
     0
1002
}
1001
ACAD_DSTYLE_DIMINSPECT
1070
   396
1000
100%
1070
   395
1000

1070
   394
1070
    33
1070
   393
1070
     0
  0
DIMENSION
  5
3562
330
6C
100
AcDbEntity
  8
5
100
AcDbDimension
  2
*D40
 10
111.1200436431275
 20
370.32954502183
 30
0.0
 11
189.6200436431276
 21
378.6987861232403
 31
0.0
 70
    32
 71
     5
 42
157.0
  3
GEN-ISO
100
AcDbAlignedDimension
 13
268.1200436431276
 23
500.0572380970496
 33
0.0
 14
111.1200436431275
 24
405.4604192544072
 34
0.0
 50
0.0000000000001132
100
AcDbRotatedDimension
1001
ACAD_DSTYLE_DIMINSPECT
1070
   396
1000
100%
1070
   395
1000

1070
   394
1070
    33
1070
   393
1070
     0
1001
ACAD
1000
DSTYLE
1002
{
1070
     3
1000

1070
   271
1070
     0
1002
}
  0
DIMENSION
  5
3584
330
6C
100
AcDbEntity
  8
5
100
AcDbDimension
  2
*D41
 10
358.1200436431276
 20
346.9756808173618
 30
0.0
 11
273.8700436431276
 21
346.9756808173618
 31
0.0
 70
   160
 71
     5
 42
168.5
  3
GEN-ISO
100
AcDbAlignedDimension
 13
189.6200436431275
 23
365.0184534932658
 33
0.0
 14
358.1200436431276
 24
384.9604192544073
 34
0.0
 50
0.0000000000001132
100
AcDbRotatedDimension
1001
ACAD_DSTYLE_DIMINSPECT
1070
   396
1000
100%
1070
   395
1000

1070
   394
1070
    33
1070
   393
1070
     0
1001
ACAD
1000
DSTYLE
1002
{
1070
     3
1000

1070
   271
1070
     0
1002
}
  0
DIMENSION
  5
35A6
330
6C
100
AcDbEntity
  8
5
100
AcDbDimension
  2
*D42
 10
405.4954989334366
 20
535.9604192544074
 30
0.0
 11
405.4954989334366
 21
487.2104192544073
 31
0.0
 70
   160
 71
     5
 42
97.50000000000007
  3
GEN-ISO
100
AcDbAlignedDimension
 13
382.4714598904701
 23
438.4604192544072
 33
0.0
 14
280.6200436431276
 24
535.9604192544074
 34
0.0
 50
90.00000000000005
100
AcDbRotatedDimension
1001
ACAD_DSTYLE_DIMINSPECT
1070
   396
1000
100%
1070
   395
1000

1070
   394
1070
    33
1070
   393
1070
     0
1001
ACAD
1000
DSTYLE
1002
{
1070
     3
1000

1070
   271
1070
     0
1002
}
  0
DIMENSION
  5
35C8
330
6C
100
AcDbEntity
  8
5
100
AcDbDimension
  2
*D43
 10
428.6955364338061
 20
535.9604192544074
 30
0.0
 11
428.6955364338061
 21
459.4858508439978
 31
0.0
 70
   160
 71
     5
 42
152.9491368208188
  3
GEN-ISO
100
AcDbAlignedDimension
 13
350.613378345253
 23
383.0112824335884
 33
0.0
 14
350.613378345253
 24
535.9604192544074
 34
0.0
 50
90.0
100
AcDbRotatedDimension
1001
ACAD_DSTYLE_DIMINSPECT
1070
   396
1000
100%
1070
   395
1000

1070
   394
1070
    33
1070
   393
1070
     0
1001
ACAD
1000
DSTYLE
1002
{
1070
     3
1000

1070
   271
1070
     0
1002
}
  0
DIMENSION
  5
35EA
330
6C
100
AcDbEntity
  8
5
100
AcDbDimension
  2
*D44
 10
86.62004364312759
 20
535.9604192544074
 30
0.0
 11
78.39653793459828
 21
462.4604192544071
 31
0.0
 70
    32
 71
     5
 42
147.0
  3
GEN-ISO
100
AcDbAlignedDimension
 13
127.6200436431276
 23
388.9604192544073
 33
0.0
 14
98.62004364312756
 24
535.9604192544074
 34
0.0
 50
90.00000000000005
100
AcDbRotatedDimension
1001
ACAD_DSTYLE_DIMINSPECT
1070
   396
1000
100%
1070
   395
1000

1070
   394
1070
    33
1070
   393
1070
     0
1001
ACAD
1000
DSTYLE
1002
{
1070
     3
1000

1070
   271
1070
     0
1002
}
  0
DIMENSION
  5
360C
330
6C
100
AcDbEntity
  8
5
100
AcDbDimension
  2
*D45
 10
280.6200436431276
 20
547.9604192544071
 30
0.0
 11
189.6200436431275
 21
557.1382567292224
 31
0.0
 70
    32
  1
%%c<>
 71
     5
 42
182.0
  3
GEN-ISO
100
AcDbAlignedDimension
 13
98.62004364312756
 23
535.9604192544074
 33
0.0
 14
280.6200436431276
 24
535.9604192544074
 34
0.0
100
AcDbRotatedDimension
1001
ACAD
1000
DSTYLE
1002
{
1070
     3
1000

1070
   271
1070
     0
1002
}
1001
ACAD_DSTYLE_DIMINSPECT
1070
   396
1000
100%
1070
   395
1000

1070
   394
1070
    33
1070
   393
1070
     0
  0
ENDSEC
  0
SECTION
  2
OBJECTS
  0
DICTIONARY
  5
C
330
0
100
AcDbDictionary
281
     1
  3
ACAD_2007HEADERVARS_RT
350
3A73
  3
ACAD_CIP_PREVIOUS_PRODUCT_INFO
350
2DF4
  3
ACAD_COLOR
350
63
  3
ACAD_GROUP
350
D
  3
ACAD_LAYOUT
350
62
  3
ACAD_MATERIAL
350
10
  3
ACAD_MLEADERSTYLE
350
66
  3
ACAD_MLINESTYLE
350
5F
  3
ACAD_PLOTSETTINGS
350
61
  3
ACAD_PLOTSTYLENAME
350
E
  3
ACAD_SCALELIST
350
42
  3
ACAD_TABLESTYLE
350
64
  3
ACAD_VISUALSTYLE
350
29
  3
ACDB_RECOMPOSE_DATA
350
3A72
  3
AcDbVariableDictionary
350
2E30
  3
AcmDictionary
350
2E9C
  3
AEC_PROPERTY_SET_DEFS
350
31E3
  3
AMG
350
2E42
  3
AMGSNAPSETTINGS
350
2EDC
  0
DICTIONARY
  5
2F34
330
2
100
AcDbDictionary
280
     1
281
     1
  3
ACAD_LAYERSTATES
360
2F35
  0
DICTIONARY
  5
2F2E
330
2F2D
100
AcDbDictionary
280
     1
281
     1
  0
DICTIONARY
  5
2F30
330
2F2F
100
AcDbDictionary
280
     1
281
     1
  0
DICTIONARY
  5
3A5E
330
C9
100
AcDbDictionary
280
     1
281
     1
  3
ACAD_MTEXT_2008_RT
360
3A5F
  0
DICTIONARY
  5
3AA9
330
1E2
100
AcDbDictionary
280
     1
281
     1
  3
ACAD_MTEXT_2008_RT
360
3AAA
  0
DICTIONARY
  5
3AAB
330
1E7
100
AcDbDictionary
280
     1
281
     1
  3
ACAD_MTEXT_2008_RT
360
3AAC
  0
DICTIONARY
  5
2DF9
330
1E9
100
AcDbDictionary
280
     1
281
     1
  3
ACAD_MLATT
360
3A61
  3
ACAD_XREC_ROUNDTRIP
360
3A60
  0
DICTIONARY
  5
2DFC
330
1ED
100
AcDbDictionary
280
     1
281
     1
  3
ACAD_MLATT
360
3A63
  3
ACAD_XREC_ROUNDTRIP
360
3A62
  0
DICTIONARY
  5
2DFF
330
1EE
100
AcDbDictionary
280
     1
281
     1
  3
ACAD_MLATT
360
3A65
  3
ACAD_XREC_ROUNDTRIP
360
3A64
  0
DICTIONARY
  5
2E02
330
1EF
100
AcDbDictionary
280
     1
281
     1
  3
ACAD_MLATT
360
3A67
  3
ACAD_XREC_ROUNDTRIP
360
3A66
  0
DICTIONARY
  5
2E05
330
1F0
100
AcDbDictionary
280
     1
281
     1
  3
ACAD_MLATT
360
3A69
  3
ACAD_XREC_ROUNDTRIP
360
3A68
  0
DICTIONARY
  5
2E08
330
1F2
100
AcDbDictionary
280
     1
281
     1
  3
ACAD_MLATT
360
3A6B
  3
ACAD_XREC_ROUNDTRIP
360
3A6A
  0
DICTIONARY
  5
2E0B
330
1F3
100
AcDbDictionary
280
     1
281
     1
  3
ACAD_MLATT
360
3A6D
  3
ACAD_XREC_ROUNDTRIP
360
3A6C
  0
DICTIONARY
  5
2E0E
330
1F4
100
AcDbDictionary
280
     1
281
     1
  3
ACAD_MLATT
360
3A6F
  3
ACAD_XREC_ROUNDTRIP
360
3A6E
  0
DICTIONARY
  5
2E11
330
1F5
100
AcDbDictionary
280
     1
281
     1
  3
ACAD_MLATT
360
3A71
  3
ACAD_XREC_ROUNDTRIP
360
3A70
  0
DICTIONARY
  5
3AAD
330
2825
100
AcDbDictionary
280
     1
281
     1
  3
ACAD_MTEXT_2008_RT
360
3AAE
  0
DICTIONARY
  5
3AAF
330
2829
100
AcDbDictionary
280
     1
281
     1
  3
ACAD_MTEXT_2008_RT
360
3AB0
  0
DICTIONARY
  5
3AB1
330
282D
100
AcDbDictionary
280
     1
281
     1
  3
ACAD_MTEXT_2008_RT
360
3AB2
  0
DICTIONARY
  5
3AB3
330
2836
100
AcDbDictionary
280
     1
281
     1
  3
ACAD_MTEXT_2008_RT
360
3AB4
  0
DICTIONARY
  5
3AB5
330
2837
100
AcDbDictionary
280
     1
281
     1
  3
ACAD_MTEXT_2008_RT
360
3AB6
  0
DICTIONARY
  5
3AB7
330
2838
100
AcDbDictionary
280
     1
281
     1
  3
ACAD_MTEXT_2008_RT
360
3AB8
  0
DICTIONARY
  5
3AB9
330
283A
100
AcDbDictionary
280
     1
281
     1
  3
ACAD_MTEXT_2008_RT
360
3ABA
  0
DICTIONARY
  5
3ABB
330
283B
100
AcDbDictionary
280
     1
281
     1
  3
ACAD_MTEXT_2008_RT
360
3ABC
  0
DICTIONARY
  5
3ABD
330
2842
100
AcDbDictionary
280
     1
281
     1
  3
ACAD_MTEXT_2008_RT
360
3ABE
  0
DICTIONARY
  5
3ABF
330
2849
100
AcDbDictionary
280
     1
281
     1
  3
ACAD_MTEXT_2008_RT
360
3AC0
  0
DICTIONARY
  5
3AC1
330
284D
100
AcDbDictionary
280
     1
281
     1
  3
ACAD_MTEXT_2008_RT
360
3AC2
  0
DICTIONARY
  5
3AC3
330
2850
100
AcDbDictionary
280
     1
281
     1
  3
ACAD_MTEXT_2008_RT
360
3AC4
  0
DICTIONARY
  5
3AC5
330
2857
100
AcDbDictionary
280
     1
281
     1
  3
ACAD_MTEXT_2008_RT
360
3AC6
  0
DICTIONARY
  5
3AC7
330
285E
100
AcDbDictionary
280
     1
281
     1
  3
ACAD_MTEXT_2008_RT
360
3AC8
  0
DICTIONARY
  5
3AC9
330
2862
100
AcDbDictionary
280
     1
281
     1
  3
ACAD_MTEXT_2008_RT
360
3ACA
  0
DICTIONARY
  5
3ACB
330
2955
100
AcDbDictionary
280
     1
281
     1
  3
ACAD_MTEXT_2008_RT
360
3ACC
  0
DICTIONARY
  5
3ACD
330
2A31
100
AcDbDictionary
280
     1
281
     1
  3
ACAD_MTEXT_2008_RT
360
3ACE
  0
DICTIONARY
  5
3ACF
330
2B25
100
AcDbDictionary
280
     1
281
     1
  3
ACAD_MTEXT_2008_RT
360
3AD0
  0
DICTIONARY
  5
3AD1
330
2C0B
100
AcDbDictionary
280
     1
281
     1
  3
ACAD_MTEXT_2008_RT
360
3AD2
  0
DICTIONARY
  5
3A73
102
{ACAD_REACTORS
330
C
102
}
330
C
100
AcDbDictionary
281
     1
  3
DIMARCSYM
350
3A74
  3
DIMLTEX1
350
3A76
  3
DIMLTEX2
350
3A77
  3
DIMLTYPE
350
3A75
  0
XRECORD
  5
2DF4
102
{ACAD_REACTORS
330
C
102
}
330
C
100
AcDbXrecord
280
     1
300
INVNTOR
300
2012
300
PDSP_F_S
  0
DICTIONARY
  5
63
102
{ACAD_REACTORS
330
C
102
}
330
C
100
AcDbDictionary
281
     1
  0
DICTIONARY
  5
D
102
{ACAD_REACTORS
330
C
102
}
330
C
100
AcDbDictionary
281
     1
  0
DICTIONARY
  5
62
102
{ACAD_REACTORS
330
C
102
}
330
C
100
AcDbDictionary
281
     1
  3
Layout1
350
6B
  3
Layout2
350
73
  3
Model
350
6F
  0
DICTIONARY
  5
10
102
{ACAD_REACTORS
330
C
102
}
330
C
100
AcDbDictionary
281
     1
  3
ByBlock
350
19
  3
ByLayer
350
11
  3
Global
350
21
  0
DICTIONARY
  5
66
102
{ACAD_REACTORS
330
C
102
}
330
C
100
AcDbDictionary
281
     1
  3
Standard
350
67
  0
DICTIONARY
  5
5F
102
{ACAD_REACTORS
330
C
102
}
330
C
100
AcDbDictionary
281
     1
  3
Standard
350
60
  0
DICTIONARY
  5
61
102
{ACAD_REACTORS
330
C
102
}
330
C
100
AcDbDictionary
281
     1
  0
ACDBDICTIONARYWDFLT
  5
E
102
{ACAD_REACTORS
330
C
102
}
330
C
100
AcDbDictionary
281
     1
  3
Normal
350
F
100
AcDbDictionaryWithDefault
340
F
  0
DICTIONARY
  5
42
102
{ACAD_REACTORS
330
C
102
}
330
C
100
AcDbDictionary
281
     1
  3
A0
350
43
  3
A1
350
44
  3
A2
350
45
  3
A3
350
46
  3
A4
350
47
  3
A5
350
48
  3
A6
350
49
  3
A7
350
4A
  3
A8
350
4B
  3
A9
350
4C
  3
B0
350
4D
  3
B1
350
4E
  3
B2
350
4F
  3
B3
350
50
  3
B4
350
51
  3
B5
350
52
  3
B6
350
53
  0
DICTIONARY
  5
64
102
{ACAD_REACTORS
330
C
102
}
330
C
100
AcDbDictionary
281
     1
  3
Standard
350
65
  0
DICTIONARY
  5
29
102
{ACAD_REACTORS
330
C
102
}
330
C
100
AcDbDictionary
281
     1
  3
2dWireframe
350
2F
  3
3D Hidden
350
2E36
  3
3dWireframe
350
2E35
  3
Basic
350
2E
  3
Brighten
350
35
  3
ColorChange
350
39
  3
Conceptual
350
32
  3
Dim
350
34
  3
EdgeColorOff
350
41
  3
Facepattern
350
38
  3
Flat
350
2A
  3
FlatWithEdges
350
2B
  3
Gouraud
350
2C
  3
GouraudWithEdges
350
2D
  3
Hidden
350
31
  3
JitterOff
350
3F
  3
Linepattern
350
37
  3
OverhangOff
350
40
  3
Realistic
350
33
  3
Shaded
350
3E
  3
Shaded with edges
350
3D
  3
Shades of Gray
350
3A
  3
Sketchy
350
3B
  3
Thicken
350
36
  3
Wireframe
350
30
  3
X-Ray
350
3C
  0
XRECORD
  5
3A72
102
{ACAD_REACTORS
330
C
102
}
330
C
100
AcDbXrecord
280
     1
 90
        1
330
65
330
C9
330
1E9
330
1ED
330
1EE
330
1EF
330
1F0
330
1F2
330
1F3
330
1F4
330
1F5
  0
DICTIONARY
  5
2E30
102
{ACAD_REACTORS
330
C
102
}
330
C
100
AcDbDictionary
281
     1
  3
CANNOSCALE
350
2E33
  3
CMLEADERSTYLE
350
2E32
  3
CTABLESTYLE
350
2E31
  3
LAYEREVAL
350
3762
  3
LAYERNOTIFY
350
3763
  3
LIGHTINGUNITS
350
3761
  3
MSLTSCALE
350
3760
  3
SOLIDHIST
350
3764
  3
XCLIPFRAME
350
3A5C
  0
DICTIONARY
  5
2E9C
102
{ACAD_REACTORS
330
C
102
}
330
C
100
AcDbDictionary
281
     1
  3
AcmStdDictionary
350
2EA6
  0
DICTIONARY
  5
31E3
102
{ACAD_REACTORS
330
C
102
}
330
C
100
AcDbDictionary
281
     1
  0
DICTIONARY
  5
2E42
102
{ACAD_REACTORS
330
C
102
}
330
C
100
AcDbDictionary
281
     1
  0
DICTIONARY
  5
2EDC
102
{ACAD_REACTORS
330
C
102
}
330
C
100
AcDbDictionary
281
     1
  0
DICTIONARY
  5
2F35
102
{ACAD_REACTORS
330
2F34
102
}
330
2F34
100
AcDbDictionary
281
     1
  0
XRECORD
  5
3A5F
102
{ACAD_REACTORS
330
3A5E
102
}
330
3A5E
100
AcDbXrecord
280
     1
 40
2697178.0
  1
\pxsm0.94;WIG Schweisung, Nahte sauber geschliffen und poliert\PSichtstege geschliffen mit 240 Korn und abgeklebt.\P\fTahoma|b0|i0;\H3.0000; \P\fTahoma|b0|i0;\H3.5000;WIG svarovani- svary dle potreby zabrousit.\PPohledove plochy brousit (vel. brusnyc
  1
h zrn 240)\Pa polepit paskou
  0
XRECORD
  5
3AAA
102
{ACAD_REACTORS
330
3AA9
102
}
330
3AA9
100
AcDbXrecord
280
     1
 40
136647.0
  1
Effidrai sestava dvoudílná  157 vodorovná
  0
XRECORD
  5
3AAC
102
{ACAD_REACTORS
330
3AAB
102
}
330
3AAB
100
AcDbXrecord
280
     1
 40
23258.0
  1
Není k dispozici
  0
XRECORD
  5
3A61
102
{ACAD_REACTORS
330
2DF9
102
}
330
2DF9
100
AcDbXrecord
280
     1
 70
     4
 70
     0
 70
     0
 40
1.0
  2
ČÍSLO_REVIZE
  1
Embedded Object
 10
287.6423193699604
 20
66.0
 30
0.0
 40
3.499999940395355
 41
0.0
 46
0.0
 71
     1
 72
     5
  1
000
  7
Styl textu9
 73
     1
 44
1.0
  0
XRECORD
  5
3A60
102
{ACAD_REACTORS
330
2DF9
102
}
330
2DF9
100
AcDbXrecord
280
     1
102
ACAD_MATT_HEIGHT
140
3.499999940395355
  0
XRECORD
  5
3A63
102
{ACAD_REACTORS
330
2DFC
102
}
330
2DFC
100
AcDbXrecord
280
     1
 70
     4
 70
     0
 70
     0
 40
1.0
  2
Sheet_Size
  1
Embedded Object
 10
289.7753402652471
 20
48.33701147296152
 30
0.0
 40
2.000000029802321
 41
0.0
 46
0.0
 71
     1
 72
     5
  1
A2
  7
Styl textu40
 73
     1
 44
1.0
  0
XRECORD
  5
3A62
102
{ACAD_REACTORS
330
2DFC
102
}
330
2DFC
100
AcDbXrecord
280
     1
102
ACAD_MATT_HEIGHT
140
2.000000029802321
  0
XRECORD
  5
3A65
102
{ACAD_REACTORS
330
2DFF
102
}
330
2DFF
100
AcDbXrecord
280
     1
 70
     4
 70
     0
 70
     0
 40
1.0
  2
FILENAME_AND_PATH
  1
Embedded Object
 10
230.2697279123746
 20
53.13502004542946
 30
0.0
 40
2.000000029802321
 41
0.0
 46
0.0
 71
     1
 72
     5
  1
C:\\Inventor_DATA\\Projekty\\Guly\\Effidrain\\Effidrain sestava dvoudílná  157 vodorovná\\408078.iam
  7
Styl textu40
 73
     1
 44
1.0
  0
XRECORD
  5
3A64
102
{ACAD_REACTORS
330
2DFF
102
}
330
2DFF
100
AcDbXrecord
280
     1
102
ACAD_MATT_HEIGHT
140
2.000000029802321
  0
XRECORD
  5
3A67
102
{ACAD_REACTORS
330
2E02
102
}
330
2E02
100
AcDbXrecord
280
     1
 70
     4
 70
     0
 70
     0
 40
1.0
  2
PART_NUMBER
  1
Embedded Object
 10
218.0
 20
66.0
 30
0.0
 40
3.499999940395355
 41
0.0
 46
0.0
 71
     1
 72
     5
  1
408078
  7
Text poznámky (ISO)
 73
     1
 44
1.0
  0
XRECORD
  5
3A66
102
{ACAD_REACTORS
330
2E02
102
}
330
2E02
100
AcDbXrecord
280
     1
102
ACAD_MATT_HEIGHT
140
3.499999940395355
  0
XRECORD
  5
3A69
102
{ACAD_REACTORS
330
2E05
102
}
330
2E05
100
AcDbXrecord
280
     1
 70
     4
 70
     0
 70
     0
 40
1.0
  2
PROJECT
  1
Embedded Object
 10
118.0
 20
60.0
 30
0.0
 40
3.499999940395355
 41
0.0
 46
0.0
 71
     1
 72
     5
  1

  7
Text poznámky (ISO)
 73
     1
 44
1.0
  0
XRECORD
  5
3A68
102
{ACAD_REACTORS
330
2E05
102
}
330
2E05
100
AcDbXrecord
280
     1
102
ACAD_MATT_HEIGHT
140
3.499999940395355
  0
XRECORD
  5
3A6B
102
{ACAD_REACTORS
330
2E08
102
}
330
2E08
100
AcDbXrecord
280
     1
 70
     4
 70
     0
 70
     0
 40
1.0
  2
SKLADOVÉ_ČÍSLO
  1
Embedded Object
 10
118.0
 20
54.89391305489238
 30
0.0
 40
6.99999988079071
 41
153.2966041564941
 46
0.0
 71
     1
 72
     5
  1
408078
  7
Styl textu94
 73
     1
 44
1.0
  0
XRECORD
  5
3A6A
102
{ACAD_REACTORS
330
2E08
102
}
330
2E08
100
AcDbXrecord
280
     1
102
ACAD_MATT_HEIGHT
140
6.99999988079071
  0
XRECORD
  5
3A6D
102
{ACAD_REACTORS
330
2E0B
102
}
330
2E0B
100
AcDbXrecord
280
     1
 70
     4
 70
     0
 70
     0
 40
1.0
  2
MATERIAL
  1
Embedded Object
 10
117.5939056808251
 20
108.6756657996811
 30
0.0
 40
3.499999940395355
 41
0.0
 46
0.0
 71
     1
 72
     5
  1

  7
Text poznámky (ISO)
 73
     1
 44
1.0
  0
XRECORD
  5
3A6C
102
{ACAD_REACTORS
330
2E0B
102
}
330
2E0B
100
AcDbXrecord
280
     1
102
ACAD_MATT_HEIGHT
140
3.499999940395355
  0
XRECORD
  5
3A6F
102
{ACAD_REACTORS
330
2E0E
102
}
330
2E0E
100
AcDbXrecord
280
     1
 70
     4
 70
     0
 70
     0
 40
1.0
  2
AUTHOR
  1
Embedded Object
 10
165.2312259808574
 20
87.78242706242744
 30
0.0
 40
2.000000029802321
 41
15.06250023841858
 46
0.0
 71
     1
 72
     5
  1
pmacoun
  7
Styl textu40
 73
     1
 44
1.0
  0
XRECORD
  5
3A6E
102
{ACAD_REACTORS
330
2E0E
102
}
330
2E0E
100
AcDbXrecord
280
     1
102
ACAD_MATT_HEIGHT
140
2.000000029802321
  0
XRECORD
  5
3A71
102
{ACAD_REACTORS
330
2E11
102
}
330
2E11
100
AcDbXrecord
280
     1
 70
     4
 70
     0
 70
     0
 40
1.0
  2
VS_First
  1
Embedded Object
 10
189.1855699863978
 20
86.00038821032343
 30
0.0
 40
3.499999940395355
 41
24.15597186978378
 46
0.0
 71
     1
 72
     5
  1

  7
Text poznámky (ISO)
 73
     1
 44
1.0
  0
XRECORD
  5
3A70
102
{ACAD_REACTORS
330
2E11
102
}
330
2E11
100
AcDbXrecord
280
     1
102
ACAD_MATT_HEIGHT
140
3.499999940395355
  0
XRECORD
  5
3AAE
102
{ACAD_REACTORS
330
3AAD
102
}
330
3AAD
100
AcDbXrecord
280
     1
 40
7165.0
  1
KUSOVNÍK
  0
XRECORD
  5
3AB0
102
{ACAD_REACTORS
330
3AAF
102
}
330
3AAF
100
AcDbXrecord
280
     1
 40
6807.0
  1
MATERIÁL
  0
XRECORD
  5
3AB2
102
{ACAD_REACTORS
330
3AB1
102
}
330
3AB1
100
AcDbXrecord
280
     1
 40
6841.0
  1
SKLADOVÉ
  0
XRECORD
  5
3AB4
102
{ACAD_REACTORS
330
3AB3
102
}
330
3AB3
100
AcDbXrecord
280
     1
 40
16075.0
  1
Přístup 
  0
XRECORD
  5
3AB6
102
{ACAD_REACTORS
330
3AB5
102
}
330
3AB5
100
AcDbXrecord
280
     1
 40
9305.0
  1
člena se 
  0
XRECORD
  5
3AB8
102
{ACAD_REACTORS
330
3AB7
102
}
330
3AB7
100
AcDbXrecord
280
     1
 40
8120.0
  1
nezdařil
  0
XRECORD
  5
3ABA
102
{ACAD_REACTORS
330
3AB9
102
}
330
3AB9
100
AcDbXrecord
280
     1
 40
144721.0
  1
Effidrai dvoudílná  157/DN100 vodorovná 12mm 
  0
XRECORD
  5
3ABC
102
{ACAD_REACTORS
330
3ABB
102
}
330
3ABB
100
AcDbXrecord
280
     1
 40
26991.0
  1
příruba AISI 304
  0
XRECORD
  5
3ABE
102
{ACAD_REACTORS
330
3ABD
102
}
330
3ABD
100
AcDbXrecord
280
     1
 40
23054.0
  1
návlek sunap-DN100
  0
XRECORD
  5
3AC0
102
{ACAD_REACTORS
330
3ABF
102
}
330
3ABF
100
AcDbXrecord
280
     1
 40
202759.0
  1
Effidrain drenážní kroužek komplet 157 + karton
  0
XRECORD
  5
3AC2
102
{ACAD_REACTORS
330
3AC1
102
}
330
3AC1
100
AcDbXrecord
280
     1
 40
57602.0
  1
Polykarbonát, kouřový
  0
XRECORD
  5
3AC4
102
{ACAD_REACTORS
330
3AC3
102
}
330
3AC3
100
AcDbXrecord
280
     1
 40
130256.0
  1
Effidrain kryt plastový 157 pro balení PP 12mm
  0
XRECORD
  5
3AC6
102
{ACAD_REACTORS
330
3AC5
102
}
330
3AC5
100
AcDbXrecord
280
     1
 40
61553.0
  1
Šestihranná matice M8 DIN 934
  0
XRECORD
  5
3AC8
102
{ACAD_REACTORS
330
3AC7
102
}
330
3AC7
100
AcDbXrecord
280
     1
 40
164968.0
  1
Krytka  matic 130-034-148 šestihranná, černá
  0
XRECORD
  5
3ACA
102
{ACAD_REACTORS
330
3AC9
102
}
330
3AC9
100
AcDbXrecord
280
     1
 40
4936.0
  1
Papír
  0
XRECORD
  5
3ACC
102
{ACAD_REACTORS
330
3ACB
102
}
330
3ACB
100
AcDbXrecord
280
     1
 40
25734.0
  1
\A1;247{\H5.257800;±2}
  0
XRECORD
  5
3ACE
102
{ACAD_REACTORS
330
3ACD
102
}
330
3ACD
100
AcDbXrecord
280
     1
 40
9029.0
  1
\A1;{\U+00D8}157
  0
XRECORD
  5
3AD0
102
{ACAD_REACTORS
330
3ACF
102
}
330
3ACF
100
AcDbXrecord
280
     1
 40
8857.0
  1
\A1;{\U+00D8}110
  0
XRECORD
  5
3AD2
102
{ACAD_REACTORS
330
3AD1
102
}
330
3AD1
100
AcDbXrecord
280
     1
 40
25707.0
  1
\A1;153{\H5.257800;±2}
  0
XRECORD
  5
3A74
102
{ACAD_REACTORS
330
3A73
102
}
330
3A73
100
AcDbXrecord
280
     1
 70
     1
  0
XRECORD
  5
3A76
102
{ACAD_REACTORS
330
3A73
102
}
330
3A73
100
AcDbXrecord
280
     1
340
5B
  0
XRECORD
  5
3A77
102
{ACAD_REACTORS
330
3A73
102
}
330
3A73
100
AcDbXrecord
280
     1
340
5B
  0
XRECORD
  5
3A75
102
{ACAD_REACTORS
330
3A73
102
}
330
3A73
100
AcDbXrecord
280
     1
340
5B
  0
LAYOUT
  5
6B
102
{ACAD_REACTORS
330
62
102
}
330
62
100
AcDbPlotSettings
  1

  2

  4

  6

 40
0.0
 41
0.0
 42
0.0
 43
0.0
 44
0.0
 45
0.0
 46
0.0
 47
0.0
 48
0.0
 49
0.0
140
0.0
141
0.0
142
1.0
143
1.0
 70
   688
 72
     0
 73
     0
 74
     5
  7

 75
    16
147
1.0
 76
     0
 77
     2
 78
   300
148
0.0
149
0.0
100
AcDbLayout
  1
Layout1
 70
     1
 71
     1
 10
0.0
 20
0.0
 11
891.0
 21
630.0
 12
0.0
 22
0.0
 32
0.0
 14
0.0
 24
0.0
 34
0.0
 15
891.0
 25
630.0
 35
0.0
146
0.0
 13
0.0
 23
0.0
 33
0.0
 16
1.0
 26
0.0
 36
0.0
 17
0.0
 27
1.0
 37
0.0
 76
     0
330
68
  0
LAYOUT
  5
73
102
{ACAD_REACTORS
330
62
102
}
330
62
100
AcDbPlotSettings
  1

  2

  4

  6

 40
0.0
 41
0.0
 42
0.0
 43
0.0
 44
0.0
 45
0.0
 46
0.0
 47
0.0
 48
0.0
 49
0.0
140
0.0
141
0.0
142
1.0
143
1.0
 70
   688
 72
     0
 73
     0
 74
     5
  7

 75
    16
147
1.0
 76
     0
 77
     2
 78
   300
148
0.0
149
0.0
100
AcDbLayout
  1
Layout2
 70
     1
 71
     2
 10
0.0
 20
0.0
 11
12.0
 21
9.0
 12
0.0
 22
0.0
 32
0.0
 14
0.0
 24
0.0
 34
0.0
 15
0.0
 25
0.0
 35
0.0
146
0.0
 13
0.0
 23
0.0
 33
0.0
 16
1.0
 26
0.0
 36
0.0
 17
0.0
 27
1.0
 37
0.0
 76
     0
330
70
  0
LAYOUT
  5
6F
102
{ACAD_REACTORS
330
62
102
}
330
62
100
AcDbPlotSettings
  1

  2

  4

  6

 40
0.0
 41
0.0
 42
0.0
 43
0.0
 44
0.0
 45
0.0
 46
0.0
 47
0.0
 48
0.0
 49
0.0
140
0.0
141
0.0
142
1.0
143
1.0
 70
  1712
 72
     0
 73
     0
 74
     0
  7

 75
     0
147
1.0
 76
     0
 77
     2
 78
   300
148
0.0
149
0.0
100
AcDbLayout
  1
Model
 70
     1
 71
     0
 10
0.0
 20
0.0
 11
12.0
 21
9.0
 12
0.0
 22
0.0
 32
0.0
 14
0.0
 24
0.0
 34
0.0
 15
0.0
 25
0.0
 35
0.0
146
0.0
 13
0.0
 23
0.0
 33
0.0
 16
1.0
 26
0.0
 36
0.0
 17
0.0
 27
1.0
 37
0.0
 76
     0
330
6C
331
57
  0
MATERIAL
  5
19
102
{ACAD_XDICTIONARY
360
1A
102
}
102
{ACAD_REACTORS
330
10
102
}
330
10
100
AcDbMaterial
  1
ByBlock
 72
     0
 43
0.0208333333333333
 43
0.0
 43
0.0
 43
0.0
 43
0.0
 43
0.0208333333333333
 43
0.0
 43
0.0
 43
0.0
 43
0.0
 43
1.0
 43
0.0
 43
0.0
 43
0.0
 43
0.0
 43
1.0
 77
     0
 47
0.0208333333333333
 47
0.0
 47
0.0
 47
0.0
 47
0.0
 47
0.0208333333333333
 47
0.0
 47
0.0
 47
0.0
 47
0.0
 47
1.0
 47
0.0
 47
0.0
 47
0.0
 47
0.0
 47
1.0
171
     0
 49
0.0208333333333333
 49
0.0
 49
0.0
 49
0.0
 49
0.0
 49
0.0208333333333333
 49
0.0
 49
0.0
 49
0.0
 49
0.0
 49
1.0
 49
0.0
 49
0.0
 49
0.0
 49
0.0
 49
1.0
175
     0
142
0.0208333333333333
142
0.0
142
0.0
142
0.0
142
0.0
142
0.0208333333333333
142
0.0
142
0.0
142
0.0
142
0.0
142
1.0
142
0.0
142
0.0
142
0.0
142
0.0
142
1.0
179
     0
144
0.0208333333333333
144
0.0
144
0.0
144
0.0
144
0.0
144
0.0208333333333333
144
0.0
144
0.0
144
0.0
144
0.0
144
1.0
144
0.0
144
0.0
144
0.0
144
0.0
144
1.0
147
0.0208333333333333
147
0.0
147
0.0
147
0.0
147
0.0
147
0.0208333333333333
147
0.0
147
0.0
147
0.0
147
0.0
147
1.0
147
0.0
147
0.0
147
0.0
147
0.0
147
1.0
  0
MATERIAL
  5
11
102
{ACAD_XDICTIONARY
360
12
102
}
102
{ACAD_REACTORS
330
10
102
}
330
10
100
AcDbMaterial
  1
ByLayer
 72
     0
 43
0.0208333333333333
 43
0.0
 43
0.0
 43
0.0
 43
0.0
 43
0.0208333333333333
 43
0.0
 43
0.0
 43
0.0
 43
0.0
 43
1.0
 43
0.0
 43
0.0
 43
0.0
 43
0.0
 43
1.0
 77
     0
 47
0.0208333333333333
 47
0.0
 47
0.0
 47
0.0
 47
0.0
 47
0.0208333333333333
 47
0.0
 47
0.0
 47
0.0
 47
0.0
 47
1.0
 47
0.0
 47
0.0
 47
0.0
 47
0.0
 47
1.0
171
     0
 49
0.0208333333333333
 49
0.0
 49
0.0
 49
0.0
 49
0.0
 49
0.0208333333333333
 49
0.0
 49
0.0
 49
0.0
 49
0.0
 49
1.0
 49
0.0
 49
0.0
 49
0.0
 49
0.0
 49
1.0
175
     0
142
0.0208333333333333
142
0.0
142
0.0
142
0.0
142
0.0
142
0.0208333333333333
142
0.0
142
0.0
142
0.0
142
0.0
142
1.0
142
0.0
142
0.0
142
0.0
142
0.0
142
1.0
179
     0
144
0.0208333333333333
144
0.0
144
0.0
144
0.0
144
0.0
144
0.0208333333333333
144
0.0
144
0.0
144
0.0
144
0.0
144
1.0
144
0.0
144
0.0
144
0.0
144
0.0
144
1.0
147
0.0208333333333333
147
0.0
147
0.0
147
0.0
147
0.0
147
0.0208333333333333
147
0.0
147
0.0
147
0.0
147
0.0
147
1.0
147
0.0
147
0.0
147
0.0
147
0.0
147
1.0
  0
MATERIAL
  5
21
102
{ACAD_XDICTIONARY
360
22
102
}
102
{ACAD_REACTORS
330
10
102
}
330
10
100
AcDbMaterial
  1
Global
 72
     0
 43
0.0208333333333333
 43
0.0
 43
0.0
 43
0.0
 43
0.0
 43
0.0208333333333333
 43
0.0
 43
0.0
 43
0.0
 43
0.0
 43
1.0
 43
0.0
 43
0.0
 43
0.0
 43
0.0
 43
1.0
 77
     0
 47
0.0208333333333333
 47
0.0
 47
0.0
 47
0.0
 47
0.0
 47
0.0208333333333333
 47
0.0
 47
0.0
 47
0.0
 47
0.0
 47
1.0
 47
0.0
 47
0.0
 47
0.0
 47
0.0
 47
1.0
171
     0
 49
0.0208333333333333
 49
0.0
 49
0.0
 49
0.0
 49
0.0
 49
0.0208333333333333
 49
0.0
 49
0.0
 49
0.0
 49
0.0
 49
1.0
 49
0.0
 49
0.0
 49
0.0
 49
0.0
 49
1.0
175
     0
142
0.0208333333333333
142
0.0
142
0.0
142
0.0
142
0.0
142
0.0208333333333333
142
0.0
142
0.0
142
0.0
142
0.0
142
1.0
142
0.0
142
0.0
142
0.0
142
0.0
142
1.0
179
     0
144
0.0208333333333333
144
0.0
144
0.0
144
0.0
144
0.0
144
0.0208333333333333
144
0.0
144
0.0
144
0.0
144
0.0
144
1.0
144
0.0
144
0.0
144
0.0
144
0.0
144
1.0
147
0.0208333333333333
147
0.0
147
0.0
147
0.0
147
0.0
147
0.0208333333333333
147
0.0
147
0.0
147
0.0
147
0.0
147
1.0
147
0.0
147
0.0
147
0.0
147
0.0
147
1.0
  0
MLEADERSTYLE
  5
67
102
{ACAD_XDICTIONARY
360
2DF5
102
}
102
{ACAD_REACTORS
330
66
102
}
330
66
100
AcDbMLeaderStyle
170
     2
171
     1
172
     0
 90
        2
 40
0.0
 41
0.0
173
     1
 91
-1056964608
340
5B
 92
       -2
290
     1
 42
0.09
291
     1
 43
0.36
  3
Standard
 44
0.18
300

342
55
174
     1
178
     6
175
     1
176
     0
 93
-1056964608
 45
0.18
292
     0
297
     0
 46
0.18
 94
-1056964608
 47
1.0
 49
1.0
140
1.0
293
     1
141
0.0
294
     1
177
     0
142
1.0
295
     0
296
     0
143
0.125
1001
ACAD_MLEADERVER
1070
     2
  0
MLINESTYLE
  5
60
102
{ACAD_REACTORS
330
5F
102
}
330
5F
100
AcDbMlineStyle
  2
STANDARD
 70
     0
  3

 62
   256
 51
90.0
 52
90.0
 71
     2
 49
0.5
 62
   256
  6
BYLAYER
 49
-0.5
 62
   256
  6
BYLAYER
  0
ACDBPLACEHOLDER
  5
F
102
{ACAD_REACTORS
330
E
102
}
330
E
  0
SCALE
  5
43
102
{ACAD_REACTORS
330
42
102
}
330
42
100
AcDbScale
 70
     0
300
1:1
140
1.0
141
1.0
290
     1
  0
SCALE
  5
44
102
{ACAD_REACTORS
330
42
102
}
330
42
100
AcDbScale
 70
     0
300
1/128" = 1'-0"
140
0.0078125
141
12.0
290
     0
  0
SCALE
  5
45
102
{ACAD_REACTORS
330
42
102
}
330
42
100
AcDbScale
 70
     0
300
1/64" = 1'-0"
140
0.015625
141
12.0
290
     0
  0
SCALE
  5
46
102
{ACAD_REACTORS
330
42
102
}
330
42
100
AcDbScale
 70
     0
300
1/32" = 1'-0"
140
0.03125
141
12.0
290
     0
  0
SCALE
  5
47
102
{ACAD_REACTORS
330
42
102
}
330
42
100
AcDbScale
 70
     0
300
1/16" = 1'-0"
140
0.0625
141
12.0
290
     0
  0
SCALE
  5
48
102
{ACAD_REACTORS
330
42
102
}
330
42
100
AcDbScale
 70
     0
300
3/32" = 1'-0"
140
0.09375
141
12.0
290
     0
  0
SCALE
  5
49
102
{ACAD_REACTORS
330
42
102
}
330
42
100
AcDbScale
 70
     0
300
1/8" = 1'-0"
140
0.125
141
12.0
290
     0
  0
SCALE
  5
4A
102
{ACAD_REACTORS
330
42
102
}
330
42
100
AcDbScale
 70
     0
300
3/16" = 1'-0"
140
0.1875
141
12.0
290
     0
  0
SCALE
  5
4B
102
{ACAD_REACTORS
330
42
102
}
330
42
100
AcDbScale
 70
     0
300
1/4" = 1'-0"
140
0.25
141
12.0
290
     0
  0
SCALE
  5
4C
102
{ACAD_REACTORS
330
42
102
}
330
42
100
AcDbScale
 70
     0
300
3/8" = 1'-0"
140
0.375
141
12.0
290
     0
  0
SCALE
  5
4D
102
{ACAD_REACTORS
330
42
102
}
330
42
100
AcDbScale
 70
     0
300
1/2" = 1'-0"
140
0.5
141
12.0
290
     0
  0
SCALE
  5
4E
102
{ACAD_REACTORS
330
42
102
}
330
42
100
AcDbScale
 70
     0
300
3/4" = 1'-0"
140
0.75
141
12.0
290
     0
  0
SCALE
  5
4F
102
{ACAD_REACTORS
330
42
102
}
330
42
100
AcDbScale
 70
     0
300
1" = 1'-0"
140
1.0
141
12.0
290
     0
  0
SCALE
  5
50
102
{ACAD_REACTORS
330
42
102
}
330
42
100
AcDbScale
 70
     0
300
1-1/2" = 1'-0"
140
1.5
141
12.0
290
     0
  0
SCALE
  5
51
102
{ACAD_REACTORS
330
42
102
}
330
42
100
AcDbScale
 70
     0
300
3" = 1'-0"
140
3.0
141
12.0
290
     0
  0
SCALE
  5
52
102
{ACAD_REACTORS
330
42
102
}
330
42
100
AcDbScale
 70
     0
300
6" = 1'-0"
140
6.0
141
12.0
290
     0
  0
SCALE
  5
53
102
{ACAD_REACTORS
330
42
102
}
330
42
100
AcDbScale
 70
     0
300
1'-0" = 1'-0"
140
12.0
141
12.0
290
     0
  0
TABLESTYLE
  5
65
102
{ACAD_XDICTIONARY
360
3766
102
}
102
{ACAD_REACTORS
330
64
102
}
330
64
100
AcDbTableStyle
  3
Standard
 70
     0
 71
     0
 40
0.06
 41
0.06
280
     0
281
     0
  7
Standard
140
0.18
170
     2
 62
     0
 63
     7
283
     0
274
    -2
284
     1
 64
     0
275
    -2
285
     1
 65
     0
276
    -2
286
     1
 66
     0
277
    -2
287
     1
 67
     0
278
    -2
288
     1
 68
     0
279
    -2
289
     1
 69
     0
  7
Standard
140
0.25
170
     5
 62
     0
 63
     7
283
     0
274
    -2
284
     1
 64
     0
275
    -2
285
     1
 65
     0
276
    -2
286
     1
 66
     0
277
    -2
287
     1
 67
     0
278
    -2
288
     1
 68
     0
279
    -2
289
     1
 69
     0
  7
Standard
140
0.18
170
     5
 62
     0
 63
     7
283
     0
274
    -2
284
     1
 64
     0
275
    -2
285
     1
 65
     0
276
    -2
286
     1
 66
     0
277
    -2
287
     1
 67
     0
278
    -2
288
     1
 68
     0
279
    -2
289
     1
 69
     0
  0
VISUALSTYLE
  5
2F
102
{ACAD_XDICTIONARY
360
3A82
102
}
102
{ACAD_REACTORS
330
29
102
}
330
29
100
AcDbVisualStyle
  2

 70
     4
 71
     0
 72
     2
 73
     0
 90
        0
 40
-0.6
 41
-30.0
 62
     5
 63
     7
421
 16777215
 74
     1
 91
        4
 64
     7
 65
   257
 75
     1
175
     1
 42
1.0
 92
        0
 66
   257
 43
1.0
 76
     1
 77
     6
 78
     2
 67
     7
 79
     5
170
     0
171
     0
290
     0
174
     0
 93
        1
 44
0.0
173
     0
291
     0
 45
0.0
1001
ACAD
1000
AcDbSavedByObjectVersion
1070
     0
  0
VISUALSTYLE
  5
2E36
102
{ACAD_XDICTIONARY
360
3AD5
102
}
102
{ACAD_REACTORS
330
29
102
}
330
29
100
AcDbVisualStyle
  2

 70
     6
 71
     1
 72
     2
 73
     2
 90
        0
 40
-0.6
 41
-30.0
 62
     5
 63
     7
421
 16777215
 74
     2
 91
        2
 64
     7
 65
   257
 75
     2
175
     1
 42
179.0
 92
        0
 66
   257
 43
1.0
 76
     1
 77
     6
 78
     2
 67
     7
 79
     3
170
     0
171
     0
290
     0
174
     0
 93
        1
 44
0.0
173
     0
291
     0
 45
0.0
1001
ACAD
1000
AcDbSavedByObjectVersion
1070
     0
  0
VISUALSTYLE
  5
2E35
102
{ACAD_XDICTIONARY
360
3AD3
102
}
102
{ACAD_REACTORS
330
29
102
}
330
29
100
AcDbVisualStyle
  2

 70
     5
 71
     0
 72
     2
 73
     0
 90
        0
 40
-0.6
 41
-30.0
 62
     5
 63
     7
421
 16777215
 74
     1
 91
        4
 64
     7
 65
   257
 75
     1
175
     1
 42
1.0
 92
        0
 66
   257
 43
1.0
 76
     1
 77
     6
 78
     2
 67
     7
 79
     5
170
     0
171
     0
290
     0
174
     0
 93
        1
 44
0.0
173
     0
291
     0
 45
0.0
1001
ACAD
1000
AcDbSavedByObjectVersion
1070
     0
  0
VISUALSTYLE
  5
2E
102
{ACAD_XDICTIONARY
360
3A80
102
}
102
{ACAD_REACTORS
330
29
102
}
330
29
100
AcDbVisualStyle
  2

 70
     7
 71
     1
 72
     0
 73
     1
 90
        0
 40
-0.6
 41
-30.0
 62
     5
 63
     7
421
 16777215
 74
     0
 91
        4
 64
     7
 65
   257
 75
     1
175
     1
 42
1.0
 92
        8
 66
     7
 43
1.0
 76
     1
 77
     6
 78
     2
 67
     7
 79
     5
170
     0
171
     0
290
     0
174
     0
 93
        1
 44
0.0
173
     0
291
     1
 45
0.0
1001
ACAD
1000
AcDbSavedByObjectVersion
1070
     0
  0
VISUALSTYLE
  5
35
102
{ACAD_XDICTIONARY
360
3A8E
102
}
102
{ACAD_REACTORS
330
29
102
}
330
29
100
AcDbVisualStyle
  2

 70
    12
 71
     2
 72
     2
 73
     0
 90
        0
 40
-0.6
 41
-30.0
 62
     5
 63
     7
421
 16777215
 74
     1
 91
        4
 64
     7
 65
   257
 75
     1
175
     1
 42
1.0
 92
        8
 66
     7
 43
1.0
 76
     1
 77
     6
 78
     2
 67
     7
 79
     5
170
     0
171
     0
290
     0
174
     0
 93
        1
 44
50.0
173
     0
291
     1
 45
0.0
1001
ACAD
1000
AcDbSavedByObjectVersion
1070
     0
  0
VISUALSTYLE
  5
39
102
{ACAD_XDICTIONARY
360
3A96
102
}
102
{ACAD_REACTORS
330
29
102
}
330
29
100
AcDbVisualStyle
  2

 70
    16
 71
     2
 72
     2
 73
     3
 90
        0
 40
-0.6
 41
-30.0
 62
     5
 63
     8
421
  8421504
 74
     1
 91
        4
 64
     7
 65
   257
 75
     1
175
     1
 42
1.0
 92
        8
 66
     8
424
  8421504
 43
1.0
 76
     1
 77
     6
 78
     2
 67
     7
 79
     5
170
     0
171
     0
290
     0
174
     0
 93
        1
 44
0.0
173
     0
291
     1
 45
0.0
1001
ACAD
1000
AcDbSavedByObjectVersion
1070
     0
  0
VISUALSTYLE
  5
32
102
{ACAD_XDICTIONARY
360
3A88
102
}
102
{ACAD_REACTORS
330
29
102
}
330
29
100
AcDbVisualStyle
  2

 70
     9
 71
     3
 72
     2
 73
     0
 90
        0
 40
-0.6
 41
-30.0
 62
     5
 63
     7
421
 16777215
 74
     2
 91
        2
 64
     7
 65
   257
 75
     1
175
     1
 42
179.0
 92
        8
 66
     7
 43
1.0
 76
     1
 77
     6
 78
     2
 67
     7
 79
     3
170
     0
171
     0
290
     0
174
     0
 93
        1
 44
0.0
173
     0
291
     0
 45
0.0
1001
ACAD
1000
AcDbSavedByObjectVersion
1070
     0
  0
VISUALSTYLE
  5
34
102
{ACAD_XDICTIONARY
360
3A8C
102
}
102
{ACAD_REACTORS
330
29
102
}
330
29
100
AcDbVisualStyle
  2

 70
    11
 71
     2
 72
     2
 73
     0
 90
        0
 40
-0.6
 41
-30.0
 62
     5
 63
     7
421
 16777215
 74
     1
 91
        4
 64
     7
 65
   257
 75
     1
175
     1
 42
1.0
 92
        8
 66
     7
 43
1.0
 76
     1
 77
     6
 78
     2
 67
     7
 79
     5
170
     0
171
     0
290
     0
174
     0
 93
        1
 44
-50.0
173
     0
291
     1
 45
0.0
1001
ACAD
1000
AcDbSavedByObjectVersion
1070
     0
  0
VISUALSTYLE
  5
41
102
{ACAD_XDICTIONARY
360
3AA6
102
}
102
{ACAD_REACTORS
330
29
102
}
330
29
100
AcDbVisualStyle
  2

 70
    22
 71
     2
 72
     2
 73
     0
 90
        0
 40
-0.6
 41
-30.0
 62
     5
 63
     7
421
 16777215
 74
     1
 91
        4
 64
     7
 65
   257
 75
     1
175
     1
 42
1.0
 92
        8
 66
     7
 43
1.0
 76
     1
 77
     6
 78
     2
 67
     7
 79
     5
170
     0
171
     0
290
     0
174
     0
 93
        1
 44
0.0
173
     0
291
     1
 45
0.0
1001
ACAD
1000
AcDbSavedByObjectVersion
1070
     0
  0
VISUALSTYLE
  5
38
102
{ACAD_XDICTIONARY
360
3A94
102
}
102
{ACAD_REACTORS
330
29
102
}
330
29
100
AcDbVisualStyle
  2

 70
    15
 71
     2
 72
     2
 73
     0
 90
        0
 40
-0.6
 41
-30.0
 62
     5
 63
     7
421
 16777215
 74
     1
 91
        4
 64
     7
 65
   257
 75
     1
175
     1
 42
1.0
 92
        8
 66
     7
 43
1.0
 76
     1
 77
     6
 78
     2
 67
     7
 79
     5
170
     0
171
     0
290
     0
174
     0
 93
        1
 44
0.0
173
     0
291
     1
 45
0.0
1001
ACAD
1000
AcDbSavedByObjectVersion
1070
     0
  0
VISUALSTYLE
  5
2A
102
{ACAD_XDICTIONARY
360
3A78
102
}
102
{ACAD_REACTORS
330
29
102
}
330
29
100
AcDbVisualStyle
  2

 70
     0
 71
     2
 72
     1
 73
     1
 90
        2
 40
-0.6
 41
30.0
 62
     5
 63
     7
421
 16777215
 74
     0
 91
        0
 64
     7
 65
   257
 75
     1
175
     1
 42
1.0
 92
        8
 66
     7
 43
1.0
 76
     1
 77
     6
 78
     2
 67
     7
 79
     5
170
     0
171
     0
290
     0
174
     0
 93
       13
 44
0.0
173
     0
291
     1
 45
0.0
1001
ACAD
1000
AcDbSavedByObjectVersion
1070
     0
  0
VISUALSTYLE
  5
2B
102
{ACAD_XDICTIONARY
360
3A7A
102
}
102
{ACAD_REACTORS
330
29
102
}
330
29
100
AcDbVisualStyle
  2

 70
     1
 71
     2
 72
     1
 73
     1
 90
        2
 40
-0.6
 41
30.0
 62
     5
 63
     7
421
 16777215
 74
     1
 91
        0
 64
     7
 65
   257
 75
     1
175
     1
 42
1.0
 92
        0
 66
   257
 43
1.0
 76
     1
 77
     6
 78
     2
 67
     7
 79
     5
170
     0
171
     0
290
     0
174
     0
 93
       13
 44
0.0
173
     0
291
     1
 45
0.0
1001
ACAD
1000
AcDbSavedByObjectVersion
1070
     0
  0
VISUALSTYLE
  5
2C
102
{ACAD_XDICTIONARY
360
3A7C
102
}
102
{ACAD_REACTORS
330
29
102
}
330
29
100
AcDbVisualStyle
  2

 70
     2
 71
     2
 72
     2
 73
     1
 90
        2
 40
-0.6
 41
30.0
 62
     5
 63
     7
421
 16777215
 74
     0
 91
        0
 64
     7
 65
   257
 75
     1
175
     1
 42
1.0
 92
        0
 66
     7
 43
1.0
 76
     1
 77
     6
 78
     2
 67
     7
 79
     5
170
     0
171
     0
290
     0
174
     0
 93
       13
 44
0.0
173
     0
291
     1
 45
0.0
1001
ACAD
1000
AcDbSavedByObjectVersion
1070
     0
  0
VISUALSTYLE
  5
2D
102
{ACAD_XDICTIONARY
360
3A7E
102
}
102
{ACAD_REACTORS
330
29
102
}
330
29
100
AcDbVisualStyle
  2

 70
     3
 71
     2
 72
     2
 73
     1
 90
        2
 40
-0.6
 41
30.0
 62
     5
 63
     7
421
 16777215
 74
     1
 91
        0
 64
     7
 65
   257
 75
     1
175
     1
 42
1.0
 92
        0
 66
   257
 43
1.0
 76
     1
 77
     6
 78
     2
 67
     7
 79
     5
170
     0
171
     0
290
     0
174
     0
 93
       13
 44
0.0
173
     0
291
     1
 45
0.0
1001
ACAD
1000
AcDbSavedByObjectVersion
1070
     0
  0
VISUALSTYLE
  5
31
102
{ACAD_XDICTIONARY
360
3A86
102
}
102
{ACAD_REACTORS
330
29
102
}
330
29
100
AcDbVisualStyle
  2

 70
     6
 71
     1
 72
     2
 73
     2
 90
        0
 40
-0.6
 41
-30.0
 62
     5
 63
     7
421
 16777215
 74
     2
 91
        2
 64
     7
 65
   257
 75
     2
175
     1
 42
40.0
 92
        0
 66
   257
 43
1.0
 76
     1
 77
     6
 78
     2
 67
     7
 79
     3
170
     0
171
     0
290
     0
174
     0
 93
        1
 44
0.0
173
     0
291
     0
 45
0.0
1001
ACAD
1000
AcDbSavedByObjectVersion
1070
     0
  0
VISUALSTYLE
  5
3F
102
{ACAD_XDICTIONARY
360
3AA2
102
}
102
{ACAD_REACTORS
330
29
102
}
330
29
100
AcDbVisualStyle
  2

 70
    20
 71
     2
 72
     2
 73
     0
 90
        0
 40
-0.6
 41
-30.0
 62
     5
 63
     7
421
 16777215
 74
     1
 91
        4
 64
     7
 65
   257
 75
     1
175
     1
 42
1.0
 92
       10
 66
     7
 43
1.0
 76
     1
 77
     6
 78
     2
 67
     7
 79
     5
170
     0
171
     0
290
     0
174
     0
 93
        1
 44
0.0
173
     0
291
     1
 45
0.0
1001
ACAD
1000
AcDbSavedByObjectVersion
1070
     0
  0
VISUALSTYLE
  5
37
102
{ACAD_XDICTIONARY
360
3A92
102
}
102
{ACAD_REACTORS
330
29
102
}
330
29
100
AcDbVisualStyle
  2

 70
    14
 71
     2
 72
     2
 73
     0
 90
        0
 40
-0.6
 41
-30.0
 62
     5
 63
     7
421
 16777215
 74
     1
 91
        4
 64
     7
 65
   257
 75
     7
175
     7
 42
1.0
 92
        8
 66
     7
 43
1.0
 76
     1
 77
     6
 78
     2
 67
     7
 79
     5
170
     0
171
     0
290
     0
174
     0
 93
        1
 44
0.0
173
     0
291
     1
 45
0.0
1001
ACAD
1000
AcDbSavedByObjectVersion
1070
     0
  0
VISUALSTYLE
  5
40
102
{ACAD_XDICTIONARY
360
3AA4
102
}
102
{ACAD_REACTORS
330
29
102
}
330
29
100
AcDbVisualStyle
  2

 70
    21
 71
     2
 72
     2
 73
     0
 90
        0
 40
-0.6
 41
-30.0
 62
     5
 63
     7
421
 16777215
 74
     1
 91
        4
 64
     7
 65
   257
 75
     1
175
     1
 42
1.0
 92
        9
 66
     7
 43
1.0
 76
     1
 77
     6
 78
     2
 67
     7
 79
     5
170
     0
171
     0
290
     0
174
     0
 93
        1
 44
0.0
173
     0
291
     1
 45
0.0
1001
ACAD
1000
AcDbSavedByObjectVersion
1070
     0
  0
VISUALSTYLE
  5
33
102
{ACAD_XDICTIONARY
360
3A8A
102
}
102
{ACAD_REACTORS
330
29
102
}
330
29
100
AcDbVisualStyle
  2

 70
     8
 71
     2
 72
     3
 73
     0
 90
        2
 40
-0.6
 41
30.0
 62
     5
 63
     7
421
 16777215
 74
     0
 91
        0
 64
     7
 65
   257
 75
     1
175
     1
 42
1.0
 92
        8
 66
   257
 43
1.0
 76
     1
 77
     6
 78
     2
 67
     7
 79
     3
170
     0
171
     0
290
     0
174
     0
 93
       13
 44
0.0
173
     0
291
     0
 45
0.0
1001
ACAD
1000
AcDbSavedByObjectVersion
1070
     0
  0
VISUALSTYLE
  5
3E
102
{ACAD_XDICTIONARY
360
3AA0
102
}
102
{ACAD_REACTORS
330
29
102
}
330
29
100
AcDbVisualStyle
  2

 70
    27
 71
     2
 72
     2
 73
     1
 90
        2
 40
-0.6
 41
30.0
 62
     5
 63
     7
421
 16777215
 74
     0
 91
        4
 64
     7
 65
   257
 75
     1
175
     1
 42
1.0
 92
        8
 66
   257
 43
1.0
 76
     1
 77
     6
 78
     2
 67
     8
425
  7895160
 79
     3
170
     0
171
     0
290
     0
174
     0
 93
        5
 44
0.0
173
     0
291
     0
 45
0.0
1001
ACAD
1000
AcDbSavedByObjectVersion
1070
     0
  0
VISUALSTYLE
  5
3D
102
{ACAD_XDICTIONARY
360
3A9E
102
}
102
{ACAD_REACTORS
330
29
102
}
330
29
100
AcDbVisualStyle
  2

 70
    26
 71
     2
 72
     2
 73
     1
 90
        2
 40
-0.6
 41
30.0
 62
     5
 63
     7
421
 16777215
 74
     1
 91
       10
 64
     7
 65
   257
 75
     2
175
     1
 42
1.0
 92
        8
 66
   257
 43
1.0
 76
     1
 77
     6
 78
     2
 67
     7
 79
     3
170
     0
171
     0
290
     0
174
     0
 93
        5
 44
0.0
173
     0
291
     0
 45
0.0
1001
ACAD
1000
AcDbSavedByObjectVersion
1070
     0
  0
VISUALSTYLE
  5
3A
102
{ACAD_XDICTIONARY
360
3A98
102
}
102
{ACAD_REACTORS
330
29
102
}
330
29
100
AcDbVisualStyle
  2

 70
    23
 71
     2
 72
     2
 73
     3
 90
        0
 40
-0.6
 41
-30.0
 62
     5
 63
     7
421
 16777215
 74
     2
 91
        2
 64
     7
 65
     7
 75
     1
175
     1
 42
40.0
 92
        8
 66
     7
 43
1.0
 76
     1
 77
     6
 78
     2
 67
     7
 79
     3
170
     0
171
     0
290
     0
174
     0
 93
        1
 44
0.0
173
     0
291
     0
 45
0.0
1001
ACAD
1000
AcDbSavedByObjectVersion
1070
     0
  0
VISUALSTYLE
  5
3B
102
{ACAD_XDICTIONARY
360
3A9A
102
}
102
{ACAD_REACTORS
330
29
102
}
330
29
100
AcDbVisualStyle
  2

 70
    24
 71
     1
 72
     2
 73
     2
 90
        0
 40
-0.6
 41
-30.0
 62
     5
 63
     7
421
 16777215
 74
     2
 91
        2
 64
     7
 65
     7
 75
     1
175
     1
 42
40.0
 92
       11
 66
     7
 43
1.0
 76
     1
 77
     6
 78
     2
 67
     7
 79
     6
170
     0
171
     0
290
     0
174
     0
 93
        1
 44
0.0
173
     0
291
     0
 45
0.0
1001
ACAD
1000
AcDbSavedByObjectVersion
1070
     0
  0
VISUALSTYLE
  5
36
102
{ACAD_XDICTIONARY
360
3A90
102
}
102
{ACAD_REACTORS
330
29
102
}
330
29
100
AcDbVisualStyle
  2

 70
    13
 71
     2
 72
     2
 73
     0
 90
        0
 40
-0.6
 41
-30.0
 62
     5
 63
     7
421
 16777215
 74
     1
 91
        4
 64
     7
 65
   257
 75
     1
175
     1
 42
1.0
 92
       12
 66
     7
 43
1.0
 76
     1
 77
     6
 78
     2
 67
     7
 79
     5
170
     0
171
     0
290
     0
174
     0
 93
        1
 44
0.0
173
     0
291
     1
 45
0.0
1001
ACAD
1000
AcDbSavedByObjectVersion
1070
     0
  0
VISUALSTYLE
  5
30
102
{ACAD_XDICTIONARY
360
3A84
102
}
102
{ACAD_REACTORS
330
29
102
}
330
29
100
AcDbVisualStyle
  2

 70
     5
 71
     0
 72
     2
 73
     0
 90
        0
 40
-0.6
 41
-30.0
 62
     5
 63
     7
421
 16777215
 74
     1
 91
        4
 64
     7
 65
   257
 75
     1
175
     1
 42
1.0
 92
        0
 66
   257
 43
1.0
 76
     1
 77
     6
 78
     2
 67
     7
 79
     3
170
     0
171
     0
290
     0
174
     0
 93
        1
 44
0.0
173
     0
291
     0
 45
0.0
1001
ACAD
1000
AcDbSavedByObjectVersion
1070
     0
  0
VISUALSTYLE
  5
3C
102
{ACAD_XDICTIONARY
360
3A9C
102
}
102
{ACAD_REACTORS
330
29
102
}
330
29
100
AcDbVisualStyle
  2

 70
    25
 71
     2
 72
     2
 73
     1
 90
        1
 40
0.5
 41
-30.0
 62
     5
 63
     7
421
 16777215
 74
     1
 91
        0
 64
     7
 65
   257
 75
     1
175
     1
 42
1.0
 92
        8
 66
     7
 43
1.0
 76
     1
 77
     6
 78
     2
 67
     7
 79
     3
170
     0
171
     0
290
     0
174
     0
 93
       13
 44
0.0
173
     0
291
     0
 45
0.0
1001
ACAD
1000
AcDbSavedByObjectVersion
1070
     0
  0
DICTIONARYVAR
  5
2E33
102
{ACAD_REACTORS
330
2E30
102
}
330
2E30
100
DictionaryVariables
280
     0
  1
1:1
  0
DICTIONARYVAR
  5
2E32
102
{ACAD_REACTORS
330
2E30
102
}
330
2E30
100
DictionaryVariables
280
     0
  1
STANDARD
  0
DICTIONARYVAR
  5
2E31
102
{ACAD_REACTORS
330
2E30
102
}
330
2E30
100
DictionaryVariables
280
     0
  1
STANDARD
  0
DICTIONARYVAR
  5
3762
102
{ACAD_REACTORS
330
2E30
102
}
330
2E30
100
DictionaryVariables
280
     0
  1
0
  0
DICTIONARYVAR
  5
3763
102
{ACAD_REACTORS
330
2E30
102
}
330
2E30
100
DictionaryVariables
280
     0
  1
0
  0
DICTIONARYVAR
  5
3761
102
{ACAD_REACTORS
330
2E30
102
}
330
2E30
100
DictionaryVariables
280
     0
  1
2
  0
DICTIONARYVAR
  5
3760
102
{ACAD_REACTORS
330
2E30
102
}
330
2E30
100
DictionaryVariables
280
     0
  1
1
  0
DICTIONARYVAR
  5
3764
102
{ACAD_REACTORS
330
2E30
102
}
330
2E30
100
DictionaryVariables
280
     0
  1
0
  0
DICTIONARYVAR
  5
3A5C
102
{ACAD_REACTORS
330
2E30
102
}
330
2E30
100
DictionaryVariables
280
     0
  1
2
  0
DICTIONARY
  5
2EA6
102
{ACAD_REACTORS
330
2E9C
102
}
330
2E9C
100
AcDbDictionary
281
     1
  0
DICTIONARY
  5
1A
330
19
100
AcDbDictionary
280
     1
281
     1
  3
ACAD_XREC_ROUNDTRIP
360
377E
  3
BUMPTILE
360
1C
  3
DIFFUSETILE
360
1B
  3
OPACITYTILE
360
1F
  3
REFLECTIONTILE
360
1E
  3
REFRACTIONTILE
360
20
  3
SPECULARTILE
360
1D
  0
DICTIONARY
  5
12
330
11
100
AcDbDictionary
280
     1
281
     1
  3
ACAD_XREC_ROUNDTRIP
360
377D
  3
BUMPTILE
360
14
  3
DIFFUSETILE
360
13
  3
FBXASSET
360
9C
  3
OPACITYTILE
360
17
  3
REFLECTIONTILE
360
16
  3
REFRACTIONTILE
360
18
  3
SPECULARTILE
360
15
  0
DICTIONARY
  5
22
330
21
100
AcDbDictionary
280
     1
281
     1
  3
ACAD_XREC_ROUNDTRIP
360
377F
  3
BUMPTILE
360
24
  3
DIFFUSETILE
360
23
  3
OPACITYTILE
360
27
  3
REFLECTIONTILE
360
26
  3
REFRACTIONTILE
360
28
  3
SPECULARTILE
360
25
  0
DICTIONARY
  5
2DF5
330
67
100
AcDbDictionary
280
     1
281
     1
  3
ACAD_XREC_ROUNDTRIP
360
2DF6
  0
DICTIONARY
  5
3766
330
65
100
AcDbDictionary
280
     1
281
     1
  3
ACAD_ROUNDTRIP_2008_TABLESTYLE_CELLSTYLEMAP
360
3A5D
  3
ACAD_XREC_ROUNDTRIP
360
3AA8
  0
DICTIONARY
  5
3A82
330
2F
100
AcDbDictionary
280
     1
281
     1
  3
ACAD_XREC_ROUNDTRIP
360
3A83
  0
DICTIONARY
  5
3AD5
330
2E36
100
AcDbDictionary
280
     1
281
     1
  3
ACAD_XREC_ROUNDTRIP
360
3AD6
  0
DICTIONARY
  5
3AD3
330
2E35
100
AcDbDictionary
280
     1
281
     1
  3
ACAD_XREC_ROUNDTRIP
360
3AD4
  0
DICTIONARY
  5
3A80
330
2E
100
AcDbDictionary
280
     1
281
     1
  3
ACAD_XREC_ROUNDTRIP
360
3A81
  0
DICTIONARY
  5
3A8E
330
35
100
AcDbDictionary
280
     1
281
     1
  3
ACAD_XREC_ROUNDTRIP
360
3A8F
  0
DICTIONARY
  5
3A96
330
39
100
AcDbDictionary
280
     1
281
     1
  3
ACAD_XREC_ROUNDTRIP
360
3A97
  0
DICTIONARY
  5
3A88
330
32
100
AcDbDictionary
280
     1
281
     1
  3
ACAD_XREC_ROUNDTRIP
360
3A89
  0
DICTIONARY
  5
3A8C
330
34
100
AcDbDictionary
280
     1
281
     1
  3
ACAD_XREC_ROUNDTRIP
360
3A8D
  0
DICTIONARY
  5
3AA6
330
41
100
AcDbDictionary
280
     1
281
     1
  3
ACAD_XREC_ROUNDTRIP
360
3AA7
  0
DICTIONARY
  5
3A94
330
38
100
AcDbDictionary
280
     1
281
     1
  3
ACAD_XREC_ROUNDTRIP
360
3A95
  0
DICTIONARY
  5
3A78
330
2A
100
AcDbDictionary
280
     1
281
     1
  3
ACAD_XREC_ROUNDTRIP
360
3A79
  0
DICTIONARY
  5
3A7A
330
2B
100
AcDbDictionary
280
     1
281
     1
  3
ACAD_XREC_ROUNDTRIP
360
3A7B
  0
DICTIONARY
  5
3A7C
330
2C
100
AcDbDictionary
280
     1
281
     1
  3
ACAD_XREC_ROUNDTRIP
360
3A7D
  0
DICTIONARY
  5
3A7E
330
2D
100
AcDbDictionary
280
     1
281
     1
  3
ACAD_XREC_ROUNDTRIP
360
3A7F
  0
DICTIONARY
  5
3A86
330
31
100
AcDbDictionary
280
     1
281
     1
  3
ACAD_XREC_ROUNDTRIP
360
3A87
  0
DICTIONARY
  5
3AA2
330
3F
100
AcDbDictionary
280
     1
281
     1
  3
ACAD_XREC_ROUNDTRIP
360
3AA3
  0
DICTIONARY
  5
3A92
330
37
100
AcDbDictionary
280
     1
281
     1
  3
ACAD_XREC_ROUNDTRIP
360
3A93
  0
DICTIONARY
  5
3AA4
330
40
100
AcDbDictionary
280
     1
281
     1
  3
ACAD_XREC_ROUNDTRIP
360
3AA5
  0
DICTIONARY
  5
3A8A
330
33
100
AcDbDictionary
280
     1
281
     1
  3
ACAD_XREC_ROUNDTRIP
360
3A8B
  0
DICTIONARY
  5
3AA0
330
3E
100
AcDbDictionary
280
     1
281
     1
  3
ACAD_XREC_ROUNDTRIP
360
3AA1
  0
DICTIONARY
  5
3A9E
330
3D
100
AcDbDictionary
280
     1
281
     1
  3
ACAD_XREC_ROUNDTRIP
360
3A9F
  0
DICTIONARY
  5
3A98
330
3A
100
AcDbDictionary
280
     1
281
     1
  3
ACAD_XREC_ROUNDTRIP
360
3A99
  0
DICTIONARY
  5
3A9A
330
3B
100
AcDbDictionary
280
     1
281
     1
  3
ACAD_XREC_ROUNDTRIP
360
3A9B
  0
DICTIONARY
  5
3A90
330
36
100
AcDbDictionary
280
     1
281
     1
  3
ACAD_XREC_ROUNDTRIP
360
3A91
  0
DICTIONARY
  5
3A84
330
30
100
AcDbDictionary
280
     1
281
     1
  3
ACAD_XREC_ROUNDTRIP
360
3A85
  0
DICTIONARY
  5
3A9C
330
3C
100
AcDbDictionary
280
     1
281
     1
  3
ACAD_XREC_ROUNDTRIP
360
3A9D
  0
XRECORD
  5
377E
102
{ACAD_REACTORS
330
1A
102
}
330
1A
100
AcDbXrecord
280
     1
102
MATERIAL
148
0.0
149
0.0
149
0.0
 93
        0
 94
      127
282
     0
 72
     0
 77
     0
171
     0
175
     0
179
     0
273
     0
  0
XRECORD
  5
1C
102
{ACAD_REACTORS
330
1A
102
}
330
1A
100
AcDbXrecord
280
     1
270
     1
271
     1
  0
XRECORD
  5
1B
102
{ACAD_REACTORS
330
1A
102
}
330
1A
100
AcDbXrecord
280
     1
270
     1
271
     1
  0
XRECORD
  5
1F
102
{ACAD_REACTORS
330
1A
102
}
330
1A
100
AcDbXrecord
280
     1
270
     1
271
     1
  0
XRECORD
  5
1E
102
{ACAD_REACTORS
330
1A
102
}
330
1A
100
AcDbXrecord
280
     1
270
     1
271
     1
  0
XRECORD
  5
20
102
{ACAD_REACTORS
330
1A
102
}
330
1A
100
AcDbXrecord
280
     1
270
     1
271
     1
  0
XRECORD
  5
1D
102
{ACAD_REACTORS
330
1A
102
}
330
1A
100
AcDbXrecord
280
     1
270
     1
271
     1
  0
XRECORD
  5
377D
102
{ACAD_REACTORS
330
12
102
}
330
12
100
AcDbXrecord
280
     1
102
MATERIAL
148
0.0
149
0.0
149
0.0
 93
        0
 94
      127
282
     0
 72
     0
 77
     0
171
     0
175
     0
179
     0
273
     0
  0
XRECORD
  5
14
102
{ACAD_REACTORS
330
12
102
}
330
12
100
AcDbXrecord
280
     1
270
     1
271
     1
  0
XRECORD
  5
13
102
{ACAD_REACTORS
330
12
102
}
330
12
100
AcDbXrecord
280
     1
270
     1
271
     1
  0
XRECORD
  5
9C
102
{ACAD_REACTORS
330
12
102
}
330
12
100
AcDbXrecord
280
     1
 70
     1
 90
1959938040
 71
     1
  1
53D72A75-34FE-4CAF-B2FC-93A6B716724C
311
504B03040A0000080000EB69DA403DEE336E79000000790000001B0000006175746F6465736B2D64657369676E2D7061636B6167652E786D6C3C3F786D6C2076657273696F6E3D22312E302220656E636F64696E673D227574662D3822203F3E3C666F726D6174733E3C666F726D61743E687474703A2F2F736368656D612E
311
6175746F6465736B2E636F6D2F64657369676E2D7061636B6167652F323030393C2F666F726D61743E3C2F666F726D6174733E504B0304140006080800EB69DA40D486FD9CA0000000F4000000130000005B436F6E74656E745F54797065735D2E786D6C7D8EC10E82300C865F65E91D8A1E8C310C0EEA1BF002731658846E
311
D98AC1B77784ABF1D8FE5FBFBF75BBCE937A534CCEB38643598122B6FEE978D0B0485F9C41B54DDD7D022595594E1A469170414C76A4D9A4D207E29CF43ECE46F218070CC6BECC4078ACAA135ACF422C856C0E68EA1BF5669944DDD7BCDE7B1F8E415D77AECB980613C2E4AC91FC167A2B244592486606FC29C8FD7F045B9A
311
EF7053A7E60B504B0304140006080800EB69DA40C37B3FC4EB0000007C01000008000000636F72652E786D6C8D90416EC3201045AF82665B610376A3C4C24476ED9EA01740405C94182C03558F5F9C3852BBEB86197DFE9B197D7EFE9E6FE8CBACC17AD7022D0820E394D7D64D2DA478C1474067C157EFE32F1B202767D3C2
311
2683E0D3EAD3B24BCABB685CCCAAF3DAECA20CC14440EA969B1682FA34B32C648AD911AEC522D5554EA6A0CF2EC329598D1E4BACCEF3ECC59A15447FEA2A76EC18AEDFC7313F6CC0DDB1A6B87BEB87F1540D3D63352F3758F068E7E77EB51A198D06C10865981C303B7CD0AAA1AF0D632F843684F072B3FF81D2A2FF0925EB
311
62C5F6731F580041F321F70FC1CB2D8B5CEE41E5BAE5267E00504B0304140006080800EB69DA4055019EA25F0000007C00000007000000636E782E786D6C4DCB3B0E80201045D1AD90E915ED2CF8AC45050C11660C8261F98AB1B07AC9C97D42D718D865D3E909258CFD00CCE24AC6E326A164D74DC0B4128928FF32603847
311
2BA13128B1252AC747C6BAB984FC68F0B87FE8960A5C09FE86CFB69FBA01504B0304140006080800EB69DA4028BEDE3C67010000020300000C0000006662782F636F72652E786D6C8D525B6E833010BC8AE5DF0A0C864669641C91263D412FE08043AD808DFC40397E974794A68AA208C958333BBBB3036C7BE95A3448EB94
311
D1054EE30423A92B532BDD1438F853B4C668CB9935C6FF29C3488B4E16788431678D35A15FA0CA682FB507549B5A2EA0704E7A8CAA162E0576D58FEC442C82870A778E7B519D4523E334061AEA3873DE8201340F194FCC4FC70B2333CE5908AA5E5855C3347552D262BEFB2833BA2E69947F1D0E70D07D54AEF3342A3F77FB
311
C347B6DF519A33328A39F3AABBBAABAC145ED698D324A551B28AE8EA3BCD36E9FB86D2B724DD24092363F99D28F4F58BA2A0B4CFE862779639CC53303211FFB685883C7262003F8433328608AF29E1FBA0211008D98B637BDDE30CD0202B6F6C0E4C6DC28D1A441B244C4DD0F43032B3D0796A009B3DEC439FF479DE033EA0
311
D00D58131EAEC7E0C7E96C9EBA44D14B1B0DFE82B4B19D686FE6668BB7F336E8A1BC32ADB1AFA8C9B22A59C224E3DFCB7F01504B0304140006080800EB69DA40BEB7DB6C7C0000009D0000000B0000006662782F636E782E786D6C4D8CD10AC22018855F45FE7B9B965B09EA4072EF319A1B92D3308D1E3F17BBD8CD39F09D
311
C327FAEFEAD1C7A6B78B41023D1140363CE2E4C222A1E419DF00F54AA418F3E106288CAB95B061506249B1BC7634D9792C3E57EA5D78EED00C77C33BC6704D8DD9A5D558F3ABC12DED08E1FA5C370A8D12CDDF547B13AB1F504B0304140006080800EB69DA40BDE9128D2C01000015020000310000006662782F4546444539
311
3634342D453936422D343335422D423937452D3531363030394232393634312F636F72652E786D6C8D515B6EC32010BC8AC557AA0A1BB04D9A0813C96A7A825EC0C1244589C1E251E5F85D6A476AFFF2B38B766766875D71B84FB7E25BFB609CED102D092AB4556E34F6D2A114CFF80D150729BC73F10F0C15769874877219
311
4971F12ECD6B49391BB58D50B56ED46B7108414754A81B3C3A14D4979E8672481110E15ACE83BA0E175DD212DA809322440F068A65488E481E3FDE8F3BDE3418628F9BBAED71BFDB1E714B3921BB9E418F8A6A214A91921957BA19C18E391BED9F15C96429A2991EF695D743D423928C508609C78C7FD27A4FDB3D63AF84EE
311
09115586FF23A5797C92948C8D355BED2EB48024FC66694831BA74BA3DCCE8FBEC7C2CF2BC4DD0EA05495212D272566F3917D582850D80286F56D1109D870D6FAE2780D356545999375254F948907E2F08391F54FE00504B0304140006080800EB69DA40A4C191C74E01000033030000300000006662782F45464445393634
311
342D453936422D343335422D423937452D3531363030394232393634312F636E782E786D6CD593CD6EC32010845F0571ADFC83935A558489D4439FA0875E316C121A0C16E0AA79FB2E094973C9A1C75E90353BCCAC3E61BEFD9E2CF982108D770365754B0938E5B571FB812E6957BD50B2153C789FEE6C943839C140B34C05
311
DF07BFCC45D2B0938B4DA85AE38E450C10FD12144494F34D62BD921603C0550B8A308DA035687233E2D70E02AE82E27822E900E4EDF583F8F113548ABCC9298237B943F07C96A63B1325CACA18071AD5012659CB25790DF1586B9964CDEA6BD7839D7E9348BE70AD5C8221B97CA0F9A4A26C542347DEE050F09802D22BA674
311
9A810A39CFD62899107273365E3C822FC6A57E5DBC06C10774B37EB55E63D8792678321314870A2013682ABA967555DB575DFFCE561BF6BCE9BAA7966DDA9637D92EF8E8BD2D973006829F89F22E814B5430DEE4F1237CC547B409C8DA87D31F402280D27AA173CBF8CF7C9AF3FB465C01FF02F103504B0304140006080800
311
EB69DA40DB4793139C0500007B100000340000006662782F45464445393634342D453936422D343335422D423937452D3531363030394232393634312F6F626A656374732E786D6CAD575B8F9B3814FE2B887D06429299E9AC18AA5C9A2AEA4E5B356AB50F23450E18C63BE622DB4C33FDF5FB190C81349966577D016CECE3
311
73BEF39D8B83B7FB8C5BCF544856E477B6EF8E6C8BE65111B33CBDB32B95386F6CEB6D1888A250BD65B695938CDED97ADA0E8354145569A6629A908AABA3D9D5FC6F4B4634A7B6157122E59D2DA3479A119754AA88A97C7263A2889B267BD7779B8543B1A920E5E391D092089A2B688AF91C52AC46297F381CD95E1878FA7F
311
18E8A7593539BFCAABED199ECF72A9481EFD74D89198893F5DBE1B5FDD3A57D3E9C4995E8F7D67BE9A2F1DFF66325A5C2F16B7B377B738582A0149461341133B7C0F6C048B02AFF9150615CBD5646C96180779823E33ED293B1C5B7EE0356B3AEB8C91A7D48F8A3CA7518D15D0A8ED33A2635AD23C86CF1995D0AC87D06838
311
F4358EBDDF133D3647F6A72F43A0BFA327A8D5BD7DF7352D76FFC00479098384A49A810D96C6D086ABA303C2BBA2E0E61F93564614158C708BB39D20E2C50EB1542F09838118CD64A1A3415B6087F042F37B481784D1AF797E4ACBA4E25CD3D80EEB28D82256A892B566EC071507EDFBC84027F84AB3E18D3148BD94D40E6F
311
1B8ABC39625303A4957092C2E53053EF9C8C8F0C5DE8385D2FEDF0C36AB7DFE8D83D7D78298A920AA5E9036AB58E6BDF1A25A3937F91E7F406FB489503285F80FC4784FA4115F84DB0FD743F35A7284172991422836FAC91E58CF018597EFDD4DFBDAFC0EB360FBD770E4F385B43F51BF01CDAD0F7650FCE307806E10B3131
311
A66D22C29136EE590E8034492C5E600A7938D9EDED708D2C87AC8C5D84873E4C86BACFF80C3C230689A23EA9F7CE81E5515ABC204103B69A9150A321BF51F0E0A79FD2597DB059760EDEABDF42D7D972F36153898444F4DEC4F492262C670A25EEC09BBE4203CC07163DD197EF858861E8CF786FFA7867E62809B435E61AF8
311
B4CDE97A7038797040847D69A1D34DF08B1360842EAC3DF9F74C46947392D3A26ACF7DB57EA06C3410EB60D74CEE0ACCA1B08034CD9FA31844918E042B35885DB5EA92A67BC6BAAFEB8F60A41DCE5FFE222FFDECB53BE4DEA8E085D8EE5EB64D5A3A09F5B721B70D069E9602BAD741D2C6BF017D1BB324A92492E0095CBFAD
311
177DDFE9B48014D14A6DA2650AFB115C4418D2B67251AD0541252DF22D43DD44DC9D3CA02F1F901A06D402CF692C294FB68CF32ADB268CA31A6D33529E81E3FFEBBFABB2724BB2A2CAD519D903D5511D86BA0FD82BBF13153DDAE1A67E3B73E4DE98C667C8A06BC909AC06AEBD9A2C6FC6B39B2B67325DBD73A68BD9CA998F
311
570BE77632BB9EDFF8D737E3294C371AD54D5418B4A5A61FD1F0124A5B500966DCF7758DF83149C00EEF89920FEF9BF06CDF5FD72E7AE1C0C31ED4CB6EE32C7E46DF47E35F0B38AC3C29689D959C66345744C7D0BDFEE05F08FA8C8132CDFC3A2329BD40CAA7F79B23633073C1BECF3ADEE9F7A3BD6676A103F2A410F55865
311
BB9C307EB4316D9074CB3C35F8B53EE9DE4DA169877A641C83CE54169CC5C883B195D222A30AD9F0822224322A41BD7E4F1F9BBBC705BB9F9B0E51911DA7AD268F044D3297080B90BC8AD470DEFA034D9DEEABEE6C945BF7090F93296C0B9CB9B3D1A42B1651E9EE50A0752B540B0797FA9D3C384BF294A3D76E3675E36E97
311
C6665092BB2597F44FC6AE26851B0390464AF40D6888E09D5A9930A87533FFA3FF6478AB8E45143E7795EA6C394C74C6D4C720441BA3CC6D014DCC93397A8F407DDD2CDFADD70C10B9E896F52A091AA98E2222AD6F0A5A3FA3D26CF9D9438762AD3F5925AF52F8F272498EA02073A5031C2C022B8CCC92285075F1E7C36751
311
E0269B592B060A3C2C8A2C2B723398999BB0B579C4BD367E405AA0FA42221FC6237FFC505F04CCDD64BB2392BA24964F98804F05EB201E381E8C6C6E8BA840CD8F6E9DA79D70C4CDF5D232256D0AA18628FDACAA6141CB91530BD1A32F933A56FA0BCA57EF025EBD142A0874F1E1BF504B0304140006080000EB69DA400000
311
00000000000000000000350000006662782F45464445393634342D453936422D343335422D423937452D3531363030394232393634312F76657274696365732E62696E504B0304140006080800EB69DA40F270F1330600000004000000360000006662782F45464445393634342D453936422D343335422D423937452D3531
311
363030394232393634312F747269616E676C65732E62696E636660600000504B0304140006080000EB69DA40000000000000000000000000370000006662782F45464445393634342D453936422D343335422D423937452D3531363030394232393634312F617474726962757465732E62696E504B0304140006080800EB69
311
DA40D5987DFC8F00000041010000360000006662782F45464445393634342D453936422D343335422D423937452D3531363030394232393634312F6469726563746F72792E786D6C858F410EC2201045AF4266AF15DDB800BA74E7C21B903225242D6328188F2FA5C4183471359997F9FF81E89FF3C41E1816475E02DF1F80
311
A11FC8386F25A438EECEC07A250251FC3803E6F58C12560C4AD840E95E91C151A72936F496F35732D860FE635F62C8F2DA16B505C545B74125BAA2FA9E05D7CC053D063734D5C7665FD55B6B8D15D5E9BFEAFD8490FFA45E504B0304140006080800EB69DA40AB9162F5FC000000A00100003B0000006662782F4546444539
311
3634342D453936422D343335422D423937452D3531363030394232393634312F7265736F75726365732F636F72652E786D6C8D50596E833010BD0A9ADF8AC5864604194750E8097A01CB4C889560232F558F5F13A8D4FEF56766F416CDD36397AFE5917CA275CAE816485640825A9A49E9B985E0AF690DC985336B8CFF2583
311
448B055BD860E06CB626AC07248DF6A87D44B599F0008573E821918F78B4E0E40D179189E0A3C2DDB355C8BB98312359A4A38E33E76D0C90EC4FB609DCA233C14A742CDF59CE4250D3A15153FCA9AE0A2DF0FEDC95B4EE485ABD8F631C7448BBBA2269F7D60FE3B91C7A4A2B966F66CEBC5A7E324A8BC2E3049C1684A6C529
311
A5A70F5236E4B5A1F4A5204D51B07C93FF318575FAA72928ED4B7AC4DD6D0E3889419E0467F9D6575CCF32E3DEBAE5DF504B010214000A0000080000EB69DA403DEE336E79000000790000001B00000000000000000000000000000000006175746F6465736B2D64657369676E2D7061636B6167652E786D6C504B01021400
311
140006080800EB69DA40D486FD9CA0000000F40000001300000000000000000000000000B20000005B436F6E74656E745F54797065735D2E786D6C504B01021400140006080800EB69DA40C37B3FC4EB0000007C010000080000000000000000000000000083010000636F72652E786D6C504B01021400140006080800EB69
311
DA4055019EA25F0000007C000000070000000000000000000000000094020000636E782E786D6C504B01021400140006080800EB69DA4028BEDE3C67010000020300000C00000000000000000000000000180300006662782F636F72652E786D6C504B01021400140006080800EB69DA40BEB7DB6C7C0000009D0000000B00
311
000000000000000000000000A90400006662782F636E782E786D6C504B01021400140006080800EB69DA40BDE9128D2C0100001502000031000000000000000000000000004E0500006662782F45464445393634342D453936422D343335422D423937452D3531363030394232393634312F636F72652E786D6C504B010214
311
00140006080800EB69DA40A4C191C74E010000330300003000000000000000000000000000C90600006662782F45464445393634342D453936422D343335422D423937452D3531363030394232393634312F636E782E786D6C504B01021400140006080800EB69DA40DB4793139C0500007B10000034000000000000000000
311
00000000650800006662782F45464445393634342D453936422D343335422D423937452D3531363030394232393634312F6F626A656374732E786D6C504B01021400140006080000EB69DA400000000000000000000000003500000000000000000000000000530E00006662782F45464445393634342D453936422D343335
311
422D423937452D3531363030394232393634312F76657274696365732E62696E504B01021400140006080800EB69DA40F270F13306000000040000003600000000000000000000000000A60E00006662782F45464445393634342D453936422D343335422D423937452D3531363030394232393634312F747269616E676C65
311
732E62696E504B01021400140006080000EB69DA400000000000000000000000003700000000000000000000000000000F00006662782F45464445393634342D453936422D343335422D423937452D3531363030394232393634312F617474726962757465732E62696E504B01021400140006080800EB69DA40D5987DFC8F
311
000000410100003600000000000000000000000000550F00006662782F45464445393634342D453936422D343335422D423937452D3531363030394232393634312F6469726563746F72792E786D6C504B01021400140006080800EB69DA40AB9162F5FC000000A00100003B00000000000000000000000000381000006662
311
782F45464445393634342D453936422D343335422D423937452D3531363030394232393634312F7265736F75726365732F636F72652E786D6C504B0506000000000E000E00800400008D1100000000
310
504B03040A0000080000EB69DA403DEE336E79000000790000001B0000006175746F6465736B2D64657369676E2D7061636B6167652E786D6C3C3F786D6C2076657273696F6E3D22312E302220656E636F64696E673D227574662D3822203F3E3C666F726D6174733E3C666F726D61743E687474703A2F2F736368656D612E
310
6175746F6465736B2E636F6D2F64657369676E2D7061636B6167652F323030393C2F666F726D61743E3C2F666F726D6174733E504B0304140006080800EB69DA40D486FD9CA0000000F4000000130000005B436F6E74656E745F54797065735D2E786D6C7D8EC10E82300C865F65E91D8A1E8C310C0EEA1BF002731658846E
310
D98AC1B77784ABF1D8FE5FBFBF75BBCE937A534CCEB38643598122B6FEE978D0B0485F9C41B54DDD7D022595594E1A469170414C76A4D9A4D207E29CF43ECE46F218070CC6BECC4078ACAA135ACF422C856C0E68EA1BF5669944DDD7BCDE7B1F8E415D77AECB980613C2E4AC91FC167A2B244592486606FC29C8FD7F045B9A
310
EF7053A7E60B504B0304140006080800EB69DA4008796C80EA0000007C01000008000000636F72652E786D6C8D90416EC3201045AF82D856D880D3D8B130516CF906BD0082898B128365A0EAF18B13476A775DCDF0F96F66F4C5F97BBEA32F5883F5AEC3ACA01881D3DE58377538C52B69303A4BB17A1F7FD930726A860E6F
310
3296625A7D5A76497B17C1C5AC3A6F601755081031D2F7DC7438E84F9855A152CC8E702B16A56F6A8282BDBA0CA7640D7A2EB126CFB3570B2B967C184F7D5D5F4873A83939D46345FAE632E6E789F5033DF6553F887283A588767EEDD72BA80826F39471428F841F3F58D5B2F796F337CA5A4A45B9D9FF406931FF849275B1
310
E2FBB94F2C60C9F2218F0F29CA2D8B5C1E41E5BAE5267F00504B0304140006080800EB69DA4055019EA25F0000007C00000007000000636E782E786D6C4DCB3B0E80201045D1AD90E915ED2CF8AC45050C11660C8261F98AB1B07AC9C97D42D718D865D3E909258CFD00CCE24AC6E326A164D74DC0B4128928FF326038472B
310
A13128B1252AC747C6BAB984FC68F0B87FE8960A5C09FE86CFB69FBA01504B0304140006080800EB69DA40D8FC929B66010000020300000C0000006662782F636F72652E786D6C8D525B6E833010BC8AE5DF0A8C21CD4BC6518872835EC0310E45011BF98172FC2E8F88A68AA20A09CCCECECEEC003BDCDB06F5CABADAE81C
310
D338C1486969CA5A57390EFE1A6D313A70668DF1BFDA30D2A255391ECA98B3CA9AD0CD2569B457DA43559B52CD45E19CF218C9060E3976F25BB52216C14387BBC59D903751A998C600431F67CE5B30802691E18EF9F5726764AA7316425DCE685D825A7DAD95C53C3D9D77C566738CB6AB4D1AAD36E72C2AB6C733BCEE6871
310
4AD645569C1819C89CF9BA7DB8935609AF4AE027348D927594AEBF68B6A79FFB34FD48E83E491819DA9F48A12BFF490AB5F6593ADB9D680E730A4646E0CFB61091474EF4E08770468610E13126FC1C340402217B71691E7BDCA0D42BE98D5D01529AB040BD688202D5048D1723130A93C701B0D9CB39E99B39EF67C00714BA
310
026BC2C3F112FCA0CE26D5398A4ED9A8F777A48D6D45B3989B2C2EF745E8255D9AC6D8FFB0C9BC2A99C324C3DFCB7F00504B0304140006080800EB69DA403CFDB13A7C0000009D0000000B0000006662782F636E782E786D6C4DCCD10AC2201886E15B91FFDCA64D44411D865DC8686E484E876974F96DB1838E3E78F878D5
310
F059237AFBF20A3969A01702C8A7479E425A34B43A63016830AAE45CFF6E80D2B87A0D0783514BC96D3B69F2F3D862DD3586F43CF1EA88E3D649ECA8B4984949B0A0B71E0BCE84B3EECEB8EDA133AAFB95F63DC2E60B504B0304140006080800EB69DA4076F6C2D22A01000015020000310000006662782F32443044364144
310
392D443139412D343939302D383142332D3836343844414445343641332F636F72652E786D6C8D515B6E833010BC0AF257AACA6003B520328EA8E80D7A01621C6A25D8C88F2AC7EFBA10A9FDCB8FD79A9D991DEDF2D37DB965DFCA796D4D87684E50A68CB49336738762B8E0066527C19DB5E10F0D65665C5487128C049F9D
310
8DEB0E496B823201506327B583A3F72AA04CDEE0D3212FBFD432E6630CC0F0D77C1DE5759C554E7368034F701F1C04C8B621E945A21CC8C0FAA1C5036D7B5CB72DC10D7DAF70C3EA66E8878F9AF5152F36A1E031EA6997EB09E2E88B56EE599324163CE8E5115F3A350635819ED01213864BF649AB237D3B96E52BA1474278
310
91E8FF44719D9E14456D4255EE7137994782F2626B083ED978BE3DC2A8FB6A5DC8D2BC8357F205099213C218AD1A069A8D0B1B005356EFA63E58071B3E5CCF40AF80959C592D78918E04E5F78250D341C50F504B0304140006080800EB69DA40C2665ED05601000033030000300000006662782F32443044364144392D4431
310
39412D343939302D383142332D3836343844414445343641332F636E782E786D6CBD93CD6EC32010845F0571ADFC83935A518489D4439FA0875E096C121A1B2C7EAAE6EDBB2424CD25874A552FC89A1D66569F30DF7C4D23F9041F8CB30365754B0958E5B4B1FB81A6B8AB56946C04F7CEC53B1B25564E30D02C53C1F7DEA5
310
B9481A76328D11D5D1D863113D0497BC828072BE4946A7E4880160AB84224C5BD01A34B919F16B071E5741717B22F100E4F5E59DB8ED07A818789353046F7287E0F92C4D77264AD428431868500798642D53741AC2B1D632CA9AD5D7AE073BFD24917CE15A99BC21B97CA0F9A4A26C542347DEE050F0103DD22BA6789A810A
310
39CFA3513222E4E66CBC78044FC6C67E59BC06C17B742FBA7EB5C2B0F34CF06826280EE54146D054742DEBAAB6AFBAFE8D2DD6EC79DD754F2D5BB72D6FB25DF0AD7363B98431E0DD4C94B3116CA482F1268F1FE12B3EA28D47D6CE9F7E01120194D60B9D5BC65FF261FD62B9FC473ECDF97D232E8F7F81F806504B03041400
310
06080800EB69DA40CD842DC45B070000941B0000340000006662782F32443044364144392D443139412D343939302D383142332D3836343844414445343641332F6F626A656374732E786D6CED59DD739B3810FF5718EED9D8D84ED2DC103A8ED3743CBDB49DFADAB987CC3032C8441721184924F1FDF5B7FA00033109BEE6
310
DEFA6003425AEDFEF6534BF0FE29A3CE03E682E4ECC2F5BD89EB6016E70961E9855BCAEDE89DEBBC0F039EE7B231CD7518CAF085AB86DD3048795E167628C15B5452D919BDBEFCCB113166D875628A84B870457C8733E4A152E60916F75E8224F2D2ED93E77B66629B6CCA5171D7215A208E99044E619C0115C730E5B71F27
310
EE380CC6EA7D18A87F3B6B3668D6BC7FD6584BDDE6923021118B9FB1D421331BC4D2CC9F5F7D989E9C8F4EE6F3D9687E3AF54797D7975723FF6C36599E2E97E78B0FE7C0DE26CFA99529C1056609E86FE7867E30566F6AD12D0287B88E73C670AC8104A8B4585D82040BD8AA01DFA4FDE82B891AAFB5848DE7B97A6F59680C
310
CFDA54FA660D03A2451704B1DB551257D7A67CF9E66F105C0C314A2EB0046E85E4A05D0B0F07AF70C3493036A361B0D9EB82082743127382A843C986230E4A81A96A4A189805968C720E0EA41C2581D69C79DDB62DF0CCD75DE71097DB9252E5196EA81D2B02F7C35268CEC83F98EFB96F22033C81B42561F29DE552EE0AEC
310
86E7C1580F8681BACCA6F6A501D2D952940A8D8879DB1174A95C7F75E5869FAE374F6B150E0E6F5EF0BCC05C2AA3537AD47C8121DBAB42C96EEB0FD29C5A00C21850EDCA3D28DF00F9CF103DF6AC80DE38799A3FCDED5CC91113DB9C67A01B67E28C26F037717CFDAFEE1B77C1B85EDCD65E1F9EE0A60AAA773F8F675B068D
310
95E5BF0167183C80C1E77C665FAD6344C19E6F08038094913834872108EDDBCD931BAE207042A0875588863E880CEC3EC06D30B664F65AA9DCCB7A1D0344ED1EB3214A02D8B445021B3D7AFA08D9839378AFA6A6887DF09EBC89B92EAED69FD625DFA218DF589FBEC25BC28884AC7998A116E62D89EEF1EE31E70908FA1CEF
310
7513EFCC6E25006D85B9023EAD40500FFB9D5B1BC4B02ECD55B8095ED9018450B9BA41FF868818538A18CECB6ADF3ABA2943AD3DDED60C6E383510CFA61D13E6F881A8AA029C663FA3C528E4FD98934281E8861F8D6475D0F47AA4FBBEFA0C1659CFEF99B562107A19A27FEAA0750087966557485B206A8137FB701EE734E7
310
D166179948E7422D016CB4BDE5478B28C47AA32445053C48FB5D155252236D9490EDB61410570FB0F863B56C9AC3C49BF9274EF3BFE38C7388B6E0BB885BBFEBEC11910CA538DAA2A46FBBE66E356DA149F690E6784B412EF240E42E42329A24383D069AA3889FBF29F594E642108605E4AB83E037D1987810488C362B9695
310
563B4013116558227A0C028A4C0FB83AEDE81A3786D2E1751E6BEB7D49634DA2FF93457004B564CE2202A528E4905719F7BD1388216D740DCA1D7CC1DA2ADA5A0C5A420911EFA2474CD23B790CEA867C0FEE311C494A19E5058AC1AC07907DE62B4AA91DDE3728BE57F9238A4BFA56062230DD4684D2328BE047189C3C86B8
310
761D985E44A141DCC43E893328CA902CF9904D4E4F26CFF631354337043636DA120A613BCA50D1837A2B20EA7AC4A9C1B7D47B94BA29B32242595EB24186E2CDBADE64C977D5AAC80EE457958A503656842DC130204CD659B58AD960EA3AB0821BE940B58B04CA0A6A4E61AF241EBFF6264DB977036EFDF46D37C8A0F0EBD1
310
5E33A2CE2B182C8FADC2403C2219DFB9E15A5F4797507F2738D9A7FAAAD66C568080988AE425275645DF5750DED81ACD0D6F9014B71F4DD6ADAEDF571E743F8231AC81DAA55EB85240679849A42A931B7543BF2108C12D1A667CA572EA31541649A2AB4644AF499F3A5B65446BD38C78C51D6679063F764B584CCB04DFA244
310
DC473792466BA258B7527A19A9307E51C02F1FD71D78606480485F5581871F3B6BEDE852954B0789C8BB32DB30442008B6444B8D6EBC82A556239596EBAB3A5340DD050666553CFF75B268B6237E9D2C526B183F75B2B8DCFD8176CDBE48239DC7CAAE8F3A06D4F94951798B63806E3BD454EB2C6292B995DF3A530441B18A
310
F283ABB12A6818827D1CFFE7ACDD9705CD761DFE8FCBDAFEB38AE3A8ACD29AACBA54072AD75533879DCCAECEA68BB393D16C7EFD61345F2EAE4797D3EBE5E87CB638BD3CF34FCFA6F3658DA676D430A88399CE5DF06C825A35AC9E2C06D095153925099CE61327C510F3259CE907B4CF79860524CF66B33BB14DF901AB1F4C
310
9F53A20DC5152777081AC454405A078CCA58B6C79DDFA03529E1A07DE142D3C8BB873F6B95AE0399E7C2855681243116DE06DA4CAAA1A78943CAD5B9DF12037C104B554A348BEAE77A95C2A615FEEB2943D28095ABD5C380C2AD80EE57AB43A179B33CC547095EB1E32009B79B5242B56664D90FD4C2E86DF6EA37B251C2EE
310
EDD64FE0BA2F8BE57B7A4E0B91419F0C5E3402437524114F75BF5B3166595A5C7D1D439FCD597D710A5AA6A0CBE194461C833197AAA0022B02ABB0340B24C15497BFDF7EE5397CE2C91C5D15DD2EF32CCB997D58C0792C814F44CEFA0E3EF824B7503660D55617B7D3893FBDD5ED6CDB618F3648604FD543305095114A848E
310
B181453E6B4DD9C6E55829A1337D75E5D8F0096D006341CFBABBE6F39603DEA33EA4285FD11E5EC9F962477BACA7823570E84587FF02504B0304140006080000EB69DA40000000000000000000000000350000006662782F32443044364144392D443139412D343939302D383142332D3836343844414445343641332F7665
310
7274696365732E62696E504B0304140006080800EB69DA40F270F1330600000004000000360000006662782F32443044364144392D443139412D343939302D383142332D3836343844414445343641332F747269616E676C65732E62696E636660600000504B0304140006080000EB69DA4000000000000000000000000037
310
0000006662782F32443044364144392D443139412D343939302D383142332D3836343844414445343641332F617474726962757465732E62696E504B0304140006080800EB69DA40D5987DFC8F00000041010000360000006662782F32443044364144392D443139412D343939302D383142332D3836343844414445343641
310
332F6469726563746F72792E786D6C858F410EC2201045AF4266AF15DDB800BA74E7C21B903225242D6328188F2FA5C4183471359997F9FF81E89FF3C41E1816475E02DF1F80A11FC8386F25A438EECEC07A250251FC3803E6F58C12560C4AD840E95E91C151A72936F496F35732D860FE635F62C8F2DA16B505C545B74125
310
BAA2FA9E05D7CC053D063734D5C7665FD55B6B8D15D5E9BFEAFD8490FFA45E504B0304140006080800EB69DA40B5B00F41FB000000A00100003B0000006662782F32443044364144392D443139412D343939302D383142332D3836343844414445343641332F7265736F75726365732F636F72652E786D6C8D505B6E842014
310
DD8AE1B74101A7BE824CAA7107DD00C13B96CC088647D3E517479BB47FFDE172CF23F7E4F0EBD7FAC83EC1796D4D8F684E500646D9599BA54731DC7083B2ABE0CEDAF04B86322357E8D10E23C11767E37642CA9A002624D4D8194E507A0F0165EA913E3DF2EA035699CB1892C2DFF34DAABB5C20A779A2934E701F5C0A901D
310
47F6170907DE46A7C0F3E260058F51CFA746CFE9A6BE697048B0716A87BA6E7173A919BED4538987E66D4A6B4B87915443398CBCD8CD8207BDFE64540E648039F9096598549855EFB4ECE86BC7D80BA11D21BCD8E57F4C719BFF698ADA84929D710F9B4782A6204F42F062EF2B8D679969EEDD8A6F504B010214000A000008
310
0000EB69DA403DEE336E79000000790000001B00000000000000000000000000000000006175746F6465736B2D64657369676E2D7061636B6167652E786D6C504B01021400140006080800EB69DA40D486FD9CA0000000F40000001300000000000000000000000000B20000005B436F6E74656E745F54797065735D2E786D
310
6C504B01021400140006080800EB69DA4008796C80EA0000007C010000080000000000000000000000000083010000636F72652E786D6C504B01021400140006080800EB69DA4055019EA25F0000007C000000070000000000000000000000000093020000636E782E786D6C504B01021400140006080800EB69DA40D8FC92
310
9B66010000020300000C00000000000000000000000000170300006662782F636F72652E786D6C504B01021400140006080800EB69DA403CFDB13A7C0000009D0000000B00000000000000000000000000A70400006662782F636E782E786D6C504B01021400140006080800EB69DA4076F6C2D22A01000015020000310000
310
00000000000000000000004C0500006662782F32443044364144392D443139412D343939302D383142332D3836343844414445343641332F636F72652E786D6C504B01021400140006080800EB69DA40C2665ED056010000330300003000000000000000000000000000C50600006662782F32443044364144392D44313941
310
2D343939302D383142332D3836343844414445343641332F636E782E786D6C504B01021400140006080800EB69DA40CD842DC45B070000941B00003400000000000000000000000000690800006662782F32443044364144392D443139412D343939302D383142332D3836343844414445343641332F6F626A656374732E78
310
6D6C504B01021400140006080000EB69DA400000000000000000000000003500000000000000000000000000161000006662782F32443044364144392D443139412D343939302D383142332D3836343844414445343641332F76657274696365732E62696E504B01021400140006080800EB69DA40F270F133060000000400
310
00003600000000000000000000000000691000006662782F32443044364144392D443139412D343939302D383142332D3836343844414445343641332F747269616E676C65732E62696E504B01021400140006080000EB69DA400000000000000000000000003700000000000000000000000000C31000006662782F324430
310
44364144392D443139412D343939302D383142332D3836343844414445343641332F617474726962757465732E62696E504B01021400140006080800EB69DA40D5987DFC8F000000410100003600000000000000000000000000181100006662782F32443044364144392D443139412D343939302D383142332D3836343844
310
414445343641332F6469726563746F72792E786D6C504B01021400140006080800EB69DA40B5B00F41FB000000A00100003B00000000000000000000000000FB1100006662782F32443044364144392D443139412D343939302D383142332D3836343844414445343641332F7265736F75726365732F636F72652E786D6C50
310
4B0506000000000E000E00800400004F1300000000
  0
XRECORD
  5
17
102
{ACAD_REACTORS
330
12
102
}
330
12
100
AcDbXrecord
280
     1
270
     1
271
     1
  0
XRECORD
  5
16
102
{ACAD_REACTORS
330
12
102
}
330
12
100
AcDbXrecord
280
     1
270
     1
271
     1
  0
XRECORD
  5
18
102
{ACAD_REACTORS
330
12
102
}
330
12
100
AcDbXrecord
280
     1
270
     1
271
     1
  0
XRECORD
  5
15
102
{ACAD_REACTORS
330
12
102
}
330
12
100
AcDbXrecord
280
     1
270
     1
271
     1
  0
XRECORD
  5
377F
102
{ACAD_REACTORS
330
22
102
}
330
22
100
AcDbXrecord
280
     1
102
MATERIAL
148
0.0
149
0.0
149
0.0
 93
        0
 94
      127
282
     0
 72
     0
 77
     0
171
     0
175
     0
179
     0
273
     0
  0
XRECORD
  5
24
102
{ACAD_REACTORS
330
22
102
}
330
22
100
AcDbXrecord
280
     1
270
     1
271
     1
  0
XRECORD
  5
23
102
{ACAD_REACTORS
330
22
102
}
330
22
100
AcDbXrecord
280
     1
270
     1
271
     1
  0
XRECORD
  5
27
102
{ACAD_REACTORS
330
22
102
}
330
22
100
AcDbXrecord
280
     1
270
     1
271
     1
  0
XRECORD
  5
26
102
{ACAD_REACTORS
330
22
102
}
330
22
100
AcDbXrecord
280
     1
270
     1
271
     1
  0
XRECORD
  5
28
102
{ACAD_REACTORS
330
22
102
}
330
22
100
AcDbXrecord
280
     1
270
     1
271
     1
  0
XRECORD
  5
25
102
{ACAD_REACTORS
330
22
102
}
330
22
100
AcDbXrecord
280
     1
270
     1
271
     1
  0
XRECORD
  5
2DF6
102
{ACAD_REACTORS
330
2DF5
102
}
330
2DF5
100
AcDbXrecord
280
     1
102
ACAD_ROUNDTRIP_2012_MLEADER_STYLE
298
     1
  0
CELLSTYLEMAP
  5
3A5D
102
{ACAD_REACTORS
330
3766
102
}
330
3766
100
AcDbCellStyleMap
 90
        3
300
CELLSTYLE
  1
TABLEFORMAT_BEGIN
 90
        5
170
     1
 91
        0
 92
    32768
 62
   257
 93
        1
300
CONTENTFORMAT
  1
CONTENTFORMAT_BEGIN
 90
        0
 91
        0
 92
      512
 93
        0
300

 40
0.0
140
1.0
 94
        5
 62
     0
340
55
144
0.25
309
CONTENTFORMAT_END
171
     1
301
MARGIN
  1
CELLMARGIN_BEGIN
 40
0.06
 40
0.06
 40
0.06
 40
0.06
 40
0.18
 40
0.18
309
CELLMARGIN_END
 94
        6
 95
        1
302
GRIDFORMAT
  1
GRIDFORMAT_BEGIN
 90
        0
 91
        1
 62
     0
 92
       -2
340
0
 93
        0
 40
0.045
309
GRIDFORMAT_END
 95
        2
302
GRIDFORMAT
  1
GRIDFORMAT_BEGIN
 90
        0
 91
        1
 62
     0
 92
       -2
340
0
 93
        0
 40
0.045
309
GRIDFORMAT_END
 95
        4
302
GRIDFORMAT
  1
GRIDFORMAT_BEGIN
 90
        0
 91
        1
 62
     0
 92
       -2
340
0
 93
        0
 40
0.045
309
GRIDFORMAT_END
 95
        8
302
GRIDFORMAT
  1
GRIDFORMAT_BEGIN
 90
        0
 91
        1
 62
     0
 92
       -2
340
0
 93
        0
 40
0.045
309
GRIDFORMAT_END
 95
       16
302
GRIDFORMAT
  1
GRIDFORMAT_BEGIN
 90
        0
 91
        1
 62
     0
 92
       -2
340
0
 93
        0
 40
0.045
309
GRIDFORMAT_END
 95
       32
302
GRIDFORMAT
  1
GRIDFORMAT_BEGIN
 90
        0
 91
        1
 62
     0
 92
       -2
340
0
 93
        0
 40
0.045
309
GRIDFORMAT_END
309
TABLEFORMAT_END
  1
CELLSTYLE_BEGIN
 90
        1
 91
        1
300
_TITLE
309
CELLSTYLE_END
300
CELLSTYLE
  1
TABLEFORMAT_BEGIN
 90
        5
170
     1
 91
        0
 92
        0
 62
   257
 93
        1
300
CONTENTFORMAT
  1
CONTENTFORMAT_BEGIN
 90
        0
 91
        0
 92
      512
 93
        0
300

 40
0.0
140
1.0
 94
        5
 62
     0
340
55
144
0.18
309
CONTENTFORMAT_END
171
     1
301
MARGIN
  1
CELLMARGIN_BEGIN
 40
0.06
 40
0.06
 40
0.06
 40
0.06
 40
0.18
 40
0.18
309
CELLMARGIN_END
 94
        6
 95
        1
302
GRIDFORMAT
  1
GRIDFORMAT_BEGIN
 90
        0
 91
        1
 62
     0
 92
       -2
340
0
 93
        0
 40
0.045
309
GRIDFORMAT_END
 95
        2
302
GRIDFORMAT
  1
GRIDFORMAT_BEGIN
 90
        0
 91
        1
 62
     0
 92
       -2
340
0
 93
        0
 40
0.045
309
GRIDFORMAT_END
 95
        4
302
GRIDFORMAT
  1
GRIDFORMAT_BEGIN
 90
        0
 91
        1
 62
     0
 92
       -2
340
0
 93
        0
 40
0.045
309
GRIDFORMAT_END
 95
        8
302
GRIDFORMAT
  1
GRIDFORMAT_BEGIN
 90
        0
 91
        1
 62
     0
 92
       -2
340
0
 93
        0
 40
0.045
309
GRIDFORMAT_END
 95
       16
302
GRIDFORMAT
  1
GRIDFORMAT_BEGIN
 90
        0
 91
        1
 62
     0
 92
       -2
340
0
 93
        0
 40
0.045
309
GRIDFORMAT_END
 95
       32
302
GRIDFORMAT
  1
GRIDFORMAT_BEGIN
 90
        0
 91
        1
 62
     0
 92
       -2
340
0
 93
        0
 40
0.045
309
GRIDFORMAT_END
309
TABLEFORMAT_END
  1
CELLSTYLE_BEGIN
 90
        2
 91
        1
300
_HEADER
309
CELLSTYLE_END
300
CELLSTYLE
  1
TABLEFORMAT_BEGIN
 90
        5
170
     1
 91
        0
 92
        0
 62
   257
 93
        1
300
CONTENTFORMAT
  1
CONTENTFORMAT_BEGIN
 90
        0
 91
        0
 92
      512
 93
        0
300

 40
0.0
140
1.0
 94
        2
 62
     0
340
55
144
0.18
309
CONTENTFORMAT_END
171
     1
301
MARGIN
  1
CELLMARGIN_BEGIN
 40
0.06
 40
0.06
 40
0.06
 40
0.06
 40
0.18
 40
0.18
309
CELLMARGIN_END
 94
        6
 95
        1
302
GRIDFORMAT
  1
GRIDFORMAT_BEGIN
 90
        0
 91
        1
 62
     0
 92
       -2
340
0
 93
        0
 40
0.045
309
GRIDFORMAT_END
 95
        2
302
GRIDFORMAT
  1
GRIDFORMAT_BEGIN
 90
        0
 91
        1
 62
     0
 92
       -2
340
0
 93
        0
 40
0.045
309
GRIDFORMAT_END
 95
        4
302
GRIDFORMAT
  1
GRIDFORMAT_BEGIN
 90
        0
 91
        1
 62
     0
 92
       -2
340
0
 93
        0
 40
0.045
309
GRIDFORMAT_END
 95
        8
302
GRIDFORMAT
  1
GRIDFORMAT_BEGIN
 90
        0
 91
        1
 62
     0
 92
       -2
340
0
 93
        0
 40
0.045
309
GRIDFORMAT_END
 95
       16
302
GRIDFORMAT
  1
GRIDFORMAT_BEGIN
 90
        0
 91
        1
 62
     0
 92
       -2
340
0
 93
        0
 40
0.045
309
GRIDFORMAT_END
 95
       32
302
GRIDFORMAT
  1
GRIDFORMAT_BEGIN
 90
        0
 91
        1
 62
     0
 92
       -2
340
0
 93
        0
 40
0.045
309
GRIDFORMAT_END
309
TABLEFORMAT_END
  1
CELLSTYLE_BEGIN
 90
        3
 91
        2
300
_DATA
309
CELLSTYLE_END
  0
XRECORD
  5
3AA8
102
{ACAD_REACTORS
330
3766
102
}
330
3766
100
AcDbXrecord
280
     1
102
ACAD_ROUNDTRIP_PRE2007_TABLESTYLE
 90
      512
 91
        0
  1

 92
      512
 93
        0
  2

 94
      512
 95
        0
  3

  0
XRECORD
  5
3A83
102
{ACAD_REACTORS
330
3A82
102
}
330
3A82
100
AcDbXrecord
280
     1
102
RTVSPropertyOp0
 70
     1
102
RTVSPropertyOp1
 70
     1
102
RTVSPropertyOp2
 70
     1
102
RTVSPropertyOp3
 70
     1
102
RTVSPropertyOp4
 70
     1
102
RTVSPropertyOp5
 70
     1
102
RTVSPropertyOp6
 70
     1
102
RTVSPropertyOp7
 70
     1
102
RTVSPropertyOp8
 70
     1
102
RTVSPropertyOp9
 70
     1
102
RTVSPropertyOp10
 70
     1
102
RTVSPropertyOp11
 70
     1
102
RTVSPropertyOp12
 70
     1
102
RTVSPropertyOp13
 70
     1
102
RTVSPropertyOp14
 70
     1
102
RTVSPropertyOp15
 70
     1
102
RTVSPropertyOp16
 70
     1
102
RTVSPropertyOp17
 70
     1
102
RTVSPropertyOp18
 70
     1
102
RTVSPropertyOp19
 70
     1
102
RTVSPropertyOp20
 70
     1
102
RTVSPropertyOp21
 70
     1
102
RTVSPropertyOp22
 70
     1
102
RTVSPropertyOp23
 70
     1
102
RTVSPropertyOp24
 70
     1
102
RTVSPropertyOp25
 70
     1
102
RTVSPropertyOp26
 70
     1
102
RTVSPropertyOp27
 70
     1
  0
XRECORD
  5
3AD6
102
{ACAD_REACTORS
330
3AD5
102
}
330
3AD5
100
AcDbXrecord
280
     1
102
RTVSPropertyOp0
 70
     1
102
RTVSPropertyOp1
 70
     1
102
RTVSPropertyOp2
 70
     1
102
RTVSPropertyOp3
 70
     1
102
RTVSPropertyOp4
 70
     1
102
RTVSPropertyOp5
 70
     1
102
RTVSPropertyOp6
 70
     1
102
RTVSPropertyOp7
 70
     1
102
RTVSPropertyOp8
 70
     1
102
RTVSPropertyOp9
 70
     1
102
RTVSPropertyOp10
 70
     1
102
RTVSPropertyOp11
 70
     1
102
RTVSPropertyOp12
 70
     1
102
RTVSPropertyOp13
 70
     1
102
RTVSPropertyOp14
 70
     1
102
RTVSPropertyOp15
 70
     1
102
RTVSPropertyOp16
 70
     1
102
RTVSPropertyOp17
 70
     1
102
RTVSPropertyOp18
 70
     1
102
RTVSPropertyOp19
 70
     1
102
RTVSPropertyOp20
 70
     1
102
RTVSPropertyOp21
 70
     1
102
RTVSPropertyOp22
 70
     1
102
RTVSPropertyOp23
 70
     1
102
RTVSPropertyOp24
 70
     1
102
RTVSPropertyOp25
 70
     1
102
RTVSPropertyOp26
 70
     1
102
RTVSPropertyOp27
 70
     1
  0
XRECORD
  5
3AD4
102
{ACAD_REACTORS
330
3AD3
102
}
330
3AD3
100
AcDbXrecord
280
     1
102
RTVSPropertyOp0
 70
     1
102
RTVSPropertyOp1
 70
     1
102
RTVSPropertyOp2
 70
     1
102
RTVSPropertyOp3
 70
     1
102
RTVSPropertyOp4
 70
     1
102
RTVSPropertyOp5
 70
     1
102
RTVSPropertyOp6
 70
     1
102
RTVSPropertyOp7
 70
     1
102
RTVSPropertyOp8
 70
     1
102
RTVSPropertyOp9
 70
     1
102
RTVSPropertyOp10
 70
     1
102
RTVSPropertyOp11
 70
     1
102
RTVSPropertyOp12
 70
     1
102
RTVSPropertyOp13
 70
     1
102
RTVSPropertyOp14
 70
     1
102
RTVSPropertyOp15
 70
     1
102
RTVSPropertyOp16
 70
     1
102
RTVSPropertyOp17
 70
     1
102
RTVSPropertyOp18
 70
     1
102
RTVSPropertyOp19
 70
     1
102
RTVSPropertyOp20
 70
     1
102
RTVSPropertyOp21
 70
     1
102
RTVSPropertyOp22
 70
     1
102
RTVSPropertyOp23
 70
     1
102
RTVSPropertyOp24
 70
     1
102
RTVSPropertyOp25
 70
     1
102
RTVSPropertyOp26
 70
     1
102
RTVSPropertyOp27
 70
     1
  0
XRECORD
  5
3A81
102
{ACAD_REACTORS
330
3A80
102
}
330
3A80
100
AcDbXrecord
280
     1
102
RTVSPropertyOp0
 70
     1
102
RTVSPropertyOp1
 70
     1
102
RTVSPropertyOp2
 70
     1
102
RTVSPropertyOp3
 70
     1
102
RTVSPropertyOp4
 70
     1
102
RTVSPropertyOp5
 70
     1
102
RTVSPropertyOp6
 70
     1
102
RTVSPropertyOp7
 70
     1
102
RTVSPropertyOp8
 70
     1
102
RTVSPropertyOp9
 70
     1
102
RTVSPropertyOp10
 70
     1
102
RTVSPropertyOp11
 70
     1
102
RTVSPropertyOp12
 70
     1
102
RTVSPropertyOp13
 70
     1
102
RTVSPropertyOp14
 70
     1
102
RTVSPropertyOp15
 70
     1
102
RTVSPropertyOp16
 70
     1
102
RTVSPropertyOp17
 70
     1
102
RTVSPropertyOp18
 70
     1
102
RTVSPropertyOp19
 70
     1
102
RTVSPropertyOp20
 70
     1
102
RTVSPropertyOp21
 70
     1
102
RTVSPropertyOp22
 70
     1
102
RTVSPropertyOp23
 70
     1
102
RTVSPropertyOp24
 70
     1
102
RTVSPropertyOp25
 70
     1
102
RTVSPropertyOp26
 70
     1
102
RTVSPropertyOp27
 70
     1
  0
XRECORD
  5
3A8F
102
{ACAD_REACTORS
330
3A8E
102
}
330
3A8E
100
AcDbXrecord
280
     1
102
RTVSPropertyOp0
 70
     1
102
RTVSPropertyOp1
 70
     1
102
RTVSPropertyOp2
 70
     1
102
RTVSPropertyOp3
 70
     1
102
RTVSPropertyOp4
 70
     1
102
RTVSPropertyOp5
 70
     1
102
RTVSPropertyOp6
 70
     1
102
RTVSPropertyOp7
 70
     1
102
RTVSPropertyOp8
 70
     1
102
RTVSPropertyOp9
 70
     1
102
RTVSPropertyOp10
 70
     1
102
RTVSPropertyOp11
 70
     1
102
RTVSPropertyOp12
 70
     1
102
RTVSPropertyOp13
 70
     1
102
RTVSPropertyOp14
 70
     1
102
RTVSPropertyOp15
 70
     1
102
RTVSPropertyOp16
 70
     1
102
RTVSPropertyOp17
 70
     1
102
RTVSPropertyOp18
 70
     1
102
RTVSPropertyOp19
 70
     1
102
RTVSPropertyOp20
 70
     1
102
RTVSPropertyOp21
 70
     1
102
RTVSPropertyOp22
 70
     1
102
RTVSPropertyOp23
 70
     1
102
RTVSPropertyOp24
 70
     1
102
RTVSPropertyOp25
 70
     1
102
RTVSPropertyOp26
 70
     1
102
RTVSPropertyOp27
 70
     1
  0
XRECORD
  5
3A97
102
{ACAD_REACTORS
330
3A96
102
}
330
3A96
100
AcDbXrecord
280
     1
102
RTVSPropertyOp0
 70
     1
102
RTVSPropertyOp1
 70
     1
102
RTVSPropertyOp2
 70
     1
102
RTVSPropertyOp3
 70
     1
102
RTVSPropertyOp4
 70
     1
102
RTVSPropertyOp5
 70
     1
102
RTVSPropertyOp6
 70
     1
102
RTVSPropertyOp7
 70
     1
102
RTVSPropertyOp8
 70
     1
102
RTVSPropertyOp9
 70
     1
102
RTVSPropertyOp10
 70
     1
102
RTVSPropertyOp11
 70
     1
102
RTVSPropertyOp12
 70
     1
102
RTVSPropertyOp13
 70
     1
102
RTVSPropertyOp14
 70
     1
102
RTVSPropertyOp15
 70
     1
102
RTVSPropertyOp16
 70
     1
102
RTVSPropertyOp17
 70
     1
102
RTVSPropertyOp18
 70
     1
102
RTVSPropertyOp19
 70
     1
102
RTVSPropertyOp20
 70
     1
102
RTVSPropertyOp21
 70
     1
102
RTVSPropertyOp22
 70
     1
102
RTVSPropertyOp23
 70
     1
102
RTVSPropertyOp24
 70
     1
102
RTVSPropertyOp25
 70
     1
102
RTVSPropertyOp26
 70
     1
102
RTVSPropertyOp27
 70
     1
  0
XRECORD
  5
3A89
102
{ACAD_REACTORS
330
3A88
102
}
330
3A88
100
AcDbXrecord
280
     1
102
RTVSPropertyOp0
 70
     1
102
RTVSPropertyOp1
 70
     1
102
RTVSPropertyOp2
 70
     1
102
RTVSPropertyOp3
 70
     1
102
RTVSPropertyOp4
 70
     1
102
RTVSPropertyOp5
 70
     1
102
RTVSPropertyOp6
 70
     1
102
RTVSPropertyOp7
 70
     1
102
RTVSPropertyOp8
 70
     1
102
RTVSPropertyOp9
 70
     1
102
RTVSPropertyOp10
 70
     1
102
RTVSPropertyOp11
 70
     1
102
RTVSPropertyOp12
 70
     1
102
RTVSPropertyOp13
 70
     1
102
RTVSPropertyOp14
 70
     1
102
RTVSPropertyOp15
 70
     1
102
RTVSPropertyOp16
 70
     1
102
RTVSPropertyOp17
 70
     1
102
RTVSPropertyOp18
 70
     1
102
RTVSPropertyOp19
 70
     1
102
RTVSPropertyOp20
 70
     1
102
RTVSPropertyOp21
 70
     1
102
RTVSPropertyOp22
 70
     1
102
RTVSPropertyOp23
 70
     1
102
RTVSPropertyOp24
 70
     1
102
RTVSPropertyOp25
 70
     1
102
RTVSPropertyOp26
 70
     1
102
RTVSPropertyOp27
 70
     1
  0
XRECORD
  5
3A8D
102
{ACAD_REACTORS
330
3A8C
102
}
330
3A8C
100
AcDbXrecord
280
     1
102
RTVSPropertyOp0
 70
     1
102
RTVSPropertyOp1
 70
     1
102
RTVSPropertyOp2
 70
     1
102
RTVSPropertyOp3
 70
     1
102
RTVSPropertyOp4
 70
     1
102
RTVSPropertyOp5
 70
     1
102
RTVSPropertyOp6
 70
     1
102
RTVSPropertyOp7
 70
     1
102
RTVSPropertyOp8
 70
     1
102
RTVSPropertyOp9
 70
     1
102
RTVSPropertyOp10
 70
     1
102
RTVSPropertyOp11
 70
     1
102
RTVSPropertyOp12
 70
     1
102
RTVSPropertyOp13
 70
     1
102
RTVSPropertyOp14
 70
     1
102
RTVSPropertyOp15
 70
     1
102
RTVSPropertyOp16
 70
     1
102
RTVSPropertyOp17
 70
     1
102
RTVSPropertyOp18
 70
     1
102
RTVSPropertyOp19
 70
     1
102
RTVSPropertyOp20
 70
     1
102
RTVSPropertyOp21
 70
     1
102
RTVSPropertyOp22
 70
     1
102
RTVSPropertyOp23
 70
     1
102
RTVSPropertyOp24
 70
     1
102
RTVSPropertyOp25
 70
     1
102
RTVSPropertyOp26
 70
     1
102
RTVSPropertyOp27
 70
     1
  0
XRECORD
  5
3AA7
102
{ACAD_REACTORS
330
3AA6
102
}
330
3AA6
100
AcDbXrecord
280
     1
102
RTVSPropertyOp0
 70
     0
102
RTVSPropertyOp1
 70
     0
102
RTVSPropertyOp2
 70
     0
102
RTVSPropertyOp3
 70
     0
102
RTVSPropertyOp4
 70
     0
102
RTVSPropertyOp5
 70
     0
102
RTVSPropertyOp6
 70
     0
102
RTVSPropertyOp7
 70
     0
102
RTVSPropertyOp8
 70
     0
102
RTVSPropertyOp9
 70
     0
102
RTVSPropertyOp10
 70
     0
102
RTVSPropertyOp11
 70
     0
102
RTVSPropertyOp12
 70
     0
102
RTVSPropertyOp13
 70
     0
102
RTVSPropertyOp14
 70
     2
102
RTVSPropertyOp15
 70
     0
102
RTVSPropertyOp16
 70
     0
102
RTVSPropertyOp17
 70
     0
102
RTVSPropertyOp18
 70
     0
102
RTVSPropertyOp19
 70
     0
102
RTVSPropertyOp20
 70
     0
102
RTVSPropertyOp21
 70
     0
102
RTVSPropertyOp22
 70
     0
102
RTVSPropertyOp23
 70
     0
102
RTVSPropertyOp24
 70
     0
102
RTVSPropertyOp25
 70
     0
102
RTVSPropertyOp26
 70
     0
102
RTVSPropertyOp27
 70
     0
  0
XRECORD
  5
3A95
102
{ACAD_REACTORS
330
3A94
102
}
330
3A94
100
AcDbXrecord
280
     1
102
RTVSPropertyOp0
 70
     1
102
RTVSPropertyOp1
 70
     1
102
RTVSPropertyOp2
 70
     1
102
RTVSPropertyOp3
 70
     1
102
RTVSPropertyOp4
 70
     1
102
RTVSPropertyOp5
 70
     1
102
RTVSPropertyOp6
 70
     1
102
RTVSPropertyOp7
 70
     1
102
RTVSPropertyOp8
 70
     1
102
RTVSPropertyOp9
 70
     1
102
RTVSPropertyOp10
 70
     1
102
RTVSPropertyOp11
 70
     1
102
RTVSPropertyOp12
 70
     1
102
RTVSPropertyOp13
 70
     1
102
RTVSPropertyOp14
 70
     1
102
RTVSPropertyOp15
 70
     1
102
RTVSPropertyOp16
 70
     1
102
RTVSPropertyOp17
 70
     1
102
RTVSPropertyOp18
 70
     1
102
RTVSPropertyOp19
 70
     1
102
RTVSPropertyOp20
 70
     1
102
RTVSPropertyOp21
 70
     1
102
RTVSPropertyOp22
 70
     1
102
RTVSPropertyOp23
 70
     1
102
RTVSPropertyOp24
 70
     1
102
RTVSPropertyOp25
 70
     1
102
RTVSPropertyOp26
 70
     1
102
RTVSPropertyOp27
 70
     1
  0
XRECORD
  5
3A79
102
{ACAD_REACTORS
330
3A78
102
}
330
3A78
100
AcDbXrecord
280
     1
102
RTVSPropertyOp0
 70
     1
102
RTVSPropertyOp1
 70
     1
102
RTVSPropertyOp2
 70
     1
102
RTVSPropertyOp3
 70
     1
102
RTVSPropertyOp4
 70
     1
102
RTVSPropertyOp5
 70
     1
102
RTVSPropertyOp6
 70
     1
102
RTVSPropertyOp7
 70
     1
102
RTVSPropertyOp8
 70
     1
102
RTVSPropertyOp9
 70
     1
102
RTVSPropertyOp10
 70
     1
102
RTVSPropertyOp11
 70
     1
102
RTVSPropertyOp12
 70
     1
102
RTVSPropertyOp13
 70
     1
102
RTVSPropertyOp14
 70
     1
102
RTVSPropertyOp15
 70
     1
102
RTVSPropertyOp16
 70
     1
102
RTVSPropertyOp17
 70
     1
102
RTVSPropertyOp18
 70
     1
102
RTVSPropertyOp19
 70
     1
102
RTVSPropertyOp20
 70
     1
102
RTVSPropertyOp21
 70
     1
102
RTVSPropertyOp22
 70
     1
102
RTVSPropertyOp23
 70
     1
102
RTVSPropertyOp24
 70
     1
102
RTVSPropertyOp25
 70
     1
102
RTVSPropertyOp26
 70
     1
102
RTVSPropertyOp27
 70
     1
  0
XRECORD
  5
3A7B
102
{ACAD_REACTORS
330
3A7A
102
}
330
3A7A
100
AcDbXrecord
280
     1
102
RTVSPropertyOp0
 70
     1
102
RTVSPropertyOp1
 70
     1
102
RTVSPropertyOp2
 70
     1
102
RTVSPropertyOp3
 70
     1
102
RTVSPropertyOp4
 70
     1
102
RTVSPropertyOp5
 70
     1
102
RTVSPropertyOp6
 70
     1
102
RTVSPropertyOp7
 70
     1
102
RTVSPropertyOp8
 70
     1
102
RTVSPropertyOp9
 70
     1
102
RTVSPropertyOp10
 70
     1
102
RTVSPropertyOp11
 70
     1
102
RTVSPropertyOp12
 70
     1
102
RTVSPropertyOp13
 70
     1
102
RTVSPropertyOp14
 70
     1
102
RTVSPropertyOp15
 70
     1
102
RTVSPropertyOp16
 70
     1
102
RTVSPropertyOp17
 70
     1
102
RTVSPropertyOp18
 70
     1
102
RTVSPropertyOp19
 70
     1
102
RTVSPropertyOp20
 70
     1
102
RTVSPropertyOp21
 70
     1
102
RTVSPropertyOp22
 70
     1
102
RTVSPropertyOp23
 70
     1
102
RTVSPropertyOp24
 70
     1
102
RTVSPropertyOp25
 70
     1
102
RTVSPropertyOp26
 70
     1
102
RTVSPropertyOp27
 70
     1
  0
XRECORD
  5
3A7D
102
{ACAD_REACTORS
330
3A7C
102
}
330
3A7C
100
AcDbXrecord
280
     1
102
RTVSPropertyOp0
 70
     1
102
RTVSPropertyOp1
 70
     1
102
RTVSPropertyOp2
 70
     1
102
RTVSPropertyOp3
 70
     1
102
RTVSPropertyOp4
 70
     1
102
RTVSPropertyOp5
 70
     1
102
RTVSPropertyOp6
 70
     1
102
RTVSPropertyOp7
 70
     1
102
RTVSPropertyOp8
 70
     1
102
RTVSPropertyOp9
 70
     1
102
RTVSPropertyOp10
 70
     1
102
RTVSPropertyOp11
 70
     1
102
RTVSPropertyOp12
 70
     1
102
RTVSPropertyOp13
 70
     1
102
RTVSPropertyOp14
 70
     1
102
RTVSPropertyOp15
 70
     1
102
RTVSPropertyOp16
 70
     1
102
RTVSPropertyOp17
 70
     1
102
RTVSPropertyOp18
 70
     1
102
RTVSPropertyOp19
 70
     1
102
RTVSPropertyOp20
 70
     1
102
RTVSPropertyOp21
 70
     1
102
RTVSPropertyOp22
 70
     1
102
RTVSPropertyOp23
 70
     1
102
RTVSPropertyOp24
 70
     1
102
RTVSPropertyOp25
 70
     1
102
RTVSPropertyOp26
 70
     1
102
RTVSPropertyOp27
 70
     1
  0
XRECORD
  5
3A7F
102
{ACAD_REACTORS
330
3A7E
102
}
330
3A7E
100
AcDbXrecord
280
     1
102
RTVSPropertyOp0
 70
     1
102
RTVSPropertyOp1
 70
     1
102
RTVSPropertyOp2
 70
     1
102
RTVSPropertyOp3
 70
     1
102
RTVSPropertyOp4
 70
     1
102
RTVSPropertyOp5
 70
     1
102
RTVSPropertyOp6
 70
     1
102
RTVSPropertyOp7
 70
     1
102
RTVSPropertyOp8
 70
     1
102
RTVSPropertyOp9
 70
     1
102
RTVSPropertyOp10
 70
     1
102
RTVSPropertyOp11
 70
     1
102
RTVSPropertyOp12
 70
     1
102
RTVSPropertyOp13
 70
     1
102
RTVSPropertyOp14
 70
     1
102
RTVSPropertyOp15
 70
     1
102
RTVSPropertyOp16
 70
     1
102
RTVSPropertyOp17
 70
     1
102
RTVSPropertyOp18
 70
     1
102
RTVSPropertyOp19
 70
     1
102
RTVSPropertyOp20
 70
     1
102
RTVSPropertyOp21
 70
     1
102
RTVSPropertyOp22
 70
     1
102
RTVSPropertyOp23
 70
     1
102
RTVSPropertyOp24
 70
     1
102
RTVSPropertyOp25
 70
     1
102
RTVSPropertyOp26
 70
     1
102
RTVSPropertyOp27
 70
     1
  0
XRECORD
  5
3A87
102
{ACAD_REACTORS
330
3A86
102
}
330
3A86
100
AcDbXrecord
280
     1
102
RTVSPropertyOp0
 70
     1
102
RTVSPropertyOp1
 70
     1
102
RTVSPropertyOp2
 70
     1
102
RTVSPropertyOp3
 70
     1
102
RTVSPropertyOp4
 70
     1
102
RTVSPropertyOp5
 70
     1
102
RTVSPropertyOp6
 70
     1
102
RTVSPropertyOp7
 70
     1
102
RTVSPropertyOp8
 70
     1
102
RTVSPropertyOp9
 70
     1
102
RTVSPropertyOp10
 70
     1
102
RTVSPropertyOp11
 70
     1
102
RTVSPropertyOp12
 70
     1
102
RTVSPropertyOp13
 70
     1
102
RTVSPropertyOp14
 70
     1
102
RTVSPropertyOp15
 70
     1
102
RTVSPropertyOp16
 70
     1
102
RTVSPropertyOp17
 70
     1
102
RTVSPropertyOp18
 70
     1
102
RTVSPropertyOp19
 70
     1
102
RTVSPropertyOp20
 70
     1
102
RTVSPropertyOp21
 70
     1
102
RTVSPropertyOp22
 70
     1
102
RTVSPropertyOp23
 70
     1
102
RTVSPropertyOp24
 70
     1
102
RTVSPropertyOp25
 70
     1
102
RTVSPropertyOp26
 70
     1
102
RTVSPropertyOp27
 70
     1
  0
XRECORD
  5
3AA3
102
{ACAD_REACTORS
330
3AA2
102
}
330
3AA2
100
AcDbXrecord
280
     1
102
RTVSPropertyOp0
 70
     0
102
RTVSPropertyOp1
 70
     0
102
RTVSPropertyOp2
 70
     0
102
RTVSPropertyOp3
 70
     0
102
RTVSPropertyOp4
 70
     0
102
RTVSPropertyOp5
 70
     0
102
RTVSPropertyOp6
 70
     0
102
RTVSPropertyOp7
 70
     0
102
RTVSPropertyOp8
 70
     0
102
RTVSPropertyOp9
 70
     0
102
RTVSPropertyOp10
 70
     0
102
RTVSPropertyOp11
 70
     0
102
RTVSPropertyOp12
 70
     0
102
RTVSPropertyOp13
 70
     0
102
RTVSPropertyOp14
 70
     2
102
RTVSPropertyOp15
 70
     0
102
RTVSPropertyOp16
 70
     0
102
RTVSPropertyOp17
 70
     0
102
RTVSPropertyOp18
 70
     0
102
RTVSPropertyOp19
 70
     0
102
RTVSPropertyOp20
 70
     0
102
RTVSPropertyOp21
 70
     0
102
RTVSPropertyOp22
 70
     0
102
RTVSPropertyOp23
 70
     0
102
RTVSPropertyOp24
 70
     0
102
RTVSPropertyOp25
 70
     0
102
RTVSPropertyOp26
 70
     0
102
RTVSPropertyOp27
 70
     0
  0
XRECORD
  5
3A93
102
{ACAD_REACTORS
330
3A92
102
}
330
3A92
100
AcDbXrecord
280
     1
102
RTVSPropertyOp0
 70
     1
102
RTVSPropertyOp1
 70
     1
102
RTVSPropertyOp2
 70
     1
102
RTVSPropertyOp3
 70
     1
102
RTVSPropertyOp4
 70
     1
102
RTVSPropertyOp5
 70
     1
102
RTVSPropertyOp6
 70
     1
102
RTVSPropertyOp7
 70
     1
102
RTVSPropertyOp8
 70
     1
102
RTVSPropertyOp9
 70
     1
102
RTVSPropertyOp10
 70
     1
102
RTVSPropertyOp11
 70
     1
102
RTVSPropertyOp12
 70
     1
102
RTVSPropertyOp13
 70
     1
102
RTVSPropertyOp14
 70
     1
102
RTVSPropertyOp15
 70
     1
102
RTVSPropertyOp16
 70
     1
102
RTVSPropertyOp17
 70
     1
102
RTVSPropertyOp18
 70
     1
102
RTVSPropertyOp19
 70
     1
102
RTVSPropertyOp20
 70
     1
102
RTVSPropertyOp21
 70
     1
102
RTVSPropertyOp22
 70
     1
102
RTVSPropertyOp23
 70
     1
102
RTVSPropertyOp24
 70
     1
102
RTVSPropertyOp25
 70
     1
102
RTVSPropertyOp26
 70
     1
102
RTVSPropertyOp27
 70
     1
  0
XRECORD
  5
3AA5
102
{ACAD_REACTORS
330
3AA4
102
}
330
3AA4
100
AcDbXrecord
280
     1
102
RTVSPropertyOp0
 70
     0
102
RTVSPropertyOp1
 70
     0
102
RTVSPropertyOp2
 70
     0
102
RTVSPropertyOp3
 70
     0
102
RTVSPropertyOp4
 70
     0
102
RTVSPropertyOp5
 70
     0
102
RTVSPropertyOp6
 70
     0
102
RTVSPropertyOp7
 70
     0
102
RTVSPropertyOp8
 70
     0
102
RTVSPropertyOp9
 70
     0
102
RTVSPropertyOp10
 70
     0
102
RTVSPropertyOp11
 70
     0
102
RTVSPropertyOp12
 70
     0
102
RTVSPropertyOp13
 70
     0
102
RTVSPropertyOp14
 70
     2
102
RTVSPropertyOp15
 70
     0
102
RTVSPropertyOp16
 70
     0
102
RTVSPropertyOp17
 70
     0
102
RTVSPropertyOp18
 70
     0
102
RTVSPropertyOp19
 70
     0
102
RTVSPropertyOp20
 70
     0
102
RTVSPropertyOp21
 70
     0
102
RTVSPropertyOp22
 70
     0
102
RTVSPropertyOp23
 70
     0
102
RTVSPropertyOp24
 70
     0
102
RTVSPropertyOp25
 70
     0
102
RTVSPropertyOp26
 70
     0
102
RTVSPropertyOp27
 70
     0
  0
XRECORD
  5
3A8B
102
{ACAD_REACTORS
330
3A8A
102
}
330
3A8A
100
AcDbXrecord
280
     1
102
RTVSPropertyOp0
 70
     1
102
RTVSPropertyOp1
 70
     1
102
RTVSPropertyOp2
 70
     1
102
RTVSPropertyOp3
 70
     1
102
RTVSPropertyOp4
 70
     1
102
RTVSPropertyOp5
 70
     1
102
RTVSPropertyOp6
 70
     1
102
RTVSPropertyOp7
 70
     1
102
RTVSPropertyOp8
 70
     1
102
RTVSPropertyOp9
 70
     1
102
RTVSPropertyOp10
 70
     1
102
RTVSPropertyOp11
 70
     1
102
RTVSPropertyOp12
 70
     1
102
RTVSPropertyOp13
 70
     1
102
RTVSPropertyOp14
 70
     1
102
RTVSPropertyOp15
 70
     1
102
RTVSPropertyOp16
 70
     1
102
RTVSPropertyOp17
 70
     1
102
RTVSPropertyOp18
 70
     1
102
RTVSPropertyOp19
 70
     1
102
RTVSPropertyOp20
 70
     1
102
RTVSPropertyOp21
 70
     1
102
RTVSPropertyOp22
 70
     1
102
RTVSPropertyOp23
 70
     1
102
RTVSPropertyOp24
 70
     1
102
RTVSPropertyOp25
 70
     1
102
RTVSPropertyOp26
 70
     1
102
RTVSPropertyOp27
 70
     1
  0
XRECORD
  5
3AA1
102
{ACAD_REACTORS
330
3AA0
102
}
330
3AA0
100
AcDbXrecord
280
     1
102
RTVSPropertyOp0
 70
     1
102
RTVSPropertyOp1
 70
     1
102
RTVSPropertyOp2
 70
     1
102
RTVSPropertyOp3
 70
     1
102
RTVSPropertyOp4
 70
     1
102
RTVSPropertyOp5
 70
     1
102
RTVSPropertyOp6
 70
     1
102
RTVSPropertyOp7
 70
     1
102
RTVSPropertyOp8
 70
     1
102
RTVSPropertyOp9
 70
     1
102
RTVSPropertyOp10
 70
     1
102
RTVSPropertyOp11
 70
     1
102
RTVSPropertyOp12
 70
     1
102
RTVSPropertyOp13
 70
     1
102
RTVSPropertyOp14
 70
     1
102
RTVSPropertyOp15
 70
     1
102
RTVSPropertyOp16
 70
     1
102
RTVSPropertyOp17
 70
     1
102
RTVSPropertyOp18
 70
     1
102
RTVSPropertyOp19
 70
     1
102
RTVSPropertyOp20
 70
     1
102
RTVSPropertyOp21
 70
     1
102
RTVSPropertyOp22
 70
     1
102
RTVSPropertyOp23
 70
     1
102
RTVSPropertyOp24
 70
     1
102
RTVSPropertyOp25
 70
     1
102
RTVSPropertyOp26
 70
     1
102
RTVSPropertyOp27
 70
     1
  0
XRECORD
  5
3A9F
102
{ACAD_REACTORS
330
3A9E
102
}
330
3A9E
100
AcDbXrecord
280
     1
102
RTVSPropertyOp0
 70
     1
102
RTVSPropertyOp1
 70
     1
102
RTVSPropertyOp2
 70
     1
102
RTVSPropertyOp3
 70
     1
102
RTVSPropertyOp4
 70
     1
102
RTVSPropertyOp5
 70
     1
102
RTVSPropertyOp6
 70
     1
102
RTVSPropertyOp7
 70
     1
102
RTVSPropertyOp8
 70
     1
102
RTVSPropertyOp9
 70
     1
102
RTVSPropertyOp10
 70
     1
102
RTVSPropertyOp11
 70
     1
102
RTVSPropertyOp12
 70
     1
102
RTVSPropertyOp13
 70
     1
102
RTVSPropertyOp14
 70
     1
102
RTVSPropertyOp15
 70
     1
102
RTVSPropertyOp16
 70
     1
102
RTVSPropertyOp17
 70
     1
102
RTVSPropertyOp18
 70
     1
102
RTVSPropertyOp19
 70
     1
102
RTVSPropertyOp20
 70
     1
102
RTVSPropertyOp21
 70
     1
102
RTVSPropertyOp22
 70
     1
102
RTVSPropertyOp23
 70
     1
102
RTVSPropertyOp24
 70
     1
102
RTVSPropertyOp25
 70
     1
102
RTVSPropertyOp26
 70
     1
102
RTVSPropertyOp27
 70
     1
  0
XRECORD
  5
3A99
102
{ACAD_REACTORS
330
3A98
102
}
330
3A98
100
AcDbXrecord
280
     1
102
RTVSPropertyOp0
 70
     1
102
RTVSPropertyOp1
 70
     1
102
RTVSPropertyOp2
 70
     1
102
RTVSPropertyOp3
 70
     1
102
RTVSPropertyOp4
 70
     1
102
RTVSPropertyOp5
 70
     1
102
RTVSPropertyOp6
 70
     1
102
RTVSPropertyOp7
 70
     1
102
RTVSPropertyOp8
 70
     1
102
RTVSPropertyOp9
 70
     1
102
RTVSPropertyOp10
 70
     1
102
RTVSPropertyOp11
 70
     1
102
RTVSPropertyOp12
 70
     1
102
RTVSPropertyOp13
 70
     1
102
RTVSPropertyOp14
 70
     1
102
RTVSPropertyOp15
 70
     1
102
RTVSPropertyOp16
 70
     1
102
RTVSPropertyOp17
 70
     1
102
RTVSPropertyOp18
 70
     1
102
RTVSPropertyOp19
 70
     1
102
RTVSPropertyOp20
 70
     1
102
RTVSPropertyOp21
 70
     1
102
RTVSPropertyOp22
 70
     1
102
RTVSPropertyOp23
 70
     1
102
RTVSPropertyOp24
 70
     1
102
RTVSPropertyOp25
 70
     1
102
RTVSPropertyOp26
 70
     1
102
RTVSPropertyOp27
 70
     1
  0
XRECORD
  5
3A9B
102
{ACAD_REACTORS
330
3A9A
102
}
330
3A9A
100
AcDbXrecord
280
     1
102
RTVSPropertyOp0
 70
     1
102
RTVSPropertyOp1
 70
     1
102
RTVSPropertyOp2
 70
     1
102
RTVSPropertyOp3
 70
     1
102
RTVSPropertyOp4
 70
     1
102
RTVSPropertyOp5
 70
     1
102
RTVSPropertyOp6
 70
     1
102
RTVSPropertyOp7
 70
     1
102
RTVSPropertyOp8
 70
     1
102
RTVSPropertyOp9
 70
     1
102
RTVSPropertyOp10
 70
     1
102
RTVSPropertyOp11
 70
     1
102
RTVSPropertyOp12
 70
     1
102
RTVSPropertyOp13
 70
     1
102
RTVSPropertyOp14
 70
     1
102
RTVSPropertyOp15
 70
     1
102
RTVSPropertyOp16
 70
     1
102
RTVSPropertyOp17
 70
     1
102
RTVSPropertyOp18
 70
     1
102
RTVSPropertyOp19
 70
     1
102
RTVSPropertyOp20
 70
     1
102
RTVSPropertyOp21
 70
     1
102
RTVSPropertyOp22
 70
     1
102
RTVSPropertyOp23
 70
     1
102
RTVSPropertyOp24
 70
     1
102
RTVSPropertyOp25
 70
     1
102
RTVSPropertyOp26
 70
     1
102
RTVSPropertyOp27
 70
     1
  0
XRECORD
  5
3A91
102
{ACAD_REACTORS
330
3A90
102
}
330
3A90
100
AcDbXrecord
280
     1
102
RTVSPropertyOp0
 70
     1
102
RTVSPropertyOp1
 70
     1
102
RTVSPropertyOp2
 70
     1
102
RTVSPropertyOp3
 70
     1
102
RTVSPropertyOp4
 70
     1
102
RTVSPropertyOp5
 70
     1
102
RTVSPropertyOp6
 70
     1
102
RTVSPropertyOp7
 70
     1
102
RTVSPropertyOp8
 70
     1
102
RTVSPropertyOp9
 70
     1
102
RTVSPropertyOp10
 70
     1
102
RTVSPropertyOp11
 70
     1
102
RTVSPropertyOp12
 70
     1
102
RTVSPropertyOp13
 70
     1
102
RTVSPropertyOp14
 70
     1
102
RTVSPropertyOp15
 70
     1
102
RTVSPropertyOp16
 70
     1
102
RTVSPropertyOp17
 70
     1
102
RTVSPropertyOp18
 70
     1
102
RTVSPropertyOp19
 70
     1
102
RTVSPropertyOp20
 70
     1
102
RTVSPropertyOp21
 70
     1
102
RTVSPropertyOp22
 70
     1
102
RTVSPropertyOp23
 70
     1
102
RTVSPropertyOp24
 70
     1
102
RTVSPropertyOp25
 70
     1
102
RTVSPropertyOp26
 70
     1
102
RTVSPropertyOp27
 70
     1
  0
XRECORD
  5
3A85
102
{ACAD_REACTORS
330
3A84
102
}
330
3A84
100
AcDbXrecord
280
     1
102
RTVSPropertyOp0
 70
     1
102
RTVSPropertyOp1
 70
     1
102
RTVSPropertyOp2
 70
     1
102
RTVSPropertyOp3
 70
     1
102
RTVSPropertyOp4
 70
     1
102
RTVSPropertyOp5
 70
     1
102
RTVSPropertyOp6
 70
     1
102
RTVSPropertyOp7
 70
     1
102
RTVSPropertyOp8
 70
     1
102
RTVSPropertyOp9
 70
     1
102
RTVSPropertyOp10
 70
     1
102
RTVSPropertyOp11
 70
     1
102
RTVSPropertyOp12
 70
     1
102
RTVSPropertyOp13
 70
     1
102
RTVSPropertyOp14
 70
     1
102
RTVSPropertyOp15
 70
     1
102
RTVSPropertyOp16
 70
     1
102
RTVSPropertyOp17
 70
     1
102
RTVSPropertyOp18
 70
     1
102
RTVSPropertyOp19
 70
     1
102
RTVSPropertyOp20
 70
     1
102
RTVSPropertyOp21
 70
     1
102
RTVSPropertyOp22
 70
     1
102
RTVSPropertyOp23
 70
     1
102
RTVSPropertyOp24
 70
     1
102
RTVSPropertyOp25
 70
     1
102
RTVSPropertyOp26
 70
     1
102
RTVSPropertyOp27
 70
     1
  0
XRECORD
  5
3A9D
102
{ACAD_REACTORS
330
3A9C
102
}
330
3A9C
100
AcDbXrecord
280
     1
102
RTVSPropertyOp0
 70
     1
102
RTVSPropertyOp1
 70
     1
102
RTVSPropertyOp2
 70
     1
102
RTVSPropertyOp3
 70
     1
102
RTVSPropertyOp4
 70
     1
102
RTVSPropertyOp5
 70
     1
102
RTVSPropertyOp6
 70
     1
102
RTVSPropertyOp7
 70
     1
102
RTVSPropertyOp8
 70
     1
102
RTVSPropertyOp9
 70
     1
102
RTVSPropertyOp10
 70
     1
102
RTVSPropertyOp11
 70
     1
102
RTVSPropertyOp12
 70
     1
102
RTVSPropertyOp13
 70
     1
102
RTVSPropertyOp14
 70
     1
102
RTVSPropertyOp15
 70
     1
102
RTVSPropertyOp16
 70
     1
102
RTVSPropertyOp17
 70
     1
102
RTVSPropertyOp18
 70
     1
102
RTVSPropertyOp19
 70
     1
102
RTVSPropertyOp20
 70
     1
102
RTVSPropertyOp21
 70
     1
102
RTVSPropertyOp22
 70
     1
102
RTVSPropertyOp23
 70
     1
102
RTVSPropertyOp24
 70
     1
102
RTVSPropertyOp25
 70
     1
102
RTVSPropertyOp26
 70
     1
102
RTVSPropertyOp27
 70
     1
  0
ENDSEC
  0
EOF
