  0
SECTION
  2
HEADER
  9
$ACADVER
  1
AC1018
  9
$ACADMAINTVER
 70
   104
  9
$DWGCODEPAGE
  3
ANSI_1250
  9
$AUTHOR
  1
tmrtka
  9
$LASTSAVEDBY
  1
onovak
  9
$REVISIONNUMBER
  1
001
  9
$CUSTOMPROPERTYTAG
  1
Vedoucí
  9
$CUSTOMPROPERTY
  1

  9
$CUSTOMPROPERTYTAG
  1
Společnost
  9
$CUSTOMPROPERTY
  1

  9
$CUSTOMPROPERTYTAG
  1
Kategorie
  9
$CUSTOMPROPERTY
  1

  9
$CUSTOMPROPERTYTAG
  1
Číslo součásti
  9
$CUSTOMPROPERTY
  1
408074
  9
$CUSTOMPROPERTYTAG
  1
Popis
  9
$CUSTOMPROPERTY
  1

  9
$CUSTOMPROPERTYTAG
  1
Projekt
  9
$CUSTOMPROPERTY
  1

  9
$CUSTOMPROPERTYTAG
  1
Kreslil
  9
$CUSTOMPROPERTY
  1
tmrtka
  9
$CUSTOMPROPERTYTAG
  1
Schválil
  9
$CUSTOMPROPERTY
  1

  9
$CUSTOMPROPERTYTAG
  1
Zodpovídá
  9
$CUSTOMPROPERTY
  1

  9
$CUSTOMPROPERTYTAG
  1
Nákladové středisko
  9
$CUSTOMPROPERTY
  1

  9
$CUSTOMPROPERTYTAG
  1
Dodavatel
  9
$CUSTOMPROPERTY
  1

  9
$CUSTOMPROPERTYTAG
  1
Uživatelský stav
  9
$CUSTOMPROPERTY
  1

  9
$CUSTOMPROPERTYTAG
  1
Stav návrhu
  9
$CUSTOMPROPERTY
  1
Rozpracováno
  9
$CUSTOMPROPERTYTAG
  1
Zkontroloval
  9
$CUSTOMPROPERTY
  1

  9
$CUSTOMPROPERTYTAG
  1
Techn. kontr. schválil
  9
$CUSTOMPROPERTY
  1

  9
$CUSTOMPROPERTYTAG
  1
Výrobu schválil
  9
$CUSTOMPROPERTY
  1

  9
$CUSTOMPROPERTYTAG
  1
VS_First
  9
$CUSTOMPROPERTY
  1

  9
$CUSTOMPROPERTYTAG
  1
VS_All
  9
$CUSTOMPROPERTY
  1
1:1,
  9
$CUSTOMPROPERTYTAG
  1
Model_Mass_Value
  9
$CUSTOMPROPERTY
  1
,0
  9
$CUSTOMPROPERTYTAG
  1
Model_Mass_Units
  9
$CUSTOMPROPERTY
  1
kg
  9
$CUSTOMPROPERTYTAG
  1
Model_Area_Value
  9
$CUSTOMPROPERTY
  1
2694,0
  9
$CUSTOMPROPERTYTAG
  1
Model_Area_Units
  9
$CUSTOMPROPERTY
  1
mm˛
  9
$CUSTOMPROPERTYTAG
  1
Model_Volume_Value
  9
$CUSTOMPROPERTY
  1
5471,0
  9
$CUSTOMPROPERTYTAG
  1
Model_Volume_Units
  9
$CUSTOMPROPERTY
  1
mmł
  9
$CUSTOMPROPERTYTAG
  1
Model_CogX_Value
  9
$CUSTOMPROPERTY
  1
,0
  9
$CUSTOMPROPERTYTAG
  1
Model_CogY_Value
  9
$CUSTOMPROPERTY
  1
,0
  9
$CUSTOMPROPERTYTAG
  1
Model_CogZ_Value
  9
$CUSTOMPROPERTY
  1
,0
  9
$CUSTOMPROPERTYTAG
  1
Model_Cog_Units
  9
$CUSTOMPROPERTY
  1
mm
  9
$CUSTOMPROPERTYTAG
  1
Model_Ixx_Value
  9
$CUSTOMPROPERTY
  1
,0
  9
$CUSTOMPROPERTYTAG
  1
Model_Iyy_Value
  9
$CUSTOMPROPERTY
  1
,0
  9
$CUSTOMPROPERTYTAG
  1
Model_Izz_Value
  9
$CUSTOMPROPERTY
  1
,0
  9
$CUSTOMPROPERTYTAG
  1
Model_Ixy_Value
  9
$CUSTOMPROPERTY
  1
,0
  9
$CUSTOMPROPERTYTAG
  1
Model_Iyz_Value
  9
$CUSTOMPROPERTY
  1
,0
  9
$CUSTOMPROPERTYTAG
  1
Model_Ixz_Value
  9
$CUSTOMPROPERTY
  1
,0
  9
$CUSTOMPROPERTYTAG
  1
Model_MassMom_Units
  9
$CUSTOMPROPERTY
  1
kg mm˛
  9
$CUSTOMPROPERTYTAG
  1
FirstViewScale
  9
$CUSTOMPROPERTY
  1

  9
$CUSTOMPROPERTYTAG
  1
AllViewScales
  9
$CUSTOMPROPERTY
  1

  9
$CUSTOMPROPERTYTAG
  1
SaveDate
  9
$CUSTOMPROPERTY
  1
09/12/2007
  9
$CUSTOMPROPERTYTAG
  1
SaveTime
  9
$CUSTOMPROPERTY
  1
10:32
  9
$CUSTOMPROPERTYTAG
  1
PaperSize
  9
$CUSTOMPROPERTY
  1
A3
  9
$CUSTOMPROPERTYTAG
  1
DateSaved
  9
$CUSTOMPROPERTY
  1
12.09.2007
  9
$CUSTOMPROPERTYTAG
  1
TimeSaved
  9
$CUSTOMPROPERTY
  1
10:32 dop.
  9
$INSBASE
 10
0.0
 20
0.0
 30
0.0
  9
$EXTMIN
 10
120.9644194107554
 20
78.48083700807865
 30
-0.0000000000112498
  9
$EXTMAX
 10
542.155519592291
 20
706.9171160586611
 30
0.0000000000002956
  9
$LIMMIN
 10
0.0
 20
0.0
  9
$LIMMAX
 10
1188.0
 20
840.0
  9
$ORTHOMODE
 70
     1
  9
$REGENMODE
 70
     1
  9
$FILLMODE
 70
     1
  9
$QTEXTMODE
 70
     0
  9
$MIRRTEXT
 70
     0
  9
$LTSCALE
 40
2.0
  9
$ATTMODE
 70
     1
  9
$TEXTSIZE
 40
0.2
  9
$TRACEWID
 40
0.05
  9
$TEXTSTYLE
  7
Standard
  9
$CLAYER
  8
0
  9
$CELTYPE
  6
ByLayer
  9
$CECOLOR
 62
   256
  9
$CELTSCALE
 40
1.0
  9
$DISPSILH
 70
     0
  9
$DIMSCALE
 40
1.0
  9
$DIMASZ
 40
1.799999999999999
  9
$DIMEXO
 40
0.0625
  9
$DIMDLI
 40
0.38
  9
$DIMRND
 40
0.0
  9
$DIMDLE
 40
0.0
  9
$DIMEXE
 40
0.18
  9
$DIMTP
 40
0.0
  9
$DIMTM
 40
0.0
  9
$DIMTXT
 40
0.3499999940395355
  9
$DIMCEN
 40
0.09
  9
$DIMTSZ
 40
0.0
  9
$DIMTOL
 70
     0
  9
$DIMLIM
 70
     0
  9
$DIMTIH
 70
     1
  9
$DIMTOH
 70
     1
  9
$DIMSE1
 70
     0
  9
$DIMSE2
 70
     0
  9
$DIMTAD
 70
     0
  9
$DIMZIN
 70
     0
  9
$DIMBLK
  1

  9
$DIMASO
 70
     1
  9
$DIMSHO
 70
     1
  9
$DIMPOST
  1

  9
$DIMAPOST
  1

  9
$DIMALT
 70
     0
  9
$DIMALTD
 70
     2
  9
$DIMALTF
 40
25.4
  9
$DIMLFAC
 40
1.0
  9
$DIMTOFL
 70
     0
  9
$DIMTVP
 40
0.0
  9
$DIMTIX
 70
     0
  9
$DIMSOXD
 70
     0
  9
$DIMSAH
 70
     0
  9
$DIMBLK1
  1

  9
$DIMBLK2
  1

  9
$DIMSTYLE
  2
Standard
  9
$DIMCLRD
 70
     0
  9
$DIMCLRE
 70
     0
  9
$DIMCLRT
 70
     0
  9
$DIMTFAC
 40
1.0
  9
$DIMGAP
 40
0.09
  9
$DIMJUST
 70
     0
  9
$DIMSD1
 70
     0
  9
$DIMSD2
 70
     0
  9
$DIMTOLJ
 70
     1
  9
$DIMTZIN
 70
     0
  9
$DIMALTZ
 70
     0
  9
$DIMALTTZ
 70
     0
  9
$DIMUPT
 70
     0
  9
$DIMDEC
 70
     4
  9
$DIMTDEC
 70
     4
  9
$DIMALTU
 70
     2
  9
$DIMALTTD
 70
     2
  9
$DIMTXSTY
  7
Standard
  9
$DIMAUNIT
 70
     0
  9
$DIMADEC
 70
     0
  9
$DIMALTRND
 40
0.0
  9
$DIMAZIN
 70
     0
  9
$DIMDSEP
 70
    46
  9
$DIMATFIT
 70
     3
  9
$DIMFRAC
 70
     0
  9
$DIMLDRBLK
  1

  9
$DIMLUNIT
 70
     2
  9
$DIMLWD
 70
    -2
  9
$DIMLWE
 70
    -2
  9
$DIMTMOVE
 70
     0
  9
$LUNITS
 70
     2
  9
$LUPREC
 70
     2
  9
$SKETCHINC
 40
0.1
  9
$FILLETRAD
 40
0.0
  9
$AUNITS
 70
     0
  9
$AUPREC
 70
     0
  9
$MENU
  1
.
  9
$ELEVATION
 40
0.0
  9
$PELEVATION
 40
0.0
  9
$THICKNESS
 40
0.0
  9
$LIMCHECK
 70
     0
  9
$CHAMFERA
 40
0.0
  9
$CHAMFERB
 40
0.0
  9
$CHAMFERC
 40
0.0
  9
$CHAMFERD
 40
0.0
  9
$SKPOLY
 70
     0
  9
$TDCREATE
 40
2456105.546756586
  9
$TDUCREATE
 40
2456105.463423252
  9
$TDUPDATE
 40
2456113.346146215
  9
$TDUUPDATE
 40
2456113.262812882
  9
$TDINDWG
 40
0.0197690162
  9
$TDUSRTIMER
 40
0.0197686574
  9
$USRTIMER
 70
     1
  9
$ANGBASE
 50
0.0
  9
$ANGDIR
 70
     0
  9
$PDMODE
 70
     0
  9
$PDSIZE
 40
0.0
  9
$PLINEWID
 40
0.0
  9
$SPLFRAME
 70
     0
  9
$SPLINETYPE
 70
     6
  9
$SPLINESEGS
 70
     8
  9
$HANDSEED
  5
4DD4
  9
$SURFTAB1
 70
     6
  9
$SURFTAB2
 70
     6
  9
$SURFTYPE
 70
     6
  9
$SURFU
 70
     6
  9
$SURFV
 70
     6
  9
$UCSBASE
  2

  9
$UCSNAME
  2

  9
$UCSORG
 10
0.0
 20
0.0
 30
0.0
  9
$UCSXDIR
 10
1.0
 20
0.0
 30
0.0
  9
$UCSYDIR
 10
0.0
 20
1.0
 30
0.0
  9
$UCSORTHOREF
  2

  9
$UCSORTHOVIEW
 70
     0
  9
$UCSORGTOP
 10
0.0
 20
0.0
 30
0.0
  9
$UCSORGBOTTOM
 10
0.0
 20
0.0
 30
0.0
  9
$UCSORGLEFT
 10
0.0
 20
0.0
 30
0.0
  9
$UCSORGRIGHT
 10
0.0
 20
0.0
 30
0.0
  9
$UCSORGFRONT
 10
0.0
 20
0.0
 30
0.0
  9
$UCSORGBACK
 10
0.0
 20
0.0
 30
0.0
  9
$PUCSBASE
  2

  9
$PUCSNAME
  2

  9
$PUCSORG
 10
0.0
 20
0.0
 30
0.0
  9
$PUCSXDIR
 10
1.0
 20
0.0
 30
0.0
  9
$PUCSYDIR
 10
0.0
 20
1.0
 30
0.0
  9
$PUCSORTHOREF
  2

  9
$PUCSORTHOVIEW
 70
     0
  9
$PUCSORGTOP
 10
0.0
 20
0.0
 30
0.0
  9
$PUCSORGBOTTOM
 10
0.0
 20
0.0
 30
0.0
  9
$PUCSORGLEFT
 10
0.0
 20
0.0
 30
0.0
  9
$PUCSORGRIGHT
 10
0.0
 20
0.0
 30
0.0
  9
$PUCSORGFRONT
 10
0.0
 20
0.0
 30
0.0
  9
$PUCSORGBACK
 10
0.0
 20
0.0
 30
0.0
  9
$USERI1
 70
     0
  9
$USERI2
 70
     0
  9
$USERI3
 70
     0
  9
$USERI4
 70
     0
  9
$USERI5
 70
     0
  9
$USERR1
 40
0.0
  9
$USERR2
 40
0.0
  9
$USERR3
 40
0.0
  9
$USERR4
 40
0.0
  9
$USERR5
 40
0.0
  9
$WORLDVIEW
 70
     1
  9
$SHADEDGE
 70
     3
  9
$SHADEDIF
 70
    70
  9
$TILEMODE
 70
     1
  9
$MAXACTVP
 70
    64
  9
$PINSBASE
 10
0.0
 20
0.0
 30
0.0
  9
$PLIMCHECK
 70
     0
  9
$PEXTMIN
 10
0.0
 20
0.0
 30
0.0
  9
$PEXTMAX
 10
1188.0
 20
840.0
 30
0.0
  9
$PLIMMIN
 10
0.0
 20
0.0
  9
$PLIMMAX
 10
1188.0
 20
840.0
  9
$UNITMODE
 70
     0
  9
$VISRETAIN
 70
     1
  9
$PLINEGEN
 70
     0
  9
$PSLTSCALE
 70
     1
  9
$TREEDEPTH
 70
  3020
  9
$CMLSTYLE
  2
Standard
  9
$CMLJUST
 70
     0
  9
$CMLSCALE
 40
1.0
  9
$PROXYGRAPHICS
 70
     1
  9
$MEASUREMENT
 70
     1
  9
$CELWEIGHT
370
    -1
  9
$ENDCAPS
280
     0
  9
$JOINSTYLE
280
     0
  9
$LWDISPLAY
290
     0
  9
$INSUNITS
 70
     4
  9
$HYPERLINKBASE
  1

  9
$STYLESHEET
  1

  9
$XEDIT
290
     1
  9
$CEPSNTYPE
380
     0
  9
$PSTYLEMODE
290
     1
  9
$FINGERPRINTGUID
  2
{C5949BC2-C9A5-4E88-BBD9-C17E5AB6EF69}
  9
$VERSIONGUID
  2
{C1827970-AC6C-4D8F-AF93-B219A2BE868F}
  9
$EXTNAMES
290
     1
  9
$PSVPSCALE
 40
0.0
  9
$OLESTARTUP
290
     0
  9
$SORTENTS
280
   127
  9
$INDEXCTL
280
     0
  9
$HIDETEXT
280
     1
  9
$XCLIPFRAME
290
     0
  9
$HALOGAP
280
     0
  9
$OBSCOLOR
 70
   257
  9
$OBSLTYPE
280
     0
  9
$INTERSECTIONDISPLAY
280
     0
  9
$INTERSECTIONCOLOR
 70
   257
  9
$DIMASSOC
280
     1
  9
$PROJECTNAME
  1

  0
ENDSEC
  0
SECTION
  2
CLASSES
  0
CLASS
  1
ACDBDICTIONARYWDFLT
  2
AcDbDictionaryWithDefault
  3
ObjectDBX Classes
 90
        0
 91
        1
280
     0
281
     0
  0
CLASS
  1
MATERIAL
  2
AcDbMaterial
  3
ObjectDBX Classes
 90
     1153
 91
        3
280
     0
281
     0
  0
CLASS
  1
VISUALSTYLE
  2
AcDbVisualStyle
  3
ObjectDBX Classes
 90
     4095
 91
       26
280
     0
281
     0
  0
CLASS
  1
SCALE
  2
AcDbScale
  3
ObjectDBX Classes
 90
     1153
 91
       17
280
     0
281
     0
  0
CLASS
  1
TABLESTYLE
  2
AcDbTableStyle
  3
ObjectDBX Classes
 90
     4095
 91
        1
280
     0
281
     0
  0
CLASS
  1
MLEADERSTYLE
  2
AcDbMLeaderStyle
  3
ACDB_MLEADERSTYLE_CLASS
 90
     4095
 91
        1
280
     0
281
     0
  0
CLASS
  1
DICTIONARYVAR
  2
AcDbDictionaryVar
  3
ObjectDBX Classes
 90
        0
 91
       10
280
     0
281
     0
  0
CLASS
  1
ACME_DOCUMENT
  2
AcMeDbDoc
  3
AcMeServices
 90
     1024
 91
        1
280
     0
281
     0
  0
CLASS
  1
AMGSETTINGSOBJ
  2
AmgSettingsObj
  3
"AcadM|Product Description: AutoCAD Mechanical|Company: Autodesk, Inc."
 90
     1024
 91
        2
280
     0
281
     0
  0
CLASS
  1
ACMESCOPE
  2
AcMeScope
  3
AcMeServices
 90
     1024
 91
        1
280
     0
281
     0
  0
CLASS
  1
ACMECOMMANDHISTORY
  2
AcMeCommandHistory
  3
AcMeServices
 90
     1024
 91
        1
280
     0
281
     0
  0
CLASS
  1
ACIMSYSVARMAN
  2
AcImSysVarManager
  3
AcMeServices
 90
     1024
 91
        5
280
     0
281
     0
  0
CLASS
  1
ACIMINTSYSVAR
  2
AcImIntSysVar
  3
AcMeServices
 90
     1024
 91
       27
280
     0
281
     0
  0
CLASS
  1
ACMEDRAWINGMAN
  2
AcMeDrawingMan
  3
AcMeServices
 90
     1024
 91
        1
280
     0
281
     0
  0
CLASS
  1
ACMEVIEW
  2
AcMeView
  3
AcMeServices
 90
     1024
 91
        1
280
     0
281
     0
  0
CLASS
  1
ACDBENTITYCACHE
  2
AcMeEntityCache
  3
AcMeServices
 90
     1024
 91
        1
280
     0
281
     0
  0
CLASS
  1
ACMESTATEMGR
  2
AcMeStateMgr
  3
AcMeServices
 90
     1024
 91
        1
280
     0
281
     0
  0
CLASS
  1
ACGREFMASTER
  2
AcGrefMaster
  3
AcAttribServices
 90
     1024
 91
        1
280
     0
281
     0
  0
CLASS
  1
AM_DRAWING_MGR
  2
AcDmDwgMgr
  3
AcMechDwgViewMgmt
 90
     1024
 91
        1
280
     0
281
     0
  0
CLASS
  1
AM_DWG_DOCUMENT
  2
AcDmDwgDocument
  3
AcMechDwgViewMgmt
 90
     1024
 91
        1
280
     0
281
     0
  0
CLASS
  1
AM_DWG_SHEET
  2
AcDmSheet
  3
AcMechDwgViewMgmt
 90
     1024
 91
        2
280
     0
281
     0
  0
CLASS
  1
AM_VIEWDIMPARMAP
  2
AcDmViewDimParMap
  3
AcMechDwgViewMgmt
 90
     1024
 91
        2
280
     0
281
     0
  0
CLASS
  1
AMDTINTERNALREACTOR
  2
AmdtInternalReactor
  3
AcMeServices
 90
     1024
 91
        1
280
     0
281
     0
  0
CLASS
  1
ACIMREALSYSVAR
  2
AcImRealSysVar
  3
AcMeServices
 90
     1024
 91
        1
280
     0
281
     0
  0
CLASS
  1
AM_DWGMGR_NAME
  2
AcDmDwgMgrName
  3
AcMechDwgViewMgmt
 90
     1024
 91
        1
280
     0
281
     0
  0
CLASS
  1
ACME_DATABASE
  2
AcMeDbDatabase
  3
AcMeServices
 90
     1024
 91
        1
280
     0
281
     0
  0
CLASS
  1
ACRFINSADJUSTERMGR
  2
AcRfInsAdjusterMgr
  3
AcMeServices
 90
     1024
 91
        1
280
     0
281
     0
  0
CLASS
  1
ACGREFACADMASTER
  2
AcGrefacadMaster
  3
AcGrefServices
 90
     1024
 91
        1
280
     0
281
     0
  0
CLASS
  1
AMDTMENUSTATEMGR
  2
AmdtMenuStateMgr
  3
McadcomServices
 90
     1024
 91
        1
280
     0
281
     0
  0
CLASS
  1
AMDTMCOMMENUSTATE
  2
AmdtMcomMenuState
  3
McadcomServices
 90
     1024
 91
        1
280
     0
281
     0
  0
CLASS
  1
AMIMASTER
  2
AmiMaster
  3
AmiServices
 90
     1024
 91
        1
280
     0
281
     0
  0
CLASS
  1
MAPIAMMOUDLE
  2
MApiAmModule
  3
MApiAmServices
 90
     1024
 91
        1
280
     0
281
     0
  0
CLASS
  1
ACIMSTRSYSVAR
  2
AcImStrSysVar
  3
AcMeServices
 90
     1024
 91
        5
280
     0
281
     0
  0
CLASS
  1
AMDTADMENUSTATE
  2
AmdtAdMenuState
  3
DesignerServices
 90
     1024
 91
        1
280
     0
281
     0
  0
CLASS
  1
ADAPPL
  2
AcAdAppl
  3
DesignerServices
 90
     1024
 91
        1
280
     0
281
     0
  0
CLASS
  1
DEPMGR
  2
AcAdDepMgr
  3
DesignerServices
 90
     1024
 91
        1
280
     0
281
     0
  0
CLASS
  1
PARAMMGR
  2
AcAdParamMgr
  3
DesignerServices
 90
     1024
 91
        1
280
     0
281
     0
  0
CLASS
  1
PARAMSCOPE
  2
AcAdParamScope
  3
DesignerServices
 90
     1024
 91
        1
280
     0
281
     0
  0
CLASS
  1
NAMEDAPPL
  2
AcAdNamedAppl
  3
DesignerServices
 90
     1024
 91
        1
280
     0
281
     0
  0
CLASS
  1
AMDTDMMENUSTATE
  2
AmdtDmMenuState
  3
AcMechDwgViewMgmt
 90
     1024
 91
        1
280
     0
281
     0
  0
CLASS
  1
AMDTAMMENUSTATE
  2
AmdtAmMenuState
  3
DesignerAssemblies
 90
     1024
 91
        1
280
     0
281
     0
  0
CLASS
  1
ACAMPROJECT
  2
AcAmProject
  3
DesignerAssemblies
 90
     1024
 91
        1
280
     0
281
     0
  0
CLASS
  1
ACAMGRCOMPDEF
  2
AcAmGrCompDef
  3
DesignerAssemblies
 90
     1024
 91
        1
280
     0
281
     0
  0
CLASS
  1
ACAMCOMPDEF
  2
AcAmCompDef
  3
DesignerAssemblies
 90
     1024
 91
        1
280
     0
281
     0
  0
CLASS
  1
ACAMCOMPDEFMGR
  2
AcAmCompDefMgr
  3
DesignerAssemblies
 90
     1024
 91
        1
280
     0
281
     0
  0
CLASS
  1
AMCONTEXTMGR
  2
AcAmContextMgr
  3
DesignerAssemblies
 90
     1024
 91
        1
280
     0
281
     0
  0
CLASS
  1
ACAMCONTEXTMODELER
  2
AcAmContextModeler
  3
DesignerAssemblies
 90
     1024
 91
        1
280
     0
281
     0
  0
CLASS
  1
ACMDATADICTIONARY
  2
AcmDataDictionary
  3
"AcmSymBB|Product Description: AutoCAD Mechanical|Company: Autodesk, Inc."
 90
     1024
 91
        1
280
     0
281
     0
  0
CLASS
  1
CATALOGSTATE
  2
AcAmCatalogState
  3
DesignerAssemblies
 90
     1024
 91
        1
280
     0
281
     0
  0
CLASS
  1
ACAMGRCOMPDEFSET
  2
AcAmGrCompDefSet
  3
DesignerAssemblies
 90
     1024
 91
        1
280
     0
281
     0
  0
CLASS
  1
AMDTBROWSERDBTAB
  2
AmdtBrowserDbTab
  3
McadcomServices
 90
     1024
 91
        1
280
     0
281
     0
  0
CLASS
  1
CBROWSERAPPOBJECT
  2
CBrowserAppObject
  3
McadcomServices
 90
     1024
 91
        2
280
     0
281
     0
  0
CLASS
  1
DM_PLACEHOLDER
  2
AcDmSelsetPlaceholder
  3
AcMechDwgViewMgmt
 90
     1024
 91
        1
280
     0
281
     0
  0
CLASS
  1
ACMSTANDARDISO
  2
AcmStandardISO
  3
"Amdt_StdImp|Product Description: AutoCAD Mechanical|Company: Autodesk, Inc."
 90
     1024
 91
        1
280
     0
281
     0
  0
CLASS
  1
AMDTEDGESTANDARDISO13715
  2
AmdtEdgeStdISO13715
  3
"Amdt_StdImp|Product Description: AutoCAD Mechanical|Company: Autodesk, Inc."
 90
     1024
 91
        1
280
     0
281
     0
  0
CLASS
  1
ACMSURFSTANDARDISO2002
  2
AcmSurfTextStdISO2002
  3
"Amdt_StdImp|Product Description: AutoCAD Mechanical|Company: Autodesk, Inc."
 90
     1024
 91
        1
280
     0
281
     0
  0
CLASS
  1
ACMFCFSTANDARDISO
  2
AcmFCFStdISO
  3
"Amdt_StdImp|Product Description: AutoCAD Mechanical|Company: Autodesk, Inc."
 90
     1024
 91
        1
280
     0
281
     0
  0
CLASS
  1
ACMWELDSTANDARDISO
  2
AcmWeldingStdISO
  3
"Amdt_StdImp|Product Description: AutoCAD Mechanical|Company: Autodesk, Inc."
 90
     1024
 91
        1
280
     0
281
     0
  0
CLASS
  1
ACMIDSTANDARDISO
  2
AcmIdStdISO
  3
"Amdt_StdImp|Product Description: AutoCAD Mechanical|Company: Autodesk, Inc."
 90
     1024
 91
        1
280
     0
281
     0
  0
CLASS
  1
ACMDATUMSTANDARDISO
  2
AcmDatumStdISO
  3
"Amdt_StdImp|Product Description: AutoCAD Mechanical|Company: Autodesk, Inc."
 90
     1024
 91
        1
280
     0
281
     0
  0
CLASS
  1
ACMBOMSTANDARDISO
  2
AcmBOMStdISO
  3
"Amdt_StdImp|Product Description: AutoCAD Mechanical|Company: Autodesk, Inc."
 90
     1024
 91
        1
280
     0
281
     0
  0
CLASS
  1
ACMDETAILSTANDARDISO
  2
AmdtDetailSymStdISO
  3
"Amdt_StdImp|Product Description: AutoCAD Mechanical|Company: Autodesk, Inc."
 90
     1024
 91
        1
280
     0
281
     0
  0
CLASS
  1
ACMSECTIONSTANDARDISO2001
  2
AmdtSectionSymStdISO2001
  3
"Amdt_StdImp|Product Description: AutoCAD Mechanical|Company: Autodesk, Inc."
 90
     1024
 91
        1
280
     0
281
     0
  0
CLASS
  1
ACMCENTERLINESTANDARDISO
  2
AmdtCenterLineStdISO
  3
"Amdt_StdImp|Product Description: AutoCAD Mechanical|Company: Autodesk, Inc."
 90
     1024
 91
        1
280
     0
281
     0
  0
CLASS
  1
ACMTHREADLINESTANDARDISO
  2
AmdtThreadLineStdISO
  3
"Amdt_StdImp|Product Description: AutoCAD Mechanical|Company: Autodesk, Inc."
 90
     1024
 91
        1
280
     0
281
     0
  0
CLASS
  1
ACMNOTESTANDARDISO
  2
AmdtNoteStdISO
  3
"Amdt_StdImp|Product Description: AutoCAD Mechanical|Company: Autodesk, Inc."
 90
     1024
 91
        1
280
     0
281
     0
  0
CLASS
  1
ACMTAPERSTANDARDISO
  2
AcmTaperStdISO
  3
"Amdt_StdImp|Product Description: AutoCAD Mechanical|Company: Autodesk, Inc."
 90
     1024
 91
        1
280
     0
281
     0
  0
CLASS
  1
ACMANOOTATIONVIEWSTANDARDISO
  2
AmdtAnViewStdISO
  3
"Amdt_StdImp|Product Description: AutoCAD Mechanical|Company: Autodesk, Inc."
 90
     1024
 91
        1
280
     0
281
     0
  0
CLASS
  1
ACAMGLAYSTD
  2
AcAmgLayStd
  3
"AmgLay|Product Description: AutoCAD Mechanical|Company: Autodesk, Inc."
 90
     1024
 91
        1
280
     0
281
     0
  0
CLASS
  1
ACAMGDIMSTD
  2
AcAmgDimStd
  3
"AmgDim|Product Description: AutoCAD Mechanical|Company: Autodesk, Inc."
 90
     1024
 91
        1
280
     0
281
     0
  0
CLASS
  1
AMGOBJPROPCFG
  2
AmgObjPropCfg
  3
"AmgLay|Product Description: AutoCAD Mechanical|Company: Autodesk, Inc."
 90
     1025
 91
        1
280
     0
281
     0
  0
CLASS
  1
ACAMGHOLECHARTSTDISO
  2
AcAmgHoleChartStdISO
  3
AmgDim|Product Description: AutoCAD Mechanical|Company: Autodesk, Inc.
 90
     1024
 91
        1
280
     0
281
     0
  0
CLASS
  1
ACAMGTITLESTD
  2
AcAmgTitleStd
  3
"AmgTitle|Product Description: AutoCAD Mechanical|Company: Autodesk, Inc."
 90
     4095
 91
        1
280
     0
281
     0
  0
CLASS
  1
AMDTNOTETEMPLATEDB
  2
AmdtNoteTemplateDB
  3
AcmSymBB|Product Description: AutoCAD Mechanical|Company: Autodesk, Inc.
 90
     1024
 91
        6
280
     0
281
     0
  0
CLASS
  1
ACAMGFILTERDAT
  2
AcAmgFilterDat
  3
"AcadM|Product Description: AutoCAD Mechanical|Company: Autodesk, Inc."
 90
     1024
 91
        0
280
     0
281
     0
  0
CLASS
  1
AEC_REFEDIT_STATUS_TRACKER
  2
AecDbRefEditStatusTracker
  3
AecArchBase60|Product Desc: Autodesk Architectural Desktop 2007 |Company: Autodesk,Inc. |WEB Address: www.autodesk.com
 90
      129
 91
        0
280
     0
281
     0
  0
CLASS
  1
NPOCOLLECTION
  2
AcDbImpNonPersistentObjectsCollection
  3
ObjectDBX Classes
 90
     1153
 91
        0
280
     0
281
     0
  0
CLASS
  1
CAMSSTRUCTBTNSTATE
  2
StructBtnState
  3
DesignerAssemblies
 90
     1024
 91
        0
280
     0
281
     0
  0
CLASS
  1
CELLSTYLEMAP
  2
AcDbCellStyleMap
  3
ObjectDBX Classes
 90
     1152
 91
        2
280
     0
281
     0
  0
ENDSEC
  0
SECTION
  2
TABLES
  0
TABLE
  2
VPORT
  5
8
330
0
100
AcDbSymbolTable
 70
     1
  0
VPORT
  5
57
330
8
100
AcDbSymbolTableRecord
100
AcDbViewportTableRecord
  2
*Active
 70
     0
 10
0.0
 20
0.0
 11
1.0
 21
1.0
 12
331.5599695015233
 22
392.6989765333699
 13
0.0
 23
0.0
 14
1.0
 24
1.0
 15
0.0
 25
0.0
 16
0.0
 26
0.0
 36
1.0
 17
0.0
 27
0.0
 37
0.0
 40
632.4690252263081
 41
1.576017130620984
 42
50.0
 43
0.0
 44
0.0
 50
0.0
 51
0.0
 71
     0
 72
   100
 73
     1
 74
     1
 75
     0
 76
     0
 77
     0
 78
     0
281
     0
 65
     0
110
0.0
120
0.0
130
0.0
111
1.0
121
0.0
131
0.0
112
0.0
122
1.0
132
0.0
 79
     0
146
0.0
  0
ENDTAB
  0
TABLE
  2
LTYPE
  5
5
330
0
100
AcDbSymbolTable
 70
    15
  0
LTYPE
  5
5B
330
5
100
AcDbSymbolTableRecord
100
AcDbLinetypeTableRecord
  2
ByBlock
 70
     0
  3

 72
    65
 73
     0
 40
0.0
  0
LTYPE
  5
5C
330
5
100
AcDbSymbolTableRecord
100
AcDbLinetypeTableRecord
  2
ByLayer
 70
     0
  3

 72
    65
 73
     0
 40
0.0
  0
LTYPE
  5
5D
330
5
100
AcDbSymbolTableRecord
100
AcDbLinetypeTableRecord
  2
Continuous
 70
     0
  3
Solid line
 72
    65
 73
     0
 40
0.0
  0
LTYPE
  5
4799
330
5
100
AcDbSymbolTableRecord
100
AcDbLinetypeTableRecord
  2
HIDDEN
 70
     0
  3
Skrytá __ __ __ __ __ __ __ __ __ __ __ __ __ __
 72
    65
 73
     2
 40
9.525
 49
6.349999999999997
 74
     0
 49
-3.174999999999998
 74
     0
  0
LTYPE
  5
479A
330
5
100
AcDbSymbolTableRecord
100
AcDbLinetypeTableRecord
  2
PHANTOM2
 70
     0
  3
Sdružená (.5x) ___ _ _ ___ _ _ ___ _ _ ___ _ _
 72
    65
 73
     6
 40
31.75
 49
15.875
 74
     0
 49
-3.174999999999998
 74
     0
 49
3.174999999999998
 74
     0
 49
-3.174999999999998
 74
     0
 49
3.174999999999998
 74
     0
 49
-3.174999999999998
 74
     0
  0
LTYPE
  5
479B
330
5
100
AcDbSymbolTableRecord
100
AcDbLinetypeTableRecord
  2
CENTER
 70
     0
  3
Středová ____ _ ____ _ ____ _ ____ _ ____ _ ____
 72
    65
 73
     4
 40
50.8
 49
31.75
 74
     0
 49
-6.349999999999997
 74
     0
 49
6.349999999999997
 74
     0
 49
-6.349999999999997
 74
     0
  0
LTYPE
  5
47E1
330
5
100
AcDbSymbolTableRecord
100
AcDbLinetypeTableRecord
  2
AM_ISO02W050
 70
     0
  3
__ __ __ __ __ __ __ __ __ __ __ __ __ __ __
 72
    65
 73
     2
 40
7.5
 49
6.0
 74
     0
 49
-1.5
 74
     0
  0
LTYPE
  5
47E2
330
5
100
AcDbSymbolTableRecord
100
AcDbLinetypeTableRecord
  2
AM_ISO08W050
 70
     0
  3
____ . ____ . ____ . ____ . ____ . ____ . ____
 72
    65
 73
     4
 40
18.0
 49
12.0
 74
     0
 49
-1.5
 74
     0
 49
3.0
 74
     0
 49
-1.5
 74
     0
  0
LTYPE
  5
47E3
330
5
100
AcDbSymbolTableRecord
100
AcDbLinetypeTableRecord
  2
AM_ISO09W050
 70
     0
  3
_____ . . _____ . . _____ . . ____ .. ____
 72
    65
 73
     6
 40
22.5
 49
12.0
 74
     0
 49
-1.5
 74
     0
 49
3.0
 74
     0
 49
-1.5
 74
     0
 49
3.0
 74
     0
 49
-1.5
 74
     0
  0
LTYPE
  5
47E4
330
5
100
AcDbSymbolTableRecord
100
AcDbLinetypeTableRecord
  2
Amconstr
 70
     0
  3
_______________________
 72
    65
 73
     2
 40
9999.0
 49
9999.0
 74
     0
 49
0.0
 74
     0
  0
LTYPE
  5
47E5
330
5
100
AcDbSymbolTableRecord
100
AcDbLinetypeTableRecord
  2
AM_ISO08W050x2
 70
     0
  3
__ . __ . __ . __ . __ . __
 72
    65
 73
     4
 40
9.0
 49
6.0
 74
     0
 49
-0.75
 74
     0
 49
1.5
 74
     0
 49
-0.75
 74
     0
  0
LTYPE
  5
47E6
330
5
100
AcDbSymbolTableRecord
100
AcDbLinetypeTableRecord
  2
AM_ISO02W050x2
 70
     0
  3
 _ _ _ _ _ _ _ _ _ _ _ _
 72
    65
 73
     2
 40
3.75
 49
3.0
 74
     0
 49
-0.75
 74
     0
  0
LTYPE
  5
47E9
330
5
100
AcDbSymbolTableRecord
100
AcDbLinetypeTableRecord
  2
Amzigzag
 70
     0
  3
/\/-/\/-/\/-/\/-/\/-/\/
 72
    65
 73
     2
 40
11.0001
 49
0.0001
 74
     4
 75
   136
340
47E8
 46
0.04
 50
0.0
 44
0.0
 45
0.0
 49
-11.0
 74
     0
  0
LTYPE
  5
47F8
330
5
100
AcDbSymbolTableRecord
100
AcDbLinetypeTableRecord
  2
ACISOWELD
 70
     0
  3
_ _ _ _ _
 72
    65
 73
     2
 40
2.0
 49
2.0
 74
     0
 49
-1.0
 74
     0
  0
LTYPE
  5
47F9
330
5
100
AcDbSymbolTableRecord
100
AcDbLinetypeTableRecord
  2
ACISOTGB
 70
     0
  3
__ . . __ . .
 72
    65
 73
     6
 40
9.0
 49
4.0
 74
     0
 49
-1.0
 74
     0
 49
1.0
 74
     0
 49
-1.0
 74
     0
 49
1.0
 74
     0
 49
-1.0
 74
     0
  0
LTYPE
  5
47FA
330
5
100
AcDbSymbolTableRecord
100
AcDbLinetypeTableRecord
  2
ACISOTGL
 70
     0
  3
_ _ _ _ _
 72
    65
 73
     2
 40
3.0
 49
2.0
 74
     0
 49
-1.0
 74
     0
  0
LTYPE
  5
4851
330
5
100
AcDbSymbolTableRecord
100
AcDbLinetypeTableRecord
  2
GEN7
 70
     0
  3
____ . ____ . ____ . ____ . ____ . ____ . ____
 72
    65
 73
     4
 40
13.75
 49
10.0
 74
     0
 49
-1.25
 74
     0
 49
1.25
 74
     0
 49
-1.25
 74
     0
  0
ENDTAB
  0
TABLE
  2
LAYER
  5
2
102
{ACAD_XDICTIONARY
360
4859
102
}
330
0
100
AcDbSymbolTable
 70
    19
  0
LAYER
  5
54
330
2
100
AcDbSymbolTableRecord
100
AcDbLayerTableRecord
  2
0
 70
     0
 62
     7
  6
Continuous
370
    -3
390
F
  0
LAYER
  5
78
330
2
100
AcDbSymbolTableRecord
100
AcDbLayerTableRecord
  2
Geometrie náčrtu (ISO)
 70
     0
 62
     7
  6
Continuous
370
     9
390
F
  0
LAYER
  5
79
330
2
100
AcDbSymbolTableRecord
100
AcDbLayerTableRecord
  2
KOPF
 70
     0
 62
     8
420
  8421504
  6
Continuous
370
     9
390
F
  0
LAYER
  5
7A
330
2
100
AcDbSymbolTableRecord
100
AcDbLayerTableRecord
  2
Kóta (ISO)
 70
     0
 62
     5
420
      255
  6
Continuous
370
     9
390
F
  0
LAYER
  5
7B
330
2
100
AcDbSymbolTableRecord
100
AcDbLayerTableRecord
  2
Nadpis (ISO)
 70
     0
 62
     7
  6
Continuous
370
    18
390
F
  0
LAYER
  5
7C
330
2
100
AcDbSymbolTableRecord
100
AcDbLayerTableRecord
  2
Neviditelná tenká (ISO)
 70
     0
 62
   142
420
    32960
  6
Continuous
370
     9
390
F
  0
LAYER
  5
7D
330
2
100
AcDbSymbolTableRecord
100
AcDbLayerTableRecord
  2
Osa (ISO)
 70
     0
 62
     1
420
 16711680
  6
Continuous
370
     9
390
F
  0
LAYER
  5
85
330
2
100
AcDbSymbolTableRecord
100
AcDbLayerTableRecord
  2
Rámeček (ISO)
 70
     0
 62
     7
  6
Continuous
370
    35
390
F
  0
LAYER
  5
88
330
2
100
AcDbSymbolTableRecord
100
AcDbLayerTableRecord
  2
Skrytá (ISO)
 70
     0
 62
   142
420
    32960
  6
Continuous
370
     9
390
F
  0
LAYER
  5
89
330
2
100
AcDbSymbolTableRecord
100
AcDbLayerTableRecord
  2
Středová značka (ISO)
 70
     0
 62
     1
420
 16711680
  6
Continuous
370
     9
390
F
  0
LAYER
  5
8B
330
2
100
AcDbSymbolTableRecord
100
AcDbLayerTableRecord
  2
TEXT35
 70
     0
 62
    12
420
 13369344
  6
Continuous
370
    20
390
F
  0
LAYER
  5
8C
330
2
100
AcDbSymbolTableRecord
100
AcDbLayerTableRecord
  2
TEXT50
 70
     0
 62
     7
  6
Continuous
370
    20
390
F
  0
LAYER
  5
8D
330
2
100
AcDbSymbolTableRecord
100
AcDbLayerTableRecord
  2
Viditelná (ISO)
 70
     0
 62
     7
  6
Continuous
370
    35
390
F
  0
LAYER
  5
8E
330
2
100
AcDbSymbolTableRecord
100
AcDbLayerTableRecord
  2
Viditelná tenká (ISO)
 70
     0
 62
     7
  6
Continuous
370
     9
390
F
  0
LAYER
  5
8F
330
2
100
AcDbSymbolTableRecord
100
AcDbLayerTableRecord
  2
Značka (ISO)
 70
     0
 62
     5
420
      255
  6
Continuous
370
     9
390
F
  0
LAYER
  5
416F
330
2
100
AcDbSymbolTableRecord
100
AcDbLayerTableRecord
  2
Defpoints
 70
     0
 62
     7
  6
Continuous
290
     0
370
    -3
390
F
  0
LAYER
  5
4852
102
{ACAD_XDICTIONARY
360
4853
102
}
330
2
100
AcDbSymbolTableRecord
100
AcDbLayerTableRecord
  2
7
 70
     0
 62
     4
  6
GEN7
370
    -3
390
F
  0
LAYER
  5
4854
102
{ACAD_XDICTIONARY
360
4855
102
}
330
2
100
AcDbSymbolTableRecord
100
AcDbLayerTableRecord
  2
5
 70
     0
 62
     3
  6
Continuous
370
    -3
390
F
  0
LAYER
  5
4978
330
2
100
AcDbSymbolTableRecord
100
AcDbLayerTableRecord
  2
AM_5
 70
     0
 62
    92
  6
Continuous
370
    25
390
F
1001
AcAecLayerStandard
1000

1000

  0
ENDTAB
  0
TABLE
  2
STYLE
  5
3
330
0
100
AcDbSymbolTable
 70
    21
  0
STYLE
  5
55
330
3
100
AcDbSymbolTableRecord
100
AcDbTextStyleTableRecord
  2
Standard
 70
     0
 40
0.0
 41
1.0
 50
0.0
 71
     0
 42
0.2
  3
TAHOMA.TTF
  4

1001
ACAD
1000
Tahoma
1071
      256
  0
STYLE
  5
5A
330
3
100
AcDbSymbolTableRecord
100
AcDbTextStyleTableRecord
  2
Annotative
 70
     0
 40
0.0
 41
1.0
 50
0.0
 71
     0
 42
0.2
  3
txt
  4

1001
AcadAnnotative
1000
AnnotativeData
1002
{
1070
     1
1070
     1
1002
}
  0
STYLE
  5
90
330
3
100
AcDbSymbolTableRecord
100
AcDbTextStyleTableRecord
  2
ITALICC8_57
 70
     0
 40
0.0
 41
1.0
 50
0.0
 71
     0
 42
0.2
  3
TAHOMA.TTF
  4

1001
ACAD
1000
Tahoma
1071
      256
  0
STYLE
  5
91
330
3
100
AcDbSymbolTableRecord
100
AcDbTextStyleTableRecord
  2
kusovnik
 70
     0
 40
0.0
 41
1.0
 50
0.0
 71
     0
 42
0.2
  3
ARIAL.TTF
  4

1001
ACAD
1000
Arial
1071
      256
  0
STYLE
  5
92
330
3
100
AcDbSymbolTableRecord
100
AcDbTextStyleTableRecord
  2
ROMANS8_69
 70
     0
 40
0.0
 41
1.0
 50
0.0
 71
     0
 42
0.2
  3
TAHOMA.TTF
  4

1001
ACAD
1000
Tahoma
1071
      256
  0
STYLE
  5
93
330
3
100
AcDbSymbolTableRecord
100
AcDbTextStyleTableRecord
  2
Text popisu (ISO)
 70
     0
 40
0.0
 41
1.0
 50
0.0
 71
     0
 42
0.2
  3
TAHOMA.TTF
  4

1001
ACAD
1000
Tahoma
1071
      256
  0
STYLE
  5
94
330
3
100
AcDbSymbolTableRecord
100
AcDbTextStyleTableRecord
  2
Text poznámky (DIN)
 70
     0
 40
0.0
 41
1.0
 50
0.0
 71
     0
 42
0.2
  3
isocpeur.ttf
  4

1001
ACAD
1000
ISOCPEUR
1071
      256
  0
STYLE
  5
95
330
3
100
AcDbSymbolTableRecord
100
AcDbTextStyleTableRecord
  2
Text poznámky (ISO)
 70
     0
 40
0.0
 41
1.0
 50
0.0
 71
     0
 42
0.2
  3
TAHOMA.TTF
  4

1001
ACAD
1000
Tahoma
1071
      256
  0
STYLE
  5
96
330
3
100
AcDbSymbolTableRecord
100
AcDbTextStyleTableRecord
  2
TEXT20_41
 70
     0
 40
0.0
 41
1.0
 50
0.0
 71
     0
 42
0.2
  3
TAHOMA.TTF
  4

1001
ACAD
1000
Tahoma
1071
      256
  0
STYLE
  5
97
330
3
100
AcDbSymbolTableRecord
100
AcDbTextStyleTableRecord
  2
TEXT20_59
 70
     0
 40
0.0
 41
1.0
 50
0.0
 71
     0
 42
0.2
  3
TAHOMA.TTF
  4

1001
ACAD
1000
Tahoma
1071
      256
  0
STYLE
  5
1C2
330
3
100
AcDbSymbolTableRecord
100
AcDbTextStyleTableRecord
  2
Styl textu62
 70
     0
 40
0.0
 41
0.8000000119209289
 50
0.0
 71
     0
 42
0.2
  3
TAHOMA.TTF
  4

1001
ACAD
1000
Tahoma
1071
      256
  0
STYLE
  5
1C9
330
3
100
AcDbSymbolTableRecord
100
AcDbTextStyleTableRecord
  2
Styl textu58
 70
     0
 40
0.0
 41
0.8000000119209289
 50
0.0
 71
     0
 42
0.2
  3
TAHOMA.TTF
  4

1001
ACAD
1000
Tahoma
1071
      256
  0
STYLE
  5
1CB
330
3
100
AcDbSymbolTableRecord
100
AcDbTextStyleTableRecord
  2
Styl textu63
 70
     0
 40
0.0
 41
0.75
 50
0.0
 71
     0
 42
0.2
  3
TAHOMA.TTF
  4

1001
ACAD
1000
Tahoma
1071
      256
  0
STYLE
  5
1CE
330
3
100
AcDbSymbolTableRecord
100
AcDbTextStyleTableRecord
  2
Styl textu72
 70
     0
 40
0.0
 41
0.6999999880790711
 50
0.0
 71
     0
 42
0.2
  3
TAHOMA.TTF
  4

1001
ACAD
1000
Tahoma
1071
      256
  0
STYLE
  5
1D1
330
3
100
AcDbSymbolTableRecord
100
AcDbTextStyleTableRecord
  2
Styl textu75
 70
     0
 40
0.0
 41
0.8000000119209289
 50
0.0
 71
     0
 42
0.2
  3
TAHOMA.TTF
  4

1001
ACAD
1000
Tahoma
1071
      256
  0
STYLE
  5
1E8
330
3
100
AcDbSymbolTableRecord
100
AcDbTextStyleTableRecord
  2
Styl textu9
 70
     0
 40
0.0
 41
1.0
 50
0.0
 71
     0
 42
0.2
  3
ARIAL.TTF
  4

1001
ACAD
1000
Arial
1071
      256
  0
STYLE
  5
1EC
330
3
100
AcDbSymbolTableRecord
100
AcDbTextStyleTableRecord
  2
Styl textu40
 70
     0
 40
0.0
 41
1.0
 50
0.0
 71
     0
 42
0.2
  3
ARIAL.TTF
  4

1001
ACAD
1000
Arial
1071
      256
  0
STYLE
  5
1F1
330
3
100
AcDbSymbolTableRecord
100
AcDbTextStyleTableRecord
  2
Styl textu94
 70
     0
 40
0.0
 41
1.0
 50
0.0
 71
     0
 42
0.2
  3
TAHOMA.TTF
  4

1001
ACAD
1000
Tahoma
1071
      256
  0
STYLE
  5
47E8
330
3
100
AcDbSymbolTableRecord
100
AcDbTextStyleTableRecord
  2

 70
     1
 40
0.0
 41
1.0
 50
0.0
 71
     0
 42
0.2
  3
genltshp.shx
  4

  0
STYLE
  5
47F6
330
3
100
AcDbSymbolTableRecord
100
AcDbTextStyleTableRecord
  2
ACISOTS
 70
     0
 40
1.0
 41
1.0
 50
0.0
 71
     0
 42
0.2
  3
isocp.shx
  4

  0
STYLE
  5
47F7
330
3
100
AcDbSymbolTableRecord
100
AcDbTextStyleTableRecord
  2
ACISOGDT
 70
     0
 40
0.0
 41
1.0
 50
0.0
 71
     0
 42
0.2
  3
amgdt.shx
  4

  0
ENDTAB
  0
TABLE
  2
VIEW
  5
6
330
0
100
AcDbSymbolTable
 70
     0
  0
ENDTAB
  0
TABLE
  2
UCS
  5
7
330
0
100
AcDbSymbolTable
 70
     0
  0
ENDTAB
  0
TABLE
  2
APPID
  5
9
330
0
100
AcDbSymbolTable
 70
    22
  0
APPID
  5
56
330
9
100
AcDbSymbolTableRecord
100
AcDbRegAppTableRecord
  2
ACAD
 70
     0
  0
APPID
  5
5E
330
9
100
AcDbSymbolTableRecord
100
AcDbRegAppTableRecord
  2
AcadAnnotative
 70
     0
  0
APPID
  5
1EB
330
9
100
AcDbSymbolTableRecord
100
AcDbRegAppTableRecord
  2
AcadAnnoPO
 70
     0
  0
APPID
  5
45BF
330
9
100
AcDbSymbolTableRecord
100
AcDbRegAppTableRecord
  2
ACAD_DSTYLE_DIMRADIAL_EXTENSION
 70
     0
  0
APPID
  5
476C
330
9
100
AcDbSymbolTableRecord
100
AcDbRegAppTableRecord
  2
MCAD_NO_VIS
 70
     0
  0
APPID
  5
476D
330
9
100
AcDbSymbolTableRecord
100
AcDbRegAppTableRecord
  2
ACAD_TEMP_GRAPHIC
 70
     0
  0
APPID
  5
479D
330
9
100
AcDbSymbolTableRecord
100
AcDbRegAppTableRecord
  2
AD_DRAW
 70
     0
  0
APPID
  5
47A0
330
9
100
AcDbSymbolTableRecord
100
AcDbRegAppTableRecord
  2
ACATTRIBSERVICES
 70
     0
  0
APPID
  5
47C0
330
9
100
AcDbSymbolTableRecord
100
AcDbRegAppTableRecord
  2
DESIGNERASSEMBLIES
 70
     0
  0
APPID
  5
47C6
330
9
100
AcDbSymbolTableRecord
100
AcDbRegAppTableRecord
  2
ACADM_DIM_EDIT
 70
     0
  0
APPID
  5
47C7
330
9
100
AcDbSymbolTableRecord
100
AcDbRegAppTableRecord
  2
AMDT_DM_ADJ
 70
     0
  0
APPID
  5
47DE
330
9
100
AcDbSymbolTableRecord
100
AcDbRegAppTableRecord
  2
ACAD_DSTYLE_DIMJAG
 70
     0
  0
APPID
  5
47DF
330
9
100
AcDbSymbolTableRecord
100
AcDbRegAppTableRecord
  2
ACAD_DSTYLE_DIMBREAK
 70
     0
  0
APPID
  5
4857
330
9
100
AcDbSymbolTableRecord
100
AcDbRegAppTableRecord
  2
ACAD_DSTYLE_DIMINSPECT
 70
     0
  0
APPID
  5
4858
330
9
100
AcDbSymbolTableRecord
100
AcDbRegAppTableRecord
  2
ACAD_DSTYLE_DIMTALN
 70
     0
  0
APPID
  5
4979
330
9
100
AcDbSymbolTableRecord
100
AcDbRegAppTableRecord
  2
AcAecLayerStandard
 70
     0
  0
APPID
  5
4B32
330
9
100
AcDbSymbolTableRecord
100
AcDbRegAppTableRecord
  2
GENIUS_GENDTOL_13
 70
     0
  0
APPID
  5
4B96
330
9
100
AcDbSymbolTableRecord
100
AcDbRegAppTableRecord
  2
ACAD_MLEADERVER
 70
     0
  0
APPID
  5
4BC3
330
9
100
AcDbSymbolTableRecord
100
AcDbRegAppTableRecord
  2
ACAD_DSTYLE_DIMARC_LENGTH_SYMBOL
 70
     0
  0
APPID
  5
4BC4
330
9
100
AcDbSymbolTableRecord
100
AcDbRegAppTableRecord
  2
ACAD_DSTYLE_DIM_LINETYPE
 70
     0
  0
APPID
  5
4BC5
330
9
100
AcDbSymbolTableRecord
100
AcDbRegAppTableRecord
  2
ACAD_DSTYLE_DIM_EXT1_LINETYPE
 70
     0
  0
APPID
  5
4BC6
330
9
100
AcDbSymbolTableRecord
100
AcDbRegAppTableRecord
  2
ACAD_DSTYLE_DIM_EXT2_LINETYPE
 70
     0
  0
ENDTAB
  0
TABLE
  2
DIMSTYLE
  5
A
330
0
100
AcDbSymbolTable
 70
    25
100
AcDbDimStyleTable
 71
     3
340
4856
340
58
340
B1
  0
DIMSTYLE
105
58
330
A
100
AcDbSymbolTableRecord
100
AcDbDimStyleTableRecord
  2
Standard
 70
     0
340
55
  0
DIMSTYLE
105
59
330
A
100
AcDbSymbolTableRecord
100
AcDbDimStyleTableRecord
  2
Annotative
 70
     0
340
55
1001
AcadAnnotative
1000
AnnotativeData
1002
{
1070
     1
1070
     1
1002
}
  0
DIMSTYLE
105
A7
330
A
100
AcDbSymbolTableRecord
100
AcDbDimStyleTableRecord
  2
Různé objekty (ISO)
 70
     0
 40
2.0
 41
2.5
 42
0.0
 43
5.999999999999999
 44
1.0
 45
0.00000001
 46
10.0
 73
     0
 74
     0
 77
     1
 78
     8
 79
     2
140
5.25
143
0.03937
146
0.6676571709769112
147
0.762
171
     3
172
     1
176
   256
177
   256
178
   256
179
     2
271
     2
272
     2
274
     3
278
    44
284
     8
340
93
341
98
371
    -1
372
    -1
  0
DIMSTYLE
105
A8
330
A
100
AcDbSymbolTableRecord
100
AcDbDimStyleTableRecord
  2
Různé objekty (ISO)$7
 70
     0
 40
2.0
 41
5.0
 42
0.0
 43
5.999999999999999
 44
1.0
 45
0.00000001
 46
10.0
 73
     0
 74
     0
 77
     1
 78
     8
 79
     2
140
5.25
143
0.03937
146
0.6676571709769112
147
0.762
171
     3
172
     1
176
   256
177
   256
178
   256
179
     2
271
     2
272
     2
274
     3
278
    44
284
     8
340
93
341
98
371
    25
372
    -1
  0
DIMSTYLE
105
A9
330
A
100
AcDbSymbolTableRecord
100
AcDbDimStyleTableRecord
  2
Výchozí - Metoda 1b (ISO)
 70
     0
 40
2.0
 41
2.5
 42
0.0
 43
5.999999999999999
 44
1.0
 45
0.00000001
 46
10.0
 73
     0
 77
     1
 78
     8
 79
     2
140
3.5
143
0.03937
147
0.762
171
     3
172
     1
176
   256
177
   256
178
   256
179
     2
271
     2
272
     2
274
     3
278
    44
284
     8
286
     8
340
95
371
    -1
372
    -1
  0
DIMSTYLE
105
AA
330
A
100
AcDbSymbolTableRecord
100
AcDbDimStyleTableRecord
  2
Výchozí - Metoda 1b (ISO)$7
 70
     0
 40
2.0
 41
2.5
 42
0.0
 43
5.999999999999999
 44
1.0
 45
0.00000001
 46
10.0
 73
     0
 77
     1
 78
     8
 79
     2
140
3.5
143
0.03937
147
0.762
171
     3
172
     1
176
   256
177
   256
178
   256
179
     2
271
     2
272
     2
274
     3
278
    44
284
     8
286
     8
340
95
371
    -1
372
    -1
  0
DIMSTYLE
105
AB
330
A
100
AcDbSymbolTableRecord
100
AcDbDimStyleTableRecord
  2
Výchozí - Metoda 2a (ISO)
 70
     0
 40
2.0
 41
2.5
 42
0.0
 43
5.999999999999999
 44
1.0
 45
0.00000001
 46
10.0
 77
     1
 78
     8
 79
     2
140
3.5
143
0.03937
147
0.762
171
     3
172
     1
176
   256
177
   256
178
   256
179
     2
271
     2
272
     2
274
     3
278
    44
284
     8
286
     8
340
95
371
    -1
372
    -1
  0
DIMSTYLE
105
AC
330
A
100
AcDbSymbolTableRecord
100
AcDbDimStyleTableRecord
  2
Výchozí - Metoda 2a (ISO)$7
 70
     0
 40
2.0
 41
2.5
 42
0.0
 43
5.999999999999999
 44
1.0
 45
0.00000001
 46
10.0
 77
     1
 78
     8
 79
     2
140
3.5
143
0.03937
147
0.762
171
     3
172
     1
176
   256
177
   256
178
   256
179
     2
271
     2
272
     2
274
     3
278
    44
284
     8
286
     8
340
95
371
    -1
372
    -1
  0
DIMSTYLE
105
AD
330
A
100
AcDbSymbolTableRecord
100
AcDbDimStyleTableRecord
  2
Výchozí - Metoda 2b (ISO)
 70
     0
 40
2.0
 41
2.5
 42
0.0
 43
5.999999999999999
 44
1.0
 45
0.00000001
 46
10.0
 77
     1
 78
     8
 79
     2
140
3.5
143
0.03937
147
0.762
171
     3
172
     1
176
   256
177
   256
178
   256
179
     2
271
     2
272
     2
274
     3
278
    44
284
     8
286
     8
340
95
371
    -1
372
    -1
  0
DIMSTYLE
105
AE
330
A
100
AcDbSymbolTableRecord
100
AcDbDimStyleTableRecord
  2
Výchozí - Metoda 2b (ISO)$7
 70
     0
 40
2.0
 41
2.5
 42
0.0
 43
5.999999999999999
 44
1.0
 45
0.00000001
 46
10.0
 77
     1
 78
     8
 79
     2
140
3.5
143
0.03937
147
0.762
171
     3
172
     1
176
   256
177
   256
178
   256
179
     2
271
     2
272
     2
274
     3
278
    44
284
     8
286
     8
340
95
371
    -1
372
    -1
  0
DIMSTYLE
105
AF
330
A
100
AcDbSymbolTableRecord
100
AcDbDimStyleTableRecord
  2
Výchozí - mm [palce] (ISO)
 70
     0
  4
 in
 40
2.0
 41
2.5
 42
0.0
 43
5.999999999999999
 44
3.174999999999998
 45
0.00000001
 46
10.0
 73
     0
 74
     0
 77
     1
 78
     8
 79
     2
140
3.5
143
0.03937
147
0.762
170
     1
171
     3
172
     1
176
   256
177
   256
178
   256
179
     3
271
     3
272
     2
274
     3
275
     1
278
    44
284
     8
285
     8
286
     8
340
95
371
    -1
372
    -1
  0
DIMSTYLE
105
B0
330
A
100
AcDbSymbolTableRecord
100
AcDbDimStyleTableRecord
  2
Výchozí - mm [palce] (ISO)$7
 70
     0
  4
 in
 40
2.0
 41
2.5
 42
0.0
 43
5.999999999999999
 44
3.174999999999998
 45
0.00000001
 46
10.0
 73
     0
 74
     0
 77
     1
 78
     8
 79
     2
140
3.5
143
0.03937
147
0.762
170
     1
171
     3
172
     1
176
   256
177
   256
178
   256
179
     3
271
     3
272
     2
274
     3
275
     1
278
    44
284
     8
285
     8
286
     8
340
95
371
    -1
372
    -1
  0
DIMSTYLE
105
B1
330
A
100
AcDbSymbolTableRecord
100
AcDbDimStyleTableRecord
  2
Výchozí (ISO)
 70
     0
 40
2.0
 41
2.5
 42
0.0
 43
5.999999999999999
 44
1.0
 45
0.00000001
 46
10.0
 73
     0
 74
     0
 77
     1
 78
     8
 79
     2
140
3.5
143
0.03937
146
1.001485756465366
147
0.762
171
     3
172
     1
176
   256
177
   256
178
   256
179
     2
271
     2
272
     2
274
     3
278
    44
284
     8
340
95
371
    -1
372
    -1
  0
DIMSTYLE
105
B2
330
A
100
AcDbSymbolTableRecord
100
AcDbDimStyleTableRecord
  2
Výchozí (ISO)$7
 70
     0
 40
2.0
 41
2.5
 42
0.0
 43
5.999999999999999
 44
1.0
 45
0.00000001
 46
10.0
 73
     0
 74
     0
 77
     1
 78
     8
 79
     2
140
3.5
143
0.03937
146
1.001485756465366
147
0.762
171
     3
172
     1
176
   256
177
   256
178
   256
179
     2
271
     2
272
     2
274
     3
278
    44
284
     8
340
95
371
    -1
372
    -1
  0
DIMSTYLE
105
B3
330
A
100
AcDbSymbolTableRecord
100
AcDbDimStyleTableRecord
  2
Alternativní (ISO)
 70
     0
 40
2.0
 41
2.5
340
55
342
B4
  0
DIMSTYLE
105
C5
330
A
100
AcDbSymbolTableRecord
100
AcDbDimStyleTableRecord
  2
Základny (ISO)
 70
     0
 40
2.0
 41
2.5
340
55
342
B4
  0
DIMSTYLE
105
47DD
102
{ACAD_REACTORS
330
4D25
102
}
330
A
100
AcDbSymbolTableRecord
100
AcDbDimStyleTableRecord
  2
AM_ISO
 70
     0
  4
"
 41
3.5
 42
1.0
 43
10.0
 44
1.0
 47
0.1
 48
0.1
 73
     0
 74
     0
 77
     1
 78
     8
 79
     2
140
3.5
141
0.0
143
0.0393701
146
0.71
147
1.5
172
     1
176
   256
177
   256
178
   140
271
     2
272
     3
274
     4
283
     0
284
     8
340
55
371
    -1
372
    -1
1001
ACAD_DSTYLE_DIMJAG
1070
   388
1040
1.5
1001
ACAD_DSTYLE_DIMBREAK
1070
   391
1040
3.75
1001
ACAD_DSTYLE_DIMARC_LENGTH_SYMBOL
1070
   379
1070
     1
1001
ACAD_DSTYLE_DIM_LINETYPE
1070
   380
1005
5B
1001
ACAD_DSTYLE_DIM_EXT1_LINETYPE
1070
   381
1005
5B
1001
ACAD_DSTYLE_DIM_EXT2_LINETYPE
1070
   382
1005
5B
  0
DIMSTYLE
105
47EA
330
A
100
AcDbSymbolTableRecord
100
AcDbDimStyleTableRecord
  2
AM_ISO$3
 70
     0
  4
"
 41
3.5
 42
1.0
 43
10.0
 44
1.0
 47
0.1
 48
0.1
 73
     0
 77
     1
 78
     8
 79
     2
140
3.5
141
0.0
143
0.0393701
146
0.71
147
1.5
176
   256
177
   256
178
   140
271
     2
272
     3
274
     4
283
     0
284
     8
288
     1
289
     0
340
55
371
    -1
372
    -1
1001
ACAD_DSTYLE_DIMBREAK
1070
   391
1040
3.75
1001
ACAD_DSTYLE_DIMJAG
1070
   388
1040
1.5
1001
ACAD_DSTYLE_DIMARC_LENGTH_SYMBOL
1070
   379
1070
     1
1001
ACAD_DSTYLE_DIM_LINETYPE
1070
   380
1005
5B
1001
ACAD_DSTYLE_DIM_EXT1_LINETYPE
1070
   381
1005
5B
1001
ACAD_DSTYLE_DIM_EXT2_LINETYPE
1070
   382
1005
5B
  0
DIMSTYLE
105
47EB
330
A
100
AcDbSymbolTableRecord
100
AcDbDimStyleTableRecord
  2
AM_ISO$4
 70
     0
  4
"
 41
3.5
 42
1.0
 43
10.0
 44
1.0
 47
0.1
 48
0.1
 73
     0
 77
     1
 78
     8
 79
     2
140
3.5
141
0.0
143
0.0393701
146
0.71
147
1.5
176
   256
177
   256
178
   140
271
     2
272
     3
274
     4
283
     0
284
     8
288
     1
289
     0
340
55
371
    -1
372
    -1
1001
ACAD_DSTYLE_DIMBREAK
1070
   391
1040
3.75
1001
ACAD_DSTYLE_DIMJAG
1070
   388
1040
1.5
1001
ACAD_DSTYLE_DIMARC_LENGTH_SYMBOL
1070
   379
1070
     1
1001
ACAD_DSTYLE_DIM_LINETYPE
1070
   380
1005
5B
1001
ACAD_DSTYLE_DIM_EXT1_LINETYPE
1070
   381
1005
5B
1001
ACAD_DSTYLE_DIM_EXT2_LINETYPE
1070
   382
1005
5B
  0
DIMSTYLE
105
47EC
330
A
100
AcDbSymbolTableRecord
100
AcDbDimStyleTableRecord
  2
AM_ISO$6
 70
     0
  4
"
 41
3.5
 42
1.0
 43
10.0
 44
1.0
 47
0.1
 48
0.1
 73
     0
 74
     0
 78
     8
 79
     2
140
3.5
141
0.0
143
0.0393701
146
0.71
147
1.5
172
     1
176
   256
177
   256
178
   140
271
     2
272
     3
274
     4
283
     0
284
     8
340
55
371
    -1
372
    -1
1001
ACAD_DSTYLE_DIMBREAK
1070
   391
1040
3.75
1001
ACAD_DSTYLE_DIMJAG
1070
   388
1040
1.5
1001
ACAD_DSTYLE_DIMARC_LENGTH_SYMBOL
1070
   379
1070
     1
1001
ACAD_DSTYLE_DIM_LINETYPE
1070
   380
1005
5B
1001
ACAD_DSTYLE_DIM_EXT1_LINETYPE
1070
   381
1005
5B
1001
ACAD_DSTYLE_DIM_EXT2_LINETYPE
1070
   382
1005
5B
  0
DIMSTYLE
105
47ED
330
A
100
AcDbSymbolTableRecord
100
AcDbDimStyleTableRecord
  2
AM_ISO$7
 70
     0
  4
"
 41
3.5
 42
1.0
 43
10.0
 44
1.0
 47
0.1
 48
0.1
 73
     0
 74
     0
 77
     1
 78
     8
 79
     2
140
3.5
141
0.0
143
0.0393701
146
0.71
147
1.5
172
     1
176
   256
177
   256
178
   140
271
     2
272
     3
274
     4
283
     0
284
     8
340
55
371
    -1
372
    -1
1001
ACAD_DSTYLE_DIMBREAK
1070
   391
1040
3.75
1001
ACAD_DSTYLE_DIMJAG
1070
   388
1040
1.5
1001
ACAD_DSTYLE_DIMARC_LENGTH_SYMBOL
1070
   379
1070
     1
1001
ACAD_DSTYLE_DIM_LINETYPE
1070
   380
1005
5B
1001
ACAD_DSTYLE_DIM_EXT1_LINETYPE
1070
   381
1005
5B
1001
ACAD_DSTYLE_DIM_EXT2_LINETYPE
1070
   382
1005
5B
  0
DIMSTYLE
105
47EE
330
A
100
AcDbSymbolTableRecord
100
AcDbDimStyleTableRecord
  2
AM_ISO$SF
 70
     0
  4
"
 41
3.5
 42
1.0
 43
10.0
 44
1.0
 47
0.1
 48
0.1
 73
     0
 74
     0
 75
     1
 76
     1
 77
     1
 78
     8
 79
     2
140
3.5
141
0.0
143
0.0393701
146
0.71
147
1.5
172
     1
176
   256
177
   256
178
   140
271
     2
272
     3
274
     4
283
     0
284
     8
340
55
371
    -1
372
    -1
1001
ACAD_DSTYLE_DIMBREAK
1070
   391
1040
3.75
1001
ACAD_DSTYLE_DIMJAG
1070
   388
1040
1.5
1001
ACAD_DSTYLE_DIMARC_LENGTH_SYMBOL
1070
   379
1070
     1
1001
ACAD_DSTYLE_DIM_LINETYPE
1070
   380
1005
5B
1001
ACAD_DSTYLE_DIM_EXT1_LINETYPE
1070
   381
1005
5B
1001
ACAD_DSTYLE_DIM_EXT2_LINETYPE
1070
   382
1005
5B
  0
DIMSTYLE
105
47F3
330
A
100
AcDbSymbolTableRecord
100
AcDbDimStyleTableRecord
  2
AM_ISO$SH
 70
     0
  4
"
 41
3.5
 42
1.0
 43
10.0
 44
1.0
 47
0.1
 48
0.1
 73
     0
 74
     0
 75
     1
 76
     1
 77
     1
 78
     8
 79
     2
140
3.5
141
0.0
143
0.0393701
144
2.0
146
0.71
147
1.5
172
     1
173
     1
176
   256
177
   256
178
   140
271
     2
272
     3
274
     4
283
     0
284
     8
340
55
343
47EF
371
    -1
372
    -1
1001
ACAD_DSTYLE_DIMBREAK
1070
   391
1040
3.75
1001
ACAD_DSTYLE_DIMJAG
1070
   388
1040
1.5
1001
ACAD_DSTYLE_DIMARC_LENGTH_SYMBOL
1070
   379
1070
     1
1001
ACAD_DSTYLE_DIM_LINETYPE
1070
   380
1005
5B
1001
ACAD_DSTYLE_DIM_EXT1_LINETYPE
1070
   381
1005
5B
1001
ACAD_DSTYLE_DIM_EXT2_LINETYPE
1070
   382
1005
5B
  0
DIMSTYLE
105
4856
102
{ACAD_REACTORS
330
4A3A
330
49CA
330
497C
330
4A18
330
49EC
330
49A8
102
}
330
A
100
AcDbSymbolTableRecord
100
AcDbDimStyleTableRecord
  2
GEN-ISO
 70
     0
  3
<>
  4
"
 40
2.0
 41
2.5
 42
1.0
 43
7.0
 44
1.0
 47
0.1
 48
0.1
 73
     0
 74
     0
 77
     1
 78
     8
140
7.0
141
0.0
143
0.0393701
146
0.71
147
0.6
172
     1
176
   256
177
   256
178
     7
271
     2
272
     2
283
     0
340
55
1001
ACAD_DSTYLE_DIMJAG
1070
   388
1040
1.5
1001
ACAD_DSTYLE_DIMTALN
1070
   392
1070
     0
  0
DIMSTYLE
105
497A
330
A
100
AcDbSymbolTableRecord
100
AcDbDimStyleTableRecord
  2
Standard$0
 70
     0
340
55
1001
ACAD_DSTYLE_DIMBREAK
1070
   391
1040
3.75
1001
ACAD_DSTYLE_DIMJAG
1070
   388
1040
1.5
  0
ENDTAB
  0
TABLE
  2
BLOCK_RECORD
  5
1
330
0
100
AcDbSymbolTable
 70
    49
  0
BLOCK_RECORD
  5
6C
330
1
100
AcDbSymbolTableRecord
100
AcDbBlockTableRecord
  2
*Model_Space
340
6F
  0
BLOCK_RECORD
  5
68
330
1
100
AcDbSymbolTableRecord
100
AcDbBlockTableRecord
  2
*Paper_Space
340
6B
  0
BLOCK_RECORD
  5
70
330
1
100
AcDbSymbolTableRecord
100
AcDbBlockTableRecord
  2
*Paper_Space0
340
73
  0
BLOCK_RECORD
  5
98
330
1
100
AcDbSymbolTableRecord
100
AcDbBlockTableRecord
  2
Filled-1
340
0
  0
BLOCK_RECORD
  5
B4
330
1
100
AcDbSymbolTableRecord
100
AcDbBlockTableRecord
  2
_Closed
340
0
  0
BLOCK_RECORD
  5
BB
330
1
100
AcDbSymbolTableRecord
100
AcDbBlockTableRecord
  2
DatumFilled45
340
0
  0
BLOCK_RECORD
  5
C6
330
1
100
AcDbSymbolTableRecord
100
AcDbBlockTableRecord
  2
WIG-svarovani
340
0
  0
BLOCK_RECORD
  5
CB
330
1
100
AcDbSymbolTableRecord
100
AcDbBlockTableRecord
  2
Popis kotvy_srouby
340
0
  0
BLOCK_RECORD
  5
CF
330
1
100
AcDbSymbolTableRecord
100
AcDbBlockTableRecord
  2
Mater. provedeni Art.
340
0
  0
BLOCK_RECORD
  5
F1
330
1
100
AcDbSymbolTableRecord
100
AcDbBlockTableRecord
  2
Art. s popisy
340
0
  0
BLOCK_RECORD
  5
113
330
1
100
AcDbSymbolTableRecord
100
AcDbBlockTableRecord
  2
Tryskat
340
0
  0
BLOCK_RECORD
  5
117
330
1
100
AcDbSymbolTableRecord
100
AcDbBlockTableRecord
  2
Morit
340
0
  0
BLOCK_RECORD
  5
11B
330
1
100
AcDbSymbolTableRecord
100
AcDbBlockTableRecord
  2
zinkovat
340
0
  0
BLOCK_RECORD
  5
11F
330
1
100
AcDbSymbolTableRecord
100
AcDbBlockTableRecord
  2
Nater
340
0
  0
BLOCK_RECORD
  5
123
330
1
100
AcDbSymbolTableRecord
100
AcDbBlockTableRecord
  2
Brus
340
0
  0
BLOCK_RECORD
  5
127
330
1
100
AcDbSymbolTableRecord
100
AcDbBlockTableRecord
  2
Elektroliticky lestit
340
0
  0
BLOCK_RECORD
  5
12C
330
1
100
AcDbSymbolTableRecord
100
AcDbBlockTableRecord
  2
Rámečky Default Border
340
0
  0
BLOCK_RECORD
  5
183
330
1
100
AcDbSymbolTableRecord
100
AcDbBlockTableRecord
  2
Rohová razítka ACO-razitko
340
0
  0
BLOCK_RECORD
  5
411D
330
1
100
AcDbSymbolTableRecord
100
AcDbBlockTableRecord
  2
KUSOVNÍK
340
0
  0
BLOCK_RECORD
  5
4170
330
1
100
AcDbSymbolTableRecord
100
AcDbBlockTableRecord
  2
*D17
340
0
  0
BLOCK_RECORD
  5
425D
330
1
100
AcDbSymbolTableRecord
100
AcDbBlockTableRecord
  2
*D18
340
0
  0
BLOCK_RECORD
  5
433F
330
1
100
AcDbSymbolTableRecord
100
AcDbBlockTableRecord
  2
*D19
340
0
  0
BLOCK_RECORD
  5
442B
330
1
100
AcDbSymbolTableRecord
100
AcDbBlockTableRecord
  2
Pozice1
340
0
  0
BLOCK_RECORD
  5
4454
330
1
100
AcDbSymbolTableRecord
100
AcDbBlockTableRecord
  2
*D21
340
0
  0
BLOCK_RECORD
  5
4541
330
1
100
AcDbSymbolTableRecord
100
AcDbBlockTableRecord
  2
*D22
340
0
  0
BLOCK_RECORD
  5
45CB
330
1
100
AcDbSymbolTableRecord
100
AcDbBlockTableRecord
  2
Pozice2
340
0
  0
BLOCK_RECORD
  5
45DD
330
1
100
AcDbSymbolTableRecord
100
AcDbBlockTableRecord
  2
Pozice3
340
0
  0
BLOCK_RECORD
  5
45EF
330
1
100
AcDbSymbolTableRecord
100
AcDbBlockTableRecord
  2
Pozice4
340
0
  0
BLOCK_RECORD
  5
4605
330
1
100
AcDbSymbolTableRecord
100
AcDbBlockTableRecord
  2
Pozice5
340
0
  0
BLOCK_RECORD
  5
4619
330
1
100
AcDbSymbolTableRecord
100
AcDbBlockTableRecord
  2
HISTORIE REVIZÍ
340
0
  0
BLOCK_RECORD
  5
4637
330
1
100
AcDbSymbolTableRecord
100
AcDbBlockTableRecord
  2
*D28
340
0
  0
BLOCK_RECORD
  5
47EF
330
1
100
AcDbSymbolTableRecord
100
AcDbBlockTableRecord
  2
GENAXEH
340
0
  0
BLOCK_RECORD
  5
4809
330
1
100
AcDbSymbolTableRecord
100
AcDbBlockTableRecord
  2
*D30
340
0
  0
BLOCK_RECORD
  5
4815
330
1
100
AcDbSymbolTableRecord
100
AcDbBlockTableRecord
  2
*D31
340
0
  0
BLOCK_RECORD
  5
4821
330
1
100
AcDbSymbolTableRecord
100
AcDbBlockTableRecord
  2
*D32
340
0
  0
BLOCK_RECORD
  5
482D
330
1
100
AcDbSymbolTableRecord
100
AcDbBlockTableRecord
  2
*D33
340
0
  0
BLOCK_RECORD
  5
4839
330
1
100
AcDbSymbolTableRecord
100
AcDbBlockTableRecord
  2
*D34
340
0
  0
BLOCK_RECORD
  5
4845
330
1
100
AcDbSymbolTableRecord
100
AcDbBlockTableRecord
  2
*D35
340
0
  0
BLOCK_RECORD
  5
48E6
330
1
100
AcDbSymbolTableRecord
100
AcDbBlockTableRecord
  2
*D36
340
0
  0
BLOCK_RECORD
  5
48F2
330
1
100
AcDbSymbolTableRecord
100
AcDbBlockTableRecord
  2
*D37
340
0
  0
BLOCK_RECORD
  5
48FE
330
1
100
AcDbSymbolTableRecord
100
AcDbBlockTableRecord
  2
*D38
340
0
  0
BLOCK_RECORD
  5
490A
330
1
100
AcDbSymbolTableRecord
100
AcDbBlockTableRecord
  2
*D39
340
0
  0
BLOCK_RECORD
  5
4916
330
1
100
AcDbSymbolTableRecord
100
AcDbBlockTableRecord
  2
*D40
340
0
  0
BLOCK_RECORD
  5
4922
330
1
100
AcDbSymbolTableRecord
100
AcDbBlockTableRecord
  2
*D41
340
0
  0
BLOCK_RECORD
  5
497D
330
1
100
AcDbSymbolTableRecord
100
AcDbBlockTableRecord
  2
*D42
340
0
  0
BLOCK_RECORD
  5
49A9
330
1
100
AcDbSymbolTableRecord
100
AcDbBlockTableRecord
  2
*D43
340
0
  0
BLOCK_RECORD
  5
49CB
330
1
100
AcDbSymbolTableRecord
100
AcDbBlockTableRecord
  2
*D44
340
0
  0
BLOCK_RECORD
  5
49ED
330
1
100
AcDbSymbolTableRecord
100
AcDbBlockTableRecord
  2
*D45
340
0
  0
BLOCK_RECORD
  5
4A19
330
1
100
AcDbSymbolTableRecord
100
AcDbBlockTableRecord
  2
*D46
340
0
  0
BLOCK_RECORD
  5
4A3B
330
1
100
AcDbSymbolTableRecord
100
AcDbBlockTableRecord
  2
*D47
340
0
  0
ENDTAB
  0
ENDSEC
  0
SECTION
  2
BLOCKS
  0
BLOCK
  5
6D
330
6C
100
AcDbEntity
  8
0
100
AcDbBlockBegin
  2
*Model_Space
 70
     0
 10
0.0
 20
0.0
 30
0.0
  3
*Model_Space
  1

  0
ENDBLK
  5
6E
330
6C
100
AcDbEntity
  8
0
100
AcDbBlockEnd
  0
BLOCK
  5
69
330
68
100
AcDbEntity
 67
     1
  8
0
100
AcDbBlockBegin
  2
*Paper_Space
 70
     0
 10
0.0
 20
0.0
 30
0.0
  3
*Paper_Space
  1

  0
ENDBLK
  5
6A
330
68
100
AcDbEntity
 67
     1
  8
0
100
AcDbBlockEnd
  0
BLOCK
  5
71
330
70
100
AcDbEntity
 67
     1
  8
0
100
AcDbBlockBegin
  2
*Paper_Space0
 70
     0
 10
0.0
 20
0.0
 30
0.0
  3
*Paper_Space0
  1

  0
ENDBLK
  5
72
330
70
100
AcDbEntity
 67
     1
  8
0
100
AcDbBlockEnd
  0
BLOCK
  5
99
330
98
100
AcDbEntity
  8
0
100
AcDbBlockBegin
  2
Filled-1
 70
     0
 10
0.0
 20
0.0
 30
0.0
  3
Filled-1
  1

  0
LINE
  5
9B
330
98
100
AcDbEntity
  8
0
 62
     0
100
AcDbLine
 10
-1.0
 20
0.0
 30
0.0
 11
0.0
 21
0.0
 31
0.0
  0
POLYLINE
  5
9D
330
98
100
AcDbEntity
  8
0
 62
     0
100
AcDb2dPolyline
 66
     1
 10
0.0
 20
0.0
 30
0.0
 70
   128
  0
VERTEX
  5
9E
330
9D
100
AcDbEntity
  8
0
 62
     0
100
AcDbVertex
100
AcDb2dVertex
 10
-1.0
 20
-0.1
 30
0.0
  0
VERTEX
  5
9F
330
9D
100
AcDbEntity
  8
0
 62
     0
100
AcDbVertex
100
AcDb2dVertex
 10
0.0
 20
0.0
 30
0.0
  0
VERTEX
  5
A1
330
9D
100
AcDbEntity
  8
0
 62
     0
100
AcDbVertex
100
AcDb2dVertex
 10
-1.0
 20
0.1
 30
0.0
  0
VERTEX
  5
A2
330
9D
100
AcDbEntity
  8
0
 62
     0
100
AcDbVertex
100
AcDb2dVertex
 10
-1.0
 20
-0.1
 30
0.0
  0
SEQEND
  5
A0
330
9D
100
AcDbEntity
  8
0
 62
     0
  0
SOLID
  5
A3
330
98
100
AcDbEntity
  8
0
 62
     0
100
AcDbTrace
 10
-1.0
 20
-0.1
 30
0.0
 11
0.0
 21
0.0
 31
0.0
 12
-1.0
 22
0.1
 32
0.0
 13
-1.0
 23
-0.1
 33
0.0
  0
LINE
  5
A4
330
98
100
AcDbEntity
  8
0
 62
     0
100
AcDbLine
 10
-1.0
 20
-0.1
 30
0.0
 11
0.0
 21
0.0
 31
0.0
  0
LINE
  5
A5
330
98
100
AcDbEntity
  8
0
 62
     0
100
AcDbLine
 10
0.0
 20
0.0
 30
0.0
 11
-1.0
 21
0.1
 31
0.0
  0
LINE
  5
A6
330
98
100
AcDbEntity
  8
0
 62
     0
100
AcDbLine
 10
-1.0
 20
0.1
 30
0.0
 11
-1.0
 21
-0.1
 31
0.0
  0
ENDBLK
  5
9A
330
98
100
AcDbEntity
  8
0
100
AcDbBlockEnd
  0
BLOCK
  5
B9
330
B4
100
AcDbEntity
  8
0
100
AcDbBlockBegin
  2
_Closed
 70
     0
 10
0.0
 20
0.0
 30
0.0
  3
_Closed
  1

  0
LINE
  5
B5
330
B4
100
AcDbEntity
  8
0
  6
ByBlock
 62
     0
370
    -2
100
AcDbLine
 10
-1.0
 20
0.1666666666666666
 30
0.0
 11
0.0
 21
0.0
 31
0.0
  0
LINE
  5
B6
330
B4
100
AcDbEntity
  8
0
  6
ByBlock
 62
     0
370
    -2
100
AcDbLine
 10
0.0
 20
0.0
 30
0.0
 11
-1.0
 21
-0.1666666666666666
 31
0.0
  0
LINE
  5
B7
330
B4
100
AcDbEntity
  8
0
  6
ByBlock
 62
     0
370
    -2
100
AcDbLine
 10
-1.0
 20
0.1666666666666666
 30
0.0
 11
-1.0
 21
-0.1666666666666666
 31
0.0
  0
LINE
  5
B8
330
B4
100
AcDbEntity
  8
0
  6
ByBlock
 62
     0
370
    -2
100
AcDbLine
 10
0.0
 20
0.0
 30
0.0
 11
-1.0
 21
0.0
 31
0.0
  0
ENDBLK
  5
BA
330
B4
100
AcDbEntity
  8
0
100
AcDbBlockEnd
  0
BLOCK
  5
BC
330
BB
100
AcDbEntity
  8
0
100
AcDbBlockBegin
  2
DatumFilled45
 70
     0
 10
0.0
 20
0.0
 30
0.0
  3
DatumFilled45
  1

  0
POLYLINE
  5
BE
330
BB
100
AcDbEntity
  8
0
 62
     0
100
AcDb2dPolyline
 66
     1
 10
0.0
 20
0.0
 30
0.0
 70
   128
  0
VERTEX
  5
BF
330
BE
100
AcDbEntity
  8
0
 62
     0
100
AcDbVertex
100
AcDb2dVertex
 10
0.0
 20
1.0
 30
0.0
  0
VERTEX
  5
C0
330
BE
100
AcDbEntity
  8
0
 62
     0
100
AcDbVertex
100
AcDb2dVertex
 10
0.0
 20
-1.0
 30
0.0
  0
VERTEX
  5
C2
330
BE
100
AcDbEntity
  8
0
 62
     0
100
AcDbVertex
100
AcDb2dVertex
 10
-1.0
 20
0.0
 30
0.0
  0
VERTEX
  5
C3
330
BE
100
AcDbEntity
  8
0
 62
     0
100
AcDbVertex
100
AcDb2dVertex
 10
0.0
 20
1.0
 30
0.0
  0
SEQEND
  5
C1
330
BE
100
AcDbEntity
  8
0
 62
     0
  0
SOLID
  5
C4
330
BB
100
AcDbEntity
  8
0
 62
     0
100
AcDbTrace
 10
0.0
 20
1.0
 30
0.0
 11
0.0
 21
-1.0
 31
0.0
 12
-1.0
 22
0.0
 32
0.0
 13
0.0
 23
1.0
 33
0.0
  0
ENDBLK
  5
BD
330
BB
100
AcDbEntity
  8
0
100
AcDbBlockEnd
  0
BLOCK
  5
C7
330
C6
100
AcDbEntity
  8
0
100
AcDbBlockBegin
  2
WIG-svarovani
 70
     0
 10
0.0
 20
0.0
 30
0.0
  3
WIG-svarovani
  1

  0
MTEXT
  5
C9
102
{ACAD_XDICTIONARY
360
4D5C
102
}
330
C6
100
AcDbEntity
  8
Značka (ISO)
100
AcDbMText
 10
-57.87338256835937
 20
16.31795931607484
 30
0.0
 40
3.499999940395355
 41
115.7467651367187
 71
     1
 72
     1
  1
WIG Schweisung, Nahte sauber geschliffen und poliert\PSichtstege geschliffen mit 240 Korn und abgeklebt.\P{\H0.85714x; \P\H1.1667x;WIG svarovani- svary dle potreby zabrousit.\PPohledove plochy brousit (vel. brusnych zrn 240)\Pa polepit paskou}
  7
Text poznámky (ISO)
 73
     1
 44
0.9596589207649227
  0
ENDBLK
  5
C8
330
C6
100
AcDbEntity
  8
0
100
AcDbBlockEnd
  0
BLOCK
  5
CC
330
CB
100
AcDbEntity
  8
0
100
AcDbBlockBegin
  2
Popis kotvy_srouby
 70
     0
 10
0.0
 20
0.0
 30
0.0
  3
Popis kotvy_srouby
  1

  0
MTEXT
  5
CE
330
CB
100
AcDbEntity
  8
Značka (ISO)
100
AcDbMText
 10
-39.79761123657226
 20
21.84130281209946
 30
0.0
 40
3.499999940395355
 41
0.0
 71
     1
 72
     1
  1
Vzdalenost nivel. sroubu ca. 1500\PVzdalenost kotev ca. 400\PVzdalenost dist. koliku ca. 250\P\PAbstand der Nivellieschraben ca.1500\PAbstand der Maueranker ca.400\PAbstand der Distanzstege ca.250\P
  7
Text poznámky (ISO)
 73
     2
 44
0.9878841638565063
  0
ENDBLK
  5
CD
330
CB
100
AcDbEntity
  8
0
100
AcDbBlockEnd
  0
BLOCK
  5
D0
330
CF
100
AcDbEntity
  8
0
100
AcDbBlockBegin
  2
Mater. provedeni Art.
 70
     0
 10
0.0
 20
0.0
 30
0.0
  3
Mater. provedeni Art.
  1

  0
LINE
  5
D2
330
CF
100
AcDbEntity
  8
Geometrie náčrtu (ISO)
100
AcDbLine
 10
-35.0
 20
-22.5
 30
0.0
 11
35.0
 21
-22.5
 31
0.0
  0
LINE
  5
D3
330
CF
100
AcDbEntity
  8
Geometrie náčrtu (ISO)
100
AcDbLine
 10
35.0
 20
-22.5
 30
0.0
 11
34.99999999999996
 21
-13.49999999999998
 31
0.0
  0
LINE
  5
D4
330
CF
100
AcDbEntity
  8
Geometrie náčrtu (ISO)
100
AcDbLine
 10
34.99999999999996
 20
-13.49999999999998
 30
0.0
 11
-35.00000000000003
 21
-13.49999999999998
 31
0.0
  0
LINE
  5
D5
330
CF
100
AcDbEntity
  8
Geometrie náčrtu (ISO)
100
AcDbLine
 10
-35.00000000000003
 20
-13.49999999999998
 30
0.0
 11
-35.0
 21
-22.5
 31
0.0
  0
LINE
  5
D6
330
CF
100
AcDbEntity
  8
Geometrie náčrtu (ISO)
100
AcDbLine
 10
-35.00000000000003
 20
-13.49999999999998
 30
0.0
 11
34.99999999999996
 21
-13.49999999999998
 31
0.0
  0
LINE
  5
D7
330
CF
100
AcDbEntity
  8
Geometrie náčrtu (ISO)
100
AcDbLine
 10
34.99999999999996
 20
-13.49999999999998
 30
0.0
 11
34.99999999999996
 21
-4.499999999999992
 31
0.0
  0
LINE
  5
D8
330
CF
100
AcDbEntity
  8
Geometrie náčrtu (ISO)
100
AcDbLine
 10
34.99999999999996
 20
-4.499999999999992
 30
0.0
 11
-35.00000000000003
 21
-4.499999999999992
 31
0.0
  0
LINE
  5
D9
330
CF
100
AcDbEntity
  8
Geometrie náčrtu (ISO)
100
AcDbLine
 10
-35.00000000000003
 20
-4.499999999999992
 30
0.0
 11
-35.00000000000003
 21
-13.49999999999998
 31
0.0
  0
LINE
  5
DA
330
CF
100
AcDbEntity
  8
Geometrie náčrtu (ISO)
100
AcDbLine
 10
-35.00000000000003
 20
-4.499999999999992
 30
0.0
 11
34.99999999999996
 21
-4.499999999999992
 31
0.0
  0
LINE
  5
DB
330
CF
100
AcDbEntity
  8
Geometrie náčrtu (ISO)
100
AcDbLine
 10
34.99999999999996
 20
-4.499999999999992
 30
0.0
 11
34.99999999999996
 21
4.499999999999992
 31
0.0
  0
LINE
  5
DC
330
CF
100
AcDbEntity
  8
Geometrie náčrtu (ISO)
100
AcDbLine
 10
34.99999999999996
 20
4.499999999999992
 30
0.0
 11
-35.00000000000003
 21
4.499999999999992
 31
0.0
  0
LINE
  5
DD
330
CF
100
AcDbEntity
  8
Geometrie náčrtu (ISO)
100
AcDbLine
 10
-35.00000000000003
 20
4.499999999999992
 30
0.0
 11
-35.00000000000003
 21
-4.499999999999992
 31
0.0
  0
LINE
  5
DE
330
CF
100
AcDbEntity
  8
Geometrie náčrtu (ISO)
100
AcDbLine
 10
-35.00000000000003
 20
4.499999999999992
 30
0.0
 11
34.99999999999996
 21
4.499999999999992
 31
0.0
  0
LINE
  5
DF
330
CF
100
AcDbEntity
  8
Geometrie náčrtu (ISO)
100
AcDbLine
 10
34.99999999999996
 20
4.499999999999992
 30
0.0
 11
34.99999999999996
 21
13.50000000000001
 31
0.0
  0
LINE
  5
E0
330
CF
100
AcDbEntity
  8
Geometrie náčrtu (ISO)
100
AcDbLine
 10
34.99999999999996
 20
13.50000000000001
 30
0.0
 11
-35.00000000000003
 21
13.50000000000001
 31
0.0
  0
LINE
  5
E1
330
CF
100
AcDbEntity
  8
Geometrie náčrtu (ISO)
100
AcDbLine
 10
-35.00000000000003
 20
13.50000000000001
 30
0.0
 11
-35.00000000000003
 21
4.499999999999992
 31
0.0
  0
LINE
  5
E2
330
CF
100
AcDbEntity
  8
Geometrie náčrtu (ISO)
100
AcDbLine
 10
-35.00000000000003
 20
13.50000000000001
 30
0.0
 11
34.99999999999996
 21
13.50000000000001
 31
0.0
  0
LINE
  5
E3
330
CF
100
AcDbEntity
  8
Geometrie náčrtu (ISO)
100
AcDbLine
 10
34.99999999999996
 20
13.50000000000001
 30
0.0
 11
34.99999999999996
 21
22.5
 31
0.0
  0
LINE
  5
E4
330
CF
100
AcDbEntity
  8
Geometrie náčrtu (ISO)
100
AcDbLine
 10
34.99999999999996
 20
22.5
 30
0.0
 11
-35.00000000000003
 21
22.5
 31
0.0
  0
LINE
  5
E5
330
CF
100
AcDbEntity
  8
Geometrie náčrtu (ISO)
100
AcDbLine
 10
-35.00000000000003
 20
22.5
 30
0.0
 11
-35.00000000000003
 21
13.50000000000001
 31
0.0
  0
LINE
  5
E6
330
CF
100
AcDbEntity
  8
Geometrie náčrtu (ISO)
100
AcDbLine
 10
-6.999999999999992
 20
22.5
 30
0.0
 11
-6.999999999999992
 21
-22.5
 31
0.0
  0
MTEXT
  5
E7
330
CF
100
AcDbEntity
  8
Značka (ISO)
100
AcDbMText
 10
-5.126613448311374
 20
11.7684641726084
 30
0.0
 40
5.0
 41
0.0
 71
     1
 72
     1
  1
\fTahoma|b0|i0;\H5.0000;xxxxxxxxxxx
  7
Text poznámky (ISO)
 73
     1
 44
1.0
  0
MTEXT
  5
E8
330
CF
100
AcDbEntity
  8
Značka (ISO)
100
AcDbMText
 10
-33.0130165251342
 20
11.7684641726084
 30
0.0
 40
5.0
 41
20.42139291763306
 71
     1
 72
     1
  1
\fTahoma|b0|i0;\H5.0000;xxxxxx
  7
Text poznámky (ISO)
 73
     1
 44
1.0
  0
MTEXT
  5
E9
330
CF
100
AcDbEntity
  8
Značka (ISO)
100
AcDbMText
 10
-32.07756235018873
 20
20.30710993714994
 30
0.0
 40
5.0
 41
13.92583036716939
 71
     1
 72
     1
  1
\fTahoma|b0|i0;\H5.0000;Art.
  7
Text poznámky (ISO)
 73
     1
 44
1.0
  0
MTEXT
  5
EA
330
CF
100
AcDbEntity
  8
Značka (ISO)
100
AcDbMText
 10
4.291672002492318
 20
20.30710993714994
 30
0.0
 40
5.0
 41
0.0
 71
     1
 72
     1
  1
\fTahoma|b0|i0;\H5.0000;Mat.
  7
Text poznámky (ISO)
 73
     1
 44
1.0
  0
MTEXT
  5
EB
330
CF
100
AcDbEntity
  8
Značka (ISO)
100
AcDbMText
 10
-33.0130165251342
 20
2.473781856899818
 30
0.0
 40
5.0
 41
20.42139291763306
 71
     1
 72
     1
  1
\fTahoma|b0|i0;\H5.0000;xxxxxx
  7
Text poznámky (ISO)
 73
     1
 44
1.0
  0
MTEXT
  5
EC
330
CF
100
AcDbEntity
  8
Značka (ISO)
100
AcDbMText
 10
-5.126613448311374
 20
2.473781856899818
 30
0.0
 40
5.0
 41
0.0
 71
     1
 72
     1
  1
\fTahoma|b0|i0;\H5.0000;xxxxxxxxxxx
  7
Text poznámky (ISO)
 73
     1
 44
1.0
  0
MTEXT
  5
ED
330
CF
100
AcDbEntity
  8
Značka (ISO)
100
AcDbMText
 10
-33.0130165251342
 20
-6.862452441171491
 30
0.0
 40
5.0
 41
20.42139291763306
 71
     1
 72
     1
  1
\fTahoma|b0|i0;\H5.0000;xxxxxx
  7
Text poznámky (ISO)
 73
     1
 44
1.0
  0
MTEXT
  5
EE
330
CF
100
AcDbEntity
  8
Značka (ISO)
100
AcDbMText
 10
-5.126613448311374
 20
-6.862452441171491
 30
0.0
 40
5.0
 41
0.0
 71
     1
 72
     1
  1
\fTahoma|b0|i0;\H5.0000;xxxxxxxxxxx
  7
Text poznámky (ISO)
 73
     1
 44
1.0
  0
MTEXT
  5
EF
330
CF
100
AcDbEntity
  8
Značka (ISO)
100
AcDbMText
 10
-33.0130165251342
 20
-15.52177565039578
 30
0.0
 40
5.0
 41
20.42139291763306
 71
     1
 72
     1
  1
\fTahoma|b0|i0;\H5.0000;xxxxxx
  7
Text poznámky (ISO)
 73
     1
 44
1.0
  0
MTEXT
  5
F0
330
CF
100
AcDbEntity
  8
Značka (ISO)
100
AcDbMText
 10
-5.126613448311374
 20
-15.52177565039578
 30
0.0
 40
5.0
 41
0.0
 71
     1
 72
     1
  1
\fTahoma|b0|i0;\H5.0000;xxxxxxxxxxx
  7
Text poznámky (ISO)
 73
     1
 44
1.0
  0
ENDBLK
  5
D1
330
CF
100
AcDbEntity
  8
0
100
AcDbBlockEnd
  0
BLOCK
  5
F2
330
F1
100
AcDbEntity
  8
0
100
AcDbBlockBegin
  2
Art. s popisy
 70
     0
 10
0.0
 20
0.0
 30
0.0
  3
Art. s popisy
  1

  0
LINE
  5
F4
330
F1
100
AcDbEntity
  8
Geometrie náčrtu (ISO)
100
AcDbLine
 10
-60.00000000000081
 20
-22.5
 30
0.0
 11
59.99999999999911
 21
-22.5
 31
0.0
  0
LINE
  5
F5
330
F1
100
AcDbEntity
  8
Geometrie náčrtu (ISO)
100
AcDbLine
 10
59.99999999999911
 20
-22.5
 30
0.0
 11
60.00000000000081
 21
-13.50000000000001
 31
0.0
  0
LINE
  5
F6
330
F1
100
AcDbEntity
  8
Geometrie náčrtu (ISO)
100
AcDbLine
 10
60.00000000000081
 20
-13.50000000000001
 30
0.0
 11
-60.00000000000081
 21
-13.49999999999998
 31
0.0
  0
LINE
  5
F7
330
F1
100
AcDbEntity
  8
Geometrie náčrtu (ISO)
100
AcDbLine
 10
-60.00000000000081
 20
-13.49999999999998
 30
0.0
 11
-60.00000000000081
 21
-22.5
 31
0.0
  0
LINE
  5
F8
330
F1
100
AcDbEntity
  8
Geometrie náčrtu (ISO)
100
AcDbLine
 10
-60.00000000000081
 20
-13.49999999999998
 30
0.0
 11
60.00000000000081
 21
-13.50000000000001
 31
0.0
  0
LINE
  5
F9
330
F1
100
AcDbEntity
  8
Geometrie náčrtu (ISO)
100
AcDbLine
 10
60.00000000000081
 20
-13.50000000000001
 30
0.0
 11
59.99999999999911
 21
-4.500000000000028
 31
0.0
  0
LINE
  5
FA
330
F1
100
AcDbEntity
  8
Geometrie náčrtu (ISO)
100
AcDbLine
 10
59.99999999999911
 20
-4.500000000000028
 30
0.0
 11
-60.00000000000081
 21
-4.499999999999992
 31
0.0
  0
LINE
  5
FB
330
F1
100
AcDbEntity
  8
Geometrie náčrtu (ISO)
100
AcDbLine
 10
-60.00000000000081
 20
-4.499999999999992
 30
0.0
 11
-60.00000000000081
 21
-13.49999999999998
 31
0.0
  0
LINE
  5
FC
330
F1
100
AcDbEntity
  8
Geometrie náčrtu (ISO)
100
AcDbLine
 10
-60.00000000000081
 20
-4.499999999999992
 30
0.0
 11
59.99999999999911
 21
-4.500000000000028
 31
0.0
  0
LINE
  5
FD
330
F1
100
AcDbEntity
  8
Geometrie náčrtu (ISO)
100
AcDbLine
 10
59.99999999999911
 20
-4.500000000000028
 30
0.0
 11
59.99999999999911
 21
4.499999999999957
 31
0.0
  0
LINE
  5
FE
330
F1
100
AcDbEntity
  8
Geometrie náčrtu (ISO)
100
AcDbLine
 10
59.99999999999911
 20
4.499999999999957
 30
0.0
 11
-60.00000000000081
 21
4.499999999999992
 31
0.0
  0
LINE
  5
FF
330
F1
100
AcDbEntity
  8
Geometrie náčrtu (ISO)
100
AcDbLine
 10
-60.00000000000081
 20
4.499999999999992
 30
0.0
 11
-60.00000000000081
 21
-4.499999999999992
 31
0.0
  0
LINE
  5
100
330
F1
100
AcDbEntity
  8
Geometrie náčrtu (ISO)
100
AcDbLine
 10
-60.00000000000081
 20
4.499999999999992
 30
0.0
 11
59.99999999999911
 21
4.499999999999957
 31
0.0
  0
LINE
  5
101
330
F1
100
AcDbEntity
  8
Geometrie náčrtu (ISO)
100
AcDbLine
 10
59.99999999999911
 20
4.499999999999957
 30
0.0
 11
59.99999999999911
 21
13.49999999999998
 31
0.0
  0
LINE
  5
102
330
F1
100
AcDbEntity
  8
Geometrie náčrtu (ISO)
100
AcDbLine
 10
59.99999999999911
 20
13.49999999999998
 30
0.0
 11
-60.00000000000081
 21
13.50000000000001
 31
0.0
  0
LINE
  5
103
330
F1
100
AcDbEntity
  8
Geometrie náčrtu (ISO)
100
AcDbLine
 10
-60.00000000000081
 20
13.50000000000001
 30
0.0
 11
-60.00000000000081
 21
4.499999999999992
 31
0.0
  0
LINE
  5
104
330
F1
100
AcDbEntity
  8
Geometrie náčrtu (ISO)
100
AcDbLine
 10
-60.00000000000081
 20
13.50000000000001
 30
0.0
 11
59.99999999999911
 21
13.49999999999998
 31
0.0
  0
LINE
  5
105
330
F1
100
AcDbEntity
  8
Geometrie náčrtu (ISO)
100
AcDbLine
 10
59.99999999999911
 20
13.49999999999998
 30
0.0
 11
59.99999999999911
 21
22.49999999999996
 31
0.0
  0
LINE
  5
106
330
F1
100
AcDbEntity
  8
Geometrie náčrtu (ISO)
100
AcDbLine
 10
59.99999999999911
 20
22.49999999999996
 30
0.0
 11
-60.00000000000081
 21
22.5
 31
0.0
  0
LINE
  5
107
330
F1
100
AcDbEntity
  8
Geometrie náčrtu (ISO)
100
AcDbLine
 10
-60.00000000000081
 20
22.5
 30
0.0
 11
-60.00000000000081
 21
13.50000000000001
 31
0.0
  0
LINE
  5
108
330
F1
100
AcDbEntity
  8
Geometrie náčrtu (ISO)
100
AcDbLine
 10
-32.00000000000081
 20
22.5
 30
0.0
 11
-32.00000000000081
 21
-22.5
 31
0.0
  0
MTEXT
  5
109
330
F1
100
AcDbEntity
  8
Značka (ISO)
100
AcDbMText
 10
-27.63552601875791
 20
11.7684641726084
 30
0.0
 40
5.0
 41
0.0
 71
     1
 72
     1
  1
\fTahoma|b0|i0;\H5.0000;xxxxxxxxxxx
  7
Text poznámky (ISO)
 73
     1
 44
1.0
  0
MTEXT
  5
10A
330
F1
100
AcDbEntity
  8
Značka (ISO)
100
AcDbMText
 10
-55.52192909558073
 20
11.7684641726084
 30
0.0
 40
5.0
 41
20.42139291763306
 71
     1
 72
     1
  1
\fTahoma|b0|i0;\H5.0000;xxxxxx
  7
Text poznámky (ISO)
 73
     1
 44
1.0
  0
MTEXT
  5
10B
330
F1
100
AcDbEntity
  8
Značka (ISO)
100
AcDbMText
 10
-54.58647492063526
 20
20.30710993714994
 30
0.0
 40
5.0
 41
13.92583036716939
 71
     1
 72
     1
  1
\fTahoma|b0|i0;\H5.0000;Art.
  7
Text poznámky (ISO)
 73
     1
 44
1.0
  0
MTEXT
  5
10C
330
F1
100
AcDbEntity
  8
Značka (ISO)
100
AcDbMText
 10
-18.21724056795421
 20
20.30710993714994
 30
0.0
 40
5.0
 41
0.0
 71
     1
 72
     1
  1
\fTahoma|b0|i0;\H5.0000;Popis.
  7
Text poznámky (ISO)
 73
     1
 44
1.0
  0
MTEXT
  5
10D
330
F1
100
AcDbEntity
  8
Značka (ISO)
100
AcDbMText
 10
-55.52192909558073
 20
2.473781856899818
 30
0.0
 40
5.0
 41
20.42139291763306
 71
     1
 72
     1
  1
\fTahoma|b0|i0;\H5.0000;xxxxxx
  7
Text poznámky (ISO)
 73
     1
 44
1.0
  0
MTEXT
  5
10E
330
F1
100
AcDbEntity
  8
Značka (ISO)
100
AcDbMText
 10
-27.63552601875791
 20
2.473781856899818
 30
0.0
 40
5.0
 41
0.0
 71
     1
 72
     1
  1
\fTahoma|b0|i0;\H5.0000;xxxxxxxxxxx
  7
Text poznámky (ISO)
 73
     1
 44
1.0
  0
MTEXT
  5
10F
330
F1
100
AcDbEntity
  8
Značka (ISO)
100
AcDbMText
 10
-55.52192909558073
 20
-6.862452441171491
 30
0.0
 40
5.0
 41
20.42139291763306
 71
     1
 72
     1
  1
\fTahoma|b0|i0;\H5.0000;xxxxxx
  7
Text poznámky (ISO)
 73
     1
 44
1.0
  0
MTEXT
  5
110
330
F1
100
AcDbEntity
  8
Značka (ISO)
100
AcDbMText
 10
-27.63552601875791
 20
-6.862452441171491
 30
0.0
 40
5.0
 41
0.0
 71
     1
 72
     1
  1
\fTahoma|b0|i0;\H5.0000;xxxxxxxxxxx
  7
Text poznámky (ISO)
 73
     1
 44
1.0
  0
MTEXT
  5
111
330
F1
100
AcDbEntity
  8
Značka (ISO)
100
AcDbMText
 10
-55.52192909558073
 20
-15.52177565039578
 30
0.0
 40
5.0
 41
20.42139291763306
 71
     1
 72
     1
  1
\fTahoma|b0|i0;\H5.0000;xxxxxx
  7
Text poznámky (ISO)
 73
     1
 44
1.0
  0
MTEXT
  5
112
330
F1
100
AcDbEntity
  8
Značka (ISO)
100
AcDbMText
 10
-27.63552601875791
 20
-15.52177565039578
 30
0.0
 40
5.0
 41
0.0
 71
     1
 72
     1
  1
\fTahoma|b0|i0;\H5.0000;xxxxxxxxxxx
  7
Text poznámky (ISO)
 73
     1
 44
1.0
  0
ENDBLK
  5
F3
330
F1
100
AcDbEntity
  8
0
100
AcDbBlockEnd
  0
BLOCK
  5
114
330
113
100
AcDbEntity
  8
0
100
AcDbBlockBegin
  2
Tryskat
 70
     0
 10
0.0
 20
0.0
 30
0.0
  3
Tryskat
  1

  0
MTEXT
  5
116
330
113
100
AcDbEntity
  8
Značka (ISO)
100
AcDbMText
 10
-30.20239114761352
 20
5.036920197308063
 30
0.0
 40
3.499999940395355
 41
0.0
 71
     1
 72
     1
  1
Tryskat \P( Blasted , Glasperlstrahken)
  7
Text poznámky (ISO)
 73
     2
 44
0.9878841638565063
  0
ENDBLK
  5
115
330
113
100
AcDbEntity
  8
0
100
AcDbBlockEnd
  0
BLOCK
  5
118
330
117
100
AcDbEntity
  8
0
100
AcDbBlockBegin
  2
Morit
 70
     0
 10
0.0
 20
0.0
 30
0.0
  3
Morit
  1

  0
MTEXT
  5
11A
330
117
100
AcDbEntity
  8
Značka (ISO)
100
AcDbMText
 10
-19.08124089241028
 20
5.11633675545454
 30
0.0
 40
3.499999940395355
 41
0.0
 71
     1
 72
     1
  1
Morit a pasivovat\P(Pickled, gebeitzt)
  7
Text poznámky (ISO)
 73
     2
 44
0.9878841638565063
  0
ENDBLK
  5
119
330
117
100
AcDbEntity
  8
0
100
AcDbBlockEnd
  0
BLOCK
  5
11C
330
11B
100
AcDbEntity
  8
0
100
AcDbBlockBegin
  2
zinkovat
 70
     0
 10
0.0
 20
0.0
 30
0.0
  3
zinkovat
  1

  0
MTEXT
  5
11E
330
11B
100
AcDbEntity
  8
Značka (ISO)
100
AcDbMText
 10
-27.74189710617065
 20
5.049683563411233
 30
0.0
 40
3.499999940395355
 41
0.0
 71
     1
 72
     1
  1
Zarove zinkovat\P(hot galvanized, verzinkt )
  7
Text poznámky (ISO)
 73
     2
 44
0.9878841638565063
  0
ENDBLK
  5
11D
330
11B
100
AcDbEntity
  8
0
100
AcDbBlockEnd
  0
BLOCK
  5
120
330
11F
100
AcDbEntity
  8
0
100
AcDbBlockBegin
  2
Nater
 70
     0
 10
0.0
 20
0.0
 30
0.0
  3
Nater
  1

  0
MTEXT
  5
122
330
11F
100
AcDbEntity
  8
Značka (ISO)
100
AcDbMText
 10
-25.88411808013916
 20
1.864870421122757
 30
0.0
 40
3.499999940395355
 41
0.0
 71
     1
 72
     1
  1
Lackiert Farbe RAL 5002
  7
Text poznámky (ISO)
 73
     1
 44
1.0
  0
ENDBLK
  5
121
330
11F
100
AcDbEntity
  8
0
100
AcDbBlockEnd
  0
BLOCK
  5
124
330
123
100
AcDbEntity
  8
0
100
AcDbBlockBegin
  2
Brus
 70
     0
 10
0.0
 20
0.0
 30
0.0
  3
Brus
  1

  0
MTEXT
  5
126
330
123
100
AcDbEntity
  8
Značka (ISO)
100
AcDbMText
 10
-23.46616744995117
 20
5.11633675545454
 30
0.0
 40
3.499999940395355
 41
0.0
 71
     1
 72
     1
  1
Brousit\P(geburstet , brushed )
  7
Text poznámky (ISO)
 73
     2
 44
0.9878841638565063
  0
ENDBLK
  5
125
330
123
100
AcDbEntity
  8
0
100
AcDbBlockEnd
  0
BLOCK
  5
128
330
127
100
AcDbEntity
  8
0
100
AcDbBlockBegin
  2
Elektroliticky lestit
 70
     0
 10
0.0
 20
0.0
 30
0.0
  3
Elektroliticky lestit
  1

  0
MTEXT
  5
12A
330
127
100
AcDbEntity
  8
Značka (ISO)
100
AcDbMText
 10
-18.68841171264648
 20
5.036920197308063
 30
0.0
 40
3.499999940395355
 41
0.0
 71
     1
 72
     1
  1
Elektrolit. lestit\P(Elektropolished )
  7
Text poznámky (ISO)
 73
     2
 44
0.9878841638565063
  0
ENDBLK
  5
129
330
127
100
AcDbEntity
  8
0
100
AcDbBlockEnd
  0
BLOCK
  5
12D
330
12C
100
AcDbEntity
  8
0
100
AcDbBlockBegin
  2
Rámečky Default Border
 70
     0
 10
0.0
 20
0.0
 30
0.0
  3
Rámečky Default Border
  1

  0
POLYLINE
  5
12F
330
12C
100
AcDbEntity
  8
Rámeček (ISO)
100
AcDb2dPolyline
 66
     1
 10
0.0
 20
0.0
 30
0.0
 70
   128
  0
VERTEX
  5
130
330
12F
100
AcDbEntity
  8
Rámeček (ISO)
100
AcDbVertex
100
AcDb2dVertex
 10
10.0
 20
10.0
 30
0.0
  0
VERTEX
  5
131
330
12F
100
AcDbEntity
  8
Rámeček (ISO)
100
AcDbVertex
100
AcDb2dVertex
 10
10.0
 20
410.0
 30
0.0
  0
VERTEX
  5
133
330
12F
100
AcDbEntity
  8
Rámeček (ISO)
100
AcDbVertex
100
AcDb2dVertex
 10
584.0000152587889
 20
410.0
 30
0.0
  0
VERTEX
  5
134
330
12F
100
AcDbEntity
  8
Rámeček (ISO)
100
AcDbVertex
100
AcDb2dVertex
 10
584.0000152587889
 20
10.0
 30
0.0
  0
VERTEX
  5
135
330
12F
100
AcDbEntity
  8
Rámeček (ISO)
100
AcDbVertex
100
AcDb2dVertex
 10
10.0
 20
10.0
 30
0.0
  0
SEQEND
  5
132
330
12F
100
AcDbEntity
  8
Rámeček (ISO)
  0
POLYLINE
  5
136
330
12C
100
AcDbEntity
  8
Rámeček (ISO)
100
AcDb2dPolyline
 66
     1
 10
0.0
 20
0.0
 30
0.0
 70
   128
  0
VERTEX
  5
137
330
136
100
AcDbEntity
  8
Rámeček (ISO)
100
AcDbVertex
100
AcDb2dVertex
 10
297.0000076293946
 20
0.0
 30
0.0
  0
VERTEX
  5
138
330
136
100
AcDbEntity
  8
Rámeček (ISO)
100
AcDbVertex
100
AcDb2dVertex
 10
297.0000076293946
 20
10.0
 30
0.0
  0
VERTEX
  5
13A
330
136
100
AcDbEntity
  8
Rámeček (ISO)
100
AcDbVertex
100
AcDb2dVertex
 10
294.1132545471191
 20
5.0
 30
0.0
  0
VERTEX
  5
13B
330
136
100
AcDbEntity
  8
Rámeček (ISO)
100
AcDbVertex
100
AcDb2dVertex
 10
299.8867607116699
 20
5.0
 30
0.0
  0
VERTEX
  5
13C
330
136
100
AcDbEntity
  8
Rámeček (ISO)
100
AcDbVertex
100
AcDb2dVertex
 10
297.0000076293946
 20
10.0
 30
0.0
  0
SEQEND
  5
139
330
136
100
AcDbEntity
  8
Rámeček (ISO)
  0
POLYLINE
  5
13D
330
12C
100
AcDbEntity
  8
Rámeček (ISO)
100
AcDb2dPolyline
 66
     1
 10
0.0
 20
0.0
 30
0.0
 70
   128
  0
VERTEX
  5
13E
330
13D
100
AcDbEntity
  8
Rámeček (ISO)
100
AcDbVertex
100
AcDb2dVertex
 10
297.0000076293946
 20
420.0
 30
0.0
  0
VERTEX
  5
13F
330
13D
100
AcDbEntity
  8
Rámeček (ISO)
100
AcDbVertex
100
AcDb2dVertex
 10
297.0000076293946
 20
410.0
 30
0.0
  0
VERTEX
  5
141
330
13D
100
AcDbEntity
  8
Rámeček (ISO)
100
AcDbVertex
100
AcDb2dVertex
 10
294.1132545471191
 20
415.0
 30
0.0
  0
VERTEX
  5
142
330
13D
100
AcDbEntity
  8
Rámeček (ISO)
100
AcDbVertex
100
AcDb2dVertex
 10
299.8867607116699
 20
415.0
 30
0.0
  0
VERTEX
  5
143
330
13D
100
AcDbEntity
  8
Rámeček (ISO)
100
AcDbVertex
100
AcDb2dVertex
 10
297.0000076293946
 20
410.0
 30
0.0
  0
SEQEND
  5
140
330
13D
100
AcDbEntity
  8
Rámeček (ISO)
  0
POLYLINE
  5
144
330
12C
100
AcDbEntity
  8
Rámeček (ISO)
100
AcDb2dPolyline
 66
     1
 10
0.0
 20
0.0
 30
0.0
 70
   128
  0
VERTEX
  5
145
330
144
100
AcDbEntity
  8
Rámeček (ISO)
100
AcDbVertex
100
AcDb2dVertex
 10
0.0
 20
210.0
 30
0.0
  0
VERTEX
  5
146
330
144
100
AcDbEntity
  8
Rámeček (ISO)
100
AcDbVertex
100
AcDb2dVertex
 10
10.0
 20
210.0
 30
0.0
  0
VERTEX
  5
148
330
144
100
AcDbEntity
  8
Rámeček (ISO)
100
AcDbVertex
100
AcDb2dVertex
 10
5.0
 20
212.8867530822754
 30
0.0
  0
VERTEX
  5
149
330
144
100
AcDbEntity
  8
Rámeček (ISO)
100
AcDbVertex
100
AcDb2dVertex
 10
5.0
 20
207.1132469177246
 30
0.0
  0
VERTEX
  5
14A
330
144
100
AcDbEntity
  8
Rámeček (ISO)
100
AcDbVertex
100
AcDb2dVertex
 10
10.0
 20
210.0
 30
0.0
  0
SEQEND
  5
147
330
144
100
AcDbEntity
  8
Rámeček (ISO)
  0
POLYLINE
  5
14B
330
12C
100
AcDbEntity
  8
Rámeček (ISO)
100
AcDb2dPolyline
 66
     1
 10
0.0
 20
0.0
 30
0.0
 70
   128
  0
VERTEX
  5
14C
330
14B
100
AcDbEntity
  8
Rámeček (ISO)
100
AcDbVertex
100
AcDb2dVertex
 10
594.0000152587892
 20
210.0
 30
0.0
  0
VERTEX
  5
14D
330
14B
100
AcDbEntity
  8
Rámeček (ISO)
100
AcDbVertex
100
AcDb2dVertex
 10
584.0000152587889
 20
210.0
 30
0.0
  0
VERTEX
  5
14F
330
14B
100
AcDbEntity
  8
Rámeček (ISO)
100
AcDbVertex
100
AcDb2dVertex
 10
589.0000152587889
 20
212.8867530822754
 30
0.0
  0
VERTEX
  5
150
330
14B
100
AcDbEntity
  8
Rámeček (ISO)
100
AcDbVertex
100
AcDb2dVertex
 10
589.0000152587889
 20
207.1132469177246
 30
0.0
  0
VERTEX
  5
151
330
14B
100
AcDbEntity
  8
Rámeček (ISO)
100
AcDbVertex
100
AcDb2dVertex
 10
584.0000152587889
 20
210.0
 30
0.0
  0
SEQEND
  5
14E
330
14B
100
AcDbEntity
  8
Rámeček (ISO)
  0
LINE
  5
152
330
12C
100
AcDbEntity
  8
Rámeček (ISO)
100
AcDbLine
 10
74.25000190734862
 20
10.0
 30
0.0
 11
74.25000190734862
 21
6.100000143051147
 31
0.0
  0
LINE
  5
153
330
12C
100
AcDbEntity
  8
Rámeček (ISO)
100
AcDbLine
 10
74.25000190734862
 20
410.0
 30
0.0
 11
74.25000190734862
 21
413.8999938964841
 31
0.0
  0
LINE
  5
154
330
12C
100
AcDbEntity
  8
Rámeček (ISO)
100
AcDbLine
 10
148.5000038146973
 20
10.0
 30
0.0
 11
148.5000038146973
 21
6.100000143051147
 31
0.0
  0
LINE
  5
155
330
12C
100
AcDbEntity
  8
Rámeček (ISO)
100
AcDbLine
 10
148.5000038146973
 20
410.0
 30
0.0
 11
148.5000038146973
 21
413.8999938964841
 31
0.0
  0
LINE
  5
156
330
12C
100
AcDbEntity
  8
Rámeček (ISO)
100
AcDbLine
 10
222.7499961853027
 20
10.0
 30
0.0
 11
222.7499961853027
 21
6.100000143051147
 31
0.0
  0
LINE
  5
157
330
12C
100
AcDbEntity
  8
Rámeček (ISO)
100
AcDbLine
 10
222.7499961853027
 20
410.0
 30
0.0
 11
222.7499961853027
 21
413.8999938964841
 31
0.0
  0
LINE
  5
158
330
12C
100
AcDbEntity
  8
Rámeček (ISO)
100
AcDbLine
 10
371.25
 20
10.0
 30
0.0
 11
371.25
 21
6.100000143051147
 31
0.0
  0
LINE
  5
159
330
12C
100
AcDbEntity
  8
Rámeček (ISO)
100
AcDbLine
 10
371.25
 20
410.0
 30
0.0
 11
371.25
 21
413.8999938964841
 31
0.0
  0
LINE
  5
15A
330
12C
100
AcDbEntity
  8
Rámeček (ISO)
100
AcDbLine
 10
445.4999923706052
 20
10.0
 30
0.0
 11
445.4999923706052
 21
6.100000143051147
 31
0.0
  0
LINE
  5
15B
330
12C
100
AcDbEntity
  8
Rámeček (ISO)
100
AcDbLine
 10
445.4999923706052
 20
410.0
 30
0.0
 11
445.4999923706052
 21
413.8999938964841
 31
0.0
  0
LINE
  5
15C
330
12C
100
AcDbEntity
  8
Rámeček (ISO)
100
AcDbLine
 10
519.7499847412108
 20
10.0
 30
0.0
 11
519.7499847412108
 21
6.100000143051147
 31
0.0
  0
LINE
  5
15D
330
12C
100
AcDbEntity
  8
Rámeček (ISO)
100
AcDbLine
 10
519.7499847412108
 20
410.0
 30
0.0
 11
519.7499847412108
 21
413.8999938964841
 31
0.0
  0
MTEXT
  5
15E
330
12C
100
AcDbEntity
  8
Rámeček (ISO)
100
AcDbMText
 10
556.0853922448459
 20
410.4
 30
0.0
 40
3.499999940395355
 41
0.0
 71
     7
 72
     1
  1
1
  7
Text poznámky (ISO)
 73
     1
 44
1.0
  0
MTEXT
  5
15F
330
12C
100
AcDbEntity
  8
Rámeček (ISO)
100
AcDbMText
 10
556.0853922448459
 20
6.100000059604642
 30
0.0
 40
3.499999940395355
 41
0.0
 71
     7
 72
     1
  1
1
  7
Text poznámky (ISO)
 73
     1
 44
1.0
  0
MTEXT
  5
160
330
12C
100
AcDbEntity
  8
Rámeček (ISO)
100
AcDbMText
 10
481.5637915541735
 20
410.4
 30
0.0
 40
3.499999940395355
 41
0.0
 71
     7
 72
     1
  1
2
  7
Text poznámky (ISO)
 73
     1
 44
1.0
  0
MTEXT
  5
161
330
12C
100
AcDbEntity
  8
Rámeček (ISO)
100
AcDbMText
 10
481.5637915541735
 20
6.100000059604642
 30
0.0
 40
3.499999940395355
 41
0.0
 71
     7
 72
     1
  1
2
  7
Text poznámky (ISO)
 73
     1
 44
1.0
  0
MTEXT
  5
162
330
12C
100
AcDbEntity
  8
Rámeček (ISO)
100
AcDbMText
 10
407.2857914829701
 20
410.3262560764327
 30
0.0
 40
3.499999940395355
 41
0.0
 71
     7
 72
     1
  1
3
  7
Text poznámky (ISO)
 73
     1
 44
1.0
  0
MTEXT
  5
163
330
12C
100
AcDbEntity
  8
Rámeček (ISO)
100
AcDbMText
 10
407.2857914829701
 20
6.026256136037407
 30
0.0
 40
3.499999940395355
 41
0.0
 71
     7
 72
     1
  1
3
  7
Text poznámky (ISO)
 73
     1
 44
1.0
  0
MTEXT
  5
164
330
12C
100
AcDbEntity
  8
Rámeček (ISO)
100
AcDbMText
 10
332.9041911483145
 20
410.4
 30
0.0
 40
3.499999940395355
 41
0.0
 71
     7
 72
     1
  1
4
  7
Text poznámky (ISO)
 73
     1
 44
1.0
  0
MTEXT
  5
165
330
12C
100
AcDbEntity
  8
Rámeček (ISO)
100
AcDbMText
 10
332.9041911483145
 20
6.100000059604642
 30
0.0
 40
3.499999940395355
 41
0.0
 71
     7
 72
     1
  1
4
  7
Text poznámky (ISO)
 73
     1
 44
1.0
  0
MTEXT
  5
166
330
12C
100
AcDbEntity
  8
Rámeček (ISO)
100
AcDbMText
 10
258.8501916467381
 20
410.3262560764327
 30
0.0
 40
3.499999940395355
 41
0.0
 71
     7
 72
     1
  1
5
  7
Text poznámky (ISO)
 73
     1
 44
1.0
  0
MTEXT
  5
167
330
12C
100
AcDbEntity
  8
Rámeček (ISO)
100
AcDbMText
 10
258.8501916467381
 20
6.026256136037407
 30
0.0
 40
3.499999940395355
 41
0.0
 71
     7
 72
     1
  1
5
  7
Text poznámky (ISO)
 73
     1
 44
1.0
  0
MTEXT
  5
168
330
12C
100
AcDbEntity
  8
Rámeček (ISO)
100
AcDbMText
 10
184.5077914117669
 20
410.3262560764327
 30
0.0
 40
3.499999940395355
 41
0.0
 71
     7
 72
     1
  1
6
  7
Text poznámky (ISO)
 73
     1
 44
1.0
  0
MTEXT
  5
169
330
12C
100
AcDbEntity
  8
Rámeček (ISO)
100
AcDbMText
 10
184.5077914117669
 20
6.026256136037407
 30
0.0
 40
3.499999940395355
 41
0.0
 71
     7
 72
     1
  1
6
  7
Text poznámky (ISO)
 73
     1
 44
1.0
  0
MTEXT
  5
16A
330
12C
100
AcDbEntity
  8
Rámeček (ISO)
100
AcDbMText
 10
110.2913914972109
 20
410.4
 30
0.0
 40
3.499999940395355
 41
0.0
 71
     7
 72
     1
  1
7
  7
Text poznámky (ISO)
 73
     1
 44
1.0
  0
MTEXT
  5
16B
330
12C
100
AcDbEntity
  8
Rámeček (ISO)
100
AcDbMText
 10
110.2913914972109
 20
6.100000059604642
 30
0.0
 40
3.499999940395355
 41
0.0
 71
     7
 72
     1
  1
7
  7
Text poznámky (ISO)
 73
     1
 44
1.0
  0
MTEXT
  5
16C
330
12C
100
AcDbEntity
  8
Rámeček (ISO)
100
AcDbMText
 10
35.9825913476839
 20
410.3205834697932
 30
0.0
 40
3.499999940395355
 41
0.0
 71
     7
 72
     1
  1
8
  7
Text poznámky (ISO)
 73
     1
 44
1.0
  0
MTEXT
  5
16D
330
12C
100
AcDbEntity
  8
Rámeček (ISO)
100
AcDbMText
 10
35.9825913476839
 20
6.020583529397844
 30
0.0
 40
3.499999940395355
 41
0.0
 71
     7
 72
     1
  1
8
  7
Text poznámky (ISO)
 73
     1
 44
1.0
  0
LINE
  5
16E
330
12C
100
AcDbEntity
  8
Rámeček (ISO)
100
AcDbLine
 10
10.0
 20
70.0
 30
0.0
 11
6.100000143051147
 21
70.0
 31
0.0
  0
LINE
  5
16F
330
12C
100
AcDbEntity
  8
Rámeček (ISO)
100
AcDbLine
 10
584.0000152587889
 20
70.0
 30
0.0
 11
587.9000091552732
 21
70.0
 31
0.0
  0
LINE
  5
170
330
12C
100
AcDbEntity
  8
Rámeček (ISO)
100
AcDbLine
 10
10.0
 20
140.0
 30
0.0
 11
6.100000143051147
 21
140.0
 31
0.0
  0
LINE
  5
171
330
12C
100
AcDbEntity
  8
Rámeček (ISO)
100
AcDbLine
 10
584.0000152587889
 20
140.0
 30
0.0
 11
587.9000091552732
 21
140.0
 31
0.0
  0
LINE
  5
172
330
12C
100
AcDbEntity
  8
Rámeček (ISO)
100
AcDbLine
 10
10.0
 20
280.0
 30
0.0
 11
6.100000143051147
 21
280.0
 31
0.0
  0
LINE
  5
173
330
12C
100
AcDbEntity
  8
Rámeček (ISO)
100
AcDbLine
 10
584.0000152587889
 20
280.0
 30
0.0
 11
587.9000091552732
 21
280.0
 31
0.0
  0
LINE
  5
174
330
12C
100
AcDbEntity
  8
Rámeček (ISO)
100
AcDbLine
 10
10.0
 20
350.0
 30
0.0
 11
6.100000143051147
 21
350.0
 31
0.0
  0
LINE
  5
175
330
12C
100
AcDbEntity
  8
Rámeček (ISO)
100
AcDbLine
 10
584.0000152587889
 20
350.0
 30
0.0
 11
587.9000091552732
 21
350.0
 31
0.0
  0
MTEXT
  5
176
330
12C
100
AcDbEntity
  8
Rámeček (ISO)
100
AcDbMText
 10
6.361230343933396
 20
33.25000002980232
 30
0.0
 40
3.499999940395355
 41
0.0
 71
     7
 72
     1
  1
A
  7
Text poznámky (ISO)
 73
     1
 44
1.0
  0
MTEXT
  5
177
330
12C
100
AcDbEntity
  8
Rámeček (ISO)
100
AcDbMText
 10
584.6612302843287
 20
33.25000002980232
 30
0.0
 40
3.499999940395355
 41
0.0
 71
     7
 72
     1
  1
A
  7
Text poznámky (ISO)
 73
     1
 44
1.0
  0
MTEXT
  5
178
330
12C
100
AcDbEntity
  8
Rámeček (ISO)
100
AcDbMText
 10
6.781848468328937
 20
103.2500000298023
 30
0.0
 40
3.499999940395355
 41
0.0
 71
     7
 72
     1
  1
B
  7
Text poznámky (ISO)
 73
     1
 44
1.0
  0
MTEXT
  5
179
330
12C
100
AcDbEntity
  8
Rámeček (ISO)
100
AcDbMText
 10
585.0818484087242
 20
103.2500000298023
 30
0.0
 40
3.499999940395355
 41
0.0
 71
     7
 72
     1
  1
B
  7
Text poznámky (ISO)
 73
     1
 44
1.0
  0
MTEXT
  5
17A
330
12C
100
AcDbEntity
  8
Rámeček (ISO)
100
AcDbMText
 10
6.558903094188357
 20
173.1876013241708
 30
0.0
 40
3.499999940395355
 41
0.0
 71
     7
 72
     1
  1
C
  7
Text poznámky (ISO)
 73
     1
 44
1.0
  0
MTEXT
  5
17B
330
12C
100
AcDbEntity
  8
Rámeček (ISO)
100
AcDbMText
 10
584.8589030345837
 20
173.1876013241708
 30
0.0
 40
3.499999940395355
 41
0.0
 71
     7
 72
     1
  1
C
  7
Text poznámky (ISO)
 73
     1
 44
1.0
  0
MTEXT
  5
17C
330
12C
100
AcDbEntity
  8
Rámeček (ISO)
100
AcDbMText
 10
6.56770745709084
 20
243.2500000298023
 30
0.0
 40
3.499999940395355
 41
0.0
 71
     7
 72
     1
  1
D
  7
Text poznámky (ISO)
 73
     1
 44
1.0
  0
MTEXT
  5
17D
330
12C
100
AcDbEntity
  8
Rámeček (ISO)
100
AcDbMText
 10
584.8677073974861
 20
243.2500000298023
 30
0.0
 40
3.499999940395355
 41
0.0
 71
     7
 72
     1
  1
D
  7
Text poznámky (ISO)
 73
     1
 44
1.0
  0
MTEXT
  5
17E
330
12C
100
AcDbEntity
  8
Rámeček (ISO)
100
AcDbMText
 10
6.849919803883061
 20
313.2500000298023
 30
0.0
 40
3.499999940395355
 41
0.0
 71
     7
 72
     1
  1
E
  7
Text poznámky (ISO)
 73
     1
 44
1.0
  0
MTEXT
  5
17F
330
12C
100
AcDbEntity
  8
Rámeček (ISO)
100
AcDbMText
 10
585.1499197442782
 20
313.2500000298023
 30
0.0
 40
3.499999940395355
 41
0.0
 71
     7
 72
     1
  1
E
  7
Text poznámky (ISO)
 73
     1
 44
1.0
  0
MTEXT
  5
180
330
12C
100
AcDbEntity
  8
Rámeček (ISO)
100
AcDbMText
 10
6.944936015154347
 20
383.2500000298023
 30
0.0
 40
3.499999940395355
 41
0.0
 71
     7
 72
     1
  1
F
  7
Text poznámky (ISO)
 73
     1
 44
1.0
  0
MTEXT
  5
181
330
12C
100
AcDbEntity
  8
Rámeček (ISO)
100
AcDbMText
 10
585.2449359555496
 20
383.2500000298023
 30
0.0
 40
3.499999940395355
 41
0.0
 71
     7
 72
     1
  1
F
  7
Text poznámky (ISO)
 73
     1
 44
1.0
  0
ENDBLK
  5
12E
330
12C
100
AcDbEntity
  8
0
100
AcDbBlockEnd
  0
BLOCK
  5
184
330
183
100
AcDbEntity
  8
0
100
AcDbBlockBegin
  2
Rohová razítka ACO-razitko
 70
     2
 10
0.0
 20
0.0
 30
0.0
  3
Rohová razítka ACO-razitko
  1

  0
LINE
  5
186
330
183
100
AcDbEntity
  8
KOPF
  6
Continuous
370
    25
100
AcDbLine
 10
264.0
 20
94.01203200000001
 30
0.0
 11
264.0
 21
74.00000000000003
 31
0.0
  0
LINE
  5
187
330
183
100
AcDbEntity
  8
KOPF
  6
Continuous
370
    25
100
AcDbLine
 10
264.0
 20
94.01203200000001
 30
0.0
 11
264.0
 21
74.00000000000003
 31
0.0
  0
CIRCLE
  5
188
330
183
100
AcDbEntity
  8
TEXT50
  6
Continuous
370
    25
100
AcDbCircle
 10
247.5054493575618
 20
83.04852954632861
 30
0.0
 40
1.979948192651899
  0
LINE
  5
189
330
183
100
AcDbEntity
  8
TEXT50
  6
Continuous
370
    25
100
AcDbLine
 10
262.4910595621649
 20
85.02847773898061
 30
0.0
 11
262.4910595621649
 21
81.06858135367653
 31
0.0
  0
LINE
  5
18A
330
183
100
AcDbEntity
  8
TEXT50
  6
Continuous
370
    25
100
AcDbLine
 10
253.9413433929653
 20
87.07146289795376
 30
0.0
 11
253.9413433929653
 21
79.02559619470344
 31
0.0
  0
LINE
  5
18B
330
183
100
AcDbEntity
  8
TEXT50
  6
Continuous
370
    25
100
AcDbLine
 10
262.4910595621649
 20
85.02847773898061
 30
0.0
 11
253.9413433929653
 21
87.07146289795376
 31
0.0
  0
CIRCLE
  5
18C
330
183
100
AcDbEntity
  8
TEXT50
  6
Continuous
370
    25
100
AcDbCircle
 10
247.5054493575618
 20
83.04852954632861
 30
0.0
 40
4.022933351625178
  0
LINE
  5
18D
330
183
100
AcDbEntity
  8
TEXT50
  6
Continuous
370
    25
100
AcDbLine
 10
253.9413433929653
 20
79.02559619470344
 30
0.0
 11
262.4910595621649
 21
81.06858135367653
 31
0.0
  0
CIRCLE
  5
18E
330
183
100
AcDbEntity
  8
TEXT35
  6
Continuous
370
    25
100
AcDbCircle
 10
221.0936673107637
 20
101.9131972309053
 30
0.0
 40
2.281499999999998
  0
CIRCLE
  5
18F
330
183
100
AcDbEntity
  8
TEXT35
  6
Continuous
370
    25
100
AcDbCircle
 10
221.0936673107637
 20
101.9131972309053
 30
0.0
 40
1.579499999999999
  0
ARC
  5
190
330
183
100
AcDbEntity
  8
TEXT35
  6
Continuous
370
    25
100
AcDbCircle
 10
214.6291610736662
 20
101.9131972309054
 30
0.0
 40
1.57950000000007
100
AcDbArc
 50
31.05580049908738
 51
329.9999999999987
  0
LINE
  5
191
330
183
100
AcDbEntity
  8
TEXT35
  6
Continuous
370
    25
100
AcDbLine
 10
215.9822639109751
 20
102.7280180465864
 30
0.0
 11
216.5902852082589
 21
103.0790593062462
 31
0.0
  0
ARC
  5
192
330
183
100
AcDbEntity
  8
TEXT35
  6
Continuous
370
    25
100
AcDbCircle
 10
214.6291610736662
 20
101.9131972309052
 30
0.0
 40
2.281500000000015
100
AcDbArc
 50
30.73091726592628
 51
330.0000000000017
  0
LINE
  5
193
330
183
100
AcDbEntity
  8
TEXT35
  6
Continuous
370
    25
100
AcDbLine
 10
216.6049980324005
 20
100.7724472309053
 30
0.0
 11
215.9970481989438
 21
101.1234472309053
 31
0.0
  0
LINE
  5
194
330
183
100
AcDbEntity
  8
TEXT35
  6
Continuous
370
    25
100
AcDbLine
 10
211.8347763192409
 20
111.6789659312995
 30
0.0
 11
211.8347763192409
 21
98.44416361029551
 31
0.0
  0
LINE
  5
195
330
183
100
AcDbEntity
  8
TEXT35
  6
Continuous
370
    25
100
AcDbLine
 10
211.8347763192409
 20
98.44416361029551
 30
0.0
 11
217.4235458280916
 21
98.44416361029551
 31
0.0
  0
LINE
  5
196
330
183
100
AcDbEntity
  8
TEXT35
  6
Continuous
370
    25
100
AcDbLine
 10
217.4235458280916
 20
98.44416361029551
 30
0.0
 11
217.4235458280916
 21
111.6789659312995
 31
0.0
  0
LINE
  5
197
330
183
100
AcDbEntity
  8
TEXT35
  6
Continuous
370
    25
100
AcDbLine
 10
217.4235458280916
 20
111.6789659312995
 30
0.0
 11
211.8347763192409
 21
111.6789659312995
 31
0.0
  0
LINE
  5
198
330
183
100
AcDbEntity
  8
TEXT35
  6
Continuous
370
    25
100
AcDbLine
 10
223.888052065189
 20
111.6789659312995
 30
0.0
 11
223.888052065189
 21
98.44416361029551
 31
0.0
  0
LINE
  5
199
330
183
100
AcDbEntity
  8
TEXT35
  6
Continuous
370
    25
100
AcDbLine
 10
223.888052065189
 20
98.44416361029551
 30
0.0
 11
218.2992825563384
 21
98.44416361029551
 31
0.0
  0
LINE
  5
19A
330
183
100
AcDbEntity
  8
TEXT35
  6
Continuous
370
    25
100
AcDbLine
 10
218.2992825563384
 20
98.44416361029551
 30
0.0
 11
218.2992825563384
 21
111.6789659312995
 31
0.0
  0
LINE
  5
19B
330
183
100
AcDbEntity
  8
TEXT35
  6
Continuous
370
    25
100
AcDbLine
 10
218.2992825563384
 20
111.6789659312995
 30
0.0
 11
223.888052065189
 21
111.6789659312995
 31
0.0
  0
ARC
  5
19C
330
183
100
AcDbEntity
  8
TEXT35
  6
Continuous
370
    25
100
AcDbCircle
 10
211.499154836569
 20
99.57623034270234
 30
0.0
 40
4.914000000000251
100
AcDbArc
 50
172.305837035409
 51
179.7113029220757
  0
LINE
  5
19D
330
183
100
AcDbEntity
  8
TEXT35
  6
Continuous
370
    25
100
AcDbLine
 10
206.6293963427935
 20
100.2341423522474
 30
0.0
 11
209.6999133303443
 21
100.2341423522474
 31
0.0
  0
ARC
  5
19E
330
183
100
AcDbEntity
  8
TEXT35
  6
Continuous
370
    25
100
AcDbCircle
 10
204.8301548365688
 20
99.57623034270323
 30
0.0
 40
4.914000000000132
100
AcDbArc
 50
0.2886970779141535
 51
7.694162964580896
  0
LINE
  5
19F
330
183
100
AcDbEntity
  8
TEXT35
  6
Continuous
370
    25
100
AcDbLine
 10
209.7440924568018
 20
99.60099048123304
 30
0.0
 11
210.4461002543538
 21
99.60099048123304
 31
0.0
  0
ARC
  5
1A0
330
183
100
AcDbEntity
  8
TEXT35
  6
Continuous
370
    25
100
AcDbCircle
 10
204.8301548365688
 20
99.5762303427033
 30
0.0
 40
5.616000000000016
100
AcDbArc
 50
0.2526096926473688
 51
53.57642635766914
  0
ARC
  5
1A1
330
183
100
AcDbEntity
  8
TEXT35
  6
Continuous
370
    25
100
AcDbCircle
 10
211.4991548365688
 20
99.57623034270323
 30
0.0
 40
5.616000000000023
100
AcDbArc
 50
126.4235736423304
 51
179.7473903073512
  0
LINE
  5
1A2
330
183
100
AcDbEntity
  8
TEXT35
  6
Continuous
370
    25
100
AcDbLine
 10
205.8832094187838
 20
99.60099048123304
 30
0.0
 11
206.5852172163358
 21
99.60099048123304
 31
0.0
  0
LINE
  5
1A3
330
183
100
AcDbEntity
  8
TEXT35
  6
Continuous
370
    25
100
AcDbLine
 10
205.3702700821435
 20
111.6789659312995
 30
0.0
 11
205.3702700821435
 21
98.44416361029551
 31
0.0
  0
LINE
  5
1A4
330
183
100
AcDbEntity
  8
TEXT35
  6
Continuous
370
    25
100
AcDbLine
 10
205.3702700821435
 20
98.44416361029551
 30
0.0
 11
210.9590395909941
 21
98.44416361029551
 31
0.0
  0
LINE
  5
1A5
330
183
100
AcDbEntity
  8
TEXT35
  6
Continuous
370
    25
100
AcDbLine
 10
210.9590395909941
 20
98.44416361029551
 30
0.0
 11
210.9590395909941
 21
111.6789659312995
 31
0.0
  0
LINE
  5
1A6
330
183
100
AcDbEntity
  8
TEXT35
  6
Continuous
370
    25
100
AcDbLine
 10
210.9590395909941
 20
111.6789659312995
 30
0.0
 11
205.3702700821435
 21
111.6789659312995
 31
0.0
  0
ARC
  5
1A7
330
183
100
AcDbEntity
  8
TEXT35
  6
Continuous
370
    25
100
AcDbCircle
 10
204.830154836569
 20
99.57623034270341
 30
0.0
 40
4.913999999999818
100
AcDbArc
 50
16.0658750272321
 51
47.26788995739759
  0
LINE
  5
1A8
330
183
100
AcDbEntity
  8
TEXT35
  6
Continuous
370
    25
100
AcDbLine
 10
209.5522343918387
 20
100.9361423522474
 30
0.0
 11
206.7770752812989
 21
100.9361423522474
 31
0.0
  0
ARC
  5
1A9
330
183
100
AcDbEntity
  8
TEXT35
  6
Continuous
370
    25
100
AcDbCircle
 10
211.4991548365683
 20
99.57623034270341
 30
0.0
 40
4.913999999999566
100
AcDbArc
 50
132.7321100425983
 51
163.9341249727667
  0
LINE
  5
1AA
330
183
100
AcDbEntity
  8
Nadpis (ISO)
100
AcDbLine
 10
299.0
 20
114.0
 30
0.0
 11
299.0
 21
45.0
 31
0.0
  0
LINE
  5
1AB
330
183
100
AcDbEntity
  8
Nadpis (ISO)
100
AcDbLine
 10
299.0
 20
45.0
 30
0.0
 11
117.0
 21
44.99999999999999
 31
0.0
  0
LINE
  5
1AC
330
183
100
AcDbEntity
  8
Nadpis (ISO)
100
AcDbLine
 10
117.0
 20
44.99999999999999
 30
0.0
 11
117.0
 21
114.0
 31
0.0
  0
LINE
  5
1AD
330
183
100
AcDbEntity
  8
Nadpis (ISO)
100
AcDbLine
 10
117.0
 20
114.0
 30
0.0
 11
299.0
 21
114.0
 31
0.0
  0
LINE
  5
1AE
330
183
100
AcDbEntity
  8
Nadpis (ISO)
100
AcDbLine
 10
199.0
 20
114.0
 30
0.0
 11
199.0
 21
93.99999999999998
 31
0.0
  0
LINE
  5
1AF
330
183
100
AcDbEntity
  8
KOPF
100
AcDbLine
 10
199.0
 20
104.0
 30
0.0
 11
117.0
 21
104.0
 31
0.0
  0
LINE
  5
1B0
330
183
100
AcDbEntity
  8
Nadpis (ISO)
100
AcDbLine
 10
199.0
 20
93.99999999999998
 30
0.0
 11
117.0
 21
93.99999999999996
 31
0.0
  0
LINE
  5
1B1
330
183
100
AcDbEntity
  8
KOPF
100
AcDbLine
 10
158.0
 20
93.99999999999998
 30
0.0
 11
158.0
 21
114.0
 31
0.0
  0
LINE
  5
1B2
330
183
100
AcDbEntity
  8
Nadpis (ISO)
100
AcDbLine
 10
199.0
 20
93.99999999999998
 30
0.0
 11
299.0
 21
93.99999999999998
 31
0.0
  0
LINE
  5
1B3
330
183
100
AcDbEntity
  8
Nadpis (ISO)
100
AcDbLine
 10
216.0
 20
94.00000000000003
 30
0.0
 11
216.0
 21
44.99999999999999
 31
0.0
  0
LINE
  5
1B4
330
183
100
AcDbEntity
  8
Nadpis (ISO)
100
AcDbLine
 10
299.0
 20
74.00000000000004
 30
0.0
 11
117.0
 21
73.99999999999998
 31
0.0
  0
LINE
  5
1B5
330
183
100
AcDbEntity
  8
Nadpis (ISO)
100
AcDbLine
 10
186.0
 20
94.0
 30
0.0
 11
186.0
 21
74.00000000000002
 31
0.0
  0
LINE
  5
1B6
330
183
100
AcDbEntity
  8
KOPF
100
AcDbLine
 10
137.0
 20
93.99999999999998
 30
0.0
 11
137.0
 21
74.0
 31
0.0
  0
LINE
  5
1B7
330
183
100
AcDbEntity
  8
KOPF
100
AcDbLine
 10
162.0
 20
93.99999999999998
 30
0.0
 11
162.0
 21
74.0
 31
0.0
  0
LINE
  5
1B8
330
183
100
AcDbEntity
  8
KOPF
100
AcDbLine
 10
186.0
 20
84.0
 30
0.0
 11
117.0
 21
83.99999999999996
 31
0.0
  0
LINE
  5
1B9
330
183
100
AcDbEntity
  8
KOPF
100
AcDbLine
 10
186.0
 20
79.0
 30
0.0
 11
117.0
 21
78.99999999999997
 31
0.0
  0
LINE
  5
1BA
330
183
100
AcDbEntity
  8
KOPF
100
AcDbLine
 10
186.0
 20
89.0
 30
0.0
 11
117.0
 21
88.99999999999996
 31
0.0
  0
LINE
  5
1BB
330
183
100
AcDbEntity
  8
KOPF
100
AcDbLine
 10
216.0
 20
50.0
 30
0.0
 11
299.0
 21
50.0
 31
0.0
  0
LINE
  5
1BC
330
183
100
AcDbEntity
  8
Nadpis (ISO)
100
AcDbLine
 10
216.0
 20
55.0
 30
0.0
 11
299.0
 21
55.0
 31
0.0
  0
LINE
  5
1BD
330
183
100
AcDbEntity
  8
KOPF
100
AcDbLine
 10
238.0000000000001
 20
93.99999999999998
 30
0.0
 11
238.0000000000001
 21
74.00000000000003
 31
0.0
  0
LINE
  5
1BE
330
183
100
AcDbEntity
  8
KOPF
100
AcDbLine
 10
238.0000000000001
 20
84.00000000000003
 30
0.0
 11
216.0
 21
84.00000000000003
 31
0.0
  0
LINE
  5
1BF
330
183
100
AcDbEntity
  8
Nadpis (ISO)
100
AcDbLine
 10
287.0
 20
74.00000000000004
 30
0.0
 11
287.0
 21
55.0
 31
0.0
  0
LINE
  5
1C0
330
183
100
AcDbEntity
  8
KOPF
100
AcDbLine
 10
289.0
 20
50.0
 30
0.0
 11
289.0
 21
45.0
 31
0.0
  0
LINE
  5
1C1
330
183
100
AcDbEntity
  8
Nadpis (ISO)
100
AcDbLine
 10
260.9160465310349
 20
50.0
 30
0.0
 11
260.9160465310349
 21
45.0
 31
0.0
  0
TEXT
  5
1C3
330
183
100
AcDbEntity
  8
Viditelná tenká (ISO)
100
AcDbText
 10
266.0
 20
84.97994933403729
 30
0.0
 40
1.539999991655349
  1
zum Zweck anderweitiger Benutzung
 41
0.7999999523162842
  7
Styl textu62
100
AcDbText
  0
TEXT
  5
1C5
330
183
100
AcDbEntity
  8
Viditelná tenká (ISO)
100
AcDbText
 10
266.0
 20
82.63814072439631
 30
0.0
 40
1.539999991655349
  1
mitgeteilt werden und bleibt unser
 41
0.7999999523162842
  7
Styl textu62
100
AcDbText
  0
TEXT
  5
1C6
330
183
100
AcDbEntity
  8
Viditelná tenká (ISO)
100
AcDbText
 10
266.0
 20
87.26106040199921
 30
0.0
 40
1.539999991655349
  1
noch dritten Personen, insbesondere
 41
0.7999999523162842
  7
Styl textu62
100
AcDbText
  0
TEXT
  5
1C7
330
183
100
AcDbEntity
  8
Viditelná tenká (ISO)
100
AcDbText
 10
266.0
 20
89.6282322587214
 30
0.0
 40
1.539999991655349
  1
Diese Zeichnung darf weder kopiert
 41
0.7999999523162842
  7
Styl textu62
100
AcDbText
  0
TEXT
  5
1C8
330
183
100
AcDbEntity
  8
Viditelná tenká (ISO)
100
AcDbText
 10
266.0
 20
80.37532604459597
 30
0.0
 40
1.539999991655349
  1
Eigentum.
 41
0.7999999523162842
  7
Styl textu62
100
AcDbText
  0
TEXT
  5
1CA
330
183
100
AcDbEntity
  8
Viditelná tenká (ISO)
100
AcDbText
 10
241.877559521167
 20
90.82431699999998
 30
0.0
 40
2.000000029802321
  1
Projektion: ISO-E
 41
0.7999999523162842
  7
Styl textu58
100
AcDbText
  0
TEXT
  5
1CC
330
183
100
AcDbEntity
  8
Viditelná tenká (ISO)
100
AcDbText
 10
266.0
 20
77.30982488917627
 30
0.0
 40
1.539999991655349
  1
Schutzvermerk nach DIN 34 beachten
 41
0.75
  7
Styl textu63
100
AcDbText
  0
TEXT
  5
1CD
330
183
100
AcDbEntity
  8
Viditelná tenká (ISO)
100
AcDbText
 10
236.2487793316645
 20
99.38243367792949
 30
0.0
 40
2.000000029802321
  1
582 22 Přibyslav
 41
0.7999999523162842
  7
Styl textu58
100
AcDbText
  0
TEXT
  5
1CF
330
183
100
AcDbEntity
  8
Viditelná tenká (ISO)
100
AcDbText
 10
261.6984261202779
 20
99.57784645000472
 30
0.0
 40
2.099999934434889
  1
Fax: 0451 / 482529
 41
0.7000000476837159
  7
Styl textu72
100
AcDbText
  0
TEXT
  5
1D0
330
183
100
AcDbEntity
  8
Viditelná tenká (ISO)
100
AcDbText
 10
236.5351154208068
 20
103.0087314099309
 30
0.0
 40
2.000000029802321
  1
Havličkova 260
 41
0.7999999523162842
  7
Styl textu58
100
AcDbText
  0
TEXT
  5
1D2
330
183
100
AcDbEntity
  8
TEXT35
100
AcDbText
 10
235.9801354774567
 20
108.2018007493417
 30
0.0
 40
3.000000119209288
  1
ACO Stavebni prvky k.s
 41
0.7999999523162842
  7
Styl textu75
100
AcDbText
  0
TEXT
  5
1D3
330
183
100
AcDbEntity
  8
Viditelná tenká (ISO)
100
AcDbText
 10
261.6456899832647
 20
102.9064533471121
 30
0.0
 40
2.099999934434889
  1
Tel.: 0451 / 491660
 41
0.7000000476837159
  7
Styl textu72
100
AcDbText
  0
MTEXT
  5
1D4
330
183
100
AcDbEntity
  8
Viditelná tenká (ISO)
100
AcDbMText
 10
217.3570092483237
 20
73.27889989032858
 30
0.0
 40
2.000000029802321
 41
0.0
 71
     1
 72
     1
  1
\fArial|b0|i0;\H2.0000;Zeichnung Nr.
  7
Text poznámky (ISO)
 73
     1
 44
1.0
  0
MTEXT
  5
1D5
330
183
100
AcDbEntity
  8
Viditelná tenká (ISO)
100
AcDbMText
 10
287.9433731401013
 20
72.84063462326732
 30
0.0
 40
2.000000029802321
 41
0.0
 71
     1
 72
     1
  1
\fArial|b0|i0;\H2.0000;Index
  7
Text poznámky (ISO)
 73
     1
 44
1.0
  0
MTEXT
  5
1D6
330
183
100
AcDbEntity
  8
Viditelná tenká (ISO)
100
AcDbMText
 10
217.1230582952341
 20
52.63510416823109
 30
0.0
 40
2.000000029802321
 41
0.0
 71
     1
 72
     1
  1
\fArial|b0|i0;\H2.0000;Ersatz fur\PErsatz durch
  7
Text poznámky (ISO)
 73
     2
 44
0.9442214369773862
  0
MTEXT
  5
1D7
330
183
100
AcDbEntity
  8
Viditelná tenká (ISO)
100
AcDbMText
 10
188.9161081342839
 20
93.0
 30
0.0
 40
2.000000029802321
 41
0.0
 71
     1
 72
     1
  1
\fArial|b0|i0;\H2.0000;Massstab
  7
Text poznámky (ISO)
 73
     1
 44
1.0
  0
MTEXT
  5
1D8
330
183
100
AcDbEntity
  8
Viditelná tenká (ISO)
100
AcDbMText
 10
217.0
 20
93.0
 30
0.0
 40
2.000000029802321
 41
0.0
 71
     1
 72
     1
  1
\fArial|b0|i0;\H2.0000;Masseinheit
  7
Text poznámky (ISO)
 73
     1
 44
1.0
  0
MTEXT
  5
1D9
330
183
100
AcDbEntity
  8
Viditelná tenká (ISO)
100
AcDbMText
 10
118.0
 20
113.0
 30
0.0
 40
2.000000029802321
 41
0.0
 71
     1
 72
     1
  1
\fArial|b0|i0;\H2.0000;Werkstoff.
  7
Text poznámky (ISO)
 73
     1
 44
1.0
  0
MTEXT
  5
1DA
330
183
100
AcDbEntity
  8
Viditelná tenká (ISO)
100
AcDbMText
 10
159.0
 20
113.0
 30
0.0
 40
2.000000029802321
 41
0.0
 71
     1
 72
     1
  1
\fArial|b0|i0;\H2.0000;Hmotnost
  7
Text poznámky (ISO)
 73
     1
 44
1.0
  0
MTEXT
  5
1DB
330
183
100
AcDbEntity
  8
Viditelná tenká (ISO)
100
AcDbMText
 10
118.0
 20
103.0
 30
0.0
 40
2.000000029802321
 41
0.0
 71
     1
 72
     1
  1
\fArial|b0|i0;\H2.0000;zul.Abweich.
  7
Text poznámky (ISO)
 73
     1
 44
1.0
  0
MTEXT
  5
1DC
330
183
100
AcDbEntity
  8
Viditelná tenká (ISO)
100
AcDbMText
 10
159.0
 20
103.0
 30
0.0
 40
2.000000029802321
 41
0.0
 71
     1
 72
     1
  1
\fArial|b0|i0;\H2.0000;Oberflache
  7
Text poznámky (ISO)
 73
     1
 44
1.0
  0
MTEXT
  5
1DD
330
183
100
AcDbEntity
  8
Viditelná tenká (ISO)
100
AcDbMText
 10
118.2064366962235
 20
87.52498463872976
 30
0.0
 40
2.000000029802321
 41
0.0
 71
     1
 72
     1
  1
\fArial|b0|i0;\H2.0000;Gezeichnet
  7
Text poznámky (ISO)
 73
     1
 44
1.0
  0
MTEXT
  5
1DE
330
183
100
AcDbEntity
  8
Viditelná tenká (ISO)
100
AcDbMText
 10
118.2064366962235
 20
82.79398756785594
 30
0.0
 40
2.000000029802321
 41
0.0
 71
     1
 72
     1
  1
\fArial|b0|i0;\H2.0000;Gepruft
  7
Text poznámky (ISO)
 73
     1
 44
1.0
  0
MTEXT
  5
1DF
330
183
100
AcDbEntity
  8
Viditelná tenká (ISO)
100
AcDbMText
 10
118.2064366962235
 20
77.59713566222233
 30
0.0
 40
2.000000029802321
 41
0.0
 71
     1
 72
     1
  1
\fArial|b0|i0;\H2.0000;Update
  7
Text poznámky (ISO)
 73
     1
 44
1.0
  0
MTEXT
  5
1E0
330
183
100
AcDbEntity
  8
Viditelná tenká (ISO)
100
AcDbMText
 10
143.0
 20
93.0
 30
0.0
 40
2.000000029802321
 41
0.0
 71
     1
 72
     1
  1
\fArial|b0|i0;\H2.0000;Datum
  7
Text poznámky (ISO)
 73
     1
 44
1.0
  0
MTEXT
  5
1E1
330
183
100
AcDbEntity
  8
Viditelná tenká (ISO)
100
AcDbMText
 10
170.0
 20
93.0
 30
0.0
 40
2.000000029802321
 41
0.0
 71
     1
 72
     1
  1
\fArial|b0|i0;\H2.0000;Name
  7
Text poznámky (ISO)
 73
     1
 44
1.0
  0
MTEXT
  5
1E2
102
{ACAD_XDICTIONARY
360
4DA8
102
}
330
183
100
AcDbEntity
  8
Nadpis (ISO)
100
AcDbMText
 10
118.0
 20
71.0
 30
0.0
 40
3.499999940395355
 41
0.0
 71
     1
 72
     1
  1
Effidrain sestava dvoud\U+00EDln\U+00E1  157 vodorovn\U+00E1
  7
Text poznámky (ISO)
 73
     1
 44
1.0
  0
MTEXT
  5
1E3
330
183
100
AcDbEntity
  8
Nadpis (ISO)
100
AcDbMText
 10
138.6542642016321
 20
87.78242706242744
 30
0.0
 40
2.000000029802321
 41
0.0
 71
     1
 72
     1
  1
\fTahoma|b0|i0;\H2.0000;11.8.2009
  7
Text poznámky (ISO)
 73
     1
 44
1.0
  0
MTEXT
  5
1E4
330
183
100
AcDbEntity
  8
Nadpis (ISO)
100
AcDbMText
 10
118.9147684950603
 20
98.79632878646518
 30
0.0
 40
3.499999940395355
 41
0.0
 71
     1
 72
     1
  1
ISO 2768-m
  7
Text poznámky (ISO)
 73
     1
 44
1.0
  0
MTEXT
  5
1E5
330
183
100
AcDbEntity
  8
Nadpis (ISO)
100
AcDbMText
 10
162.5831033854
 20
99.20167780246003
 30
0.0
 40
3.499999940395355
 41
0.0
 71
     1
 72
     1
  1
DIN ISO 1302
  7
Text poznámky (ISO)
 73
     1
 44
1.0
  0
MTEXT
  5
1E6
330
183
100
AcDbEntity
  8
Nadpis (ISO)
100
AcDbMText
 10
262.4743825961981
 20
49.17778241269704
 30
0.0
 40
3.499999940395355
 41
0.0
 71
     1
 72
     1
  1
\fArial|b0|i0;\H3.5000;List:\fArial|b0|i0;\H3.5000;1 \fArial|b0|i0;\H3.5000;/\fArial|b0|i0;\H3.5000;1 
  7
Text poznámky (ISO)
 73
     1
 44
1.0
  0
MTEXT
  5
1E7
102
{ACAD_XDICTIONARY
360
4DAA
102
}
330
183
100
AcDbEntity
  8
Nadpis (ISO)
100
AcDbMText
 10
159.4396788094336
 20
109.2360383310952
 30
0.0
 40
3.499999940395355
 41
29.10098367733216
 71
     1
 72
     1
  1
Nen\U+00ED k dispozici
  7
Text poznámky (ISO)
 73
     2
 44
0.9878841638565063
  0
ATTDEF
  5
1E9
102
{ACAD_XDICTIONARY
360
471E
102
}
330
183
100
AcDbEntity
  8
Nadpis (ISO)
100
AcDbText
 10
287.4393862219839
 20
62.4856753668063
 30
0.0
 40
3.499999940395355
  1
001
  7
Styl textu9
100
AcDbAttributeDefinition
  3
ČÍSLO REVIZE
  2
ČÍSLO_REVIZE_001
 70
     0
  0
ATTDEF
  5
1ED
102
{ACAD_XDICTIONARY
360
4721
102
}
330
183
100
AcDbEntity
  8
Nadpis (ISO)
100
AcDbText
 10
289.7753402652471
 20
46.32882590415592
 30
0.0
 40
2.000000029802321
  1
A2
  7
Styl textu40
100
AcDbAttributeDefinition
  3
Sheet Size
  2
Sheet_Size_001
 70
     0
  0
ATTDEF
  5
1EE
102
{ACAD_XDICTIONARY
360
4724
102
}
330
183
100
AcDbEntity
  8
Nadpis (ISO)
100
AcDbText
 10
230.1305737493188
 20
51.10091360311345
 30
0.0
 40
2.000000029802321
  1
C:\Inventor_DATA\Projekty\Guly\Effidrain\Effidrain sestava dvoudílná  157 vodorovná\408074.iam
  7
Styl textu40
100
AcDbAttributeDefinition
  3
FILENAME AND PATH
  2
FILENAME_AND_PATH_001
 70
     0
  0
ATTDEF
  5
1EF
102
{ACAD_XDICTIONARY
360
4727
102
}
330
183
100
AcDbEntity
  8
Nadpis (ISO)
100
AcDbText
 10
217.9059771674843
 20
62.42008065196634
 30
0.0
 40
3.499999940395355
  1
408074
  7
Text poznámky (ISO)
100
AcDbAttributeDefinition
  3
PART NUMBER
  2
PART_NUMBER_001
 70
     0
  0
ATTDEF
  5
1F0
102
{ACAD_XDICTIONARY
360
472A
102
}
330
183
100
AcDbEntity
  8
Nadpis (ISO)
100
AcDbText
 10
118.0
 20
56.50000005960464
 30
0.0
 40
3.499999940395355
  1

  7
Text poznámky (ISO)
 11
118.0
 21
60.0
 31
0.0
100
AcDbAttributeDefinition
  3
PROJECT
  2
PROJECT
 70
     0
 74
     3
  0
ATTDEF
  5
1F2
102
{ACAD_XDICTIONARY
360
472D
102
}
330
183
100
AcDbEntity
  8
Nadpis (ISO)
100
AcDbText
 10
117.8119543349687
 20
47.73407435882505
 30
0.0
 40
6.99999988079071
  1
408074
  7
Styl textu94
100
AcDbAttributeDefinition
  3
SKLADOVÉ ČÍSLO
  2
SKLADOVÉ_ČÍSLO_001
 70
     0
  0
ATTDEF
  5
1F3
102
{ACAD_XDICTIONARY
360
4730
102
}
330
183
100
AcDbEntity
  8
Nadpis (ISO)
100
AcDbText
 10
117.5939056808251
 20
105.1756658592857
 30
0.0
 40
3.499999940395355
  1

  7
Text poznámky (ISO)
 11
117.5939056808251
 21
108.6756657996811
 31
0.0
100
AcDbAttributeDefinition
  3
MATERIAL
  2
MATERIAL
 70
     0
 74
     3
  0
ATTDEF
  5
1F4
102
{ACAD_XDICTIONARY
360
4733
102
}
330
183
100
AcDbEntity
  8
Nadpis (ISO)
100
AcDbText
 10
165.0470513532835
 20
85.78242703262512
 30
0.0
 40
2.000000029802321
  1
pmacoun
  7
Styl textu40
100
AcDbAttributeDefinition
  3
AUTHOR
  2
AUTHOR_001
 70
     0
  0
ATTDEF
  5
1F5
102
{ACAD_XDICTIONARY
360
4736
102
}
330
183
100
AcDbEntity
  8
Nadpis (ISO)
100
AcDbText
 10
189.1855699863978
 20
82.50038826992808
 30
0.0
 40
3.499999940395355
  1

  7
Text poznámky (ISO)
 11
189.1855699863978
 21
86.00038821032343
 31
0.0
100
AcDbAttributeDefinition
  3
VS_First
  2
VS_First
 70
     0
 74
     3
  0
ENDBLK
  5
185
330
183
100
AcDbEntity
  8
0
100
AcDbBlockEnd
  0
BLOCK
  5
411E
330
411D
100
AcDbEntity
  8
0
100
AcDbBlockBegin
  2
KUSOVNÍK
 70
     0
 10
0.0
 20
0.0
 30
0.0
  3
KUSOVNÍK
  1

  0
LINE
  5
4120
330
411D
100
AcDbEntity
  8
Značka (ISO)
100
AcDbLine
 10
584.0
 20
142.4870119690895
 30
0.0
 11
334.0860982182722
 21
142.4870119690895
 31
0.0
  0
LINE
  5
4121
330
411D
100
AcDbEntity
  8
Značka (ISO)
100
AcDbLine
 10
584.0
 20
142.4870119690895
 30
0.0
 11
584.0
 21
136.1383107721806
 31
0.0
  0
LINE
  5
4122
330
411D
100
AcDbEntity
  8
Značka (ISO)
100
AcDbLine
 10
334.0860982182722
 20
142.4870119690895
 30
0.0
 11
334.0860982182722
 21
136.1383107721806
 31
0.0
  0
MTEXT
  5
4123
102
{ACAD_XDICTIONARY
360
4DAC
102
}
330
411D
100
AcDbEntity
  8
Značka (ISO)
100
AcDbMText
 10
448.4996706976054
 20
136.8629860192537
 30
0.0
 40
3.499999940395355
 41
0.0
 71
     7
 72
     1
  1
KUSOVN\U+00CDK
  7
Text poznámky (DIN)
 73
     1
 44
1.0
  0
LINE
  5
4125
330
411D
100
AcDbEntity
  8
Značka (ISO)
100
AcDbLine
 10
584.0
 20
136.1383107721806
 30
0.0
 11
334.0860982182722
 21
136.1383107721806
 31
0.0
  0
LINE
  5
4126
330
411D
100
AcDbEntity
  8
Značka (ISO)
100
AcDbLine
 10
584.0
 20
136.1383107721806
 30
0.0
 11
584.0
 21
129.7896095752716
 31
0.0
  0
MTEXT
  5
4127
102
{ACAD_XDICTIONARY
360
4DAE
102
}
330
411D
100
AcDbEntity
  8
Značka (ISO)
100
AcDbMText
 10
543.2734355730802
 20
130.5142848223448
 30
0.0
 40
3.499999940395355
 41
0.0
 71
     7
 72
     1
  1
MATERI\U+00C1L
  7
Text poznámky (DIN)
 73
     1
 44
1.0
  0
LINE
  5
4128
330
411D
100
AcDbEntity
  8
Značka (ISO)
100
AcDbLine
 10
522.9323292555377
 20
136.1383107721806
 30
0.0
 11
522.9323292555377
 21
129.7896095752716
 31
0.0
  0
MTEXT
  5
4129
330
411D
100
AcDbEntity
  8
Značka (ISO)
100
AcDbMText
 10
499.1646004392678
 20
131.2139602035284
 30
0.0
 40
3.499999940395355
 41
0.0
 71
     7
 72
     1
  1
HMOTNOST
  7
Text poznámky (DIN)
 73
     1
 44
1.0
  0
LINE
  5
412A
330
411D
100
AcDbEntity
  8
Značka (ISO)
100
AcDbLine
 10
497.5323292555377
 20
136.1383107721806
 30
0.0
 11
497.5323292555377
 21
129.7896095752716
 31
0.0
  0
MTEXT
  5
412B
102
{ACAD_XDICTIONARY
360
4DB0
102
}
330
411D
100
AcDbEntity
  8
Značka (ISO)
100
AcDbMText
 10
473.9399251176886
 20
130.5142848223448
 30
0.0
 40
3.499999940395355
 41
0.0
 71
     7
 72
     1
  1
SKLADOV\U+00C9
  7
Text poznámky (DIN)
 73
     1
 44
1.0
  0
LINE
  5
412C
330
411D
100
AcDbEntity
  8
Značka (ISO)
100
AcDbLine
 10
472.1323292555378
 20
136.1383107721806
 30
0.0
 11
472.1323292555378
 21
129.7896095752716
 31
0.0
  0
MTEXT
  5
412D
330
411D
100
AcDbEntity
  8
Značka (ISO)
100
AcDbMText
 10
409.0590171381375
 20
131.2139602035284
 30
0.0
 40
3.499999940395355
 41
0.0
 71
     7
 72
     1
  1
POPIS
  7
Text poznámky (DIN)
 73
     1
 44
1.0
  0
LINE
  5
412E
330
411D
100
AcDbEntity
  8
Značka (ISO)
100
AcDbLine
 10
357.624409199069
 20
136.1383107721806
 30
0.0
 11
357.624409199069
 21
129.7896095752716
 31
0.0
  0
MTEXT
  5
412F
330
411D
100
AcDbEntity
  8
Značka (ISO)
100
AcDbMText
 10
351.4294075146427
 20
131.2139602035284
 30
0.0
 40
3.499999940395355
 41
0.0
 71
     7
 72
     1
  1
KS
  7
Text poznámky (DIN)
 73
     1
 44
1.0
  0
LINE
  5
4130
330
411D
100
AcDbEntity
  8
Značka (ISO)
100
AcDbLine
 10
350.2270067456465
 20
136.1383107721806
 30
0.0
 11
350.2270067456465
 21
129.7896095752716
 31
0.0
  0
MTEXT
  5
4131
330
411D
100
AcDbEntity
  8
Značka (ISO)
100
AcDbMText
 10
335.2884989872683
 20
131.2139602035284
 30
0.0
 40
3.499999940395355
 41
0.0
 71
     7
 72
     1
  1
POZICE
  7
Text poznámky (DIN)
 73
     1
 44
1.0
  0
LINE
  5
4132
330
411D
100
AcDbEntity
  8
Značka (ISO)
100
AcDbLine
 10
334.0860982182722
 20
136.1383107721806
 30
0.0
 11
334.0860982182722
 21
129.7896095752716
 31
0.0
  0
MTEXT
  5
4133
330
411D
100
AcDbEntity
  8
Značka (ISO)
100
AcDbMText
 10
524.1347300245338
 20
124.8652590066195
 30
0.0
 40
3.499999940395355
 41
0.0
 71
     7
 72
     1
  1
AISI 304
  7
Text poznámky (DIN)
 73
     1
 44
1.0
  0
MTEXT
  5
4134
330
411D
100
AcDbEntity
  8
Značka (ISO)
100
AcDbMText
 10
498.7347300245338
 20
123.8165577501059
 30
0.0
 40
3.499999940395355
 41
0.0
 71
     7
 72
     1
  1
2,179 kg
  7
Text poznámky (DIN)
 73
     1
 44
1.0
  0
MTEXT
  5
4135
330
411D
100
AcDbEntity
  8
Značka (ISO)
100
AcDbMText
 10
473.3347300245338
 20
124.8652590066195
 30
0.0
 40
3.499999940395355
 41
0.0
 71
     7
 72
     1
  1
E23616
  7
Text poznámky (DIN)
 73
     1
 44
1.0
  0
MTEXT
  5
4136
102
{ACAD_XDICTIONARY
360
4DB2
102
}
330
411D
100
AcDbEntity
  8
Značka (ISO)
100
AcDbMText
 10
358.8268099680651
 20
124.6915576606989
 30
0.0
 40
3.499999940395355
 41
0.0
 71
     7
 72
     1
  1
Effidrai dvoud\U+00EDln\U+00E1  157/DN70 vodorovn\U+00E1 tavn\U+00E1 
  7
Text poznámky (DIN)
 73
     1
 44
1.0
  0
MTEXT
  5
4137
102
{ACAD_XDICTIONARY
360
4DB4
102
}
330
411D
100
AcDbEntity
  8
Značka (ISO)
100
AcDbMText
 10
358.8268099680651
 20
117.2941552847624
 30
0.0
 40
3.499999940395355
 41
0.0
 71
     7
 72
     1
  1
p\U+0159\U+00EDruba AISI 304
  7
Text poznámky (DIN)
 73
     1
 44
1.0
  0
MTEXT
  5
4138
330
411D
100
AcDbEntity
  8
Značka (ISO)
100
AcDbMText
 10
353.3503087491347
 20
124.8652590066195
 30
0.0
 40
3.499999940395355
 41
0.0
 71
     7
 72
     1
  1
1
  7
Text poznámky (DIN)
 73
     1
 44
1.0
  0
MTEXT
  5
4139
330
411D
100
AcDbEntity
  8
Značka (ISO)
100
AcDbMText
 10
341.5811532587363
 20
124.8652590066195
 30
0.0
 40
3.499999940395355
 41
0.0
 71
     7
 72
     1
  1
1
  7
Text poznámky (DIN)
 73
     1
 44
1.0
  0
LINE
  5
413A
330
411D
100
AcDbEntity
  8
Značka (ISO)
100
AcDbLine
 10
584.0
 20
129.7896095752716
 30
0.0
 11
334.0860982182722
 21
129.7896095752716
 31
0.0
  0
MTEXT
  5
413B
330
411D
100
AcDbEntity
  8
Značka (ISO)
100
AcDbMText
 10
524.1347300245338
 20
112.1678566128016
 30
0.0
 40
3.499999940395355
 41
0.0
 71
     7
 72
     1
  1
PVC-U
  7
Text poznámky (DIN)
 73
     1
 44
1.0
  0
MTEXT
  5
413C
330
411D
100
AcDbEntity
  8
Značka (ISO)
100
AcDbMText
 10
498.7347300245338
 20
111.119155356288
 30
0.0
 40
3.499999940395355
 41
0.0
 71
     7
 72
     1
  1
0,042 kg
  7
Text poznámky (DIN)
 73
     1
 44
1.0
  0
MTEXT
  5
413D
330
411D
100
AcDbEntity
  8
Značka (ISO)
100
AcDbMText
 10
473.3347300245338
 20
112.1678566128016
 30
0.0
 40
3.499999940395355
 41
0.0
 71
     7
 72
     1
  1
NM 6701
  7
Text poznámky (DIN)
 73
     1
 44
1.0
  0
MTEXT
  5
413E
102
{ACAD_XDICTIONARY
360
4DB6
102
}
330
411D
100
AcDbEntity
  8
Značka (ISO)
100
AcDbMText
 10
358.8268099680651
 20
110.9454540103674
 30
0.0
 40
3.499999940395355
 41
0.0
 71
     7
 72
     1
  1
n\U+00E1vlek sunap-DN70
  7
Text poznámky (DIN)
 73
     1
 44
1.0
  0
MTEXT
  5
413F
330
411D
100
AcDbEntity
  8
Značka (ISO)
100
AcDbMText
 10
353.3503087491347
 20
112.1678566128016
 30
0.0
 40
3.499999940395355
 41
0.0
 71
     7
 72
     1
  1
1
  7
Text poznámky (DIN)
 73
     1
 44
1.0
  0
MTEXT
  5
4140
330
411D
100
AcDbEntity
  8
Značka (ISO)
100
AcDbMText
 10
341.2349273160208
 20
112.1678566128016
 30
0.0
 40
3.499999940395355
 41
0.0
 71
     7
 72
     1
  1
2
  7
Text poznámky (DIN)
 73
     1
 44
1.0
  0
LINE
  5
4141
330
411D
100
AcDbEntity
  8
Značka (ISO)
100
AcDbLine
 10
584.0
 20
117.0922071814537
 30
0.0
 11
334.0860982182722
 21
117.0922071814537
 31
0.0
  0
MTEXT
  5
4142
330
411D
100
AcDbEntity
  8
Značka (ISO)
100
AcDbMText
 10
523.8323292555378
 20
105.8191554158926
 30
0.0
 40
3.499999940395355
 41
0.0
 71
     7
 72
     1
  1
 
  7
Text poznámky (DIN)
 73
     1
 44
1.0
  0
MTEXT
  5
4143
330
411D
100
AcDbEntity
  8
Značka (ISO)
100
AcDbMText
 10
498.7347300245338
 20
104.770454159379
 30
0.0
 40
3.499999940395355
 41
0.0
 71
     7
 72
     1
  1
0,476 kg
  7
Text poznámky (DIN)
 73
     1
 44
1.0
  0
MTEXT
  5
4144
330
411D
100
AcDbEntity
  8
Značka (ISO)
100
AcDbMText
 10
473.3347300245338
 20
105.8191554158926
 30
0.0
 40
3.499999940395355
 41
0.0
 71
     7
 72
     1
  1
408205
  7
Text poznámky (DIN)
 73
     1
 44
1.0
  0
MTEXT
  5
4145
102
{ACAD_XDICTIONARY
360
4DB8
102
}
330
411D
100
AcDbEntity
  8
Značka (ISO)
100
AcDbMText
 10
358.8268099680651
 20
104.5967528134585
 30
0.0
 40
3.499999940395355
 41
0.0
 71
     7
 72
     1
  1
Effidrain dren\U+00E1\U+017En\U+00ED krou\U+017Eek komplet 157 + karton
  7
Text poznámky (DIN)
 73
     1
 44
1.0
  0
MTEXT
  5
4146
330
411D
100
AcDbEntity
  8
Značka (ISO)
100
AcDbMText
 10
353.3503087491347
 20
105.8191554158926
 30
0.0
 40
3.499999940395355
 41
0.0
 71
     7
 72
     1
  1
1
  7
Text poznámky (DIN)
 73
     1
 44
1.0
  0
MTEXT
  5
4147
330
411D
100
AcDbEntity
  8
Značka (ISO)
100
AcDbMText
 10
341.2349273160208
 20
105.8191554158926
 30
0.0
 40
3.499999940395355
 41
0.0
 71
     7
 72
     1
  1
3
  7
Text poznámky (DIN)
 73
     1
 44
1.0
  0
LINE
  5
4148
330
411D
100
AcDbEntity
  8
Značka (ISO)
100
AcDbLine
 10
584.0
 20
110.7435059845448
 30
0.0
 11
334.0860982182722
 21
110.7435059845448
 31
0.0
  0
MTEXT
  5
4149
102
{ACAD_XDICTIONARY
360
4DBA
102
}
330
411D
100
AcDbEntity
  8
Značka (ISO)
100
AcDbMText
 10
524.1347300245338
 20
98.24805161654952
 30
0.0
 40
3.499999940395355
 41
0.0
 71
     7
 72
     1
  1
Polykarbon\U+00E1t, kou\U+0159ov\U+00FD
  7
Text poznámky (DIN)
 73
     1
 44
1.0
  0
MTEXT
  5
414A
330
411D
100
AcDbEntity
  8
Značka (ISO)
100
AcDbMText
 10
498.7347300245338
 20
98.4217529624701
 30
0.0
 40
3.499999940395355
 41
0.0
 71
     7
 72
     1
  1
0,136 kg
  7
Text poznámky (DIN)
 73
     1
 44
1.0
  0
MTEXT
  5
414B
330
411D
100
AcDbEntity
  8
Značka (ISO)
100
AcDbMText
 10
473.3347300245338
 20
99.47045421898369
 30
0.0
 40
3.499999940395355
 41
0.0
 71
     7
 72
     1
  1
E29859
  7
Text poznámky (DIN)
 73
     1
 44
1.0
  0
MTEXT
  5
414C
102
{ACAD_XDICTIONARY
360
4DBC
102
}
330
411D
100
AcDbEntity
  8
Značka (ISO)
100
AcDbMText
 10
358.8268099680651
 20
98.24805161654952
 30
0.0
 40
3.499999940395355
 41
0.0
 71
     7
 72
     1
  1
Effidrain kryt plastov\U+00FD pro balen\U+00ED-tavn\U+00E1/PP 157
  7
Text poznámky (DIN)
 73
     1
 44
1.0
  0
MTEXT
  5
414D
330
411D
100
AcDbEntity
  8
Značka (ISO)
100
AcDbMText
 10
353.3503087491347
 20
99.47045421898369
 30
0.0
 40
3.499999940395355
 41
0.0
 71
     7
 72
     1
  1
1
  7
Text poznámky (DIN)
 73
     1
 44
1.0
  0
MTEXT
  5
414E
330
411D
100
AcDbEntity
  8
Značka (ISO)
100
AcDbMText
 10
341.0596026375998
 20
99.47045421898369
 30
0.0
 40
3.499999940395355
 41
0.0
 71
     7
 72
     1
  1
4
  7
Text poznámky (DIN)
 73
     1
 44
1.0
  0
LINE
  5
414F
330
411D
100
AcDbEntity
  8
Značka (ISO)
100
AcDbLine
 10
584.0
 20
104.3948047876358
 30
0.0
 11
334.0860982182722
 21
104.3948047876358
 31
0.0
  0
MTEXT
  5
4150
330
411D
100
AcDbEntity
  8
Značka (ISO)
100
AcDbMText
 10
524.1347300245338
 20
93.12175302207476
 30
0.0
 40
3.499999940395355
 41
0.0
 71
     7
 72
     1
  1
Mosaz
  7
Text poznámky (DIN)
 73
     1
 44
1.0
  0
MTEXT
  5
4151
330
411D
100
AcDbEntity
  8
Značka (ISO)
100
AcDbMText
 10
498.7347300245338
 20
92.07305176556117
 30
0.0
 40
3.499999940395355
 41
0.0
 71
     7
 72
     1
  1
0,005 kg
  7
Text poznámky (DIN)
 73
     1
 44
1.0
  0
MTEXT
  5
4152
330
411D
100
AcDbEntity
  8
Značka (ISO)
100
AcDbMText
 10
473.3347300245338
 20
93.12175302207476
 30
0.0
 40
3.499999940395355
 41
0.0
 71
     7
 72
     1
  1
90678
  7
Text poznámky (DIN)
 73
     1
 44
1.0
  0
MTEXT
  5
4153
102
{ACAD_XDICTIONARY
360
4DBE
102
}
330
411D
100
AcDbEntity
  8
Značka (ISO)
100
AcDbMText
 10
358.8268099680651
 20
92.42207764089114
 30
0.0
 40
3.499999940395355
 41
0.0
 71
     7
 72
     1
  1
\U+0160estihrann\U+00E1 matice M8 DIN 934
  7
Text poznámky (DIN)
 73
     1
 44
1.0
  0
MTEXT
  5
4154
330
411D
100
AcDbEntity
  8
Značka (ISO)
100
AcDbMText
 10
353.3503087491347
 20
93.12175302207476
 30
0.0
 40
3.499999940395355
 41
0.0
 71
     7
 72
     1
  1
1
  7
Text poznámky (DIN)
 73
     1
 44
1.0
  0
MTEXT
  5
4155
330
411D
100
AcDbEntity
  8
Značka (ISO)
100
AcDbMText
 10
341.2349273160208
 20
93.12175302207476
 30
0.0
 40
3.499999940395355
 41
0.0
 71
     7
 72
     1
  1
5
  7
Text poznámky (DIN)
 73
     1
 44
1.0
  0
LINE
  5
4156
330
411D
100
AcDbEntity
  8
Značka (ISO)
100
AcDbLine
 10
584.0
 20
98.04610359072693
 30
0.0
 11
334.0860982182722
 21
98.04610359072693
 31
0.0
  0
MTEXT
  5
4157
330
411D
100
AcDbEntity
  8
Značka (ISO)
100
AcDbMText
 10
524.1347300245338
 20
86.77305182516581
 30
0.0
 40
3.499999940395355
 41
0.0
 71
     7
 72
     1
  1
Plast ABS
  7
Text poznámky (DIN)
 73
     1
 44
1.0
  0
MTEXT
  5
4158
330
411D
100
AcDbEntity
  8
Značka (ISO)
100
AcDbMText
 10
498.7347300245338
 20
85.7243505686522
 30
0.0
 40
3.499999940395355
 41
0.0
 71
     7
 72
     1
  1
0,002 kg
  7
Text poznámky (DIN)
 73
     1
 44
1.0
  0
MTEXT
  5
4159
330
411D
100
AcDbEntity
  8
Značka (ISO)
100
AcDbMText
 10
473.3347300245338
 20
86.77305182516581
 30
0.0
 40
3.499999940395355
 41
0.0
 71
     7
 72
     1
  1
91024
  7
Text poznámky (DIN)
 73
     1
 44
1.0
  0
MTEXT
  5
415A
102
{ACAD_XDICTIONARY
360
4DC0
102
}
330
411D
100
AcDbEntity
  8
Značka (ISO)
100
AcDbMText
 10
358.8268099680651
 20
85.55064922273164
 30
0.0
 40
3.499999940395355
 41
0.0
 71
     7
 72
     1
  1
Krytka  matic 130-034-148 \U+0161estihrann\U+00E1, \U+010Dern\U+00E1
  7
Text poznámky (DIN)
 73
     1
 44
1.0
  0
MTEXT
  5
415B
330
411D
100
AcDbEntity
  8
Značka (ISO)
100
AcDbMText
 10
353.3503087491347
 20
86.77305182516581
 30
0.0
 40
3.499999940395355
 41
0.0
 71
     7
 72
     1
  1
1
  7
Text poznámky (DIN)
 73
     1
 44
1.0
  0
MTEXT
  5
415C
330
411D
100
AcDbEntity
  8
Značka (ISO)
100
AcDbMText
 10
341.2349273160208
 20
86.77305182516581
 30
0.0
 40
3.499999940395355
 41
0.0
 71
     7
 72
     1
  1
6
  7
Text poznámky (DIN)
 73
     1
 44
1.0
  0
LINE
  5
415D
330
411D
100
AcDbEntity
  8
Značka (ISO)
100
AcDbLine
 10
584.0
 20
91.69740239381795
 30
0.0
 11
334.0860982182722
 21
91.69740239381795
 31
0.0
  0
MTEXT
  5
415E
102
{ACAD_XDICTIONARY
360
4DC2
102
}
330
411D
100
AcDbEntity
  8
Značka (ISO)
100
AcDbMText
 10
524.1347300245338
 20
79.2019480258227
 30
0.0
 40
3.499999940395355
 41
0.0
 71
     7
 72
     1
  1
Pap\U+00EDr
  7
Text poznámky (DIN)
 73
     1
 44
1.0
  0
MTEXT
  5
415F
330
411D
100
AcDbEntity
  8
Značka (ISO)
100
AcDbMText
 10
498.7347300245338
 20
79.37564937174326
 30
0.0
 40
3.499999940395355
 41
0.0
 71
     7
 72
     1
  1
0,001 kg
  7
Text poznámky (DIN)
 73
     1
 44
1.0
  0
MTEXT
  5
4160
330
411D
100
AcDbEntity
  8
Značka (ISO)
100
AcDbMText
 10
473.3347300245338
 20
80.42435062825687
 30
0.0
 40
3.499999940395355
 41
0.0
 71
     7
 72
     1
  1
91018
  7
Text poznámky (DIN)
 73
     1
 44
1.0
  0
MTEXT
  5
4161
330
411D
100
AcDbEntity
  8
Značka (ISO)
100
AcDbMText
 10
358.8268099680651
 20
80.42435062825687
 30
0.0
 40
3.499999940395355
 41
0.0
 71
     7
 72
     1
  1
Etiketa
  7
Text poznámky (DIN)
 73
     1
 44
1.0
  0
MTEXT
  5
4162
330
411D
100
AcDbEntity
  8
Značka (ISO)
100
AcDbMText
 10
353.3503087491347
 20
80.42435062825687
 30
0.0
 40
3.499999940395355
 41
0.0
 71
     7
 72
     1
  1
1
  7
Text poznámky (DIN)
 73
     1
 44
1.0
  0
MTEXT
  5
4163
330
411D
100
AcDbEntity
  8
Značka (ISO)
100
AcDbMText
 10
341.2321273089006
 20
80.42435062825687
 30
0.0
 40
3.499999940395355
 41
0.0
 71
     7
 72
     1
  1
7
  7
Text poznámky (DIN)
 73
     1
 44
1.0
  0
LINE
  5
4164
330
411D
100
AcDbEntity
  8
Značka (ISO)
100
AcDbLine
 10
584.0
 20
85.348701196909
 30
0.0
 11
334.0860982182722
 21
85.348701196909
 31
0.0
  0
LINE
  5
4165
330
411D
100
AcDbEntity
  8
Značka (ISO)
100
AcDbLine
 10
584.0
 20
79.00000000000004
 30
0.0
 11
334.0860982182722
 21
79.00000000000004
 31
0.0
  0
LINE
  5
4166
330
411D
100
AcDbEntity
  8
Značka (ISO)
100
AcDbLine
 10
584.0
 20
129.7896095752716
 30
0.0
 11
584.0
 21
79.00000000000004
 31
0.0
  0
LINE
  5
4167
330
411D
100
AcDbEntity
  8
Značka (ISO)
100
AcDbLine
 10
522.9323292555377
 20
129.7896095752716
 30
0.0
 11
522.9323292555377
 21
79.00000000000004
 31
0.0
  0
LINE
  5
4168
330
411D
100
AcDbEntity
  8
Značka (ISO)
100
AcDbLine
 10
497.5323292555377
 20
129.7896095752716
 30
0.0
 11
497.5323292555377
 21
79.00000000000004
 31
0.0
  0
LINE
  5
4169
330
411D
100
AcDbEntity
  8
Značka (ISO)
100
AcDbLine
 10
472.1323292555378
 20
129.7896095752716
 30
0.0
 11
472.1323292555378
 21
79.00000000000004
 31
0.0
  0
LINE
  5
416A
330
411D
100
AcDbEntity
  8
Značka (ISO)
100
AcDbLine
 10
357.624409199069
 20
129.7896095752716
 30
0.0
 11
357.624409199069
 21
79.00000000000004
 31
0.0
  0
LINE
  5
416B
330
411D
100
AcDbEntity
  8
Značka (ISO)
100
AcDbLine
 10
350.2270067456465
 20
129.7896095752716
 30
0.0
 11
350.2270067456465
 21
79.00000000000004
 31
0.0
  0
LINE
  5
416C
330
411D
100
AcDbEntity
  8
Značka (ISO)
100
AcDbLine
 10
334.0860982182722
 20
129.7896095752716
 30
0.0
 11
334.0860982182722
 21
79.00000000000004
 31
0.0
  0
ENDBLK
  5
411F
330
411D
100
AcDbEntity
  8
0
100
AcDbBlockEnd
  0
BLOCK
  5
4171
330
4170
100
AcDbEntity
  8
0
100
AcDbBlockBegin
  2
*D17
 70
     1
 10
0.0
 20
0.0
 30
0.0
  3
*D17
  1

  0
LINE
  5
4253
330
4170
100
AcDbEntity
  8
Kóta (ISO)
440
 16777216
100
AcDbLine
 10
468.5621713557946
 20
527.8175521078676
 30
0.0
 11
468.5621713557946
 21
484.2192429484226
 31
0.0
  0
LINE
  5
4254
330
4170
100
AcDbEntity
  8
Kóta (ISO)
440
 16777216
100
AcDbLine
 10
221.5621713557946
 20
542.8175521078676
 30
0.0
 11
221.5621713557946
 21
484.2192429484226
 31
0.0
  0
LINE
  5
4255
330
4170
100
AcDbEntity
  8
Kóta (ISO)
440
 16777216
100
AcDbLine
 10
463.5621713557945
 20
486.2192429484227
 30
0.0
 11
226.5621713557945
 21
486.2192429484227
 31
0.0
  0
SOLID
  5
4256
330
4170
100
AcDbEntity
  8
Kóta (ISO)
440
 16777216
100
AcDbTrace
 10
463.5621713557945
 20
487.052576281756
 30
0.0
 11
463.5621713557945
 21
485.3859096150893
 31
0.0
 12
468.5621713557946
 22
486.2192429484227
 32
0.0
 13
468.5621713557946
 23
486.2192429484227
 33
0.0
  0
SOLID
  5
4257
330
4170
100
AcDbEntity
  8
Kóta (ISO)
440
 16777216
100
AcDbTrace
 10
226.5621713557945
 20
487.052576281756
 30
0.0
 11
226.5621713557945
 21
485.3859096150893
 31
0.0
 12
221.5621713557946
 22
486.2192429484227
 32
0.0
 13
221.5621713557946
 23
486.2192429484227
 33
0.0
  0
MTEXT
  5
4258
102
{ACAD_XDICTIONARY
360
4DC4
102
}
330
4170
100
AcDbEntity
  8
Kóta (ISO)
440
 16777216
100
AcDbMText
 10
316.7755438276757
 20
494.8995948624587
 30
0.0
 40
7.0
 41
0.0
 71
     1
 72
     1
  1
\A1;247{\H7.010400;\U+00B12}
  7
Text poznámky (ISO)
 73
     1
 44
1.0
  0
POINT
  5
4259
330
4170
100
AcDbEntity
  8
Defpoints
 62
     0
440
 16777216
100
AcDbPoint
 10
468.5621713557946
 20
527.8175521078676
 30
0.0
  0
POINT
  5
425A
330
4170
100
AcDbEntity
  8
Defpoints
 62
     0
440
 16777216
100
AcDbPoint
 10
221.5621713557946
 20
542.8175521078676
 30
0.0
  0
POINT
  5
425B
330
4170
100
AcDbEntity
  8
Defpoints
 62
     0
440
 16777216
100
AcDbPoint
 10
221.5621713557946
 20
486.2192429484227
 30
0.0
  0
ENDBLK
  5
4172
330
4170
100
AcDbEntity
  8
0
100
AcDbBlockEnd
  0
BLOCK
  5
425E
330
425D
100
AcDbEntity
  8
0
100
AcDbBlockBegin
  2
*D18
 70
     1
 10
0.0
 20
0.0
 30
0.0
  3
*D18
  1

  0
LINE
  5
4335
330
425D
100
AcDbEntity
  8
Kóta (ISO)
440
 16777216
100
AcDbLine
 10
221.5621713557946
 20
542.8175521078676
 30
0.0
 11
221.5621713557946
 21
506.541555024266
 31
0.0
  0
LINE
  5
4336
330
425D
100
AcDbEntity
  8
Kóta (ISO)
440
 16777216
100
AcDbLine
 10
378.5621713557946
 20
637.4143709505101
 30
0.0
 11
378.5621713557946
 21
506.541555024266
 31
0.0
  0
LINE
  5
4337
330
425D
100
AcDbEntity
  8
Kóta (ISO)
440
 16777216
100
AcDbLine
 10
226.5621713557945
 20
508.5415550242658
 30
0.0
 11
373.5621713557946
 21
508.5415550242658
 31
0.0
  0
SOLID
  5
4338
330
425D
100
AcDbEntity
  8
Kóta (ISO)
440
 16777216
100
AcDbTrace
 10
226.5621713557945
 20
509.3748883575994
 30
0.0
 11
226.5621713557945
 21
507.7082216909325
 31
0.0
 12
221.5621713557946
 22
508.5415550242658
 32
0.0
 13
221.5621713557946
 23
508.5415550242658
 33
0.0
  0
SOLID
  5
4339
330
425D
100
AcDbEntity
  8
Kóta (ISO)
440
 16777216
100
AcDbTrace
 10
373.5621713557946
 20
509.3748883575994
 30
0.0
 11
373.5621713557946
 21
507.7082216909325
 31
0.0
 12
378.5621713557946
 22
508.5415550242658
 32
0.0
 13
378.5621713557946
 23
508.5415550242658
 33
0.0
  0
MTEXT
  5
433A
102
{ACAD_XDICTIONARY
360
4DC6
102
}
330
425D
100
AcDbEntity
  8
Kóta (ISO)
440
 16777216
100
AcDbMText
 10
289.101459468622
 20
518.0433924990814
 30
0.0
 40
7.0
 41
0.0
 71
     1
 72
     1
  1
\A1;{\U+00D8}157
  7
Text poznámky (ISO)
 73
     1
 44
1.0
  0
POINT
  5
433B
330
425D
100
AcDbEntity
  8
Defpoints
 62
     0
440
 16777216
100
AcDbPoint
 10
221.5621713557946
 20
542.8175521078676
 30
0.0
  0
POINT
  5
433C
330
425D
100
AcDbEntity
  8
Defpoints
 62
     0
440
 16777216
100
AcDbPoint
 10
378.5621713557946
 20
637.4143709505101
 30
0.0
  0
POINT
  5
433D
330
425D
100
AcDbEntity
  8
Defpoints
 62
     0
440
 16777216
100
AcDbPoint
 10
378.5621713557946
 20
508.5415550242658
 30
0.0
  0
ENDBLK
  5
425F
330
425D
100
AcDbEntity
  8
0
100
AcDbBlockEnd
  0
BLOCK
  5
4340
330
433F
100
AcDbEntity
  8
0
100
AcDbBlockBegin
  2
*D19
 70
     1
 10
0.0
 20
0.0
 30
0.0
  3
*D19
  1

  0
LINE
  5
4422
330
433F
100
AcDbEntity
  8
Kóta (ISO)
440
 16777216
100
AcDbLine
 10
460.4680542742378
 20
526.3175521078676
 30
0.0
 11
515.2566013288288
 21
526.3175521078676
 31
0.0
  0
LINE
  5
4423
330
433F
100
AcDbEntity
  8
Kóta (ISO)
440
 16777216
100
AcDbLine
 10
479.0621713557942
 20
673.3175521078676
 30
0.0
 11
515.2566013288288
 21
673.3175521078676
 31
0.0
  0
LINE
  5
4424
330
433F
100
AcDbEntity
  8
Kóta (ISO)
440
 16777216
100
AcDbLine
 10
513.2566013288286
 20
531.3175521078676
 30
0.0
 11
513.2566013288286
 21
668.3175521078676
 31
0.0
  0
SOLID
  5
4425
330
433F
100
AcDbEntity
  8
Kóta (ISO)
440
 16777216
100
AcDbTrace
 10
512.4232679954952
 20
531.3175521078676
 30
0.0
 11
514.0899346621621
 21
531.3175521078676
 31
0.0
 12
513.2566013288286
 22
526.3175521078676
 32
0.0
 13
513.2566013288286
 23
526.3175521078676
 33
0.0
  0
SOLID
  5
4426
330
433F
100
AcDbEntity
  8
Kóta (ISO)
440
 16777216
100
AcDbTrace
 10
512.4232679954952
 20
668.3175521078676
 30
0.0
 11
514.0899346621621
 21
668.3175521078676
 31
0.0
 12
513.2566013288286
 22
673.3175521078676
 32
0.0
 13
513.2566013288286
 23
673.3175521078676
 33
0.0
  0
MTEXT
  5
4427
102
{ACAD_XDICTIONARY
360
4DC8
102
}
330
433F
100
AcDbEntity
  8
Kóta (ISO)
440
 16777216
100
AcDbMText
 10
504.5762494147925
 20
587.0374355195532
 30
0.0
 40
7.0
 41
0.0
 71
     1
 72
     1
  1
\A1;147{\H7.010400;\U+00B12}
  7
Text poznámky (ISO)
 11
0.0000000000000001
 21
1.0
 31
0.0
 73
     1
 44
1.0
  0
POINT
  5
4428
330
433F
100
AcDbEntity
  8
Defpoints
 62
     0
440
 16777216
100
AcDbPoint
 10
460.4680542742378
 20
526.3175521078676
 30
0.0
  0
POINT
  5
4429
330
433F
100
AcDbEntity
  8
Defpoints
 62
     0
440
 16777216
100
AcDbPoint
 10
479.0621713557942
 20
673.3175521078676
 30
0.0
  0
POINT
  5
442A
330
433F
100
AcDbEntity
  8
Defpoints
 62
     0
440
 16777216
100
AcDbPoint
 10
513.2566013288286
 20
673.3175521078676
 30
0.0
  0
ENDBLK
  5
4341
330
433F
100
AcDbEntity
  8
0
100
AcDbBlockEnd
  0
BLOCK
  5
442C
330
442B
100
AcDbEntity
  8
0
100
AcDbBlockBegin
  2
Pozice1
 70
     0
 10
0.0
 20
0.0
 30
0.0
  3
Pozice1
  1

  0
LINE
  5
442E
330
442B
100
AcDbEntity
  8
Značka (ISO)
100
AcDbLine
 10
109.1011569838506
 20
290.1581287751879
 30
0.0
 11
110.7810856778973
 21
292.0095713432733
 31
0.0
  0
POLYLINE
  5
442F
330
442B
100
AcDbEntity
  8
Značka (ISO)
100
AcDb2dPolyline
 66
     1
 10
0.0
 20
0.0
 30
0.0
 70
   128
  0
VERTEX
  5
4430
330
442F
100
AcDbEntity
  8
Značka (ISO)
100
AcDbVertex
100
AcDb2dVertex
 10
109.4714450836181
 20
289.8221397399902
 30
0.0
  0
VERTEX
  5
4431
330
442F
100
AcDbEntity
  8
Značka (ISO)
100
AcDbVertex
100
AcDb2dVertex
 10
110.7810878753662
 20
292.0095634460448
 30
0.0
  0
VERTEX
  5
4433
330
442F
100
AcDbEntity
  8
Značka (ISO)
100
AcDbVertex
100
AcDb2dVertex
 10
108.7308692932129
 20
290.4941177368164
 30
0.0
  0
VERTEX
  5
4434
330
442F
100
AcDbEntity
  8
Značka (ISO)
100
AcDbVertex
100
AcDb2dVertex
 10
109.4714450836181
 20
289.8221397399902
 30
0.0
  0
SEQEND
  5
4432
330
442F
100
AcDbEntity
  8
Značka (ISO)
  0
SOLID
  5
4435
330
442B
100
AcDbEntity
  8
Značka (ISO)
100
AcDbTrace
 10
109.4714450836181
 20
289.8221397399902
 30
0.0
 11
110.7810878753662
 21
292.0095634460448
 31
0.0
 12
108.7308692932129
 22
290.4941177368164
 32
0.0
 13
109.4714450836181
 23
289.8221397399902
 33
0.0
  0
LINE
  5
4436
330
442B
100
AcDbEntity
  8
Značka (ISO)
100
AcDbLine
 10
109.4714454974677
 20
289.8221430363785
 30
0.0
 11
110.7810856778973
 21
292.0095713432733
 31
0.0
  0
LINE
  5
4437
330
442B
100
AcDbEntity
  8
Značka (ISO)
100
AcDbLine
 10
110.7810856778973
 20
292.0095713432733
 30
0.0
 11
108.7308684702335
 21
290.4941145139972
 31
0.0
  0
LINE
  5
4438
330
442B
100
AcDbEntity
  8
Značka (ISO)
100
AcDbLine
 10
108.7308684702335
 20
290.4941145139972
 30
0.0
 11
109.4714454974677
 21
289.8221430363785
 31
0.0
  0
LINE
  5
4439
330
442B
100
AcDbEntity
  8
Značka (ISO)
100
AcDbLine
 10
109.1011569838506
 20
290.1581287751879
 30
0.0
 11
102.0571925910403
 21
282.395004321666
 31
0.0
  0
MTEXT
  5
443A
330
442B
100
AcDbEntity
  8
Značka (ISO)
100
AcDbMText
 10
94.18219294866819
 20
288.9660128847077
 30
0.0
 40
5.24999976158142
 41
0.0
 71
     5
 72
     1
  1
1
  7
Text popisu (ISO)
 73
     1
 44
1.0
  0
LINE
  5
443B
330
442B
100
AcDbEntity
  8
Značka (ISO)
100
AcDbLine
 10
102.0571925910403
 20
282.395004321666
 30
0.0
 11
86.30719330629608
 21
282.395004321666
 31
0.0
  0
ENDBLK
  5
442D
330
442B
100
AcDbEntity
  8
0
100
AcDbBlockEnd
  0
BLOCK
  5
4455
330
4454
100
AcDbEntity
  8
0
100
AcDbBlockBegin
  2
*D21
 70
     1
 10
0.0
 20
0.0
 30
0.0
  3
*D21
  1

  0
LINE
  5
4537
330
4454
100
AcDbEntity
  8
Kóta (ISO)
440
 16777216
100
AcDbLine
 10
238.0621713557946
 20
526.3175521078676
 30
0.0
 11
99.06217135579485
 21
526.3175521078676
 31
0.0
  0
LINE
  5
4538
330
4454
100
AcDbEntity
  8
Kóta (ISO)
440
 16777216
100
AcDbLine
 10
121.0621713557948
 20
673.3175521078676
 30
0.0
 11
99.06217135579488
 21
673.3175521078676
 31
0.0
  0
LINE
  5
4539
330
4454
100
AcDbEntity
  8
Kóta (ISO)
440
 16777216
100
AcDbLine
 10
101.0621713557948
 20
531.3175521078676
 30
0.0
 11
101.0621713557948
 21
668.3175521078676
 31
0.0
  0
SOLID
  5
453A
330
4454
100
AcDbEntity
  8
Kóta (ISO)
440
 16777216
100
AcDbTrace
 10
100.2288380224615
 20
531.3175521078676
 30
0.0
 11
101.8955046891282
 21
531.3175521078676
 31
0.0
 12
101.0621713557948
 22
526.3175521078676
 32
0.0
 13
101.0621713557948
 23
526.3175521078676
 33
0.0
  0
SOLID
  5
453B
330
4454
100
AcDbEntity
  8
Kóta (ISO)
440
 16777216
100
AcDbTrace
 10
100.2288380224615
 20
668.3175521078676
 30
0.0
 11
101.8955046891282
 21
668.3175521078676
 31
0.0
 12
101.0621713557949
 22
673.3175521078676
 32
0.0
 13
101.0621713557949
 23
673.3175521078676
 33
0.0
  0
MTEXT
  5
453C
102
{ACAD_XDICTIONARY
360
4DCA
102
}
330
4454
100
AcDbEntity
  8
Kóta (ISO)
440
 16777216
100
AcDbMText
 10
92.5042307244986
 20
586.7163443174042
 30
0.0
 40
7.0
 41
0.0
 71
     1
 72
     1
  1
\A1;147{\H7.010400;\U+00B11}
  7
Text poznámky (ISO)
 11
0.0000000000000001
 21
1.0
 31
0.0
 73
     1
 44
1.0
  0
POINT
  5
453D
330
4454
100
AcDbEntity
  8
Defpoints
 62
     0
440
 16777216
100
AcDbPoint
 10
238.0621713557946
 20
526.3175521078676
 30
0.0
  0
POINT
  5
453E
330
4454
100
AcDbEntity
  8
Defpoints
 62
     0
440
 16777216
100
AcDbPoint
 10
121.0621713557948
 20
673.3175521078676
 30
0.0
  0
POINT
  5
453F
330
4454
100
AcDbEntity
  8
Defpoints
 62
     0
440
 16777216
100
AcDbPoint
 10
101.0621713557949
 20
673.3175521078676
 30
0.0
  0
ENDBLK
  5
4456
330
4454
100
AcDbEntity
  8
0
100
AcDbBlockEnd
  0
BLOCK
  5
4542
330
4541
100
AcDbEntity
  8
0
100
AcDbBlockBegin
  2
*D22
 70
     1
 10
0.0
 20
0.0
 30
0.0
  3
*D22
  1

  0
LINE
  5
4971
330
4541
100
AcDbEntity
  8
7
100
AcDbLine
 10
483.3358695100618
 20
389.3333246449911
 30
0.0
 11
449.4619114832739
 21
364.9811128728288
 31
0.0
  0
MTEXT
  5
4972
330
4541
100
AcDbEntity
  8
7
100
AcDbMText
 10
460.2075945614624
 20
383.5459769175269
 30
0.0
 40
7.0
 41
0.0
 71
     1
 72
     1
  1
\A1;R179
  7
Text poznámky (ISO)
 11
0.8119551093902565
 21
0.5837198817369994
 31
0.0
 73
     1
 44
1.0
  0
SOLID
  5
4973
330
4541
100
AcDbEntity
  8
7
100
AcDbTrace
 10
448.9754782484928
 20
365.657742130654
 30
0.0
 11
449.9483447180546
 21
364.3044836150037
 31
0.0
 12
445.4021359363227
 22
362.0625134641438
 32
0.0
 13
445.4021359363227
 23
362.0625134641438
 33
0.0
  0
POINT
  5
4974
330
4541
100
AcDbEntity
  8
Defpoints
 62
     0
100
AcDbPoint
 10
445.4021359363227
 20
362.0625134641438
 30
0.0
  0
POINT
  5
4975
330
4541
100
AcDbEntity
  8
Defpoints
 62
     0
100
AcDbPoint
 10
300.0621713554669
 20
257.5766546332212
 30
0.0
  0
ENDBLK
  5
4543
330
4541
100
AcDbEntity
  8
0
100
AcDbBlockEnd
  0
BLOCK
  5
45CC
330
45CB
100
AcDbEntity
  8
0
100
AcDbBlockBegin
  2
Pozice2
 70
     0
 10
0.0
 20
0.0
 30
0.0
  3
Pozice2
  1

  0
LINE
  5
45CE
330
45CB
100
AcDbEntity
  8
Značka (ISO)
100
AcDbLine
 10
218.7272553286224
 20
303.6876134042392
 30
0.0
 11
217.2664955927295
 21
301.6587760539339
 31
0.0
  0
POLYLINE
  5
45CF
330
45CB
100
AcDbEntity
  8
Značka (ISO)
100
AcDb2dPolyline
 66
     1
 10
0.0
 20
0.0
 30
0.0
 70
   128
  0
VERTEX
  5
45D0
330
45CF
100
AcDbEntity
  8
Značka (ISO)
100
AcDbVertex
100
AcDb2dVertex
 10
218.3214950561524
 20
303.9797592163087
 30
0.0
  0
VERTEX
  5
45D1
330
45CF
100
AcDbEntity
  8
Značka (ISO)
100
AcDbVertex
100
AcDb2dVertex
 10
217.2665023803711
 20
301.6587829589844
 30
0.0
  0
VERTEX
  5
45D3
330
45CF
100
AcDbEntity
  8
Značka (ISO)
100
AcDbVertex
100
AcDb2dVertex
 10
219.1330146789551
 20
303.3954620361328
 30
0.0
  0
VERTEX
  5
45D4
330
45CF
100
AcDbEntity
  8
Značka (ISO)
100
AcDbVertex
100
AcDb2dVertex
 10
218.3214950561524
 20
303.9797592163087
 30
0.0
  0
SEQEND
  5
45D2
330
45CF
100
AcDbEntity
  8
Značka (ISO)
  0
SOLID
  5
45D5
330
45CB
100
AcDbEntity
  8
Značka (ISO)
100
AcDbTrace
 10
218.3214950561524
 20
303.9797592163087
 30
0.0
 11
217.2665023803711
 21
301.6587829589844
 31
0.0
 12
219.1330146789551
 22
303.3954620361328
 32
0.0
 13
218.3214950561524
 23
303.9797592163087
 33
0.0
  0
LINE
  5
45D6
330
45CB
100
AcDbEntity
  8
Značka (ISO)
100
AcDbLine
 10
218.3214878585614
 20
303.9797653514178
 30
0.0
 11
217.2664955927295
 21
301.6587760539339
 31
0.0
  0
LINE
  5
45D7
330
45CB
100
AcDbEntity
  8
Značka (ISO)
100
AcDbLine
 10
217.2664955927295
 20
301.6587760539339
 30
0.0
 11
219.1330227986835
 21
303.3954614570606
 31
0.0
  0
LINE
  5
45D8
330
45CB
100
AcDbEntity
  8
Značka (ISO)
100
AcDbLine
 10
219.1330227986835
 20
303.3954614570606
 30
0.0
 11
218.3214878585614
 21
303.9797653514178
 31
0.0
  0
LINE
  5
45D9
330
45CB
100
AcDbEntity
  8
Značka (ISO)
100
AcDbLine
 10
218.7272553286224
 20
303.6876134042392
 30
0.0
 11
223.8454104296837
 21
310.7961775154628
 31
0.0
  0
MTEXT
  5
45DA
330
45CB
100
AcDbEntity
  8
Značka (ISO)
100
AcDbMText
 10
231.7204100720559
 20
317.4139849633731
 30
0.0
 40
5.24999976158142
 41
0.0
 71
     5
 72
     1
  1
2
  7
Text popisu (ISO)
 73
     1
 44
1.0
  0
LINE
  5
45DB
330
45CB
100
AcDbEntity
  8
Značka (ISO)
100
AcDbLine
 10
223.8454104296837
 20
310.7961775154628
 30
0.0
 11
239.595409714428
 21
310.7961775154628
 31
0.0
  0
ENDBLK
  5
45CD
330
45CB
100
AcDbEntity
  8
0
100
AcDbBlockEnd
  0
BLOCK
  5
45DE
330
45DD
100
AcDbEntity
  8
0
100
AcDbBlockBegin
  2
Pozice3
 70
     0
 10
0.0
 20
0.0
 30
0.0
  3
Pozice3
  1

  0
LINE
  5
45E0
330
45DD
100
AcDbEntity
  8
Značka (ISO)
100
AcDbLine
 10
67.06931872493061
 20
361.0765430068997
 30
0.0
 11
68.83708567789726
 21
359.3087760539335
 31
0.0
  0
POLYLINE
  5
45E1
330
45DD
100
AcDbEntity
  8
Značka (ISO)
100
AcDb2dPolyline
 66
     1
 10
0.0
 20
0.0
 30
0.0
 70
   128
  0
VERTEX
  5
45E2
330
45E1
100
AcDbEntity
  8
Značka (ISO)
100
AcDbVertex
100
AcDb2dVertex
 10
66.71576499938963
 20
360.7229995727539
 30
0.0
  0
VERTEX
  5
45E3
330
45E1
100
AcDbEntity
  8
Značka (ISO)
100
AcDbVertex
100
AcDb2dVertex
 10
68.83708477020263
 20
359.3087768554688
 30
0.0
  0
VERTEX
  5
45E5
330
45E1
100
AcDbEntity
  8
Značka (ISO)
100
AcDbVertex
100
AcDb2dVertex
 10
67.42287158966064
 20
361.4300918579102
 30
0.0
  0
VERTEX
  5
45E6
330
45E1
100
AcDbEntity
  8
Značka (ISO)
100
AcDbVertex
100
AcDb2dVertex
 10
66.71576499938963
 20
360.7229995727539
 30
0.0
  0
SEQEND
  5
45E4
330
45E1
100
AcDbEntity
  8
Značka (ISO)
  0
SOLID
  5
45E7
330
45DD
100
AcDbEntity
  8
Značka (ISO)
100
AcDbTrace
 10
66.71576499938963
 20
360.7229995727539
 30
0.0
 11
68.83708477020263
 21
359.3087768554688
 31
0.0
 12
67.42287158966064
 22
361.4300918579102
 32
0.0
 13
66.71576499938963
 23
360.7229995727539
 33
0.0
  0
LINE
  5
45E8
330
45DD
100
AcDbEntity
  8
Značka (ISO)
100
AcDbLine
 10
66.71576533433739
 20
360.7229896163062
 30
0.0
 11
68.83708567789726
 21
359.3087760539335
 31
0.0
  0
LINE
  5
45E9
330
45DD
100
AcDbEntity
  8
Značka (ISO)
100
AcDbLine
 10
68.83708567789726
 20
359.3087760539335
 30
0.0
 11
67.42287211552383
 21
361.4300963974929
 31
0.0
  0
LINE
  5
45EA
330
45DD
100
AcDbEntity
  8
Značka (ISO)
100
AcDbLine
 10
67.42287211552383
 20
361.4300963974929
 30
0.0
 11
66.71576533433739
 21
360.7229896163062
 31
0.0
  0
LINE
  5
45EB
330
45DD
100
AcDbEntity
  8
Značka (ISO)
100
AcDbLine
 10
67.06931872493061
 20
361.0765430068997
 30
0.0
 11
62.50658865443853
 21
365.6392730773902
 31
0.0
  0
MTEXT
  5
45EC
330
45DD
100
AcDbEntity
  8
Značka (ISO)
100
AcDbMText
 10
54.63158901206639
 20
372.201772779367
 30
0.0
 40
5.24999976158142
 41
0.0
 71
     5
 72
     1
  1
4
  7
Text popisu (ISO)
 73
     1
 44
1.0
  0
LINE
  5
45ED
330
45DD
100
AcDbEntity
  8
Značka (ISO)
100
AcDbLine
 10
62.50658865443853
 20
365.6392730773902
 30
0.0
 11
46.75658936969425
 21
365.6392730773902
 31
0.0
  0
ENDBLK
  5
45DF
330
45DD
100
AcDbEntity
  8
0
100
AcDbBlockEnd
  0
BLOCK
  5
45F0
330
45EF
100
AcDbEntity
  8
0
100
AcDbBlockBegin
  2
Pozice4
 70
     0
 10
0.0
 20
0.0
 30
0.0
  3
Pozice4
  1

  0
LINE
  5
45F2
330
45EF
100
AcDbEntity
  8
Značka (ISO)
100
AcDbLine
 10
155.1794351047474
 20
351.2081950965239
 30
0.0
 11
154.1982765719025
 21
348.9087760539338
 31
0.0
  0
POLYLINE
  5
45F3
330
45EF
100
AcDbEntity
  8
Značka (ISO)
100
AcDb2dPolyline
 66
     1
 10
0.0
 20
0.0
 30
0.0
 70
   128
  0
VERTEX
  5
45F4
330
45F3
100
AcDbEntity
  8
Značka (ISO)
100
AcDbVertex
100
AcDb2dVertex
 10
154.7195529937744
 20
351.4044189453125
 30
0.0
  0
VERTEX
  5
45F5
330
45F3
100
AcDbEntity
  8
Značka (ISO)
100
AcDbVertex
100
AcDb2dVertex
 10
154.1982746124267
 20
348.9087677001953
 30
0.0
  0
VERTEX
  5
45F7
330
45F3
100
AcDbEntity
  8
Značka (ISO)
100
AcDbVertex
100
AcDb2dVertex
 10
155.639314651489
 20
351.011962890625
 30
0.0
  0
VERTEX
  5
45F8
330
45F3
100
AcDbEntity
  8
Značka (ISO)
100
AcDbVertex
100
AcDb2dVertex
 10
154.7195529937744
 20
351.4044189453125
 30
0.0
  0
SEQEND
  5
45F6
330
45F3
100
AcDbEntity
  8
Značka (ISO)
  0
SOLID
  5
45F9
330
45EF
100
AcDbEntity
  8
Značka (ISO)
100
AcDbTrace
 10
154.7195529937744
 20
351.4044189453125
 30
0.0
 11
154.1982746124267
 21
348.9087677001953
 31
0.0
 12
155.639314651489
 22
351.011962890625
 32
0.0
 13
154.7195529937744
 23
351.4044189453125
 33
0.0
  0
LINE
  5
45FA
330
45EF
100
AcDbEntity
  8
Značka (ISO)
100
AcDbLine
 10
154.7195512962294
 20
351.4044268030929
 30
0.0
 11
154.1982765719025
 21
348.9087760539338
 31
0.0
  0
LINE
  5
45FB
330
45EF
100
AcDbEntity
  8
Značka (ISO)
100
AcDbLine
 10
154.1982765719025
 20
348.9087760539338
 30
0.0
 11
155.6393189132654
 21
351.0119633899549
 31
0.0
  0
LINE
  5
45FC
330
45EF
100
AcDbEntity
  8
Značka (ISO)
100
AcDbLine
 10
155.6393189132654
 20
351.0119633899549
 30
0.0
 11
154.7195512962294
 21
351.4044268030929
 31
0.0
  0
LINE
  5
45FD
330
45EF
100
AcDbEntity
  8
Značka (ISO)
100
AcDbLine
 10
155.1794351047474
 20
351.2081950965239
 30
0.0
 11
166.3224041912653
 21
377.3225838021295
 31
0.0
  0
MTEXT
  5
45FE
330
45EF
100
AcDbEntity
  8
Značka (ISO)
100
AcDbMText
 10
174.1974038336375
 20
384.099933489311
 30
0.0
 40
5.24999976158142
 41
0.0
 71
     5
 72
     1
  1
6
  7
Text popisu (ISO)
 73
     1
 44
1.0
  0
LINE
  5
45FF
330
45EF
100
AcDbEntity
  8
Značka (ISO)
100
AcDbLine
 10
166.3224041912653
 20
377.3225838021295
 30
0.0
 11
182.0724034760096
 21
377.3225838021295
 31
0.0
  0
MTEXT
  5
4600
330
45EF
100
AcDbEntity
  8
Značka (ISO)
100
AcDbMText
 10
189.9474031183817
 20
384.0510073146703
 30
0.0
 40
5.24999976158142
 41
0.0
 71
     5
 72
     1
  1
5
  7
Text popisu (ISO)
 73
     1
 44
1.0
  0
LINE
  5
4601
330
45EF
100
AcDbEntity
  8
Značka (ISO)
100
AcDbLine
 10
182.0724034760096
 20
377.3225838021295
 30
0.0
 11
183.6474034044839
 21
375.7475838736551
 31
0.0
  0
LINE
  5
4602
330
45EF
100
AcDbEntity
  8
Značka (ISO)
100
AcDbLine
 10
183.6474034044839
 20
375.7475838736551
 30
0.0
 11
185.2224033329585
 21
377.3225838021295
 31
0.0
  0
LINE
  5
4603
330
45EF
100
AcDbEntity
  8
Značka (ISO)
100
AcDbLine
 10
185.2224033329585
 20
377.3225838021295
 30
0.0
 11
197.8224027607538
 21
377.3225838021295
 31
0.0
  0
ENDBLK
  5
45F1
330
45EF
100
AcDbEntity
  8
0
100
AcDbBlockEnd
  0
BLOCK
  5
4606
330
4605
100
AcDbEntity
  8
0
100
AcDbBlockBegin
  2
Pozice5
 70
     0
 10
0.0
 20
0.0
 30
0.0
  3
Pozice5
  1

  0
LINE
  5
4608
330
4605
100
AcDbEntity
  8
Značka (ISO)
100
AcDbLine
 10
191.957748049332
 20
349.7336630688685
 30
0.0
 11
190.7077480493317
 21
347.5685995594076
 31
0.0
  0
POLYLINE
  5
4609
330
4605
100
AcDbEntity
  8
Značka (ISO)
100
AcDb2dPolyline
 66
     1
 10
0.0
 20
0.0
 30
0.0
 70
   128
  0
VERTEX
  5
460A
330
4609
100
AcDbEntity
  8
Značka (ISO)
100
AcDbVertex
100
AcDb2dVertex
 10
191.5247344970703
 20
349.9836730957031
 30
0.0
  0
VERTEX
  5
460B
330
4609
100
AcDbEntity
  8
Značka (ISO)
100
AcDbVertex
100
AcDb2dVertex
 10
190.7077407836914
 20
347.568588256836
 30
0.0
  0
VERTEX
  5
460D
330
4609
100
AcDbEntity
  8
Značka (ISO)
100
AcDbVertex
100
AcDb2dVertex
 10
192.3907661437988
 20
349.4836807250977
 30
0.0
  0
VERTEX
  5
460E
330
4609
100
AcDbEntity
  8
Značka (ISO)
100
AcDbVertex
100
AcDb2dVertex
 10
191.5247344970703
 20
349.9836730957031
 30
0.0
  0
SEQEND
  5
460C
330
4609
100
AcDbEntity
  8
Značka (ISO)
  0
SOLID
  5
460F
330
4605
100
AcDbEntity
  8
Značka (ISO)
100
AcDbTrace
 10
191.5247344970703
 20
349.9836730957031
 30
0.0
 11
190.7077407836914
 21
347.568588256836
 31
0.0
 12
192.3907661437988
 22
349.4836807250977
 32
0.0
 13
191.5247344970703
 23
349.9836730957031
 33
0.0
  0
LINE
  5
4610
330
4605
100
AcDbEntity
  8
Značka (ISO)
100
AcDbLine
 10
191.5247353474399
 20
349.9836630688686
 30
0.0
 11
190.7077480493317
 21
347.5685995594076
 31
0.0
  0
LINE
  5
4611
330
4605
100
AcDbEntity
  8
Značka (ISO)
100
AcDbLine
 10
190.7077480493317
 20
347.5685995594076
 30
0.0
 11
192.3907607512243
 21
349.4836630688685
 31
0.0
  0
LINE
  5
4612
330
4605
100
AcDbEntity
  8
Značka (ISO)
100
AcDbLine
 10
192.3907607512243
 20
349.4836630688685
 30
0.0
 11
191.5247353474399
 21
349.9836630688686
 31
0.0
  0
LINE
  5
4613
330
4605
100
AcDbEntity
  8
Značka (ISO)
100
AcDbLine
 10
191.957748049332
 20
349.7336630688685
 30
0.0
 11
207.006545236137
 21
375.7989443892022
 31
0.0
  0
MTEXT
  5
4614
330
4605
100
AcDbEntity
  8
Značka (ISO)
100
AcDbMText
 10
214.8815448785091
 20
382.5826756476765
 30
0.0
 40
5.24999976158142
 41
0.0
 71
     5
 72
     1
  1
3
  7
Text popisu (ISO)
 73
     1
 44
1.0
  0
LINE
  5
4615
330
4605
100
AcDbEntity
  8
Značka (ISO)
100
AcDbLine
 10
207.006545236137
 20
375.7989443892022
 30
0.0
 11
222.7565445208812
 21
375.7989443892022
 31
0.0
  0
ENDBLK
  5
4607
330
4605
100
AcDbEntity
  8
0
100
AcDbBlockEnd
  0
BLOCK
  5
461A
330
4619
100
AcDbEntity
  8
0
100
AcDbBlockBegin
  2
HISTORIE REVIZÍ
 70
     0
 10
0.0
 20
0.0
 30
0.0
  3
HISTORIE REVIZÍ
  1

  0
LINE
  5
461C
330
4619
100
AcDbEntity
  8
Značka (ISO)
100
AcDbLine
 10
476.7274832009852
 20
410.0
 30
0.0
 11
584.0000152587889
 21
410.0
 31
0.0
  0
LINE
  5
461D
330
4619
100
AcDbEntity
  8
Značka (ISO)
100
AcDbLine
 10
476.7274832009852
 20
410.0
 30
0.0
 11
476.7274832009852
 21
404.7200000596046
 31
0.0
  0
LINE
  5
461E
330
4619
100
AcDbEntity
  8
Značka (ISO)
100
AcDbLine
 10
584.0000152587889
 20
410.0
 30
0.0
 11
584.0000152587889
 21
404.7200000596046
 31
0.0
  0
MTEXT
  5
461F
102
{ACAD_XDICTIONARY
360
4DCC
102
}
330
4619
100
AcDbEntity
  8
Značka (ISO)
100
AcDbMText
 10
511.8282151181741
 20
404.9151053364761
 30
0.0
 40
3.499999940395355
 41
0.0
 71
     7
 72
     1
  1
HISTORIE REVIZ\U+00CD
  7
Text poznámky (ISO)
 73
     1
 44
1.0
  0
LINE
  5
4620
330
4619
100
AcDbEntity
  8
Značka (ISO)
100
AcDbLine
 10
476.7274832009852
 20
404.7200000596046
 30
0.0
 11
584.0000152587889
 21
404.7200000596046
 31
0.0
  0
LINE
  5
4621
330
4619
100
AcDbEntity
  8
Značka (ISO)
100
AcDbLine
 10
476.7274832009852
 20
404.7200000596046
 30
0.0
 11
476.7274832009852
 21
399.4400001192094
 31
0.0
  0
MTEXT
  5
4622
330
4619
100
AcDbEntity
  8
Značka (ISO)
100
AcDbMText
 10
477.967484091027
 20
400.3299999701976
 30
0.0
 40
3.499999940395355
 41
0.0
 71
     7
 72
     1
  1
REV
  7
Text poznámky (ISO)
 73
     1
 44
1.0
  0
LINE
  5
4623
330
4619
100
AcDbEntity
  8
Značka (ISO)
100
AcDbLine
 10
487.1071590947686
 20
404.7200000596046
 30
0.0
 11
487.1071590947686
 21
399.4400001192094
 31
0.0
  0
MTEXT
  5
4624
330
4619
100
AcDbEntity
  8
Značka (ISO)
100
AcDbMText
 10
509.2534493024393
 20
400.2562561281211
 30
0.0
 40
3.499999940395355
 41
0.0
 71
     7
 72
     1
  1
POPIS
  7
Text poznámky (ISO)
 73
     1
 44
1.0
  0
LINE
  5
4625
330
4619
100
AcDbEntity
  8
Značka (ISO)
100
AcDbLine
 10
543.8913912200928
 20
404.7200000596046
 30
0.0
 11
543.8913912200928
 21
399.4400001192094
 31
0.0
  0
MTEXT
  5
4626
330
4619
100
AcDbEntity
  8
Značka (ISO)
100
AcDbMText
 10
547.8670086748851
 20
400.2931280084141
 30
0.0
 40
3.499999940395355
 41
0.0
 71
     7
 72
     1
  1
DATUM
  7
Text poznámky (ISO)
 73
     1
 44
1.0
  0
LINE
  5
4627
330
4619
100
AcDbEntity
  8
Značka (ISO)
100
AcDbLine
 10
566.9720408630371
 20
404.7200000596046
 30
0.0
 11
566.9720408630371
 21
399.4400001192094
 31
0.0
  0
MTEXT
  5
4628
330
4619
100
AcDbEntity
  8
Značka (ISO)
100
AcDbMText
 10
567.8396408060745
 20
400.2562561281211
 30
0.0
 40
3.499999940395355
 41
0.0
 71
     7
 72
     1
  1
AUTOR
  7
Text poznámky (ISO)
 73
     1
 44
1.0
  0
LINE
  5
4629
330
4619
100
AcDbEntity
  8
Značka (ISO)
100
AcDbLine
 10
584.0000152587889
 20
404.7200000596046
 30
0.0
 11
584.0000152587889
 21
399.4400001192094
 31
0.0
  0
MTEXT
  5
462A
330
4619
100
AcDbEntity
  8
Značka (ISO)
100
AcDbMText
 10
478.1708942301985
 20
394.9776743312367
 30
0.0
 40
3.499999940395355
 41
0.0
 71
     7
 72
     1
  1
001
  7
Text poznámky (ISO)
 73
     1
 44
1.0
  0
MTEXT
  5
462B
102
{ACAD_XDICTIONARY
360
4DCE
102
}
330
4619
100
AcDbEntity
  8
Značka (ISO)
100
AcDbMText
 10
491.0242238637159
 20
394.4501215994359
 30
0.0
 40
3.499999940395355
 41
0.0
 71
     7
 72
     1
  1
Odebr\U+00E1n excentr 98/75
  7
Text poznámky (ISO)
 73
     1
 44
1.0
  0
MTEXT
  5
462C
330
4619
100
AcDbEntity
  8
Značka (ISO)
100
AcDbMText
 10
545.0053917897195
 20
394.9762561877259
 30
0.0
 40
3.499999940395355
 41
0.0
 71
     7
 72
     1
  1
31.1.2011
  7
Text poznámky (ISO)
 73
     1
 44
1.0
  0
MTEXT
  5
462D
330
4619
100
AcDbEntity
  8
Značka (ISO)
100
AcDbMText
 10
567.9124409912032
 20
394.9351297278889
 30
0.0
 40
3.499999940395355
 41
0.0
 71
     7
 72
     1
  1
tmrtka
  7
Text poznámky (ISO)
 73
     1
 44
1.0
  0
LINE
  5
462E
330
4619
100
AcDbEntity
  8
Značka (ISO)
100
AcDbLine
 10
476.7274832009852
 20
399.4400001192094
 30
0.0
 11
584.0000152587889
 21
399.4400001192094
 31
0.0
  0
LINE
  5
462F
330
4619
100
AcDbEntity
  8
Značka (ISO)
100
AcDbLine
 10
476.7274832009852
 20
394.160000178814
 30
0.0
 11
584.0000152587889
 21
394.160000178814
 31
0.0
  0
LINE
  5
4630
330
4619
100
AcDbEntity
  8
Značka (ISO)
100
AcDbLine
 10
476.7274832009852
 20
399.4400001192094
 30
0.0
 11
476.7274832009852
 21
394.160000178814
 31
0.0
  0
LINE
  5
4631
330
4619
100
AcDbEntity
  8
Značka (ISO)
100
AcDbLine
 10
487.1071590947686
 20
399.4400001192094
 30
0.0
 11
487.1071590947686
 21
394.160000178814
 31
0.0
  0
LINE
  5
4632
330
4619
100
AcDbEntity
  8
Značka (ISO)
100
AcDbLine
 10
543.8913912200928
 20
399.4400001192094
 30
0.0
 11
543.8913912200928
 21
394.160000178814
 31
0.0
  0
LINE
  5
4633
330
4619
100
AcDbEntity
  8
Značka (ISO)
100
AcDbLine
 10
566.9720408630371
 20
399.4400001192094
 30
0.0
 11
566.9720408630371
 21
394.160000178814
 31
0.0
  0
LINE
  5
4634
330
4619
100
AcDbEntity
  8
Značka (ISO)
100
AcDbLine
 10
584.0000152587889
 20
399.4400001192094
 30
0.0
 11
584.0000152587889
 21
394.160000178814
 31
0.0
  0
ENDBLK
  5
461B
330
4619
100
AcDbEntity
  8
0
100
AcDbBlockEnd
  0
BLOCK
  5
4638
330
4637
100
AcDbEntity
  8
0
100
AcDbBlockBegin
  2
*D28
 70
     1
 10
0.0
 20
0.0
 30
0.0
  3
*D28
  1

  0
LINE
  5
4710
330
4637
100
AcDbEntity
  8
Kóta (ISO)
440
 16777216
100
AcDbLine
 10
460.7982393332942
 20
526.3175521078676
 30
0.0
 11
488.7114883561641
 21
526.3175521078676
 31
0.0
  0
LINE
  5
4711
330
4637
100
AcDbEntity
  8
Kóta (ISO)
440
 16777216
100
AcDbLine
 10
460.7982393332942
 20
601.3175521078677
 30
0.0
 11
488.7114883561641
 21
601.3175521078677
 31
0.0
  0
LINE
  5
4712
330
4637
100
AcDbEntity
  8
Kóta (ISO)
440
 16777216
100
AcDbLine
 10
486.7114883561639
 20
531.3175521078676
 30
0.0
 11
486.7114883561639
 21
596.3175521078677
 31
0.0
  0
SOLID
  5
4713
330
4637
100
AcDbEntity
  8
Kóta (ISO)
440
 16777216
100
AcDbTrace
 10
485.8781550228306
 20
531.3175521078676
 30
0.0
 11
487.5448216894973
 21
531.3175521078676
 31
0.0
 12
486.7114883561639
 22
526.3175521078676
 32
0.0
 13
486.7114883561639
 23
526.3175521078676
 33
0.0
  0
SOLID
  5
4714
330
4637
100
AcDbEntity
  8
Kóta (ISO)
440
 16777216
100
AcDbTrace
 10
485.8781550228306
 20
596.3175521078677
 30
0.0
 11
487.5448216894973
 21
596.3175521078677
 31
0.0
 12
486.7114883561639
 22
601.3175521078677
 32
0.0
 13
486.7114883561639
 23
601.3175521078677
 33
0.0
  0
MTEXT
  5
4715
330
4637
100
AcDbEntity
  8
Kóta (ISO)
440
 16777216
100
AcDbMText
 10
474.6552938752179
 20
555.0326348566103
 30
0.0
 40
7.0
 41
0.0
 71
     1
 72
     1
  1
\A1;{\fAIGDT|b0|i0;\H7.0000;\ln\fTahoma|b0|i0;\H7.0000;}75
  7
Text poznámky (ISO)
 11
0.0000000000000001
 21
1.0
 31
0.0
 73
     1
 44
1.0
  0
POINT
  5
4716
330
4637
100
AcDbEntity
  8
Defpoints
 62
     0
440
 16777216
100
AcDbPoint
 10
460.7982393332942
 20
526.3175521078676
 30
0.0
  0
POINT
  5
4717
330
4637
100
AcDbEntity
  8
Defpoints
 62
     0
440
 16777216
100
AcDbPoint
 10
460.7982393332942
 20
601.3175521078677
 30
0.0
  0
POINT
  5
4718
330
4637
100
AcDbEntity
  8
Defpoints
 62
     0
440
 16777216
100
AcDbPoint
 10
486.7114883561639
 20
601.3175521078677
 30
0.0
  0
ENDBLK
  5
4639
330
4637
100
AcDbEntity
  8
0
100
AcDbBlockEnd
  0
BLOCK
  5
47F1
330
47EF
100
AcDbEntity
  8
0
100
AcDbBlockBegin
  2
GENAXEH
 70
     0
 10
0.0
 20
0.0
 30
0.0
  3
GENAXEH
  1

  0
LINE
  5
47F0
330
47EF
100
AcDbEntity
  8
0
100
AcDbLine
 10
-1.0
 20
0.0
 30
0.0
 11
1.0
 21
0.0
 31
0.0
  0
ENDBLK
  5
47F2
330
47EF
100
AcDbEntity
  8
0
100
AcDbBlockEnd
  0
BLOCK
  5
480A
330
4809
100
AcDbEntity
  8
0
100
AcDbBlockBegin
  2
*D30
 70
     1
 10
0.0
 20
0.0
 30
0.0
  3
*D30
  1

  0
LINE
  5
480B
330
4809
100
AcDbEntity
  8
5
370
    -2
100
AcDbLine
 10
282.0863987569875
 20
516.3489651327006
 30
0.0
 11
282.0863987569875
 21
528.3489651327006
 31
0.0
  0
LINE
  5
480C
330
4809
100
AcDbEntity
  8
5
370
    -2
100
AcDbLine
 10
100.0863987569874
 20
516.3489651327006
 30
0.0
 11
100.0863987569874
 21
528.3489651327006
 31
0.0
  0
LINE
  5
480D
330
4809
100
AcDbEntity
  8
5
370
    -2
100
AcDbLine
 10
277.0863987569875
 20
526.3489651327006
 30
0.0
 11
105.0863987569874
 21
526.3489651327006
 31
0.0
  0
SOLID
  5
480E
330
4809
100
AcDbEntity
  8
5
100
AcDbTrace
 10
277.0863987569875
 20
527.1822984660341
 30
0.0
 11
277.0863987569875
 21
525.5156317993672
 31
0.0
 12
282.0863987569875
 22
526.3489651327006
 32
0.0
 13
282.0863987569875
 23
526.3489651327006
 33
0.0
  0
SOLID
  5
480F
330
4809
100
AcDbEntity
  8
5
100
AcDbTrace
 10
105.0863987569874
 20
527.1822984660341
 30
0.0
 11
105.0863987569874
 21
525.5156317993672
 31
0.0
 12
100.0863987569874
 22
526.3489651327006
 32
0.0
 13
100.0863987569874
 23
526.3489651327006
 33
0.0
  0
MTEXT
  5
4810
330
4809
100
AcDbEntity
  8
5
 62
     7
100
AcDbMText
 10
191.0863987569874
 20
535.526802607516
 30
0.0
 40
14.0
 41
0.0
 71
     5
 72
     1
  1
%%c182
 73
     1
 44
1.0
  0
POINT
  5
4811
330
4809
100
AcDbEntity
  8
Defpoints
 62
     0
100
AcDbPoint
 10
282.0863987569875
 20
514.3489651327008
 30
0.0
  0
POINT
  5
4812
330
4809
100
AcDbEntity
  8
Defpoints
 62
     0
100
AcDbPoint
 10
100.0863987569874
 20
514.3489651327008
 30
0.0
  0
POINT
  5
4813
330
4809
100
AcDbEntity
  8
Defpoints
 62
     0
100
AcDbPoint
 10
100.0863987569874
 20
526.3489651327006
 30
0.0
  0
ENDBLK
  5
4814
330
4809
100
AcDbEntity
  8
0
100
AcDbBlockEnd
  0
BLOCK
  5
4816
330
4815
100
AcDbEntity
  8
0
100
AcDbBlockBegin
  2
*D31
 70
     1
 10
0.0
 20
0.0
 30
0.0
  3
*D31
  1

  0
LINE
  5
4817
330
4815
100
AcDbEntity
  8
5
370
    -2
100
AcDbLine
 10
112.5863987569874
 20
381.8489651327007
 30
0.0
 11
112.5863987569874
 21
341.9537230892609
 31
0.0
  0
LINE
  5
4818
330
4815
100
AcDbEntity
  8
5
370
    -2
100
AcDbLine
 10
269.5863987569874
 20
445.3489651327008
 30
0.0
 11
269.5863987569874
 21
341.9537230892609
 31
0.0
  0
LINE
  5
4819
330
4815
100
AcDbEntity
  8
5
370
    -2
100
AcDbLine
 10
117.5863987569874
 20
343.9537230892609
 30
0.0
 11
264.5863987569874
 21
343.9537230892609
 31
0.0
  0
SOLID
  5
481A
330
4815
100
AcDbEntity
  8
5
100
AcDbTrace
 10
117.5863987569874
 20
344.7870564225941
 30
0.0
 11
117.5863987569874
 21
343.1203897559275
 31
0.0
 12
112.5863987569874
 22
343.9537230892609
 32
0.0
 13
112.5863987569874
 23
343.9537230892609
 33
0.0
  0
SOLID
  5
481B
330
4815
100
AcDbEntity
  8
5
100
AcDbTrace
 10
264.5863987569874
 20
344.7870564225941
 30
0.0
 11
264.5863987569874
 21
343.1203897559275
 31
0.0
 12
269.5863987569874
 22
343.9537230892609
 32
0.0
 13
269.5863987569874
 23
343.9537230892609
 33
0.0
  0
MTEXT
  5
481C
330
4815
100
AcDbEntity
  8
5
 62
     7
100
AcDbMText
 10
191.0863987569874
 20
352.3229641906711
 30
0.0
 40
14.0
 41
0.0
 71
     5
 72
     1
  1
157
 73
     1
 44
1.0
  0
POINT
  5
481D
330
4815
100
AcDbEntity
  8
Defpoints
 62
     0
100
AcDbPoint
 10
112.5863987569874
 20
383.8489651327007
 30
0.0
  0
POINT
  5
481E
330
4815
100
AcDbEntity
  8
Defpoints
 62
     0
100
AcDbPoint
 10
269.5863987569874
 20
447.3489651327008
 30
0.0
  0
POINT
  5
481F
330
4815
100
AcDbEntity
  8
Defpoints
 62
     0
100
AcDbPoint
 10
269.5863987569874
 20
343.9537230892609
 30
0.0
  0
ENDBLK
  5
4820
330
4815
100
AcDbEntity
  8
0
100
AcDbBlockEnd
  0
BLOCK
  5
4822
330
4821
100
AcDbEntity
  8
0
100
AcDbBlockBegin
  2
*D32
 70
     1
 10
0.0
 20
0.0
 30
0.0
  3
*D32
  1

  0
LINE
  5
4823
330
4821
100
AcDbEntity
  8
5
370
    -2
100
AcDbLine
 10
353.4922816754307
 20
442.3489651327008
 30
0.0
 11
385.2039252826484
 21
442.3489651327006
 31
0.0
  0
LINE
  5
4824
330
4821
100
AcDbEntity
  8
5
370
    -2
100
AcDbLine
 10
353.4922816754307
 20
367.3489651327008
 30
0.0
 11
385.2039252826483
 21
367.3489651327006
 31
0.0
  0
LINE
  5
4825
330
4821
100
AcDbEntity
  8
5
370
    -2
100
AcDbLine
 10
383.2039252826484
 20
437.3489651327008
 30
0.0
 11
383.2039252826483
 21
372.3489651327008
 31
0.0
  0
SOLID
  5
4826
330
4821
100
AcDbEntity
  8
5
100
AcDbTrace
 10
382.370591949315
 20
437.3489651327008
 30
0.0
 11
384.0372586159817
 21
437.3489651327006
 31
0.0
 12
383.2039252826484
 22
442.3489651327008
 32
0.0
 13
383.2039252826484
 23
442.3489651327008
 33
0.0
  0
SOLID
  5
4827
330
4821
100
AcDbEntity
  8
5
100
AcDbTrace
 10
382.370591949315
 20
372.3489651327008
 30
0.0
 11
384.0372586159816
 21
372.3489651327008
 31
0.0
 12
383.2039252826483
 22
367.3489651327008
 32
0.0
 13
383.2039252826483
 23
367.3489651327008
 33
0.0
  0
MTEXT
  5
4828
330
4821
100
AcDbEntity
  8
5
 62
     7
100
AcDbMText
 10
374.0260878078329
 20
404.8489651327008
 30
0.0
 40
14.0
 41
0.0
 71
     5
 72
     1
  1
%%c75
 11
0.0000000000000001
 21
1.0
 31
0.0
 73
     1
 44
1.0
  0
POINT
  5
4829
330
4821
100
AcDbEntity
  8
Defpoints
 62
     0
100
AcDbPoint
 10
351.4922816754307
 20
442.3489651327008
 30
0.0
  0
POINT
  5
482A
330
4821
100
AcDbEntity
  8
Defpoints
 62
     0
100
AcDbPoint
 10
351.4922816754307
 20
367.3489651327008
 30
0.0
  0
POINT
  5
482B
330
4821
100
AcDbEntity
  8
Defpoints
 62
     0
100
AcDbPoint
 10
383.2039252826483
 20
367.3489651327008
 30
0.0
  0
ENDBLK
  5
482C
330
4821
100
AcDbEntity
  8
0
100
AcDbBlockEnd
  0
BLOCK
  5
482E
330
482D
100
AcDbEntity
  8
0
100
AcDbBlockBegin
  2
*D33
 70
     1
 10
0.0
 20
0.0
 30
0.0
  3
*D33
  1

  0
LINE
  5
482F
330
482D
100
AcDbEntity
  8
5
370
    -2
100
AcDbLine
 10
284.0863987569875
 20
514.3489651327008
 30
0.0
 11
424.3677640177851
 21
514.3489651327008
 31
0.0
  0
LINE
  5
4830
330
482D
100
AcDbEntity
  8
5
370
    -2
100
AcDbLine
 10
353.4922816754307
 20
367.3489651327008
 30
0.0
 11
424.3677640177851
 21
367.3489651327006
 31
0.0
  0
LINE
  5
4831
330
482D
100
AcDbEntity
  8
5
370
    -2
100
AcDbLine
 10
422.3677640177851
 20
509.3489651327006
 30
0.0
 11
422.367764017785
 21
372.3489651327008
 31
0.0
  0
SOLID
  5
4832
330
482D
100
AcDbEntity
  8
5
100
AcDbTrace
 10
421.5344306844518
 20
509.3489651327006
 30
0.0
 11
423.2010973511184
 21
509.3489651327006
 31
0.0
 12
422.3677640177851
 22
514.3489651327008
 32
0.0
 13
422.3677640177851
 23
514.3489651327008
 33
0.0
  0
SOLID
  5
4833
330
482D
100
AcDbEntity
  8
5
100
AcDbTrace
 10
421.5344306844515
 20
372.3489651327008
 30
0.0
 11
423.2010973511184
 21
372.3489651327008
 31
0.0
 12
422.367764017785
 22
367.3489651327006
 32
0.0
 13
422.367764017785
 23
367.3489651327006
 33
0.0
  0
MTEXT
  5
4834
330
482D
100
AcDbEntity
  8
5
 62
     7
100
AcDbMText
 10
414.1442583092556
 20
440.8489651327008
 30
0.0
 40
14.0
 41
0.0
 71
     5
 72
     1
  1
147
 11
0.0000000000000001
 21
1.0
 31
0.0
 73
     1
 44
1.0
  0
POINT
  5
4835
330
482D
100
AcDbEntity
  8
Defpoints
 62
     0
100
AcDbPoint
 10
282.0863987569875
 20
514.3489651327008
 30
0.0
  0
POINT
  5
4836
330
482D
100
AcDbEntity
  8
Defpoints
 62
     0
100
AcDbPoint
 10
351.4922816754307
 20
367.3489651327008
 30
0.0
  0
POINT
  5
4837
330
482D
100
AcDbEntity
  8
Defpoints
 62
     0
100
AcDbPoint
 10
422.367764017785
 20
367.3489651327006
 30
0.0
  0
ENDBLK
  5
4838
330
482D
100
AcDbEntity
  8
0
100
AcDbBlockEnd
  0
BLOCK
  5
483A
330
4839
100
AcDbEntity
  8
0
100
AcDbBlockBegin
  2
*D34
 70
     1
 10
0.0
 20
0.0
 30
0.0
  3
*D34
  1

  0
LINE
  5
483B
330
4839
100
AcDbEntity
  8
5
370
    -2
100
AcDbLine
 10
380.335375930297
 20
404.8489651327008
 30
0.0
 11
405.5660766599286
 21
404.8489651327006
 31
0.0
  0
LINE
  5
483C
330
4839
100
AcDbEntity
  8
5
370
    -2
100
AcDbLine
 10
284.0863987569875
 20
514.3489651327008
 30
0.0
 11
405.5660766599286
 21
514.3489651327008
 31
0.0
  0
LINE
  5
483D
330
4839
100
AcDbEntity
  8
5
370
    -2
100
AcDbLine
 10
403.5660766599288
 20
409.8489651327006
 30
0.0
 11
403.5660766599288
 21
509.3489651327006
 31
0.0
  0
SOLID
  5
483E
330
4839
100
AcDbEntity
  8
5
100
AcDbTrace
 10
402.7327433265955
 20
409.8489651327006
 30
0.0
 11
404.399409993262
 21
409.8489651327006
 31
0.0
 12
403.5660766599288
 22
404.8489651327006
 32
0.0
 13
403.5660766599288
 23
404.8489651327006
 33
0.0
  0
SOLID
  5
483F
330
4839
100
AcDbEntity
  8
5
100
AcDbTrace
 10
402.7327433265955
 20
509.3489651327006
 30
0.0
 11
404.399409993262
 21
509.3489651327006
 31
0.0
 12
403.5660766599288
 22
514.3489651327008
 32
0.0
 13
403.5660766599288
 23
514.3489651327008
 33
0.0
  0
MTEXT
  5
4840
330
4839
100
AcDbEntity
  8
5
 62
     7
100
AcDbMText
 10
395.0793070158724
 20
459.5989651327008
 30
0.0
 40
14.0
 41
0.0
 71
     5
 72
     1
  1
110
 11
0.0000000000000001
 21
1.0
 31
0.0
 73
     1
 44
1.0
  0
POINT
  5
4841
330
4839
100
AcDbEntity
  8
Defpoints
 62
     0
100
AcDbPoint
 10
378.335375930297
 20
404.8489651327008
 30
0.0
  0
POINT
  5
4842
330
4839
100
AcDbEntity
  8
Defpoints
 62
     0
100
AcDbPoint
 10
282.0863987569875
 20
514.3489651327008
 30
0.0
  0
POINT
  5
4843
330
4839
100
AcDbEntity
  8
Defpoints
 62
     0
100
AcDbPoint
 10
403.5660766599288
 20
514.3489651327008
 30
0.0
  0
ENDBLK
  5
4844
330
4839
100
AcDbEntity
  8
0
100
AcDbBlockEnd
  0
BLOCK
  5
4846
330
4845
100
AcDbEntity
  8
0
100
AcDbBlockBegin
  2
*D35
 70
     1
 10
0.0
 20
0.0
 30
0.0
  3
*D35
  1

  0
LINE
  5
4847
330
4845
100
AcDbEntity
  8
5
370
    -2
100
AcDbLine
 10
191.0863987569874
 20
334.4105810354563
 30
0.0
 11
191.0863987569874
 21
322.4105810354565
 31
0.0
  0
LINE
  5
4848
330
4845
100
AcDbEntity
  8
5
370
    -2
100
AcDbLine
 10
359.5863987569874
 20
366.8489651327008
 30
0.0
 11
359.5863987569874
 21
322.4105810354565
 31
0.0
  0
LINE
  5
4849
330
4845
100
AcDbEntity
  8
5
370
    -2
100
AcDbLine
 10
196.0863987569874
 20
324.4105810354565
 30
0.0
 11
354.5863987569874
 21
324.4105810354565
 31
0.0
  0
SOLID
  5
484A
330
4845
100
AcDbEntity
  8
5
100
AcDbTrace
 10
196.0863987569874
 20
325.2439143687898
 30
0.0
 11
196.0863987569874
 21
323.5772477021232
 31
0.0
 12
191.0863987569874
 22
324.4105810354565
 32
0.0
 13
191.0863987569874
 23
324.4105810354565
 33
0.0
  0
SOLID
  5
484B
330
4845
100
AcDbEntity
  8
5
100
AcDbTrace
 10
354.5863987569874
 20
325.2439143687898
 30
0.0
 11
354.5863987569874
 21
323.5772477021232
 31
0.0
 12
359.5863987569874
 22
324.4105810354565
 32
0.0
 13
359.5863987569874
 23
324.4105810354565
 33
0.0
  0
MTEXT
  5
484C
330
4845
100
AcDbEntity
  8
5
 62
     7
100
AcDbMText
 10
275.3363987569874
 20
332.8973506795128
 30
0.0
 40
14.0
 41
0.0
 71
     5
 72
     1
  1
169
 73
     1
 44
1.0
  0
POINT
  5
484D
330
4845
100
AcDbEntity
  8
Defpoints
 62
     0
100
AcDbPoint
 10
191.0863987569874
 20
336.4105810354563
 30
0.0
  0
POINT
  5
484E
330
4845
100
AcDbEntity
  8
Defpoints
 62
     0
100
AcDbPoint
 10
359.5863987569874
 20
368.8489651327008
 30
0.0
  0
POINT
  5
484F
330
4845
100
AcDbEntity
  8
Defpoints
 62
     0
100
AcDbPoint
 10
359.5863987569874
 20
324.4105810354565
 30
0.0
  0
ENDBLK
  5
4850
330
4845
100
AcDbEntity
  8
0
100
AcDbBlockEnd
  0
BLOCK
  5
48E7
330
48E6
100
AcDbEntity
  8
0
100
AcDbBlockBegin
  2
*D36
 70
     1
 10
0.0
 20
0.0
 30
0.0
  3
*D36
  1

  0
LINE
  5
492E
330
48E6
100
AcDbEntity
  8
5
370
    -2
100
AcDbLine
 10
784.4021091869713
 20
621.4349834012653
 30
0.0
 11
784.4021091869713
 21
633.4349834012654
 31
0.0
  0
LINE
  5
492F
330
48E6
100
AcDbEntity
  8
5
370
    -2
100
AcDbLine
 10
602.4021091869711
 20
621.4349834012653
 30
0.0
 11
602.4021091869711
 21
633.4349834012654
 31
0.0
  0
LINE
  5
4930
330
48E6
100
AcDbEntity
  8
5
370
    -2
100
AcDbLine
 10
779.4021091869709
 20
631.4349834012654
 30
0.0
 11
607.4021091869711
 21
631.4349834012654
 31
0.0
  0
SOLID
  5
4931
330
48E6
100
AcDbEntity
  8
5
100
AcDbTrace
 10
779.4021091869709
 20
632.2683167345988
 30
0.0
 11
779.4021091869709
 21
630.6016500679319
 31
0.0
 12
784.4021091869713
 22
631.4349834012654
 32
0.0
 13
784.4021091869713
 23
631.4349834012654
 33
0.0
  0
SOLID
  5
4932
330
48E6
100
AcDbEntity
  8
5
100
AcDbTrace
 10
607.4021091869711
 20
632.2683167345988
 30
0.0
 11
607.4021091869711
 21
630.6016500679319
 31
0.0
 12
602.4021091869711
 22
631.4349834012654
 32
0.0
 13
602.4021091869711
 23
631.4349834012654
 33
0.0
  0
MTEXT
  5
4933
330
48E6
100
AcDbEntity
  8
5
 62
     7
100
AcDbMText
 10
693.4021091869708
 20
640.6128208760808
 30
0.0
 40
14.0
 41
0.0
 71
     5
 72
     1
  1
%%c182
 73
     1
 44
1.0
  0
POINT
  5
4934
330
48E6
100
AcDbEntity
  8
Defpoints
 62
     0
100
AcDbPoint
 10
784.4021091869713
 20
619.4349834012654
 30
0.0
  0
POINT
  5
4935
330
48E6
100
AcDbEntity
  8
Defpoints
 62
     0
100
AcDbPoint
 10
602.4021091869711
 20
619.4349834012654
 30
0.0
  0
POINT
  5
4936
330
48E6
100
AcDbEntity
  8
Defpoints
 62
     0
100
AcDbPoint
 10
602.4021091869711
 20
631.4349834012654
 30
0.0
  0
ENDBLK
  5
48E8
330
48E6
100
AcDbEntity
  8
0
100
AcDbBlockEnd
  0
BLOCK
  5
48F3
330
48F2
100
AcDbEntity
  8
0
100
AcDbBlockBegin
  2
*D37
 70
     1
 10
0.0
 20
0.0
 30
0.0
  3
*D37
  1

  0
LINE
  5
4937
330
48F2
100
AcDbEntity
  8
5
370
    -2
100
AcDbLine
 10
614.9021091869713
 20
486.9349834012654
 30
0.0
 11
614.9021091869713
 21
447.0397413578253
 31
0.0
  0
LINE
  5
4938
330
48F2
100
AcDbEntity
  8
5
370
    -2
100
AcDbLine
 10
771.9021091869708
 20
550.4349834012655
 30
0.0
 11
771.9021091869708
 21
447.0397413578253
 31
0.0
  0
LINE
  5
4939
330
48F2
100
AcDbEntity
  8
5
370
    -2
100
AcDbLine
 10
619.9021091869711
 20
449.0397413578254
 30
0.0
 11
766.9021091869709
 21
449.0397413578254
 31
0.0
  0
SOLID
  5
493A
330
48F2
100
AcDbEntity
  8
5
100
AcDbTrace
 10
619.9021091869711
 20
449.8730746911588
 30
0.0
 11
619.9021091869711
 21
448.2064080244922
 31
0.0
 12
614.9021091869713
 22
449.0397413578254
 32
0.0
 13
614.9021091869713
 23
449.0397413578254
 33
0.0
  0
SOLID
  5
493B
330
48F2
100
AcDbEntity
  8
5
100
AcDbTrace
 10
766.9021091869709
 20
449.8730746911588
 30
0.0
 11
766.9021091869709
 21
448.2064080244922
 31
0.0
 12
771.9021091869708
 22
449.0397413578254
 32
0.0
 13
771.9021091869708
 23
449.0397413578254
 33
0.0
  0
MTEXT
  5
493C
330
48F2
100
AcDbEntity
  8
5
 62
     7
100
AcDbMText
 10
693.4021091869708
 20
457.4089824592358
 30
0.0
 40
14.0
 41
0.0
 71
     5
 72
     1
  1
157
 73
     1
 44
1.0
  0
POINT
  5
493D
330
48F2
100
AcDbEntity
  8
Defpoints
 62
     0
100
AcDbPoint
 10
614.9021091869713
 20
488.9349834012654
 30
0.0
  0
POINT
  5
493E
330
48F2
100
AcDbEntity
  8
Defpoints
 62
     0
100
AcDbPoint
 10
771.9021091869708
 20
552.4349834012655
 30
0.0
  0
POINT
  5
493F
330
48F2
100
AcDbEntity
  8
Defpoints
 62
     0
100
AcDbPoint
 10
771.9021091869708
 20
449.0397413578254
 30
0.0
  0
ENDBLK
  5
48F4
330
48F2
100
AcDbEntity
  8
0
100
AcDbBlockEnd
  0
BLOCK
  5
48FF
330
48FE
100
AcDbEntity
  8
0
100
AcDbBlockBegin
  2
*D38
 70
     1
 10
0.0
 20
0.0
 30
0.0
  3
*D38
  1

  0
LINE
  5
4940
330
48FE
100
AcDbEntity
  8
5
370
    -2
100
AcDbLine
 10
855.8079921054142
 20
547.4349834012655
 30
0.0
 11
887.519635712632
 21
547.4349834012655
 31
0.0
  0
LINE
  5
4941
330
48FE
100
AcDbEntity
  8
5
370
    -2
100
AcDbLine
 10
855.8079921054142
 20
472.4349834012654
 30
0.0
 11
887.519635712632
 21
472.4349834012654
 31
0.0
  0
LINE
  5
4942
330
48FE
100
AcDbEntity
  8
5
370
    -2
100
AcDbLine
 10
885.5196357126319
 20
542.4349834012655
 30
0.0
 11
885.5196357126319
 21
477.4349834012654
 31
0.0
  0
SOLID
  5
4943
330
48FE
100
AcDbEntity
  8
5
100
AcDbTrace
 10
884.6863023792987
 20
542.4349834012655
 30
0.0
 11
886.3529690459655
 21
542.4349834012655
 31
0.0
 12
885.5196357126319
 22
547.4349834012655
 32
0.0
 13
885.5196357126319
 23
547.4349834012655
 33
0.0
  0
SOLID
  5
4944
330
48FE
100
AcDbEntity
  8
5
100
AcDbTrace
 10
884.6863023792987
 20
477.4349834012654
 30
0.0
 11
886.3529690459655
 21
477.4349834012654
 31
0.0
 12
885.5196357126319
 22
472.4349834012654
 32
0.0
 13
885.5196357126319
 23
472.4349834012654
 33
0.0
  0
MTEXT
  5
4945
330
48FE
100
AcDbEntity
  8
5
 62
     7
100
AcDbMText
 10
876.3417982378166
 20
509.9349834012654
 30
0.0
 40
14.0
 41
0.0
 71
     5
 72
     1
  1
%%c75
 11
0.0000000000000001
 21
1.0
 31
0.0
 73
     1
 44
1.0
  0
POINT
  5
4946
330
48FE
100
AcDbEntity
  8
Defpoints
 62
     0
100
AcDbPoint
 10
853.8079921054142
 20
547.4349834012655
 30
0.0
  0
POINT
  5
4947
330
48FE
100
AcDbEntity
  8
Defpoints
 62
     0
100
AcDbPoint
 10
853.8079921054142
 20
472.4349834012654
 30
0.0
  0
POINT
  5
4948
330
48FE
100
AcDbEntity
  8
Defpoints
 62
     0
100
AcDbPoint
 10
885.5196357126319
 20
472.4349834012654
 30
0.0
  0
ENDBLK
  5
4900
330
48FE
100
AcDbEntity
  8
0
100
AcDbBlockEnd
  0
BLOCK
  5
490B
330
490A
100
AcDbEntity
  8
0
100
AcDbBlockBegin
  2
*D39
 70
     1
 10
0.0
 20
0.0
 30
0.0
  3
*D39
  1

  0
LINE
  5
4949
330
490A
100
AcDbEntity
  8
5
370
    -2
100
AcDbLine
 10
786.4021091869711
 20
619.4349834012654
 30
0.0
 11
926.6834744477687
 21
619.4349834012654
 31
0.0
  0
LINE
  5
494A
330
490A
100
AcDbEntity
  8
5
370
    -2
100
AcDbLine
 10
855.8079921054142
 20
472.4349834012654
 30
0.0
 11
926.6834744477687
 21
472.4349834012654
 31
0.0
  0
LINE
  5
494B
330
490A
100
AcDbEntity
  8
5
370
    -2
100
AcDbLine
 10
924.6834744477688
 20
614.4349834012654
 30
0.0
 11
924.6834744477688
 21
477.4349834012654
 31
0.0
  0
SOLID
  5
494C
330
490A
100
AcDbEntity
  8
5
100
AcDbTrace
 10
923.8501411144355
 20
614.4349834012654
 30
0.0
 11
925.5168077811022
 21
614.4349834012654
 31
0.0
 12
924.6834744477688
 22
619.4349834012654
 32
0.0
 13
924.6834744477688
 23
619.4349834012654
 33
0.0
  0
SOLID
  5
494D
330
490A
100
AcDbEntity
  8
5
100
AcDbTrace
 10
923.8501411144355
 20
477.4349834012654
 30
0.0
 11
925.5168077811022
 21
477.4349834012654
 31
0.0
 12
924.6834744477688
 22
472.4349834012654
 32
0.0
 13
924.6834744477688
 23
472.4349834012654
 33
0.0
  0
MTEXT
  5
494E
330
490A
100
AcDbEntity
  8
5
 62
     7
100
AcDbMText
 10
916.4599687392396
 20
545.9349834012654
 30
0.0
 40
14.0
 41
0.0
 71
     5
 72
     1
  1
147
 11
0.0000000000000001
 21
1.0
 31
0.0
 73
     1
 44
1.0
  0
POINT
  5
494F
330
490A
100
AcDbEntity
  8
Defpoints
 62
     0
100
AcDbPoint
 10
784.4021091869713
 20
619.4349834012654
 30
0.0
  0
POINT
  5
4950
330
490A
100
AcDbEntity
  8
Defpoints
 62
     0
100
AcDbPoint
 10
853.8079921054142
 20
472.4349834012654
 30
0.0
  0
POINT
  5
4951
330
490A
100
AcDbEntity
  8
Defpoints
 62
     0
100
AcDbPoint
 10
924.6834744477688
 20
472.4349834012654
 30
0.0
  0
ENDBLK
  5
490C
330
490A
100
AcDbEntity
  8
0
100
AcDbBlockEnd
  0
BLOCK
  5
4917
330
4916
100
AcDbEntity
  8
0
100
AcDbBlockBegin
  2
*D40
 70
     1
 10
0.0
 20
0.0
 30
0.0
  3
*D40
  1

  0
LINE
  5
4952
330
4916
100
AcDbEntity
  8
5
370
    -2
100
AcDbLine
 10
882.6510863602807
 20
509.9349834012654
 30
0.0
 11
907.8817870899126
 21
509.9349834012654
 31
0.0
  0
LINE
  5
4953
330
4916
100
AcDbEntity
  8
5
370
    -2
100
AcDbLine
 10
786.4021091869711
 20
619.4349834012654
 30
0.0
 11
907.8817870899126
 21
619.4349834012654
 31
0.0
  0
LINE
  5
4954
330
4916
100
AcDbEntity
  8
5
370
    -2
100
AcDbLine
 10
905.8817870899126
 20
514.9349834012654
 30
0.0
 11
905.8817870899126
 21
614.4349834012654
 31
0.0
  0
SOLID
  5
4955
330
4916
100
AcDbEntity
  8
5
100
AcDbTrace
 10
905.0484537565793
 20
514.9349834012654
 30
0.0
 11
906.7151204232461
 21
514.9349834012654
 31
0.0
 12
905.8817870899126
 22
509.9349834012654
 32
0.0
 13
905.8817870899126
 23
509.9349834012654
 33
0.0
  0
SOLID
  5
4956
330
4916
100
AcDbEntity
  8
5
100
AcDbTrace
 10
905.0484537565793
 20
614.4349834012654
 30
0.0
 11
906.7151204232461
 21
614.4349834012654
 31
0.0
 12
905.8817870899126
 22
619.4349834012654
 32
0.0
 13
905.8817870899126
 23
619.4349834012654
 33
0.0
  0
MTEXT
  5
4957
330
4916
100
AcDbEntity
  8
5
 62
     7
100
AcDbMText
 10
897.3950174458561
 20
564.6849834012654
 30
0.0
 40
14.0
 41
0.0
 71
     5
 72
     1
  1
110
 11
0.0000000000000001
 21
1.0
 31
0.0
 73
     1
 44
1.0
  0
POINT
  5
4958
330
4916
100
AcDbEntity
  8
Defpoints
 62
     0
100
AcDbPoint
 10
880.6510863602808
 20
509.9349834012654
 30
0.0
  0
POINT
  5
4959
330
4916
100
AcDbEntity
  8
Defpoints
 62
     0
100
AcDbPoint
 10
784.4021091869713
 20
619.4349834012654
 30
0.0
  0
POINT
  5
495A
330
4916
100
AcDbEntity
  8
Defpoints
 62
     0
100
AcDbPoint
 10
905.8817870899126
 20
619.4349834012654
 30
0.0
  0
ENDBLK
  5
4918
330
4916
100
AcDbEntity
  8
0
100
AcDbBlockEnd
  0
BLOCK
  5
4923
330
4922
100
AcDbEntity
  8
0
100
AcDbBlockBegin
  2
*D41
 70
     1
 10
0.0
 20
0.0
 30
0.0
  3
*D41
  1

  0
LINE
  5
495B
330
4922
100
AcDbEntity
  8
5
370
    -2
100
AcDbLine
 10
693.4021091869713
 20
439.4965993040208
 30
0.0
 11
693.4021091869713
 21
427.4965993040208
 31
0.0
  0
LINE
  5
495C
330
4922
100
AcDbEntity
  8
5
370
    -2
100
AcDbLine
 10
861.902109186971
 20
471.9349834012653
 30
0.0
 11
861.902109186971
 21
427.4965993040208
 31
0.0
  0
LINE
  5
495D
330
4922
100
AcDbEntity
  8
5
370
    -2
100
AcDbLine
 10
698.4021091869712
 20
429.4965993040212
 30
0.0
 11
856.9021091869711
 21
429.4965993040212
 31
0.0
  0
SOLID
  5
495E
330
4922
100
AcDbEntity
  8
5
100
AcDbTrace
 10
698.4021091869712
 20
430.3299326373544
 30
0.0
 11
698.4021091869712
 21
428.6632659706878
 31
0.0
 12
693.4021091869713
 22
429.4965993040212
 32
0.0
 13
693.4021091869713
 23
429.4965993040212
 33
0.0
  0
SOLID
  5
495F
330
4922
100
AcDbEntity
  8
5
100
AcDbTrace
 10
856.9021091869711
 20
430.3299326373544
 30
0.0
 11
856.9021091869711
 21
428.6632659706878
 31
0.0
 12
861.902109186971
 22
429.4965993040212
 32
0.0
 13
861.902109186971
 23
429.4965993040212
 33
0.0
  0
MTEXT
  5
4960
330
4922
100
AcDbEntity
  8
5
 62
     7
100
AcDbMText
 10
777.6521091869708
 20
437.9833689480774
 30
0.0
 40
14.0
 41
0.0
 71
     5
 72
     1
  1
169
 73
     1
 44
1.0
  0
POINT
  5
4961
330
4922
100
AcDbEntity
  8
Defpoints
 62
     0
100
AcDbPoint
 10
693.4021091869713
 20
441.4965993040208
 30
0.0
  0
POINT
  5
4962
330
4922
100
AcDbEntity
  8
Defpoints
 62
     0
100
AcDbPoint
 10
861.902109186971
 20
473.9349834012655
 30
0.0
  0
POINT
  5
4963
330
4922
100
AcDbEntity
  8
Defpoints
 62
     0
100
AcDbPoint
 10
861.902109186971
 20
429.4965993040212
 30
0.0
  0
ENDBLK
  5
4924
330
4922
100
AcDbEntity
  8
0
100
AcDbBlockEnd
  0
BLOCK
  5
497E
330
497D
100
AcDbEntity
  8
0
100
AcDbBlockBegin
  2
*D42
 70
     1
 10
0.0
 20
0.0
 30
0.0
  3
*D42
  1

  0
LINE
  5
4B05
330
497D
100
AcDbEntity
  8
5
370
    -2
100
AcDbLine
 10
463.6447510850668
 20
601.2010361620132
 30
0.0
 11
492.8519181815508
 21
601.2010361620132
 31
0.0
  0
LINE
  5
4B06
330
497D
100
AcDbEntity
  8
5
370
    -2
100
AcDbLine
 10
462.4680542742378
 20
526.3175521078676
 30
0.0
 11
492.8519181815508
 21
526.3175521078676
 31
0.0
  0
LINE
  5
4B07
330
497D
100
AcDbEntity
  8
5
370
    -2
100
AcDbLine
 10
490.8519181815509
 20
596.2010361620132
 30
0.0
 11
490.8519181815509
 21
531.3175521078676
 31
0.0
  0
SOLID
  5
4B08
330
497D
100
AcDbEntity
  8
5
100
AcDbTrace
 10
490.0185848482176
 20
596.2010361620132
 30
0.0
 11
491.6852515148843
 21
596.2010361620132
 31
0.0
 12
490.8519181815509
 22
601.2010361620132
 32
0.0
 13
490.8519181815509
 23
601.2010361620132
 33
0.0
  0
SOLID
  5
4B09
330
497D
100
AcDbEntity
  8
5
100
AcDbTrace
 10
490.0185848482176
 20
531.3175521078676
 30
0.0
 11
491.6852515148843
 21
531.3175521078676
 31
0.0
 12
490.8519181815509
 22
526.3175521078676
 32
0.0
 13
490.8519181815509
 23
526.3175521078676
 33
0.0
  0
MTEXT
  5
4B0A
330
497D
100
AcDbEntity
  8
5
 62
     7
100
AcDbMText
 10
481.6740807067356
 20
563.7592941349405
 30
0.0
 40
14.0
 41
0.0
 71
     5
 72
     1
  1
%%c75
 11
0.0000000000000001
 21
1.0
 31
0.0
 73
     1
 44
1.0
  0
POINT
  5
4B0B
330
497D
100
AcDbEntity
  8
Defpoints
 62
     0
100
AcDbPoint
 10
461.6447510850668
 20
601.2010361620132
 30
0.0
  0
POINT
  5
4B0C
330
497D
100
AcDbEntity
  8
Defpoints
 62
     0
100
AcDbPoint
 10
460.4680542742378
 20
526.3175521078676
 30
0.0
  0
POINT
  5
4B0D
330
497D
100
AcDbEntity
  8
Defpoints
 62
     0
100
AcDbPoint
 10
490.8519181815509
 20
526.3175521078676
 30
0.0
  0
ENDBLK
  5
497F
330
497D
100
AcDbEntity
  8
0
100
AcDbBlockEnd
  0
BLOCK
  5
49AA
330
49A9
100
AcDbEntity
  8
0
100
AcDbBlockBegin
  2
*D43
 70
     1
 10
0.0
 20
0.0
 30
0.0
  3
*D43
  1

  0
LINE
  5
4B17
330
49A9
100
AcDbEntity
  8
5
370
    -2
100
AcDbLine
 10
479.0621713557943
 20
675.3175521078677
 30
0.0
 11
479.0621713557943
 21
687.3175521078677
 31
0.0
  0
LINE
  5
4B18
330
49A9
100
AcDbEntity
  8
5
370
    -2
100
AcDbLine
 10
121.0621713557948
 20
675.3175521078676
 30
0.0
 11
121.0621713557948
 21
687.3175521078677
 31
0.0
  0
LINE
  5
4B19
330
49A9
100
AcDbEntity
  8
5
370
    -2
100
AcDbLine
 10
474.0621713557943
 20
685.3175521078679
 30
0.0
 11
126.0621713557948
 21
685.3175521078679
 31
0.0
  0
SOLID
  5
4B1A
330
49A9
100
AcDbEntity
  8
5
100
AcDbTrace
 10
474.0621713557943
 20
686.1508854412012
 30
0.0
 11
474.0621713557943
 21
684.4842187745345
 31
0.0
 12
479.0621713557943
 22
685.3175521078679
 32
0.0
 13
479.0621713557943
 23
685.3175521078679
 33
0.0
  0
SOLID
  5
4B1B
330
49A9
100
AcDbEntity
  8
5
100
AcDbTrace
 10
126.0621713557948
 20
686.1508854412012
 30
0.0
 11
126.0621713557948
 21
684.4842187745345
 31
0.0
 12
121.0621713557948
 22
685.3175521078679
 32
0.0
 13
121.0621713557948
 23
685.3175521078679
 33
0.0
  0
MTEXT
  5
4B1C
330
49A9
100
AcDbEntity
  8
5
 62
     7
100
AcDbMText
 10
300.0621713557947
 20
694.4953895826833
 30
0.0
 40
14.0
 41
0.0
 71
     5
 72
     1
  1
%%c358
 73
     1
 44
1.0
  0
POINT
  5
4B1D
330
49A9
100
AcDbEntity
  8
Defpoints
 62
     0
100
AcDbPoint
 10
479.0621713557943
 20
673.3175521078679
 30
0.0
  0
POINT
  5
4B1E
330
49A9
100
AcDbEntity
  8
Defpoints
 62
     0
100
AcDbPoint
 10
121.0621713557948
 20
673.3175521078676
 30
0.0
  0
POINT
  5
4B1F
330
49A9
100
AcDbEntity
  8
Defpoints
 62
     0
100
AcDbPoint
 10
121.0621713557948
 20
685.3175521078679
 30
0.0
  0
ENDBLK
  5
49AB
330
49A9
100
AcDbEntity
  8
0
100
AcDbBlockEnd
  0
BLOCK
  5
49CC
330
49CB
100
AcDbEntity
  8
0
100
AcDbBlockBegin
  2
*D44
 70
     1
 10
0.0
 20
0.0
 30
0.0
  3
*D44
  1

  0
LINE
  5
4D48
330
49CB
100
AcDbEntity
  8
5
370
    -2
100
AcDbLine
 10
497.2216521042337
 20
563.8175521078677
 30
0.0
 11
517.0892751596644
 21
563.8175521078677
 31
0.0
  0
LINE
  5
4D49
330
49CB
100
AcDbEntity
  8
5
370
    -2
100
AcDbLine
 10
481.0621713557942
 20
673.3175521078679
 30
0.0
 11
517.0892751596644
 21
673.3175521078679
 31
0.0
  0
LINE
  5
4D4A
330
49CB
100
AcDbEntity
  8
5
370
    -2
100
AcDbLine
 10
515.0892751596644
 20
568.8175521078677
 30
0.0
 11
515.0892751596644
 21
668.3175521078679
 31
0.0
  0
SOLID
  5
4D4B
330
49CB
100
AcDbEntity
  8
5
100
AcDbTrace
 10
514.255941826331
 20
568.8175521078677
 30
0.0
 11
515.9226084929978
 21
568.8175521078677
 31
0.0
 12
515.0892751596644
 22
563.8175521078677
 32
0.0
 13
515.0892751596644
 23
563.8175521078677
 33
0.0
  0
SOLID
  5
4D4C
330
49CB
100
AcDbEntity
  8
5
100
AcDbTrace
 10
514.255941826331
 20
668.3175521078679
 30
0.0
 11
515.9226084929978
 21
668.3175521078679
 31
0.0
 12
515.0892751596644
 22
673.3175521078679
 32
0.0
 13
515.0892751596644
 23
673.3175521078679
 33
0.0
  0
MTEXT
  5
4D4D
330
49CB
100
AcDbEntity
  8
5
 62
     7
100
AcDbMText
 10
506.6025055156079
 20
618.5675521078677
 30
0.0
 40
14.0
 41
0.0
 71
     5
 72
     1
  1
110
 11
0.0000000000000001
 21
1.0
 31
0.0
 73
     1
 44
1.0
  0
POINT
  5
4D4E
330
49CB
100
AcDbEntity
  8
Defpoints
 62
     0
100
AcDbPoint
 10
495.2216521042337
 20
563.8175521078677
 30
0.0
  0
POINT
  5
4D4F
330
49CB
100
AcDbEntity
  8
Defpoints
 62
     0
100
AcDbPoint
 10
479.0621713557943
 20
673.3175521078679
 30
0.0
  0
POINT
  5
4D50
330
49CB
100
AcDbEntity
  8
Defpoints
 62
     0
100
AcDbPoint
 10
515.0892751596644
 20
673.3175521078679
 30
0.0
  0
ENDBLK
  5
49CD
330
49CB
100
AcDbEntity
  8
0
100
AcDbBlockEnd
  0
BLOCK
  5
49EE
330
49ED
100
AcDbEntity
  8
0
100
AcDbBlockBegin
  2
*D45
 70
     1
 10
0.0
 20
0.0
 30
0.0
  3
*D45
  1

  0
LINE
  5
4A9E
330
49ED
100
AcDbEntity
  8
5
370
    -2
100
AcDbLine
 10
221.5621713557946
 20
540.8175521078676
 30
0.0
 11
221.5621713557946
 21
500.8705181673822
 31
0.0
  0
LINE
  5
4A9F
330
49ED
100
AcDbEntity
  8
5
370
    -2
100
AcDbLine
 10
378.5621713557946
 20
604.3175521078677
 30
0.0
 11
378.5621713557946
 21
500.8705181673822
 31
0.0
  0
LINE
  5
4AA0
330
49ED
100
AcDbEntity
  8
5
370
    -2
100
AcDbLine
 10
226.5621713557945
 20
502.8705181673823
 30
0.0
 11
373.5621713557946
 21
502.8705181673823
 31
0.0
  0
SOLID
  5
4AA1
330
49ED
100
AcDbEntity
  8
5
100
AcDbTrace
 10
226.5621713557945
 20
503.7038515007156
 30
0.0
 11
226.5621713557945
 21
502.0371848340491
 31
0.0
 12
221.5621713557946
 22
502.8705181673823
 32
0.0
 13
221.5621713557946
 23
502.8705181673823
 33
0.0
  0
SOLID
  5
4AA2
330
49ED
100
AcDbEntity
  8
5
100
AcDbTrace
 10
373.5621713557946
 20
503.7038515007156
 30
0.0
 11
373.5621713557946
 21
502.0371848340491
 31
0.0
 12
378.5621713557946
 22
502.8705181673823
 32
0.0
 13
378.5621713557946
 23
502.8705181673823
 33
0.0
  0
MTEXT
  5
4AA3
330
49ED
100
AcDbEntity
  8
5
 62
     7
100
AcDbMText
 10
300.0621713557947
 20
511.2397592687927
 30
0.0
 40
14.0
 41
0.0
 71
     5
 72
     1
  1
157
 73
     1
 44
1.0
  0
POINT
  5
4AA4
330
49ED
100
AcDbEntity
  8
Defpoints
 62
     0
100
AcDbPoint
 10
221.5621713557946
 20
542.8175521078676
 30
0.0
  0
POINT
  5
4AA5
330
49ED
100
AcDbEntity
  8
Defpoints
 62
     0
100
AcDbPoint
 10
378.5621713557946
 20
606.3175521078677
 30
0.0
  0
POINT
  5
4AA6
330
49ED
100
AcDbEntity
  8
Defpoints
 62
     0
100
AcDbPoint
 10
378.5621713557946
 20
502.8705181673823
 30
0.0
  0
ENDBLK
  5
49EF
330
49ED
100
AcDbEntity
  8
0
100
AcDbBlockEnd
  0
BLOCK
  5
4A1A
330
4A19
100
AcDbEntity
  8
0
100
AcDbBlockBegin
  2
*D46
 70
     1
 10
0.0
 20
0.0
 30
0.0
  3
*D46
  1

  0
LINE
  5
4D51
330
4A19
100
AcDbEntity
  8
5
370
    -2
100
AcDbLine
 10
300.0621713557947
 20
494.2213727374548
 30
0.0
 11
300.0621713557947
 21
483.202986206117
 31
0.0
  0
LINE
  5
4D52
330
4A19
100
AcDbEntity
  8
5
370
    -2
100
AcDbLine
 10
468.5621713557942
 20
525.8175521078676
 30
0.0
 11
468.5621713557942
 21
483.202986206117
 31
0.0
  0
LINE
  5
4D53
330
4A19
100
AcDbEntity
  8
5
370
    -2
100
AcDbLine
 10
305.0621713557947
 20
485.202986206117
 30
0.0
 11
463.5621713557942
 21
485.202986206117
 31
0.0
  0
SOLID
  5
4D54
330
4A19
100
AcDbEntity
  8
5
100
AcDbTrace
 10
305.0621713557947
 20
486.0363195394503
 30
0.0
 11
305.0621713557947
 21
484.3696528727837
 31
0.0
 12
300.0621713557947
 22
485.202986206117
 32
0.0
 13
300.0621713557947
 23
485.202986206117
 33
0.0
  0
SOLID
  5
4D55
330
4A19
100
AcDbEntity
  8
5
100
AcDbTrace
 10
463.5621713557942
 20
486.0363195394503
 30
0.0
 11
463.5621713557942
 21
484.3696528727837
 31
0.0
 12
468.5621713557942
 22
485.202986206117
 32
0.0
 13
468.5621713557942
 23
485.202986206117
 33
0.0
  0
MTEXT
  5
4D56
330
4A19
100
AcDbEntity
  8
5
 62
     7
100
AcDbMText
 10
384.3121713557945
 20
493.7226638421143
 30
0.0
 40
14.0
 41
0.0
 71
     5
 72
     1
  1
168\P
 73
     1
 44
1.0
  0
POINT
  5
4D57
330
4A19
100
AcDbEntity
  8
Defpoints
 62
     0
100
AcDbPoint
 10
300.0621713557947
 20
496.2213727374549
 30
0.0
  0
POINT
  5
4D58
330
4A19
100
AcDbEntity
  8
Defpoints
 62
     0
100
AcDbPoint
 10
468.5621713557942
 20
527.8175521078676
 30
0.0
  0
POINT
  5
4D59
330
4A19
100
AcDbEntity
  8
Defpoints
 62
     0
100
AcDbPoint
 10
468.5621713557942
 20
485.202986206117
 30
0.0
  0
ENDBLK
  5
4A1B
330
4A19
100
AcDbEntity
  8
0
100
AcDbBlockEnd
  0
BLOCK
  5
4A3C
330
4A3B
100
AcDbEntity
  8
0
100
AcDbBlockBegin
  2
*D47
 70
     1
 10
0.0
 20
0.0
 30
0.0
  3
*D47
  1

  0
LINE
  5
4AF3
330
4A3B
100
AcDbEntity
  8
5
370
    -2
100
AcDbLine
 10
462.4680542742378
 20
526.3175521078676
 30
0.0
 11
541.3266290554394
 21
526.3175521078676
 31
0.0
  0
LINE
  5
4AF4
330
4A3B
100
AcDbEntity
  8
5
370
    -2
100
AcDbLine
 10
481.0621713557941
 20
673.3175521078679
 30
0.0
 11
541.3266290554394
 21
673.3175521078679
 31
0.0
  0
LINE
  5
4AF5
330
4A3B
100
AcDbEntity
  8
5
370
    -2
100
AcDbLine
 10
539.3266290554394
 20
531.3175521078676
 30
0.0
 11
539.3266290554394
 21
668.3175521078679
 31
0.0
  0
SOLID
  5
4AF6
330
4A3B
100
AcDbEntity
  8
5
100
AcDbTrace
 10
538.493295722106
 20
531.3175521078676
 30
0.0
 11
540.1599623887728
 21
531.3175521078676
 31
0.0
 12
539.3266290554394
 22
526.3175521078676
 32
0.0
 13
539.3266290554394
 23
526.3175521078676
 33
0.0
  0
SOLID
  5
4AF7
330
4A3B
100
AcDbEntity
  8
5
100
AcDbTrace
 10
538.493295722106
 20
668.3175521078679
 30
0.0
 11
540.1599623887728
 21
668.3175521078679
 31
0.0
 12
539.3266290554394
 22
673.3175521078679
 32
0.0
 13
539.3266290554394
 23
673.3175521078679
 33
0.0
  0
MTEXT
  5
4AF8
330
4A3B
100
AcDbEntity
  8
5
 62
     7
100
AcDbMText
 10
531.1031233469101
 20
599.8175521078677
 30
0.0
 40
14.0
 41
0.0
 71
     5
 72
     1
  1
147
 11
0.0000000000000001
 21
1.0
 31
0.0
 73
     1
 44
1.0
  0
POINT
  5
4AF9
330
4A3B
100
AcDbEntity
  8
Defpoints
 62
     0
100
AcDbPoint
 10
460.4680542742378
 20
526.3175521078676
 30
0.0
  0
POINT
  5
4AFA
330
4A3B
100
AcDbEntity
  8
Defpoints
 62
     0
100
AcDbPoint
 10
479.0621713557943
 20
673.3175521078679
 30
0.0
  0
POINT
  5
4AFB
330
4A3B
100
AcDbEntity
  8
Defpoints
 62
     0
100
AcDbPoint
 10
539.3266290554394
 20
673.3175521078679
 30
0.0
  0
ENDBLK
  5
4A3D
330
4A3B
100
AcDbEntity
  8
0
100
AcDbBlockEnd
  0
ENDSEC
  0
SECTION
  2
ENTITIES
  0
LINE
  5
214
330
6C
100
AcDbEntity
  8
0
100
AcDbLine
 10
362.0621713557946
 20
526.3175521078676
 30
0.0
 11
238.0621713557946
 21
526.3175521078676
 31
0.0
  0
LINE
  5
215
330
6C
100
AcDbEntity
  8
0
100
AcDbLine
 10
221.5621713557946
 20
637.4143709505101
 30
0.0
 11
221.5621713557946
 21
665.8175521078676
 31
0.0
  0
LINE
  5
216
330
6C
100
AcDbEntity
  8
0
100
AcDbLine
 10
378.5621713557946
 20
637.4143709505101
 30
0.0
 11
378.5621713557946
 21
665.8175521078676
 31
0.0
  0
ARC
  5
217
330
6C
100
AcDbEntity
  8
0
100
AcDbCircle
 10
238.0621713557946
 20
542.8175521078676
 30
0.0
 40
16.49999999999999
100
AcDbArc
 50
180.0
 51
270.0
  0
LINE
  5
218
330
6C
100
AcDbEntity
  8
0
100
AcDbLine
 10
221.5621713557946
 20
542.8175521078676
 30
0.0
 11
221.5621713557946
 21
625.2207332652252
 31
0.0
  0
LINE
  5
219
330
6C
100
AcDbEntity
  8
0
100
AcDbLine
 10
378.5621713557946
 20
606.3175521078677
 30
0.0
 11
378.5621713557946
 21
625.2207332652252
 31
0.0
  0
ARC
  5
21A
330
6C
100
AcDbEntity
  8
0
100
AcDbCircle
 10
375.0621713557946
 20
625.2207332652252
 30
0.0
 40
3.5
100
AcDbArc
 50
0.0
 51
60.00000000000054
  0
ARC
  5
21B
330
6C
100
AcDbEntity
  8
0
100
AcDbCircle
 10
225.0621713557946
 20
625.2207332652252
 30
0.0
 40
3.5
100
AcDbArc
 50
119.9999999999999
 51
180.0
  0
LINE
  5
21C
330
6C
100
AcDbEntity
  8
0
100
AcDbLine
 10
375.2521713557946
 20
629.1524885984065
 30
0.0
 11
376.8121713557946
 21
628.2518221784707
 31
0.0
  0
LINE
  5
21D
330
6C
100
AcDbEntity
  8
0
100
AcDbLine
 10
224.8721713557946
 20
629.1524885984065
 30
0.0
 11
223.3121713557946
 21
628.2518221784707
 31
0.0
  0
ARC
  5
21E
330
6C
100
AcDbEntity
  8
0
100
AcDbCircle
 10
376.5021713557946
 20
631.3175521078677
 30
0.0
 40
2.5
100
AcDbArc
 50
120.0000000000005
 51
240.0000000000002
  0
ARC
  5
21F
330
6C
100
AcDbEntity
  8
0
100
AcDbCircle
 10
223.6221713557946
 20
631.3175521078677
 30
0.0
 40
2.5
100
AcDbArc
 50
300.0000000000005
 51
60.00000000000023
  0
LINE
  5
220
330
6C
100
AcDbEntity
  8
0
100
AcDbLine
 10
224.8721713557946
 20
633.4826156173287
 30
0.0
 11
223.3121713557946
 21
634.3832820372645
 31
0.0
  0
LINE
  5
221
330
6C
100
AcDbEntity
  8
0
100
AcDbLine
 10
375.2521713557946
 20
633.4826156173287
 30
0.0
 11
376.8121713557946
 21
634.3832820372645
 31
0.0
  0
ARC
  5
222
330
6C
100
AcDbEntity
  8
0
100
AcDbCircle
 10
375.0621713557945
 20
637.4143709505101
 30
0.0
 40
3.5
100
AcDbArc
 50
299.9999999999994
 51
0.0
  0
ARC
  5
223
330
6C
100
AcDbEntity
  8
0
100
AcDbCircle
 10
225.0621713557946
 20
637.4143709505101
 30
0.0
 40
3.5
100
AcDbArc
 50
180.0
 51
240.0
  0
LINE
  5
224
330
6C
100
AcDbEntity
  8
0
100
AcDbLine
 10
383.5621713557946
 20
601.3175521078677
 30
0.0
 11
383.5621713557946
 21
526.3175521078676
 31
0.0
  0
LINE
  5
225
330
6C
100
AcDbEntity
  8
0
100
AcDbLine
 10
383.5621713557946
 20
526.3175521078676
 30
0.0
 11
362.0621713557946
 21
526.3175521078676
 31
0.0
  0
ARC
  5
228
330
6C
100
AcDbEntity
  8
0
100
AcDbCircle
 10
215.5621713557946
 20
665.8175521078676
 30
0.0
 40
6.0
100
AcDbArc
 50
0.0
 51
90.0
  0
ARC
  5
229
330
6C
100
AcDbEntity
  8
0
100
AcDbCircle
 10
384.5621713557946
 20
665.8175521078676
 30
0.0
 40
6.0
100
AcDbArc
 50
90.0
 51
180.0
  0
ARC
  5
22C
330
6C
100
AcDbEntity
  8
0
100
AcDbCircle
 10
383.5621713557946
 20
606.3175521078677
 30
0.0
 40
5.0
100
AcDbArc
 50
180.0
 51
270.0
  0
LINE
  5
22D
330
6C
100
AcDbEntity
  8
0
100
AcDbLine
 10
134.3323237046843
 20
673.3175521078676
 30
0.0
 11
131.7920670180011
 21
673.3175521078676
 31
0.0
  0
LINE
  5
22E
330
6C
100
AcDbEntity
  8
0
100
AcDbLine
 10
131.7920670180011
 20
673.3175521078676
 30
0.0
 11
131.7920670180011
 21
671.8175521078676
 31
0.0
  0
LINE
  5
22F
330
6C
100
AcDbEntity
  8
0
100
AcDbLine
 10
131.7920670180011
 20
671.8175521078676
 30
0.0
 11
134.3323237046843
 21
671.8175521078676
 31
0.0
  0
LINE
  5
230
330
6C
100
AcDbEntity
  8
0
100
AcDbLine
 10
134.3323237046843
 20
671.8175521078676
 30
0.0
 11
134.3323237046843
 21
673.3175521078676
 31
0.0
  0
LINE
  5
231
330
6C
100
AcDbEntity
  8
0
100
AcDbLine
 10
137.9137596539511
 20
671.8175521078676
 30
0.0
 11
134.3323237046843
 21
671.8175521078676
 31
0.0
  0
LINE
  5
232
330
6C
100
AcDbEntity
  8
0
100
AcDbLine
 10
134.3323237046843
 20
673.3175521078676
 30
0.0
 11
137.9137596539511
 21
673.3175521078676
 31
0.0
  0
LINE
  5
233
330
6C
100
AcDbEntity
  8
0
100
AcDbLine
 10
137.9137596539511
 20
671.8175521078676
 30
0.0
 11
137.9137596539511
 21
673.3175521078676
 31
0.0
  0
LINE
  5
234
330
6C
100
AcDbEntity
  8
0
100
AcDbLine
 10
373.3019231312924
 20
671.8175521078677
 30
0.0
 11
375.8836233503944
 21
671.8175521078677
 31
0.0
  0
LINE
  5
235
330
6C
100
AcDbEntity
  8
0
100
AcDbLine
 10
373.3019231312924
 20
671.8175521078677
 30
0.0
 11
370.0876069043796
 21
671.8175521078677
 31
0.0
  0
LINE
  5
236
330
6C
100
AcDbEntity
  8
0
100
AcDbLine
 10
370.0876069043796
 20
671.8175521078677
 30
0.0
 11
364.8441482313993
 21
671.8175521078677
 31
0.0
  0
LINE
  5
237
330
6C
100
AcDbEntity
  8
0
100
AcDbLine
 10
465.7920190069048
 20
671.8175521078677
 30
0.0
 11
468.3322756935877
 21
671.8175521078677
 31
0.0
  0
LINE
  5
238
330
6C
100
AcDbEntity
  8
0
100
AcDbLine
 10
465.7920190069048
 20
671.8175521078677
 30
0.0
 11
462.210583057638
 21
671.8175521078677
 31
0.0
  0
LINE
  5
239
330
6C
100
AcDbEntity
  8
0
100
AcDbLine
 10
462.210583057638
 20
673.3175521078676
 30
0.0
 11
462.210583057638
 21
671.8175521078677
 31
0.0
  0
LINE
  5
23A
330
6C
100
AcDbEntity
  8
0
100
AcDbLine
 10
468.3322756935877
 20
671.8175521078677
 30
0.0
 11
468.3322756935877
 21
673.3175521078676
 31
0.0
  0
LINE
  5
23B
330
6C
100
AcDbEntity
  8
0
100
AcDbLine
 10
468.3322756935877
 20
673.3175521078676
 30
0.0
 11
465.7920190069048
 21
673.3175521078676
 31
0.0
  0
LINE
  5
23C
330
6C
100
AcDbEntity
  8
0
100
AcDbLine
 10
465.7920190069048
 20
673.3175521078676
 30
0.0
 11
465.7920190069048
 21
671.8175521078677
 31
0.0
  0
LINE
  5
23D
330
6C
100
AcDbEntity
  8
0
100
AcDbLine
 10
462.210583057638
 20
673.3175521078676
 30
0.0
 11
465.7920190069048
 21
673.3175521078676
 31
0.0
  0
LINE
  5
23E
330
6C
100
AcDbEntity
  8
0
100
AcDbLine
 10
362.2153687411568
 20
673.3175521078676
 30
0.0
 11
361.1045499640044
 21
673.3175521078676
 31
0.0
  0
LINE
  5
23F
330
6C
100
AcDbEntity
  8
0
100
AcDbLine
 10
361.1045499640044
 20
673.3175521078676
 30
0.0
 11
361.1045499640044
 21
671.8175521078677
 31
0.0
  0
LINE
  5
240
330
6C
100
AcDbEntity
  8
0
100
AcDbLine
 10
361.1045499640044
 20
671.8175521078677
 30
0.0
 11
362.2153687411568
 21
671.8175521078677
 31
0.0
  0
LINE
  5
241
330
6C
100
AcDbEntity
  8
0
100
AcDbLine
 10
362.2153687411568
 20
671.8175521078677
 30
0.0
 11
362.2153687411568
 21
673.3175521078676
 31
0.0
  0
LINE
  5
242
330
6C
100
AcDbEntity
  8
0
100
AcDbLine
 10
375.8836233503944
 20
671.8175521078677
 30
0.0
 11
375.8836233503944
 21
673.3175521078676
 31
0.0
  0
LINE
  5
243
330
6C
100
AcDbEntity
  8
0
100
AcDbLine
 10
375.8836233503944
 20
673.3175521078676
 30
0.0
 11
373.3019231312924
 21
673.3175521078676
 31
0.0
  0
LINE
  5
244
330
6C
100
AcDbEntity
  8
0
100
AcDbLine
 10
373.3019231312924
 20
673.3175521078676
 30
0.0
 11
373.3019231312924
 21
671.8175521078677
 31
0.0
  0
LINE
  5
245
330
6C
100
AcDbEntity
  8
0
100
AcDbLine
 10
370.0876069043796
 20
673.3175521078676
 30
0.0
 11
373.3019231312924
 21
673.3175521078676
 31
0.0
  0
LINE
  5
246
330
6C
100
AcDbEntity
  8
0
100
AcDbLine
 10
364.8441482313992
 20
673.3175521078676
 30
0.0
 11
362.2153687411568
 21
673.3175521078676
 31
0.0
  0
POLYLINE
  5
247
330
6C
100
AcDbEntity
  8
0
100
AcDb2dPolyline
 66
     1
 10
0.0
 20
0.0
 30
0.0
 70
   128
  0
VERTEX
  5
248
330
247
100
AcDbEntity
  8
0
100
AcDbVertex
100
AcDb2dVertex
 10
364.8441471019493
 20
671.8175523462861
 30
0.0
  0
VERTEX
  5
249
330
247
100
AcDbEntity
  8
0
100
AcDbVertex
100
AcDb2dVertex
 10
364.7326291957603
 20
671.8179266634552
 30
0.0
  0
VERTEX
  5
24B
330
247
100
AcDbEntity
  8
0
100
AcDbVertex
100
AcDb2dVertex
 10
364.6210397639976
 20
671.8189983549684
 30
0.0
  0
VERTEX
  5
24C
330
247
100
AcDbEntity
  8
0
100
AcDbVertex
100
AcDb2dVertex
 10
364.5094121852622
 20
671.8206947031586
 30
0.0
  0
VERTEX
  5
24D
330
247
100
AcDbEntity
  8
0
100
AcDbVertex
100
AcDb2dVertex
 10
364.3977655330406
 20
671.8229370298952
 30
0.0
  0
VERTEX
  5
24E
330
247
100
AcDbEntity
  8
0
100
AcDbVertex
100
AcDb2dVertex
 10
364.2861284175621
 20
671.8256502333253
 30
0.0
  0
VERTEX
  5
24F
330
247
100
AcDbEntity
  8
0
100
AcDbVertex
100
AcDb2dVertex
 10
364.1745294490562
 20
671.8287604036897
 30
0.0
  0
VERTEX
  5
250
330
247
100
AcDbEntity
  8
0
100
AcDbVertex
100
AcDb2dVertex
 10
364.0630020061241
 20
671.8321912470428
 30
0.0
  0
VERTEX
  5
251
330
247
100
AcDbEntity
  8
0
100
AcDbVertex
100
AcDb2dVertex
 10
363.9515603938804
 20
671.8358676615325
 30
0.0
  0
VERTEX
  5
252
330
247
100
AcDbEntity
  8
0
100
AcDbVertex
100
AcDb2dVertex
 10
363.8402427592979
 20
671.8397133532135
 30
0.0
  0
VERTEX
  5
253
330
247
100
AcDbEntity
  8
0
100
AcDbVertex
100
AcDb2dVertex
 10
363.7290729442344
 20
671.8436532202332
 30
0.0
  0
VERTEX
  5
254
330
247
100
AcDbEntity
  8
0
100
AcDbVertex
100
AcDb2dVertex
 10
363.6180747905479
 20
671.8476109686462
 30
0.0
  0
VERTEX
  5
255
330
247
100
AcDbEntity
  8
0
100
AcDbVertex
100
AcDb2dVertex
 10
363.5072769084678
 20
671.8515114966002
 30
0.0
  0
VERTEX
  5
256
330
247
100
AcDbEntity
  8
0
100
AcDbVertex
100
AcDb2dVertex
 10
363.3967603603111
 20
671.8552856627077
 30
0.0
  0
VERTEX
  5
257
330
247
100
AcDbEntity
  8
0
100
AcDbVertex
100
AcDb2dVertex
 10
363.286658660482
 20
671.8588893595307
 30
0.0
  0
VERTEX
  5
258
330
247
100
AcDbEntity
  8
0
100
AcDbVertex
100
AcDb2dVertex
 10
363.17700041921
 20
671.8622880163756
 30
0.0
  0
VERTEX
  5
259
330
247
100
AcDbEntity
  8
0
100
AcDbVertex
100
AcDb2dVertex
 10
363.0678190150963
 20
671.8654422941772
 30
0.0
  0
VERTEX
  5
25A
330
247
100
AcDbEntity
  8
0
100
AcDbVertex
100
AcDb2dVertex
 10
362.9591382899986
 20
671.8683188143342
 30
0.0
  0
VERTEX
  5
25B
330
247
100
AcDbEntity
  8
0
100
AcDbVertex
100
AcDb2dVertex
 10
362.8509820857748
 20
671.8708770456878
 30
0.0
  0
VERTEX
  5
25C
330
247
100
AcDbEntity
  8
0
100
AcDbVertex
100
AcDb2dVertex
 10
362.7433790126548
 20
671.8730836096376
 30
0.0
  0
VERTEX
  5
25D
330
247
100
AcDbEntity
  8
0
100
AcDbVertex
100
AcDb2dVertex
 10
362.6363481441245
 20
671.8749003592103
 30
0.0
  0
VERTEX
  5
25E
330
247
100
AcDbEntity
  8
0
100
AcDbVertex
100
AcDb2dVertex
 10
362.5299371639
 20
671.8762915316195
 30
0.0
  0
VERTEX
  5
25F
330
247
100
AcDbEntity
  8
0
100
AcDbVertex
100
AcDb2dVertex
 10
362.4242843547569
 20
671.87724282175
 30
0.0
  0
VERTEX
  5
260
330
247
100
AcDbEntity
  8
0
100
AcDbVertex
100
AcDb2dVertex
 10
362.3194230952965
 20
671.8777542296022
 30
0.0
  0
VERTEX
  5
261
330
247
100
AcDbEntity
  8
0
100
AcDbVertex
100
AcDb2dVertex
 10
362.2153676906334
 20
671.8778305235473
 30
0.0
  0
SEQEND
  5
24A
330
247
100
AcDbEntity
  8
0
  0
LINE
  5
262
330
6C
100
AcDbEntity
  8
0
100
AcDbLine
 10
364.8441482313992
 20
673.3175521078676
 30
0.0
 11
370.0876069043796
 21
673.3175521078676
 31
0.0
  0
LINE
  5
2B9
330
6C
100
AcDbEntity
  8
0
100
AcDbLine
 10
131.7920670180011
 20
671.8175521078676
 30
0.0
 11
121.0621713557948
 21
671.8175521078676
 31
0.0
  0
LINE
  5
2BA
330
6C
100
AcDbEntity
  8
0
100
AcDbLine
 10
224.2407193611947
 20
671.8175521078676
 30
0.0
 11
137.9137596539511
 21
671.8175521078676
 31
0.0
  0
LINE
  5
2BB
330
6C
100
AcDbEntity
  8
0
100
AcDbLine
 10
462.210583057638
 20
671.8175521078676
 30
0.0
 11
375.8836233503944
 21
671.8175521078676
 31
0.0
  0
LINE
  5
2BC
330
6C
100
AcDbEntity
  8
0
100
AcDbLine
 10
362.2153687411577
 20
671.8175521078673
 30
0.0
 11
364.8441482313994
 21
671.8175521078673
 31
0.0
  0
LINE
  5
2BD
330
6C
100
AcDbEntity
  8
0
100
AcDbLine
 10
235.2801944801899
 20
671.8175521078673
 30
0.0
 11
237.9089739704322
 21
671.8175521078673
 31
0.0
  0
LINE
  5
2BE
330
6C
100
AcDbEntity
  8
0
100
AcDbLine
 10
479.0621713557943
 20
671.8175521078677
 30
0.0
 11
468.3322756935877
 21
671.8175521078677
 31
0.0
  0
LINE
  5
2BF
330
6C
100
AcDbEntity
  8
0
100
AcDbLine
 10
361.1045499640045
 20
671.8175521078677
 30
0.0
 11
239.0197927475847
 21
671.8175521078677
 31
0.0
  0
LINE
  5
665
330
6C
100
AcDbEntity
  8
0
100
AcDbLine
 10
224.2407193611948
 20
673.3175521078676
 30
0.0
 11
224.2407193611948
 21
671.8175521078676
 31
0.0
  0
LINE
  5
666
330
6C
100
AcDbEntity
  8
0
100
AcDbLine
 10
224.2407193611948
 20
671.8175521078676
 30
0.0
 11
226.8224195802968
 21
671.8175521078676
 31
0.0
  0
LINE
  5
667
330
6C
100
AcDbEntity
  8
0
100
AcDbLine
 10
239.0197927475847
 20
673.3175521078676
 30
0.0
 11
237.9089739704322
 21
673.3175521078676
 31
0.0
  0
LINE
  5
668
330
6C
100
AcDbEntity
  8
0
100
AcDbLine
 10
237.9089739704322
 20
671.8175521078676
 30
0.0
 11
239.0197927475847
 21
671.8175521078676
 31
0.0
  0
LINE
  5
669
330
6C
100
AcDbEntity
  8
0
100
AcDbLine
 10
239.0197927475847
 20
671.8175521078676
 30
0.0
 11
239.0197927475847
 21
673.3175521078676
 31
0.0
  0
LINE
  5
66A
330
6C
100
AcDbEntity
  8
0
100
AcDbLine
 10
226.8224195802968
 20
673.3175521078676
 30
0.0
 11
224.2407193611948
 21
673.3175521078676
 31
0.0
  0
LINE
  5
66B
330
6C
100
AcDbEntity
  8
0
100
AcDbLine
 10
226.8224195802968
 20
671.8175521078676
 30
0.0
 11
226.8224195802968
 21
673.3175521078676
 31
0.0
  0
LINE
  5
66C
330
6C
100
AcDbEntity
  8
0
100
AcDbLine
 10
237.9089739704322
 20
673.3175521078676
 30
0.0
 11
237.9089739704322
 21
671.8175521078676
 31
0.0
  0
LINE
  5
66D
330
6C
100
AcDbEntity
  8
0
100
AcDbLine
 10
224.2407193611947
 20
673.3175521078676
 30
0.0
 11
137.9137596539511
 21
673.3175521078676
 31
0.0
  0
LINE
  5
66E
330
6C
100
AcDbEntity
  8
0
100
AcDbLine
 10
361.1045499640044
 20
673.3175521078676
 30
0.0
 11
239.0197927475846
 21
673.3175521078676
 31
0.0
  0
LINE
  5
66F
330
6C
100
AcDbEntity
  8
0
100
AcDbLine
 10
462.2105830576377
 20
673.3175521078676
 30
0.0
 11
375.8836233503942
 21
673.3175521078676
 31
0.0
  0
LINE
  5
670
330
6C
100
AcDbEntity
  8
0
100
AcDbLine
 10
479.0621713557943
 20
673.3175521078679
 30
0.0
 11
468.3322756935877
 21
673.3175521078679
 31
0.0
  0
LINE
  5
671
330
6C
100
AcDbEntity
  8
0
100
AcDbLine
 10
131.7920670180011
 20
673.3175521078676
 30
0.0
 11
121.0621713557948
 21
673.3175521078676
 31
0.0
  0
LINE
  5
672
330
6C
100
AcDbEntity
  8
0
100
AcDbLine
 10
479.0621713557943
 20
671.8175521078677
 30
0.0
 11
479.0621713557943
 21
673.3175521078676
 31
0.0
  0
LINE
  5
673
330
6C
100
AcDbEntity
  8
0
100
AcDbLine
 10
121.0621713557948
 20
671.8175521078676
 30
0.0
 11
121.0621713557948
 21
673.3175521078676
 31
0.0
  0
LINE
  5
674
330
6C
100
AcDbEntity
  8
0
100
AcDbLine
 10
417.2985936273937
 20
676.7550521078675
 30
0.0
 11
405.984885128409
 21
676.7550521078675
 31
0.0
  0
LINE
  5
675
330
6C
100
AcDbEntity
  8
0
100
AcDbLine
 10
405.984885128409
 20
676.7550521078675
 30
0.0
 11
194.13945758318
 21
676.7550521078675
 31
0.0
  0
LINE
  5
676
330
6C
100
AcDbEntity
  8
0
100
AcDbLine
 10
194.13945758318
 20
676.7550521078675
 30
0.0
 11
182.8257490841953
 21
676.7550521078675
 31
0.0
  0
ARC
  5
677
330
6C
100
AcDbEntity
  8
0
100
AcDbCircle
 10
136.9635348959166
 20
674.8175521078677
 30
0.0
 40
1.500000000000127
100
AcDbArc
 50
270.0000000000013
 51
337.9756871629576
  0
ARC
  5
678
330
6C
100
AcDbEntity
  8
0
100
AcDbCircle
 10
142.0621713557948
 20
672.7550521078673
 30
0.0
 40
3.999999999999998
100
AcDbArc
 50
89.99999999999923
 51
157.9756871629547
  0
LINE
  5
679
330
6C
100
AcDbEntity
  8
0
100
AcDbLine
 10
182.8257490841953
 20
676.7550521078675
 30
0.0
 11
142.0621713557948
 21
676.7550521078675
 31
0.0
  0
ARC
  5
67A
330
6C
100
AcDbEntity
  8
0
100
AcDbCircle
 10
463.1608078156725
 20
674.8175521078677
 30
0.0
 40
1.500000000000127
100
AcDbArc
 50
202.0243128370426
 51
270.0
  0
ARC
  5
67B
330
6C
100
AcDbEntity
  8
0
100
AcDbCircle
 10
458.0621713557944
 20
672.7550521078673
 30
0.0
 40
4.0
100
AcDbArc
 50
22.0243128370453
 51
90.0
  0
LINE
  5
67C
330
6C
100
AcDbEntity
  8
0
100
AcDbLine
 10
458.0621713557944
 20
676.7550521078675
 30
0.0
 11
417.2985936273937
 21
676.7550521078675
 31
0.0
  0
LINE
  5
681
330
6C
100
AcDbEntity
  8
0
100
AcDbLine
 10
235.2801944801897
 20
671.8175521078677
 30
0.0
 11
230.0367358072092
 21
671.8175521078677
 31
0.0
  0
LINE
  5
682
330
6C
100
AcDbEntity
  8
0
100
AcDbLine
 10
230.0367358072092
 20
671.8175521078676
 30
0.0
 11
226.8224195802968
 21
671.8175521078676
 31
0.0
  0
LINE
  5
683
330
6C
100
AcDbEntity
  8
0
100
AcDbLine
 10
226.8224195802968
 20
673.3175521078676
 30
0.0
 11
230.0367358072092
 21
673.3175521078676
 31
0.0
  0
LINE
  5
684
330
6C
100
AcDbEntity
  8
0
100
AcDbLine
 10
230.0367358072092
 20
673.3175521078676
 30
0.0
 11
235.2801944801899
 21
673.3175521078676
 31
0.0
  0
LINE
  5
685
330
6C
100
AcDbEntity
  8
0
100
AcDbLine
 10
237.9089739704312
 20
673.3175521078676
 30
0.0
 11
235.2801944801898
 21
673.3175521078676
 31
0.0
  0
POLYLINE
  5
686
330
6C
100
AcDbEntity
  8
0
100
AcDb2dPolyline
 66
     1
 10
0.0
 20
0.0
 30
0.0
 70
   128
  0
VERTEX
  5
687
330
686
100
AcDbEntity
  8
0
100
AcDbVertex
100
AcDb2dVertex
 10
237.9089750209558
 20
671.8778007212249
 30
0.0
  0
VERTEX
  5
688
330
686
100
AcDbEntity
  8
0
100
AcDbVertex
100
AcDb2dVertex
 10
237.803570167135
 20
671.8777494612306
 30
0.0
  0
VERTEX
  5
68A
330
686
100
AcDbEntity
  8
0
100
AcDbVertex
100
AcDb2dVertex
 10
237.6972927013146
 20
671.8772344770997
 30
0.0
  0
VERTEX
  5
68B
330
686
100
AcDbEntity
  8
0
100
AcDbVertex
100
AcDb2dVertex
 10
237.5901807704675
 20
671.8762414637177
 30
0.0
  0
VERTEX
  5
68C
330
686
100
AcDbEntity
  8
0
100
AcDbVertex
100
AcDb2dVertex
 10
237.4824155727136
 20
671.8747835341067
 30
0.0
  0
VERTEX
  5
68D
330
686
100
AcDbEntity
  8
0
100
AcDbVertex
100
AcDb2dVertex
 10
237.374030486654
 20
671.8728988352387
 30
0.0
  0
VERTEX
  5
68E
330
686
100
AcDbEntity
  8
0
100
AcDbVertex
100
AcDb2dVertex
 10
237.2650636592614
 20
671.8706243219942
 30
0.0
  0
VERTEX
  5
68F
330
686
100
AcDbEntity
  8
0
100
AcDbVertex
100
AcDb2dVertex
 10
237.1555389323938
 20
671.8679981413451
 30
0.0
  0
VERTEX
  5
690
330
686
100
AcDbEntity
  8
0
100
AcDbVertex
100
AcDb2dVertex
 10
237.0454896846521
 20
671.865059632358
 30
0.0
  0
VERTEX
  5
691
330
686
100
AcDbEntity
  8
0
100
AcDbVertex
100
AcDb2dVertex
 10
236.9349397578943
 20
671.8618457499117
 30
0.0
  0
VERTEX
  5
692
330
686
100
AcDbEntity
  8
0
100
AcDbVertex
100
AcDb2dVertex
 10
236.8239177623498
 20
671.8583946409792
 30
0.0
  0
VERTEX
  5
693
330
686
100
AcDbEntity
  8
0
100
AcDbVertex
100
AcDb2dVertex
 10
236.7124523082483
 20
671.8547444525333
 30
0.0
  0
VERTEX
  5
694
330
686
100
AcDbEntity
  8
0
100
AcDbVertex
100
AcDb2dVertex
 10
236.6005767741906
 20
671.8509333315462
 30
0.0
  0
VERTEX
  5
695
330
686
100
AcDbEntity
  8
0
100
AcDbVertex
100
AcDb2dVertex
 10
236.4883626857507
 20
671.8470041933626
 30
0.0
  0
VERTEX
  5
696
330
686
100
AcDbEntity
  8
0
100
AcDbVertex
100
AcDb2dVertex
 10
236.3763441005456
 20
671.8430452528565
 30
0.0
  0
VERTEX
  5
697
330
686
100
AcDbEntity
  8
0
100
AcDbVertex
100
AcDb2dVertex
 10
236.2646736064661
 20
671.8391351881592
 30
0.0
  0
VERTEX
  5
698
330
686
100
AcDbEntity
  8
0
100
AcDbVertex
100
AcDb2dVertex
 10
236.1533798137414
 20
671.8353431406586
 30
0.0
  0
VERTEX
  5
699
330
686
100
AcDbEntity
  8
0
100
AcDbVertex
100
AcDb2dVertex
 10
236.0424913326013
 20
671.8317382517427
 30
0.0
  0
VERTEX
  5
69A
330
686
100
AcDbEntity
  8
0
100
AcDbVertex
100
AcDb2dVertex
 10
235.9320415416467
 20
671.8283896627991
 30
0.0
  0
VERTEX
  5
69B
330
686
100
AcDbEntity
  8
0
100
AcDbVertex
100
AcDb2dVertex
 10
235.8220590511071
 20
671.8253665152161
 30
0.0
  0
VERTEX
  5
69C
330
686
100
AcDbEntity
  8
0
100
AcDbVertex
100
AcDb2dVertex
 10
235.7125772395837
 20
671.8227379503814
 30
0.0
  0
VERTEX
  5
69D
330
686
100
AcDbEntity
  8
0
100
AcDbVertex
100
AcDb2dVertex
 10
235.6036151805627
 20
671.8205731096832
 30
0.0
  0
VERTEX
  5
69E
330
686
100
AcDbEntity
  8
0
100
AcDbVertex
100
AcDb2dVertex
 10
235.4952110210168
 20
671.8189411345092
 30
0.0
  0
VERTEX
  5
69F
330
686
100
AcDbEntity
  8
0
100
AcDbVertex
100
AcDb2dVertex
 10
235.3873933711755
 20
671.8179111662477
 30
0.0
  0
VERTEX
  5
6A0
330
686
100
AcDbEntity
  8
0
100
AcDbVertex
100
AcDb2dVertex
 10
235.2801956096399
 20
671.8175523462861
 30
0.0
  0
SEQEND
  5
689
330
686
100
AcDbEntity
  8
0
  0
ARC
  5
6F1
330
6C
100
AcDbEntity
  8
0
100
AcDbCircle
 10
190.2083965119744
 20
674.3175521078676
 30
0.0
 40
1.0
100
AcDbArc
 50
270.0
 51
337.2937382064124
  0
LINE
  5
6F2
330
6C
100
AcDbEntity
  8
0
100
AcDbLine
 10
191.2091077724207
 20
674.1553764525025
 30
0.0
 11
191.1308969417321
 21
673.9315455141633
 31
0.0
  0
POLYLINE
  5
6F3
330
6C
100
AcDbEntity
  8
0
100
AcDb2dPolyline
 66
     1
 10
0.0
 20
0.0
 30
0.0
 70
   128
  0
VERTEX
  5
6F4
330
6F3
100
AcDbEntity
  8
0
100
AcDbVertex
100
AcDb2dVertex
 10
194.139453307699
 20
676.7550521078676
 30
0.0
  0
VERTEX
  5
6F5
330
6F3
100
AcDbEntity
  8
0
100
AcDbVertex
100
AcDb2dVertex
 10
193.8780225673425
 20
676.7411928358645
 30
0.0
  0
VERTEX
  5
6F7
330
6F3
100
AcDbEntity
  8
0
100
AcDbVertex
100
AcDb2dVertex
 10
193.6186517635095
 20
676.7002480211822
 30
0.0
  0
VERTEX
  5
6F8
330
6F3
100
AcDbEntity
  8
0
100
AcDbVertex
100
AcDb2dVertex
 10
193.3649267116296
 20
676.6331725302307
 30
0.0
  0
VERTEX
  5
6F9
330
6F3
100
AcDbEntity
  8
0
100
AcDbVertex
100
AcDb2dVertex
 10
193.1204618373621
 20
676.5413837614626
 30
0.0
  0
VERTEX
  5
6FA
330
6F3
100
AcDbEntity
  8
0
100
AcDbVertex
100
AcDb2dVertex
 10
192.8872407832849
 20
676.4270775499908
 30
0.0
  0
VERTEX
  5
6FB
330
6F3
100
AcDbEntity
  8
0
100
AcDbVertex
100
AcDb2dVertex
 10
192.6657022395837
 20
676.2917523565858
 30
0.0
  0
VERTEX
  5
6FC
330
6F3
100
AcDbEntity
  8
0
100
AcDbVertex
100
AcDb2dVertex
 10
192.4563611903894
 20
676.1369209471316
 30
0.0
  0
VERTEX
  5
6FD
330
6F3
100
AcDbEntity
  8
0
100
AcDbVertex
100
AcDb2dVertex
 10
192.2603048244226
 20
675.9645264330477
 30
0.0
  0
VERTEX
  5
6FE
330
6F3
100
AcDbEntity
  8
0
100
AcDbVertex
100
AcDb2dVertex
 10
192.0783628383386
 20
675.7767646494477
 30
0.0
  0
VERTEX
  5
6FF
330
6F3
100
AcDbEntity
  8
0
100
AcDbVertex
100
AcDb2dVertex
 10
191.9112314143884
 20
675.5757694426147
 30
0.0
  0
VERTEX
  5
700
330
6F3
100
AcDbEntity
  8
0
100
AcDbVertex
100
AcDb2dVertex
 10
191.6204084316003
 20
675.1389186564057
 30
0.0
  0
VERTEX
  5
701
330
6F3
100
AcDbEntity
  8
0
100
AcDbVertex
100
AcDb2dVertex
 10
191.3863958278406
 20
674.6625225725741
 30
0.0
  0
VERTEX
  5
702
330
6F3
100
AcDbEntity
  8
0
100
AcDbVertex
100
AcDb2dVertex
 10
191.2091077724207
 20
674.1553764525025
 30
0.0
  0
SEQEND
  5
6F6
330
6F3
100
AcDbEntity
  8
0
  0
ARC
  5
703
330
6C
100
AcDbEntity
  8
0
100
AcDbCircle
 10
186.7569101851226
 20
674.3175521078676
 30
0.0
 40
1.0
100
AcDbArc
 50
202.7127210334014
 51
270.0
  0
LINE
  5
704
330
6C
100
AcDbEntity
  8
0
100
AcDbLine
 10
185.7561792293299
 20
674.1554002943606
 30
0.0
 11
185.8344568172205
 21
673.9314418020815
 31
0.0
  0
POLYLINE
  5
705
330
6C
100
AcDbEntity
  8
0
100
AcDb2dPolyline
 66
     1
 10
0.0
 20
0.0
 30
0.0
 70
   128
  0
VERTEX
  5
706
330
705
100
AcDbEntity
  8
0
100
AcDbVertex
100
AcDb2dVertex
 10
182.8257478633631
 20
676.7550521078676
 30
0.0
  0
VERTEX
  5
707
330
705
100
AcDbEntity
  8
0
100
AcDbVertex
100
AcDb2dVertex
 10
183.0871881404626
 20
676.7411916437716
 30
0.0
  0
VERTEX
  5
709
330
705
100
AcDbEntity
  8
0
100
AcDbVertex
100
AcDb2dVertex
 10
183.3465589442957
 20
676.7002468290893
 30
0.0
  0
VERTEX
  5
70A
330
705
100
AcDbEntity
  8
0
100
AcDbVertex
100
AcDb2dVertex
 10
183.6002935329187
 20
676.6331713381377
 30
0.0
  0
VERTEX
  5
70B
330
705
100
AcDbEntity
  8
0
100
AcDbVertex
100
AcDb2dVertex
 10
183.8447584071863
 20
676.5413837614626
 30
0.0
  0
VERTEX
  5
70C
330
705
100
AcDbEntity
  8
0
100
AcDbVertex
100
AcDb2dVertex
 10
184.0779699245203
 20
676.4270799341767
 30
0.0
  0
VERTEX
  5
70D
330
705
100
AcDbEntity
  8
0
100
AcDbVertex
100
AcDb2dVertex
 10
184.2995180049646
 20
676.2917583170502
 30
0.0
  0
VERTEX
  5
70E
330
705
100
AcDbEntity
  8
0
100
AcDbVertex
100
AcDb2dVertex
 10
184.508859054159
 20
676.1369304838747
 30
0.0
  0
VERTEX
  5
70F
330
705
100
AcDbEntity
  8
0
100
AcDbVertex
100
AcDb2dVertex
 10
184.7049249568689
 20
675.9645419302552
 30
0.0
  0
VERTEX
  5
710
330
705
100
AcDbEntity
  8
0
100
AcDbVertex
100
AcDb2dVertex
 10
184.8868669429529
 20
675.7767861071197
 30
0.0
  0
VERTEX
  5
711
330
705
100
AcDbEntity
  8
0
100
AcDbVertex
100
AcDb2dVertex
 10
185.0540079036463
 20
675.5757956686585
 30
0.0
  0
VERTEX
  5
712
330
705
100
AcDbEntity
  8
0
100
AcDbVertex
100
AcDb2dVertex
 10
185.3448499599207
 20
675.1389508429139
 30
0.0
  0
VERTEX
  5
713
330
705
100
AcDbEntity
  8
0
100
AcDbVertex
100
AcDb2dVertex
 10
185.5788721004236
 20
674.6625547590822
 30
0.0
  0
VERTEX
  5
714
330
705
100
AcDbEntity
  8
0
100
AcDbVertex
100
AcDb2dVertex
 10
185.7561792293299
 20
674.1554002943606
 30
0.0
  0
SEQEND
  5
708
330
705
100
AcDbEntity
  8
0
  0
ARC
  5
735
330
6C
100
AcDbEntity
  8
0
100
AcDbCircle
 10
413.3674325264665
 20
674.3175521078677
 30
0.0
 40
1.0
100
AcDbArc
 50
270.0
 51
337.2872789665994
  0
LINE
  5
736
330
6C
100
AcDbEntity
  8
0
100
AcDbLine
 10
414.2898858943685
 20
673.9314418020815
 30
0.0
 11
414.3681634822591
 21
674.1554002943606
 31
0.0
  0
POLYLINE
  5
737
330
6C
100
AcDbEntity
  8
0
100
AcDb2dPolyline
 66
     1
 10
0.0
 20
0.0
 30
0.0
 70
   128
  0
VERTEX
  5
738
330
737
100
AcDbEntity
  8
0
100
AcDbVertex
100
AcDb2dVertex
 10
414.3681634822591
 20
674.1554002943606
 30
0.0
  0
VERTEX
  5
739
330
737
100
AcDbEntity
  8
0
100
AcDbVertex
100
AcDb2dVertex
 10
414.5459665218098
 20
674.6636979761689
 30
0.0
  0
VERTEX
  5
73B
330
737
100
AcDbEntity
  8
0
100
AcDbVertex
100
AcDb2dVertex
 10
414.7814859309896
 20
675.1424770536987
 30
0.0
  0
VERTEX
  5
73C
330
737
100
AcDbEntity
  8
0
100
AcDbVertex
100
AcDb2dVertex
 10
415.0728429713947
 20
675.5790608110991
 30
0.0
  0
VERTEX
  5
73D
330
737
100
AcDbEntity
  8
0
100
AcDbVertex
100
AcDb2dVertex
 10
415.2403081813559
 20
675.7799391928283
 30
0.0
  0
VERTEX
  5
73E
330
737
100
AcDbEntity
  8
0
100
AcDbVertex
100
AcDb2dVertex
 10
415.4223741451008
 20
675.9673528853027
 30
0.0
  0
VERTEX
  5
73F
330
737
100
AcDbEntity
  8
0
100
AcDbVertex
100
AcDb2dVertex
 10
415.6182493129477
 20
676.1391656580537
 30
0.0
  0
VERTEX
  5
740
330
737
100
AcDbEntity
  8
0
100
AcDbVertex
100
AcDb2dVertex
 10
415.827123061727
 20
676.2932996931641
 30
0.0
  0
VERTEX
  5
741
330
737
100
AcDbEntity
  8
0
100
AcDbVertex
100
AcDb2dVertex
 10
416.0484804073081
 20
676.4282040777771
 30
0.0
  0
VERTEX
  5
742
330
737
100
AcDbEntity
  8
0
100
AcDbVertex
100
AcDb2dVertex
 10
416.2817205348715
 20
676.5422849836916
 30
0.0
  0
VERTEX
  5
743
330
737
100
AcDbEntity
  8
0
100
AcDbVertex
100
AcDb2dVertex
 10
416.5261472621662
 20
676.6338460627167
 30
0.0
  0
VERTEX
  5
744
330
737
100
AcDbEntity
  8
0
100
AcDbVertex
100
AcDb2dVertex
 10
416.7793096461997
 20
676.7006223383515
 30
0.0
  0
VERTEX
  5
745
330
737
100
AcDbEntity
  8
0
100
AcDbVertex
100
AcDb2dVertex
 10
417.0378126064047
 20
676.7413048925965
 30
0.0
  0
VERTEX
  5
746
330
737
100
AcDbEntity
  8
0
100
AcDbVertex
100
AcDb2dVertex
 10
417.298594848226
 20
676.7550521078676
 30
0.0
  0
SEQEND
  5
73A
330
737
100
AcDbEntity
  8
0
  0
ARC
  5
747
330
6C
100
AcDbEntity
  8
0
100
AcDbCircle
 10
409.9159461996147
 20
674.3175521078677
 30
0.0
 40
1.0
100
AcDbArc
 50
202.7062617935883
 51
270.0
  0
LINE
  5
748
330
6C
100
AcDbEntity
  8
0
100
AcDbLine
 10
408.9934457698568
 20
673.9315455141633
 30
0.0
 11
408.9152349391683
 21
674.1553764525025
 31
0.0
  0
POLYLINE
  5
749
330
6C
100
AcDbEntity
  8
0
100
AcDb2dPolyline
 66
     1
 10
0.0
 20
0.0
 30
0.0
 70
   128
  0
VERTEX
  5
74A
330
749
100
AcDbEntity
  8
0
100
AcDbVertex
100
AcDb2dVertex
 10
408.9152349391683
 20
674.1553764525025
 30
0.0
  0
VERTEX
  5
74B
330
749
100
AcDbEntity
  8
0
100
AcDbVertex
100
AcDb2dVertex
 10
408.7374414363607
 20
674.6636669817537
 30
0.0
  0
VERTEX
  5
74D
330
749
100
AcDbEntity
  8
0
100
AcDbVertex
100
AcDb2dVertex
 10
408.5019506374107
 20
675.1424460592835
 30
0.0
  0
VERTEX
  5
74E
330
749
100
AcDbEntity
  8
0
100
AcDbVertex
100
AcDb2dVertex
 10
408.2106031337485
 20
675.5790357771485
 30
0.0
  0
VERTEX
  5
74F
330
749
100
AcDbEntity
  8
0
100
AcDbVertex
100
AcDb2dVertex
 10
408.0431569972738
 20
675.7799189272494
 30
0.0
  0
VERTEX
  5
750
330
749
100
AcDbEntity
  8
0
100
AcDbVertex
100
AcDb2dVertex
 10
407.8610910335288
 20
675.9673385801882
 30
0.0
  0
VERTEX
  5
751
330
749
100
AcDbEntity
  8
0
100
AcDbVertex
100
AcDb2dVertex
 10
407.6652158656822
 20
676.1391573134034
 30
0.0
  0
VERTEX
  5
752
330
749
100
AcDbEntity
  8
0
100
AcDbVertex
100
AcDb2dVertex
 10
407.4563421169028
 20
676.2932949247924
 30
0.0
  0
VERTEX
  5
753
330
749
100
AcDbEntity
  8
0
100
AcDbVertex
100
AcDb2dVertex
 10
407.2349847713216
 20
676.4282028856842
 30
0.0
  0
VERTEX
  5
754
330
749
100
AcDbEntity
  8
0
100
AcDbVertex
100
AcDb2dVertex
 10
407.0017446437582
 20
676.5422861757845
 30
0.0
  0
VERTEX
  5
755
330
749
100
AcDbEntity
  8
0
100
AcDbVertex
100
AcDb2dVertex
 10
406.7573179164631
 20
676.6338472548096
 30
0.0
  0
VERTEX
  5
756
330
749
100
AcDbEntity
  8
0
100
AcDbVertex
100
AcDb2dVertex
 10
406.5041555324302
 20
676.7006247225372
 30
0.0
  0
VERTEX
  5
757
330
749
100
AcDbEntity
  8
0
100
AcDbVertex
100
AcDb2dVertex
 10
406.2456621089681
 20
676.7413048925965
 30
0.0
  0
VERTEX
  5
758
330
749
100
AcDbEntity
  8
0
100
AcDbVertex
100
AcDb2dVertex
 10
405.9848894038902
 20
676.7550521078676
 30
0.0
  0
SEQEND
  5
74C
330
749
100
AcDbEntity
  8
0
  0
LINE
  5
75F
330
6C
100
AcDbEntity
  8
0
100
AcDbLine
 10
383.5621713557946
 20
601.3175521078677
 30
0.0
 11
383.5621713557946
 21
526.3175521078676
 31
0.0
  0
LINE
  5
760
330
6C
100
AcDbEntity
  8
0
100
AcDbLine
 10
430.5621713557945
 20
526.3175521078676
 30
0.0
 11
383.5621713557946
 21
526.3175521078676
 31
0.0
  0
LINE
  5
761
330
6C
100
AcDbEntity
  8
0
100
AcDbLine
 10
430.5621713557945
 20
601.3175521078677
 30
0.0
 11
383.5621713557946
 21
601.3175521078677
 31
0.0
  0
LINE
  5
763
330
6C
100
AcDbEntity
  8
0
100
AcDbLine
 10
468.5621713557942
 20
599.8175521078677
 30
0.0
 11
468.5621713557942
 21
527.8175521078676
 31
0.0
  0
ARC
  5
764
330
6C
100
AcDbEntity
  8
0
100
AcDbCircle
 10
460.4680542742378
 20
595.3175521078676
 30
0.0
 40
6.00000000000003
100
AcDbArc
 50
78.69006752598004
 51
90.0
  0
ARC
  5
765
330
6C
100
AcDbEntity
  8
0
100
AcDbCircle
 10
460.4680542742378
 20
532.3175521078676
 30
0.0
 40
6.00000000000003
100
AcDbArc
 50
270.0
 51
281.3099324740207
  0
LINE
  5
766
330
6C
100
AcDbEntity
  8
0
100
AcDbLine
 10
460.4680542742378
 20
526.3175521078676
 30
0.0
 11
430.5621713557945
 21
526.3175521078676
 31
0.0
  0
LINE
  5
767
330
6C
100
AcDbEntity
  8
0
100
AcDbLine
 10
460.4680542742378
 20
601.3175521078677
 30
0.0
 11
430.5621713557945
 21
601.3175521078677
 31
0.0
  0
LINE
  5
770
330
6C
100
AcDbEntity
  8
0
100
AcDbLine
 10
468.5621713557946
 20
527.8175521078676
 30
0.0
 11
461.6447510850669
 21
526.4340680537221
 31
0.0
  0
LINE
  5
771
330
6C
100
AcDbEntity
  8
0
100
AcDbLine
 10
468.5621713557942
 20
599.8175521078677
 30
0.0
 11
461.6447510850668
 21
601.2010361620132
 31
0.0
  0
LINE
  5
795
330
6C
100
AcDbEntity
  8
0
100
AcDbLine
 10
456.3261033782946
 20
526.3175521078676
 30
0.0
 11
450.7982393332944
 21
526.3175521078676
 31
0.0
  0
LINE
  5
796
330
6C
100
AcDbEntity
  8
0
100
AcDbLine
 10
456.3261033782946
 20
601.3175521078677
 30
0.0
 11
450.7982393332944
 21
601.3175521078677
 31
0.0
  0
CIRCLE
  5
3918
330
6C
100
AcDbEntity
  8
0
100
AcDbCircle
 10
300.0621713554669
 20
381.3266546332384
 30
0.0
 40
8.000000000000012
  0
CIRCLE
  5
3919
330
6C
100
AcDbEntity
  8
0
100
AcDbCircle
 10
300.0621713554669
 20
381.3266546332382
 30
0.0
 40
9.000000000000012
  0
CIRCLE
  5
391A
330
6C
100
AcDbEntity
  8
0
100
AcDbCircle
 10
300.0621713554669
 20
381.3266546332339
 30
0.0
 40
10.00000000000001
  0
ARC
  5
391B
330
6C
100
AcDbEntity
  8
0
100
AcDbCircle
 10
300.0621713554668
 20
257.5766546332336
 30
0.0
 40
133.7500000000002
100
AcDbArc
 50
112.4999999999999
 51
67.49999999999983
  0
ARC
  5
391C
330
6C
100
AcDbEntity
  8
0
100
AcDbCircle
 10
252.7050966002869
 20
371.9067467815057
 30
0.0
 40
10.00000000000001
100
AcDbArc
 50
292.4999999999999
 51
112.4999999999999
  0
ARC
  5
391D
330
6C
100
AcDbEntity
  8
0
100
AcDbCircle
 10
300.0621713554668
 20
257.5766546332336
 30
0.0
 40
113.7500000000002
100
AcDbArc
 50
112.4999999999999
 51
67.5
  0
ARC
  5
391E
330
6C
100
AcDbEntity
  8
0
100
AcDbCircle
 10
347.4192461106469
 20
371.9067467815057
 30
0.0
 40
10.00000000000001
100
AcDbArc
 50
67.4999999999999
 51
247.4999999999999
  0
LINE
  5
391F
330
6C
100
AcDbEntity
  8
0
100
AcDbLine
 10
344.3577786517262
 20
364.5157105214197
 30
0.0
 11
343.9750952193611
 21
363.5918309889082
 31
0.0
  0
ARC
  5
3920
330
6C
100
AcDbEntity
  8
0
100
AcDbCircle
 10
347.4192461106469
 20
371.90674678151
 30
0.0
 40
8.000000000000012
100
AcDbArc
 50
67.5000000000001
 51
247.5000000000001
  0
LINE
  5
3921
330
6C
100
AcDbEntity
  8
0
100
AcDbLine
 10
350.8633970019327
 20
380.2216625741113
 30
0.0
 11
350.4807135695676
 21
379.2977830416003
 31
0.0
  0
ARC
  5
3922
330
6C
100
AcDbEntity
  8
0
100
AcDbCircle
 10
347.4192461106469
 20
371.9067467815097
 30
0.0
 40
9.000000000000012
100
AcDbArc
 50
67.5
 51
247.5
  0
LINE
  5
3923
330
6C
100
AcDbEntity
  8
0
100
AcDbLine
 10
249.2609457090012
 20
380.2216625741113
 30
0.0
 11
249.6436291413663
 21
379.2977830416003
 31
0.0
  0
ARC
  5
3924
330
6C
100
AcDbEntity
  8
0
100
AcDbCircle
 10
300.0621713554668
 20
257.5766546332379
 30
0.0
 40
132.7500000000002
100
AcDbArc
 50
112.4999999999999
 51
67.49999999999992
  0
ARC
  5
3925
330
6C
100
AcDbEntity
  8
0
100
AcDbCircle
 10
300.0621713554668
 20
257.5766546332381
 30
0.0
 40
131.7500000000001
100
AcDbArc
 50
112.4999999999999
 51
67.5
  0
LINE
  5
3926
330
6C
100
AcDbEntity
  8
0
100
AcDbLine
 10
256.1492474915727
 20
363.5918309889082
 30
0.0
 11
255.7665640592077
 21
364.5157105214198
 31
0.0
  0
ARC
  5
3927
330
6C
100
AcDbEntity
  8
0
100
AcDbCircle
 10
252.7050966002869
 20
371.9067467815098
 30
0.0
 40
9.000000000000019
100
AcDbArc
 50
292.5
 51
112.5
  0
ARC
  5
3928
330
6C
100
AcDbEntity
  8
0
100
AcDbCircle
 10
252.7050966002869
 20
371.9067467815102
 30
0.0
 40
8.000000000000023
100
AcDbArc
 50
292.5000000000001
 51
112.5000000000001
  0
ARC
  5
3929
330
6C
100
AcDbEntity
  8
0
100
AcDbCircle
 10
300.0621713554668
 20
257.5766546332379
 30
0.0
 40
114.7500000000001
100
AcDbArc
 50
112.4999999999999
 51
67.49999999999992
  0
ARC
  5
392A
330
6C
100
AcDbEntity
  8
0
100
AcDbCircle
 10
300.0621713554668
 20
257.5766546332381
 30
0.0
 40
115.7500000000002
100
AcDbArc
 50
112.4999999999999
 51
67.49999999999992
  0
LINE
  5
392B
330
6C
100
AcDbEntity
  8
0
100
AcDbLine
 10
351.2460804342978
 20
381.1455421066185
 30
0.0
 11
350.8633970019327
 21
380.2216625741074
 31
0.0
  0
LINE
  5
392C
330
6C
100
AcDbEntity
  8
0
100
AcDbLine
 10
249.2609457090011
 20
380.2216625741075
 30
0.0
 11
248.8782622766361
 21
381.1455421066185
 31
0.0
  0
LINE
  5
392D
330
6C
100
AcDbEntity
  8
0
100
AcDbLine
 10
256.1492474915727
 20
363.5918309889043
 30
0.0
 11
256.5319309239379
 21
362.6679514563929
 31
0.0
  0
LINE
  5
392E
330
6C
100
AcDbEntity
  8
0
100
AcDbLine
 10
343.9750952193611
 20
363.5918309889043
 30
0.0
 11
343.5924117869959
 21
362.6679514563926
 31
0.0
  0
CIRCLE
  5
392F
330
6C
100
AcDbEntity
  8
0
100
AcDbCircle
 10
300.0621713554668
 20
257.5766546332336
 30
0.0
 40
106.5198476680384
  0
CIRCLE
  5
3930
330
6C
100
AcDbEntity
  8
0
100
AcDbCircle
 10
300.0621713554668
 20
257.5766546332336
 30
0.0
 40
155.0660348736093
  0
CIRCLE
  5
3931
330
6C
100
AcDbEntity
  8
0
100
AcDbCircle
 10
300.0621713554668
 20
257.5766546332302
 30
0.0
 40
179.0880000000003
  0
CIRCLE
  5
3932
330
6C
100
AcDbEntity
  8
0
100
AcDbCircle
 10
300.0621713554668
 20
257.5766546332302
 30
0.0
 40
164.3880000000002
  0
CIRCLE
  5
3933
330
6C
100
AcDbEntity
  8
0
100
AcDbCircle
 10
300.0621713554668
 20
257.5766546332344
 30
0.0
 40
162.3880000000002
  0
CIRCLE
  5
3934
330
6C
100
AcDbEntity
  8
0
100
AcDbCircle
 10
300.0621713554668
 20
257.5766546332348
 30
0.0
 40
162.0706894086227
  0
CIRCLE
  5
3935
330
6C
100
AcDbEntity
  8
0
100
AcDbCircle
 10
300.0621713554668
 20
257.5766546332351
 30
0.0
 40
160.9626125168324
  0
CIRCLE
  5
3936
330
6C
100
AcDbEntity
  8
0
100
AcDbCircle
 10
300.0621713554668
 20
257.576654633235
 30
0.0
 40
159.5492144307236
  0
CIRCLE
  5
3937
330
6C
100
AcDbEntity
  8
0
100
AcDbCircle
 10
300.0621713554668
 20
257.5766546332338
 30
0.0
 40
155.7967435510956
  0
CIRCLE
  5
3938
330
6C
100
AcDbEntity
  8
0
100
AcDbCircle
 10
300.0621713554668
 20
257.5766546332338
 30
0.0
 40
105.8810000000001
  0
CIRCLE
  5
3939
330
6C
100
AcDbEntity
  8
0
100
AcDbCircle
 10
300.0621713554668
 20
257.576654633237
 30
0.0
 40
92.72743055262623
  0
CIRCLE
  5
393A
330
6C
100
AcDbEntity
  8
0
100
AcDbCircle
 10
300.0621713554668
 20
257.5766546332371
 30
0.0
 40
92.42650000000018
  0
CIRCLE
  5
393B
330
6C
100
AcDbEntity
  8
0
100
AcDbCircle
 10
300.0621713554668
 20
257.5766546332384
 30
0.0
 40
80.24391711541232
  0
CIRCLE
  5
393C
330
6C
100
AcDbEntity
  8
0
100
AcDbCircle
 10
300.0621713554668
 20
257.5766546332384
 30
0.0
 40
79.90600000000014
  0
LINE
  5
4119
330
6C
100
AcDbEntity
  8
7
  6
Continuous
100
AcDbLine
 10
300.0621713557947
 20
537.8175521078676
 30
0.0
 11
300.0621713557947
 21
670.8175521078676
 31
0.0
  0
LINE
  5
411A
330
6C
100
AcDbEntity
  8
7
  6
Continuous
100
AcDbLine
 10
501.99743267757
 20
257.5766546332212
 30
0.0
 11
204.0621713554669
 21
257.5766546332212
 31
0.0
  0
LINE
  5
411B
330
6C
100
AcDbEntity
  8
7
  6
Continuous
100
AcDbLine
 10
300.0621713554669
 20
353.5766546332212
 30
0.0
 11
300.0621713554669
 21
161.5766546332211
 31
0.0
  0
LINE
  5
45CA
330
6C
100
AcDbEntity
  8
7
  6
Continuous
100
AcDbLine
 10
465.4680542742378
 20
563.8175521078677
 30
0.0
 11
378.5621713557946
 21
563.8175521078677
 31
0.0
  0
CIRCLE
  5
4976
330
6C
100
AcDbEntity
  8
0
100
AcDbCircle
 10
300.0621713554669
 20
257.5766546332212
 30
0.0
 40
76.99999999967236
  0
CIRCLE
  5
4977
330
6C
100
AcDbEntity
  8
0
100
AcDbCircle
 10
300.0621713554669
 20
257.5766546332212
 30
0.0
 40
72.40854398330249
  0
DIMENSION
  5
497C
330
6C
100
AcDbEntity
  8
5
100
AcDbDimension
  2
*D42
 10
490.8519181815509
 20
526.3175521078676
 30
0.0
 11
490.8519181815509
 21
563.7592941349405
 31
0.0
 70
   160
  1
%%c<>
 71
     5
 42
74.88348405414547
  3
GEN-ISO
100
AcDbAlignedDimension
 13
461.6447510850668
 23
601.2010361620132
 33
0.0
 14
460.4680542742378
 24
526.3175521078676
 34
0.0
 50
90.00000000000005
100
AcDbRotatedDimension
1001
ACAD
1000
DSTYLE
1002
{
1070
     3
1000

1070
   271
1070
     0
1002
}
1001
ACAD_DSTYLE_DIMINSPECT
1070
   396
1000
100%
1070
   395
1000

1070
   394
1070
    33
1070
   393
1070
     0
  0
DIMENSION
  5
49A8
330
6C
100
AcDbEntity
  8
5
100
AcDbDimension
  2
*D43
 10
121.0621713557948
 20
685.3175521078679
 30
0.0
 11
300.0621713557947
 21
694.4953895826833
 31
0.0
 70
    32
  1
%%c<>
 71
     5
 42
357.9999999999994
  3
GEN-ISO
100
AcDbAlignedDimension
 13
479.0621713557943
 23
673.3175521078679
 33
0.0
 14
121.0621713557948
 24
673.3175521078676
 34
0.0
100
AcDbRotatedDimension
1001
ACAD
1000
DSTYLE
1002
{
1070
     3
1000

1070
   271
1070
     0
1002
}
1001
ACAD_DSTYLE_DIMINSPECT
1070
   396
1000
100%
1070
   395
1000

1070
   394
1070
    33
1070
   393
1070
     0
  0
DIMENSION
  5
49CA
330
6C
100
AcDbEntity
  8
5
100
AcDbDimension
  2
*D44
 10
515.0892751596644
 20
673.3175521078679
 30
0.0
 11
515.0892751596643
 21
618.5675521078677
 31
0.0
 70
   160
 71
     5
 42
109.5000000000001
  3
GEN-ISO
100
AcDbAlignedDimension
 13
495.2216521042337
 23
563.8175521078677
 33
0.0
 14
479.0621713557943
 24
673.3175521078679
 34
0.0
 50
90.0
100
AcDbRotatedDimension
1001
ACAD
1000
DSTYLE
1002
{
1070
     3
1000

1070
   271
1070
     0
1002
}
1001
ACAD_DSTYLE_DIMINSPECT
1070
   396
1000
100%
1070
   395
1000

1070
   394
1070
    33
1070
   393
1070
     0
  0
DIMENSION
  5
49EC
330
6C
100
AcDbEntity
  8
5
100
AcDbDimension
  2
*D45
 10
378.5621713557946
 20
502.8705181673823
 30
0.0
 11
300.0621713557947
 21
511.2397592687927
 31
0.0
 70
    32
 71
     5
 42
157.0
  3
GEN-ISO
100
AcDbAlignedDimension
 13
221.5621713557946
 23
542.8175521078676
 33
0.0
 14
378.5621713557946
 24
606.3175521078677
 34
0.0
 50
0.0000000000001132
100
AcDbRotatedDimension
1001
ACAD_DSTYLE_DIMINSPECT
1070
   396
1000
100%
1070
   395
1000

1070
   394
1070
    33
1070
   393
1070
     0
1001
ACAD
1000
DSTYLE
1002
{
1070
     3
1000

1070
   271
1070
     0
1002
}
  0
DIMENSION
  5
4A18
330
6C
100
AcDbEntity
  8
5
100
AcDbDimension
  2
*D46
 10
468.5621713557942
 20
485.202986206117
 30
0.0
 11
384.3121713557945
 21
493.7226638421143
 31
0.0
 70
    32
  1
168\P
 71
     5
 42
168.4999999999996
  3
GEN-ISO
100
AcDbAlignedDimension
 13
300.0621713557947
 23
496.2213727374549
 33
0.0
 14
468.5621713557942
 24
527.8175521078676
 34
0.0
 50
0.0000000000001132
100
AcDbRotatedDimension
1001
ACAD
1000
DSTYLE
1002
{
1070
     3
1000

1070
   271
1070
     0
1002
}
1001
ACAD_DSTYLE_DIMINSPECT
1070
   396
1000
100%
1070
   395
1000

1070
   394
1070
    33
1070
   393
1070
     0
  0
DIMENSION
  5
4A3A
330
6C
100
AcDbEntity
  8
5
100
AcDbDimension
  2
*D47
 10
539.3266290554394
 20
673.3175521078679
 30
0.0
 11
539.3266290554391
 21
599.8175521078677
 31
0.0
 70
   160
 71
     5
 42
147.0000000000001
  3
GEN-ISO
100
AcDbAlignedDimension
 13
460.4680542742378
 23
526.3175521078676
 33
0.0
 14
479.0621713557943
 24
673.3175521078679
 34
0.0
 50
90.00000000000005
100
AcDbRotatedDimension
1001
ACAD_DSTYLE_DIMINSPECT
1070
   396
1000
100%
1070
   395
1000

1070
   394
1070
    33
1070
   393
1070
     0
1001
ACAD
1000
DSTYLE
1002
{
1070
     3
1000

1070
   271
1070
     0
1002
}
  0
ENDSEC
  0
SECTION
  2
OBJECTS
  0
DICTIONARY
  5
C
330
0
100
AcDbDictionary
281
     1
  3
ACAD_2007HEADERVARS_RT
350
4D72
  3
ACAD_CIP_PREVIOUS_PRODUCT_INFO
350
4719
  3
ACAD_COLOR
350
63
  3
ACAD_GROUP
350
D
  3
ACAD_LAYOUT
350
62
  3
ACAD_MATERIAL
350
10
  3
ACAD_MLEADERSTYLE
350
66
  3
ACAD_MLINESTYLE
350
5F
  3
ACAD_PLOTSETTINGS
350
61
  3
ACAD_PLOTSTYLENAME
350
E
  3
ACAD_SCALELIST
350
42
  3
ACAD_TABLESTYLE
350
64
  3
ACAD_VISUALSTYLE
350
29
  3
ACDB_RECOMPOSE_DATA
350
4D71
  3
AcDbVariableDictionary
350
4755
  3
AcmDictionary
350
47C1
  3
AEC_PROPERTY_SET_DEFS
350
489F
  3
AMG
350
4767
  3
AMGSNAPSETTINGS
350
4801
  0
DICTIONARY
  5
4859
330
2
100
AcDbDictionary
280
     1
281
     1
  3
ACAD_LAYERSTATES
360
485A
  0
DICTIONARY
  5
4853
330
4852
100
AcDbDictionary
280
     1
281
     1
  0
DICTIONARY
  5
4855
330
4854
100
AcDbDictionary
280
     1
281
     1
  0
DICTIONARY
  5
4D5C
330
C9
100
AcDbDictionary
280
     1
281
     1
  3
ACAD_MTEXT_2008_RT
360
4D5D
  0
DICTIONARY
  5
4DA8
330
1E2
100
AcDbDictionary
280
     1
281
     1
  3
ACAD_MTEXT_2008_RT
360
4DA9
  0
DICTIONARY
  5
4DAA
330
1E7
100
AcDbDictionary
280
     1
281
     1
  3
ACAD_MTEXT_2008_RT
360
4DAB
  0
DICTIONARY
  5
471E
330
1E9
100
AcDbDictionary
280
     1
281
     1
  3
ACAD_MLATT
360
4D5F
  3
ACAD_XREC_ROUNDTRIP
360
4D5E
  0
DICTIONARY
  5
4721
330
1ED
100
AcDbDictionary
280
     1
281
     1
  3
ACAD_MLATT
360
4D61
  3
ACAD_XREC_ROUNDTRIP
360
4D60
  0
DICTIONARY
  5
4724
330
1EE
100
AcDbDictionary
280
     1
281
     1
  3
ACAD_MLATT
360
4D63
  3
ACAD_XREC_ROUNDTRIP
360
4D62
  0
DICTIONARY
  5
4727
330
1EF
100
AcDbDictionary
280
     1
281
     1
  3
ACAD_MLATT
360
4D65
  3
ACAD_XREC_ROUNDTRIP
360
4D64
  0
DICTIONARY
  5
472A
330
1F0
100
AcDbDictionary
280
     1
281
     1
  3
ACAD_MLATT
360
4D67
  3
ACAD_XREC_ROUNDTRIP
360
4D66
  0
DICTIONARY
  5
472D
330
1F2
100
AcDbDictionary
280
     1
281
     1
  3
ACAD_MLATT
360
4D69
  3
ACAD_XREC_ROUNDTRIP
360
4D68
  0
DICTIONARY
  5
4730
330
1F3
100
AcDbDictionary
280
     1
281
     1
  3
ACAD_MLATT
360
4D6B
  3
ACAD_XREC_ROUNDTRIP
360
4D6A
  0
DICTIONARY
  5
4733
330
1F4
100
AcDbDictionary
280
     1
281
     1
  3
ACAD_MLATT
360
4D6D
  3
ACAD_XREC_ROUNDTRIP
360
4D6C
  0
DICTIONARY
  5
4736
330
1F5
100
AcDbDictionary
280
     1
281
     1
  3
ACAD_MLATT
360
4D6F
  3
ACAD_XREC_ROUNDTRIP
360
4D6E
  0
DICTIONARY
  5
4DAC
330
4123
100
AcDbDictionary
280
     1
281
     1
  3
ACAD_MTEXT_2008_RT
360
4DAD
  0
DICTIONARY
  5
4DAE
330
4127
100
AcDbDictionary
280
     1
281
     1
  3
ACAD_MTEXT_2008_RT
360
4DAF
  0
DICTIONARY
  5
4DB0
330
412B
100
AcDbDictionary
280
     1
281
     1
  3
ACAD_MTEXT_2008_RT
360
4DB1
  0
DICTIONARY
  5
4DB2
330
4136
100
AcDbDictionary
280
     1
281
     1
  3
ACAD_MTEXT_2008_RT
360
4DB3
  0
DICTIONARY
  5
4DB4
330
4137
100
AcDbDictionary
280
     1
281
     1
  3
ACAD_MTEXT_2008_RT
360
4DB5
  0
DICTIONARY
  5
4DB6
330
413E
100
AcDbDictionary
280
     1
281
     1
  3
ACAD_MTEXT_2008_RT
360
4DB7
  0
DICTIONARY
  5
4DB8
330
4145
100
AcDbDictionary
280
     1
281
     1
  3
ACAD_MTEXT_2008_RT
360
4DB9
  0
DICTIONARY
  5
4DBA
330
4149
100
AcDbDictionary
280
     1
281
     1
  3
ACAD_MTEXT_2008_RT
360
4DBB
  0
DICTIONARY
  5
4DBC
330
414C
100
AcDbDictionary
280
     1
281
     1
  3
ACAD_MTEXT_2008_RT
360
4DBD
  0
DICTIONARY
  5
4DBE
330
4153
100
AcDbDictionary
280
     1
281
     1
  3
ACAD_MTEXT_2008_RT
360
4DBF
  0
DICTIONARY
  5
4DC0
330
415A
100
AcDbDictionary
280
     1
281
     1
  3
ACAD_MTEXT_2008_RT
360
4DC1
  0
DICTIONARY
  5
4DC2
330
415E
100
AcDbDictionary
280
     1
281
     1
  3
ACAD_MTEXT_2008_RT
360
4DC3
  0
DICTIONARY
  5
4DC4
330
4258
100
AcDbDictionary
280
     1
281
     1
  3
ACAD_MTEXT_2008_RT
360
4DC5
  0
DICTIONARY
  5
4DC6
330
433A
100
AcDbDictionary
280
     1
281
     1
  3
ACAD_MTEXT_2008_RT
360
4DC7
  0
DICTIONARY
  5
4DC8
330
4427
100
AcDbDictionary
280
     1
281
     1
  3
ACAD_MTEXT_2008_RT
360
4DC9
  0
DICTIONARY
  5
4DCA
330
453C
100
AcDbDictionary
280
     1
281
     1
  3
ACAD_MTEXT_2008_RT
360
4DCB
  0
DICTIONARY
  5
4DCC
330
461F
100
AcDbDictionary
280
     1
281
     1
  3
ACAD_MTEXT_2008_RT
360
4DCD
  0
DICTIONARY
  5
4DCE
330
462B
100
AcDbDictionary
280
     1
281
     1
  3
ACAD_MTEXT_2008_RT
360
4DCF
  0
DICTIONARY
  5
4D72
102
{ACAD_REACTORS
330
C
102
}
330
C
100
AcDbDictionary
281
     1
  3
DIMARCSYM
350
4D73
  3
DIMLTEX1
350
4D75
  3
DIMLTEX2
350
4D76
  3
DIMLTYPE
350
4D74
  0
XRECORD
  5
4719
102
{ACAD_REACTORS
330
C
102
}
330
C
100
AcDbXrecord
280
     1
300
INVNTOR
300
2012
300
PDSP_F_S
  0
DICTIONARY
  5
63
102
{ACAD_REACTORS
330
C
102
}
330
C
100
AcDbDictionary
281
     1
  0
DICTIONARY
  5
D
102
{ACAD_REACTORS
330
C
102
}
330
C
100
AcDbDictionary
281
     1
  0
DICTIONARY
  5
62
102
{ACAD_REACTORS
330
C
102
}
330
C
100
AcDbDictionary
281
     1
  3
Layout1
350
6B
  3
Layout2
350
73
  3
Model
350
6F
  0
DICTIONARY
  5
10
102
{ACAD_REACTORS
330
C
102
}
330
C
100
AcDbDictionary
281
     1
  3
ByBlock
350
19
  3
ByLayer
350
11
  3
Global
350
21
  0
DICTIONARY
  5
66
102
{ACAD_REACTORS
330
C
102
}
330
C
100
AcDbDictionary
281
     1
  3
Standard
350
67
  0
DICTIONARY
  5
5F
102
{ACAD_REACTORS
330
C
102
}
330
C
100
AcDbDictionary
281
     1
  3
Standard
350
60
  0
DICTIONARY
  5
61
102
{ACAD_REACTORS
330
C
102
}
330
C
100
AcDbDictionary
281
     1
  0
ACDBDICTIONARYWDFLT
  5
E
102
{ACAD_REACTORS
330
C
102
}
330
C
100
AcDbDictionary
281
     1
  3
Normal
350
F
100
AcDbDictionaryWithDefault
340
F
  0
DICTIONARY
  5
42
102
{ACAD_REACTORS
330
C
102
}
330
C
100
AcDbDictionary
281
     1
  3
A0
350
43
  3
A1
350
44
  3
A2
350
45
  3
A3
350
46
  3
A4
350
47
  3
A5
350
48
  3
A6
350
49
  3
A7
350
4A
  3
A8
350
4B
  3
A9
350
4C
  3
B0
350
4D
  3
B1
350
4E
  3
B2
350
4F
  3
B3
350
50
  3
B4
350
51
  3
B5
350
52
  3
B6
350
53
  0
DICTIONARY
  5
64
102
{ACAD_REACTORS
330
C
102
}
330
C
100
AcDbDictionary
281
     1
  3
Standard
350
65
  0
DICTIONARY
  5
29
102
{ACAD_REACTORS
330
C
102
}
330
C
100
AcDbDictionary
281
     1
  3
2dWireframe
350
2F
  3
3D Hidden
350
475B
  3
3dWireframe
350
475A
  3
Basic
350
2E
  3
Brighten
350
35
  3
ColorChange
350
39
  3
Conceptual
350
32
  3
Dim
350
34
  3
EdgeColorOff
350
41
  3
Facepattern
350
38
  3
Flat
350
2A
  3
FlatWithEdges
350
2B
  3
Gouraud
350
2C
  3
GouraudWithEdges
350
2D
  3
Hidden
350
31
  3
JitterOff
350
3F
  3
Linepattern
350
37
  3
OverhangOff
350
40
  3
Realistic
350
33
  3
Shaded
350
3E
  3
Shaded with edges
350
3D
  3
Shades of Gray
350
3A
  3
Sketchy
350
3B
  3
Thicken
350
36
  3
Wireframe
350
30
  3
X-Ray
350
3C
  0
XRECORD
  5
4D71
102
{ACAD_REACTORS
330
C
102
}
330
C
100
AcDbXrecord
280
     1
 90
        1
330
65
330
C9
330
1E9
330
1ED
330
1EE
330
1EF
330
1F0
330
1F2
330
1F3
330
1F4
330
1F5
  0
DICTIONARY
  5
4755
102
{ACAD_REACTORS
330
C
102
}
330
C
100
AcDbDictionary
281
     1
  3
CANNOSCALE
350
4758
  3
CMLEADERSTYLE
350
4757
  3
CTABLESTYLE
350
4756
  3
LAYEREVAL
350
4B47
  3
LAYERNOTIFY
350
4B48
  3
LIGHTINGUNITS
350
4B46
  3
MSLTSCALE
350
4B45
  3
SOLIDHIST
350
4B49
  3
XCLIPFRAME
350
4D5A
  0
DICTIONARY
  5
47C1
102
{ACAD_REACTORS
330
C
102
}
330
C
100
AcDbDictionary
281
     1
  3
AcmStdDictionary
350
47CB
  0
DICTIONARY
  5
489F
102
{ACAD_REACTORS
330
C
102
}
330
C
100
AcDbDictionary
281
     1
  0
DICTIONARY
  5
4767
102
{ACAD_REACTORS
330
C
102
}
330
C
100
AcDbDictionary
281
     1
  0
DICTIONARY
  5
4801
102
{ACAD_REACTORS
330
C
102
}
330
C
100
AcDbDictionary
281
     1
  0
DICTIONARY
  5
485A
102
{ACAD_REACTORS
330
4859
102
}
330
4859
100
AcDbDictionary
281
     1
  0
XRECORD
  5
4D5D
102
{ACAD_REACTORS
330
4D5C
102
}
330
4D5C
100
AcDbXrecord
280
     1
 40
2697178.0
  1
\pxsm0.94;WIG Schweisung, Nahte sauber geschliffen und poliert\PSichtstege geschliffen mit 240 Korn und abgeklebt.\P\fTahoma|b0|i0;\H3.0000; \P\fTahoma|b0|i0;\H3.5000;WIG svarovani- svary dle potreby zabrousit.\PPohledove plochy brousit (vel. brusnyc
  1
h zrn 240)\Pa polepit paskou
  0
XRECORD
  5
4DA9
102
{ACAD_REACTORS
330
4DA8
102
}
330
4DA8
100
AcDbXrecord
280
     1
 40
141691.0
  1
Effidrain sestava dvoudílná  157 vodorovná
  0
XRECORD
  5
4DAB
102
{ACAD_REACTORS
330
4DAA
102
}
330
4DAA
100
AcDbXrecord
280
     1
 40
23258.0
  1
Není k dispozici
  0
XRECORD
  5
4D5F
102
{ACAD_REACTORS
330
471E
102
}
330
471E
100
AcDbXrecord
280
     1
 70
     4
 70
     0
 70
     0
 40
1.0
  2
ČÍSLO_REVIZE
  1
Embedded Object
 10
287.6423193699604
 20
66.0
 30
0.0
 40
3.499999940395355
 41
0.0
 46
0.0
 71
     1
 72
     5
  1
001
  7
Styl textu9
 73
     1
 44
1.0
  0
XRECORD
  5
4D5E
102
{ACAD_REACTORS
330
471E
102
}
330
471E
100
AcDbXrecord
280
     1
102
ACAD_MATT_HEIGHT
140
3.499999940395355
  0
XRECORD
  5
4D61
102
{ACAD_REACTORS
330
4721
102
}
330
4721
100
AcDbXrecord
280
     1
 70
     4
 70
     0
 70
     0
 40
1.0
  2
Sheet_Size
  1
Embedded Object
 10
289.7753402652471
 20
48.33701147296152
 30
0.0
 40
2.000000029802321
 41
0.0
 46
0.0
 71
     1
 72
     5
  1
A2
  7
Styl textu40
 73
     1
 44
1.0
  0
XRECORD
  5
4D60
102
{ACAD_REACTORS
330
4721
102
}
330
4721
100
AcDbXrecord
280
     1
102
ACAD_MATT_HEIGHT
140
2.000000029802321
  0
XRECORD
  5
4D63
102
{ACAD_REACTORS
330
4724
102
}
330
4724
100
AcDbXrecord
280
     1
 70
     4
 70
     0
 70
     0
 40
1.0
  2
FILENAME_AND_PATH
  1
Embedded Object
 10
230.2697279123746
 20
53.13502004542946
 30
0.0
 40
2.000000029802321
 41
0.0
 46
0.0
 71
     1
 72
     5
  1
C:\\Inventor_DATA\\Projekty\\Guly\\Effidrain\\Effidrain sestava dvoudílná  157 vodorovná\\408074.iam
  7
Styl textu40
 73
     1
 44
1.0
  0
XRECORD
  5
4D62
102
{ACAD_REACTORS
330
4724
102
}
330
4724
100
AcDbXrecord
280
     1
102
ACAD_MATT_HEIGHT
140
2.000000029802321
  0
XRECORD
  5
4D65
102
{ACAD_REACTORS
330
4727
102
}
330
4727
100
AcDbXrecord
280
     1
 70
     4
 70
     0
 70
     0
 40
1.0
  2
PART_NUMBER
  1
Embedded Object
 10
218.0
 20
66.0
 30
0.0
 40
3.499999940395355
 41
0.0
 46
0.0
 71
     1
 72
     5
  1
408074
  7
Text poznámky (ISO)
 73
     1
 44
1.0
  0
XRECORD
  5
4D64
102
{ACAD_REACTORS
330
4727
102
}
330
4727
100
AcDbXrecord
280
     1
102
ACAD_MATT_HEIGHT
140
3.499999940395355
  0
XRECORD
  5
4D67
102
{ACAD_REACTORS
330
472A
102
}
330
472A
100
AcDbXrecord
280
     1
 70
     4
 70
     0
 70
     0
 40
1.0
  2
PROJECT
  1
Embedded Object
 10
118.0
 20
60.0
 30
0.0
 40
3.499999940395355
 41
0.0
 46
0.0
 71
     1
 72
     5
  1

  7
Text poznámky (ISO)
 73
     1
 44
1.0
  0
XRECORD
  5
4D66
102
{ACAD_REACTORS
330
472A
102
}
330
472A
100
AcDbXrecord
280
     1
102
ACAD_MATT_HEIGHT
140
3.499999940395355
  0
XRECORD
  5
4D69
102
{ACAD_REACTORS
330
472D
102
}
330
472D
100
AcDbXrecord
280
     1
 70
     4
 70
     0
 70
     0
 40
1.0
  2
SKLADOVÉ_ČÍSLO
  1
Embedded Object
 10
118.0
 20
54.89391305489238
 30
0.0
 40
6.99999988079071
 41
153.2966041564941
 46
0.0
 71
     1
 72
     5
  1
408074
  7
Styl textu94
 73
     1
 44
1.0
  0
XRECORD
  5
4D68
102
{ACAD_REACTORS
330
472D
102
}
330
472D
100
AcDbXrecord
280
     1
102
ACAD_MATT_HEIGHT
140
6.99999988079071
  0
XRECORD
  5
4D6B
102
{ACAD_REACTORS
330
4730
102
}
330
4730
100
AcDbXrecord
280
     1
 70
     4
 70
     0
 70
     0
 40
1.0
  2
MATERIAL
  1
Embedded Object
 10
117.5939056808251
 20
108.6756657996811
 30
0.0
 40
3.499999940395355
 41
0.0
 46
0.0
 71
     1
 72
     5
  1

  7
Text poznámky (ISO)
 73
     1
 44
1.0
  0
XRECORD
  5
4D6A
102
{ACAD_REACTORS
330
4730
102
}
330
4730
100
AcDbXrecord
280
     1
102
ACAD_MATT_HEIGHT
140
3.499999940395355
  0
XRECORD
  5
4D6D
102
{ACAD_REACTORS
330
4733
102
}
330
4733
100
AcDbXrecord
280
     1
 70
     4
 70
     0
 70
     0
 40
1.0
  2
AUTHOR
  1
Embedded Object
 10
165.2312259808574
 20
87.78242706242744
 30
0.0
 40
2.000000029802321
 41
15.06250023841858
 46
0.0
 71
     1
 72
     5
  1
pmacoun
  7
Styl textu40
 73
     1
 44
1.0
  0
XRECORD
  5
4D6C
102
{ACAD_REACTORS
330
4733
102
}
330
4733
100
AcDbXrecord
280
     1
102
ACAD_MATT_HEIGHT
140
2.000000029802321
  0
XRECORD
  5
4D6F
102
{ACAD_REACTORS
330
4736
102
}
330
4736
100
AcDbXrecord
280
     1
 70
     4
 70
     0
 70
     0
 40
1.0
  2
VS_First
  1
Embedded Object
 10
189.1855699863978
 20
86.00038821032343
 30
0.0
 40
3.499999940395355
 41
24.15597186978378
 46
0.0
 71
     1
 72
     5
  1

  7
Text poznámky (ISO)
 73
     1
 44
1.0
  0
XRECORD
  5
4D6E
102
{ACAD_REACTORS
330
4736
102
}
330
4736
100
AcDbXrecord
280
     1
102
ACAD_MATT_HEIGHT
140
3.499999940395355
  0
XRECORD
  5
4DAD
102
{ACAD_REACTORS
330
4DAC
102
}
330
4DAC
100
AcDbXrecord
280
     1
 40
7165.0
  1
KUSOVNÍK
  0
XRECORD
  5
4DAF
102
{ACAD_REACTORS
330
4DAE
102
}
330
4DAE
100
AcDbXrecord
280
     1
 40
6807.0
  1
MATERIÁL
  0
XRECORD
  5
4DB1
102
{ACAD_REACTORS
330
4DB0
102
}
330
4DB0
100
AcDbXrecord
280
     1
 40
6841.0
  1
SKLADOVÉ
  0
XRECORD
  5
4DB3
102
{ACAD_REACTORS
330
4DB2
102
}
330
4DB2
100
AcDbXrecord
280
     1
 40
176785.0
  1
Effidrai dvoudílná  157/DN70 vodorovná tavná 
  0
XRECORD
  5
4DB5
102
{ACAD_REACTORS
330
4DB4
102
}
330
4DB4
100
AcDbXrecord
280
     1
 40
26991.0
  1
příruba AISI 304
  0
XRECORD
  5
4DB7
102
{ACAD_REACTORS
330
4DB6
102
}
330
4DB6
100
AcDbXrecord
280
     1
 40
22034.0
  1
návlek sunap-DN70
  0
XRECORD
  5
4DB9
102
{ACAD_REACTORS
330
4DB8
102
}
330
4DB8
100
AcDbXrecord
280
     1
 40
202759.0
  1
Effidrain drenážní kroužek komplet 157 + karton
  0
XRECORD
  5
4DBB
102
{ACAD_REACTORS
330
4DBA
102
}
330
4DBA
100
AcDbXrecord
280
     1
 40
57602.0
  1
Polykarbonát, kouřový
  0
XRECORD
  5
4DBD
102
{ACAD_REACTORS
330
4DBC
102
}
330
4DBC
100
AcDbXrecord
280
     1
 40
161155.0
  1
Effidrain kryt plastový pro balení-tavná/PP 157
  0
XRECORD
  5
4DBF
102
{ACAD_REACTORS
330
4DBE
102
}
330
4DBE
100
AcDbXrecord
280
     1
 40
61553.0
  1
Šestihranná matice M8 DIN 934
  0
XRECORD
  5
4DC1
102
{ACAD_REACTORS
330
4DC0
102
}
330
4DC0
100
AcDbXrecord
280
     1
 40
164968.0
  1
Krytka  matic 130-034-148 šestihranná, černá
  0
XRECORD
  5
4DC3
102
{ACAD_REACTORS
330
4DC2
102
}
330
4DC2
100
AcDbXrecord
280
     1
 40
4936.0
  1
Papír
  0
XRECORD
  5
4DC5
102
{ACAD_REACTORS
330
4DC4
102
}
330
4DC4
100
AcDbXrecord
280
     1
 40
25505.0
  1
\A1;247{\H7.010400;±2}
  0
XRECORD
  5
4DC7
102
{ACAD_REACTORS
330
4DC6
102
}
330
4DC6
100
AcDbXrecord
280
     1
 40
9029.0
  1
\A1;{\U+00D8}157
  0
XRECORD
  5
4DC9
102
{ACAD_REACTORS
330
4DC8
102
}
330
4DC8
100
AcDbXrecord
280
     1
 40
25500.0
  1
\A1;147{\H7.010400;±2}
  0
XRECORD
  5
4DCB
102
{ACAD_REACTORS
330
4DCA
102
}
330
4DCA
100
AcDbXrecord
280
     1
 40
25473.0
  1
\A1;147{\H7.010400;±1}
  0
XRECORD
  5
4DCD
102
{ACAD_REACTORS
330
4DCC
102
}
330
4DCC
100
AcDbXrecord
280
     1
 40
15876.0
  1
HISTORIE REVIZÍ
  0
XRECORD
  5
4DCF
102
{ACAD_REACTORS
330
4DCE
102
}
330
4DCE
100
AcDbXrecord
280
     1
 40
28307.0
  1
Odebrán excentr 98/75
  0
XRECORD
  5
4D73
102
{ACAD_REACTORS
330
4D72
102
}
330
4D72
100
AcDbXrecord
280
     1
 70
     1
  0
XRECORD
  5
4D75
102
{ACAD_REACTORS
330
4D72
102
}
330
4D72
100
AcDbXrecord
280
     1
340
5B
  0
XRECORD
  5
4D76
102
{ACAD_REACTORS
330
4D72
102
}
330
4D72
100
AcDbXrecord
280
     1
340
5B
  0
XRECORD
  5
4D74
102
{ACAD_REACTORS
330
4D72
102
}
330
4D72
100
AcDbXrecord
280
     1
340
5B
  0
LAYOUT
  5
6B
102
{ACAD_REACTORS
330
62
102
}
330
62
100
AcDbPlotSettings
  1

  2

  4

  6

 40
0.0
 41
0.0
 42
0.0
 43
0.0
 44
0.0
 45
0.0
 46
0.0
 47
0.0
 48
0.0
 49
0.0
140
0.0
141
0.0
142
1.0
143
1.0
 70
   688
 72
     0
 73
     0
 74
     5
  7

 75
    16
147
1.0
 76
     0
 77
     2
 78
   300
148
0.0
149
0.0
100
AcDbLayout
  1
Layout1
 70
     1
 71
     1
 10
0.0
 20
0.0
 11
1188.0
 21
840.0
 12
0.0
 22
0.0
 32
0.0
 14
0.0
 24
0.0
 34
0.0
 15
1188.0
 25
840.0
 35
0.0
146
0.0
 13
0.0
 23
0.0
 33
0.0
 16
1.0
 26
0.0
 36
0.0
 17
0.0
 27
1.0
 37
0.0
 76
     0
330
68
  0
LAYOUT
  5
73
102
{ACAD_REACTORS
330
62
102
}
330
62
100
AcDbPlotSettings
  1

  2

  4

  6

 40
0.0
 41
0.0
 42
0.0
 43
0.0
 44
0.0
 45
0.0
 46
0.0
 47
0.0
 48
0.0
 49
0.0
140
0.0
141
0.0
142
1.0
143
1.0
 70
   688
 72
     0
 73
     0
 74
     5
  7

 75
    16
147
1.0
 76
     0
 77
     2
 78
   300
148
0.0
149
0.0
100
AcDbLayout
  1
Layout2
 70
     1
 71
     2
 10
0.0
 20
0.0
 11
12.0
 21
9.0
 12
0.0
 22
0.0
 32
0.0
 14
0.0
 24
0.0
 34
0.0
 15
0.0
 25
0.0
 35
0.0
146
0.0
 13
0.0
 23
0.0
 33
0.0
 16
1.0
 26
0.0
 36
0.0
 17
0.0
 27
1.0
 37
0.0
 76
     0
330
70
  0
LAYOUT
  5
6F
102
{ACAD_REACTORS
330
62
102
}
330
62
100
AcDbPlotSettings
  1

  2

  4

  6

 40
0.0
 41
0.0
 42
0.0
 43
0.0
 44
0.0
 45
0.0
 46
0.0
 47
0.0
 48
0.0
 49
0.0
140
0.0
141
0.0
142
1.0
143
1.0
 70
  1712
 72
     0
 73
     0
 74
     0
  7

 75
     0
147
1.0
 76
     0
 77
     2
 78
   300
148
0.0
149
0.0
100
AcDbLayout
  1
Model
 70
     1
 71
     0
 10
0.0
 20
0.0
 11
12.0
 21
9.0
 12
0.0
 22
0.0
 32
0.0
 14
0.0
 24
0.0
 34
0.0
 15
0.0
 25
0.0
 35
0.0
146
0.0
 13
0.0
 23
0.0
 33
0.0
 16
1.0
 26
0.0
 36
0.0
 17
0.0
 27
1.0
 37
0.0
 76
     0
330
6C
331
57
  0
MATERIAL
  5
19
102
{ACAD_XDICTIONARY
360
1A
102
}
102
{ACAD_REACTORS
330
10
102
}
330
10
100
AcDbMaterial
  1
ByBlock
 72
     0
 43
0.0208333333333333
 43
0.0
 43
0.0
 43
0.0
 43
0.0
 43
0.0208333333333333
 43
0.0
 43
0.0
 43
0.0
 43
0.0
 43
1.0
 43
0.0
 43
0.0
 43
0.0
 43
0.0
 43
1.0
 77
     0
 47
0.0208333333333333
 47
0.0
 47
0.0
 47
0.0
 47
0.0
 47
0.0208333333333333
 47
0.0
 47
0.0
 47
0.0
 47
0.0
 47
1.0
 47
0.0
 47
0.0
 47
0.0
 47
0.0
 47
1.0
171
     0
 49
0.0208333333333333
 49
0.0
 49
0.0
 49
0.0
 49
0.0
 49
0.0208333333333333
 49
0.0
 49
0.0
 49
0.0
 49
0.0
 49
1.0
 49
0.0
 49
0.0
 49
0.0
 49
0.0
 49
1.0
175
     0
142
0.0208333333333333
142
0.0
142
0.0
142
0.0
142
0.0
142
0.0208333333333333
142
0.0
142
0.0
142
0.0
142
0.0
142
1.0
142
0.0
142
0.0
142
0.0
142
0.0
142
1.0
179
     0
144
0.0208333333333333
144
0.0
144
0.0
144
0.0
144
0.0
144
0.0208333333333333
144
0.0
144
0.0
144
0.0
144
0.0
144
1.0
144
0.0
144
0.0
144
0.0
144
0.0
144
1.0
147
0.0208333333333333
147
0.0
147
0.0
147
0.0
147
0.0
147
0.0208333333333333
147
0.0
147
0.0
147
0.0
147
0.0
147
1.0
147
0.0
147
0.0
147
0.0
147
0.0
147
1.0
  0
MATERIAL
  5
11
102
{ACAD_XDICTIONARY
360
12
102
}
102
{ACAD_REACTORS
330
10
102
}
330
10
100
AcDbMaterial
  1
ByLayer
 72
     0
 43
0.0208333333333333
 43
0.0
 43
0.0
 43
0.0
 43
0.0
 43
0.0208333333333333
 43
0.0
 43
0.0
 43
0.0
 43
0.0
 43
1.0
 43
0.0
 43
0.0
 43
0.0
 43
0.0
 43
1.0
 77
     0
 47
0.0208333333333333
 47
0.0
 47
0.0
 47
0.0
 47
0.0
 47
0.0208333333333333
 47
0.0
 47
0.0
 47
0.0
 47
0.0
 47
1.0
 47
0.0
 47
0.0
 47
0.0
 47
0.0
 47
1.0
171
     0
 49
0.0208333333333333
 49
0.0
 49
0.0
 49
0.0
 49
0.0
 49
0.0208333333333333
 49
0.0
 49
0.0
 49
0.0
 49
0.0
 49
1.0
 49
0.0
 49
0.0
 49
0.0
 49
0.0
 49
1.0
175
     0
142
0.0208333333333333
142
0.0
142
0.0
142
0.0
142
0.0
142
0.0208333333333333
142
0.0
142
0.0
142
0.0
142
0.0
142
1.0
142
0.0
142
0.0
142
0.0
142
0.0
142
1.0
179
     0
144
0.0208333333333333
144
0.0
144
0.0
144
0.0
144
0.0
144
0.0208333333333333
144
0.0
144
0.0
144
0.0
144
0.0
144
1.0
144
0.0
144
0.0
144
0.0
144
0.0
144
1.0
147
0.0208333333333333
147
0.0
147
0.0
147
0.0
147
0.0
147
0.0208333333333333
147
0.0
147
0.0
147
0.0
147
0.0
147
1.0
147
0.0
147
0.0
147
0.0
147
0.0
147
1.0
  0
MATERIAL
  5
21
102
{ACAD_XDICTIONARY
360
22
102
}
102
{ACAD_REACTORS
330
10
102
}
330
10
100
AcDbMaterial
  1
Global
 72
     0
 43
0.0208333333333333
 43
0.0
 43
0.0
 43
0.0
 43
0.0
 43
0.0208333333333333
 43
0.0
 43
0.0
 43
0.0
 43
0.0
 43
1.0
 43
0.0
 43
0.0
 43
0.0
 43
0.0
 43
1.0
 77
     0
 47
0.0208333333333333
 47
0.0
 47
0.0
 47
0.0
 47
0.0
 47
0.0208333333333333
 47
0.0
 47
0.0
 47
0.0
 47
0.0
 47
1.0
 47
0.0
 47
0.0
 47
0.0
 47
0.0
 47
1.0
171
     0
 49
0.0208333333333333
 49
0.0
 49
0.0
 49
0.0
 49
0.0
 49
0.0208333333333333
 49
0.0
 49
0.0
 49
0.0
 49
0.0
 49
1.0
 49
0.0
 49
0.0
 49
0.0
 49
0.0
 49
1.0
175
     0
142
0.0208333333333333
142
0.0
142
0.0
142
0.0
142
0.0
142
0.0208333333333333
142
0.0
142
0.0
142
0.0
142
0.0
142
1.0
142
0.0
142
0.0
142
0.0
142
0.0
142
1.0
179
     0
144
0.0208333333333333
144
0.0
144
0.0
144
0.0
144
0.0
144
0.0208333333333333
144
0.0
144
0.0
144
0.0
144
0.0
144
1.0
144
0.0
144
0.0
144
0.0
144
0.0
144
1.0
147
0.0208333333333333
147
0.0
147
0.0
147
0.0
147
0.0
147
0.0208333333333333
147
0.0
147
0.0
147
0.0
147
0.0
147
1.0
147
0.0
147
0.0
147
0.0
147
0.0
147
1.0
  0
MLEADERSTYLE
  5
67
102
{ACAD_XDICTIONARY
360
471A
102
}
102
{ACAD_REACTORS
330
66
102
}
330
66
100
AcDbMLeaderStyle
170
     2
171
     1
172
     0
 90
        2
 40
0.0
 41
0.0
173
     1
 91
-1056964608
340
5B
 92
       -2
290
     1
 42
0.09
291
     1
 43
0.36
  3
Standard
 44
0.18
300

342
55
174
     1
178
     6
175
     1
176
     0
 93
-1056964608
 45
0.18
292
     0
297
     0
 46
0.18
 94
-1056964608
 47
1.0
 49
1.0
140
1.0
293
     1
141
0.0
294
     1
177
     0
142
1.0
295
     0
296
     0
143
0.125
1001
ACAD_MLEADERVER
1070
     2
  0
MLINESTYLE
  5
60
102
{ACAD_REACTORS
330
5F
102
}
330
5F
100
AcDbMlineStyle
  2
STANDARD
 70
     0
  3

 62
   256
 51
90.0
 52
90.0
 71
     2
 49
0.5
 62
   256
  6
BYLAYER
 49
-0.5
 62
   256
  6
BYLAYER
  0
ACDBPLACEHOLDER
  5
F
102
{ACAD_REACTORS
330
E
102
}
330
E
  0
SCALE
  5
43
102
{ACAD_REACTORS
330
42
102
}
330
42
100
AcDbScale
 70
     0
300
1:1
140
1.0
141
1.0
290
     1
  0
SCALE
  5
44
102
{ACAD_REACTORS
330
42
102
}
330
42
100
AcDbScale
 70
     0
300
1/128" = 1'-0"
140
0.0078125
141
12.0
290
     0
  0
SCALE
  5
45
102
{ACAD_REACTORS
330
42
102
}
330
42
100
AcDbScale
 70
     0
300
1/64" = 1'-0"
140
0.015625
141
12.0
290
     0
  0
SCALE
  5
46
102
{ACAD_REACTORS
330
42
102
}
330
42
100
AcDbScale
 70
     0
300
1/32" = 1'-0"
140
0.03125
141
12.0
290
     0
  0
SCALE
  5
47
102
{ACAD_REACTORS
330
42
102
}
330
42
100
AcDbScale
 70
     0
300
1/16" = 1'-0"
140
0.0625
141
12.0
290
     0
  0
SCALE
  5
48
102
{ACAD_REACTORS
330
42
102
}
330
42
100
AcDbScale
 70
     0
300
3/32" = 1'-0"
140
0.09375
141
12.0
290
     0
  0
SCALE
  5
49
102
{ACAD_REACTORS
330
42
102
}
330
42
100
AcDbScale
 70
     0
300
1/8" = 1'-0"
140
0.125
141
12.0
290
     0
  0
SCALE
  5
4A
102
{ACAD_REACTORS
330
42
102
}
330
42
100
AcDbScale
 70
     0
300
3/16" = 1'-0"
140
0.1875
141
12.0
290
     0
  0
SCALE
  5
4B
102
{ACAD_REACTORS
330
42
102
}
330
42
100
AcDbScale
 70
     0
300
1/4" = 1'-0"
140
0.25
141
12.0
290
     0
  0
SCALE
  5
4C
102
{ACAD_REACTORS
330
42
102
}
330
42
100
AcDbScale
 70
     0
300
3/8" = 1'-0"
140
0.375
141
12.0
290
     0
  0
SCALE
  5
4D
102
{ACAD_REACTORS
330
42
102
}
330
42
100
AcDbScale
 70
     0
300
1/2" = 1'-0"
140
0.5
141
12.0
290
     0
  0
SCALE
  5
4E
102
{ACAD_REACTORS
330
42
102
}
330
42
100
AcDbScale
 70
     0
300
3/4" = 1'-0"
140
0.75
141
12.0
290
     0
  0
SCALE
  5
4F
102
{ACAD_REACTORS
330
42
102
}
330
42
100
AcDbScale
 70
     0
300
1" = 1'-0"
140
1.0
141
12.0
290
     0
  0
SCALE
  5
50
102
{ACAD_REACTORS
330
42
102
}
330
42
100
AcDbScale
 70
     0
300
1-1/2" = 1'-0"
140
1.5
141
12.0
290
     0
  0
SCALE
  5
51
102
{ACAD_REACTORS
330
42
102
}
330
42
100
AcDbScale
 70
     0
300
3" = 1'-0"
140
3.0
141
12.0
290
     0
  0
SCALE
  5
52
102
{ACAD_REACTORS
330
42
102
}
330
42
100
AcDbScale
 70
     0
300
6" = 1'-0"
140
6.0
141
12.0
290
     0
  0
SCALE
  5
53
102
{ACAD_REACTORS
330
42
102
}
330
42
100
AcDbScale
 70
     0
300
1'-0" = 1'-0"
140
12.0
141
12.0
290
     0
  0
TABLESTYLE
  5
65
102
{ACAD_XDICTIONARY
360
4B4B
102
}
102
{ACAD_REACTORS
330
64
102
}
330
64
100
AcDbTableStyle
  3
Standard
 70
     0
 71
     0
 40
0.06
 41
0.06
280
     0
281
     0
  7
Standard
140
0.18
170
     2
 62
     0
 63
     7
283
     0
274
    -2
284
     1
 64
     0
275
    -2
285
     1
 65
     0
276
    -2
286
     1
 66
     0
277
    -2
287
     1
 67
     0
278
    -2
288
     1
 68
     0
279
    -2
289
     1
 69
     0
  7
Standard
140
0.25
170
     5
 62
     0
 63
     7
283
     0
274
    -2
284
     1
 64
     0
275
    -2
285
     1
 65
     0
276
    -2
286
     1
 66
     0
277
    -2
287
     1
 67
     0
278
    -2
288
     1
 68
     0
279
    -2
289
     1
 69
     0
  7
Standard
140
0.18
170
     5
 62
     0
 63
     7
283
     0
274
    -2
284
     1
 64
     0
275
    -2
285
     1
 65
     0
276
    -2
286
     1
 66
     0
277
    -2
287
     1
 67
     0
278
    -2
288
     1
 68
     0
279
    -2
289
     1
 69
     0
  0
VISUALSTYLE
  5
2F
102
{ACAD_XDICTIONARY
360
4D81
102
}
102
{ACAD_REACTORS
330
29
102
}
330
29
100
AcDbVisualStyle
  2

 70
     4
 71
     0
 72
     2
 73
     0
 90
        0
 40
-0.6
 41
-30.0
 62
     5
 63
     7
421
 16777215
 74
     1
 91
        4
 64
     7
 65
   257
 75
     1
175
     1
 42
1.0
 92
        0
 66
   257
 43
1.0
 76
     1
 77
     6
 78
     2
 67
     7
 79
     5
170
     0
171
     0
290
     0
174
     0
 93
        1
 44
0.0
173
     0
291
     0
 45
0.0
1001
ACAD
1000
AcDbSavedByObjectVersion
1070
     0
  0
VISUALSTYLE
  5
475B
102
{ACAD_XDICTIONARY
360
4DD2
102
}
102
{ACAD_REACTORS
330
29
102
}
330
29
100
AcDbVisualStyle
  2

 70
     6
 71
     1
 72
     2
 73
     2
 90
        0
 40
-0.6
 41
-30.0
 62
     5
 63
     7
421
 16777215
 74
     2
 91
        2
 64
     7
 65
   257
 75
     2
175
     1
 42
179.0
 92
        0
 66
   257
 43
1.0
 76
     1
 77
     6
 78
     2
 67
     7
 79
     3
170
     0
171
     0
290
     0
174
     0
 93
        1
 44
0.0
173
     0
291
     0
 45
0.0
1001
ACAD
1000
AcDbSavedByObjectVersion
1070
     0
  0
VISUALSTYLE
  5
475A
102
{ACAD_XDICTIONARY
360
4DD0
102
}
102
{ACAD_REACTORS
330
29
102
}
330
29
100
AcDbVisualStyle
  2

 70
     5
 71
     0
 72
     2
 73
     0
 90
        0
 40
-0.6
 41
-30.0
 62
     5
 63
     7
421
 16777215
 74
     1
 91
        4
 64
     7
 65
   257
 75
     1
175
     1
 42
1.0
 92
        0
 66
   257
 43
1.0
 76
     1
 77
     6
 78
     2
 67
     7
 79
     5
170
     0
171
     0
290
     0
174
     0
 93
        1
 44
0.0
173
     0
291
     0
 45
0.0
1001
ACAD
1000
AcDbSavedByObjectVersion
1070
     0
  0
VISUALSTYLE
  5
2E
102
{ACAD_XDICTIONARY
360
4D7F
102
}
102
{ACAD_REACTORS
330
29
102
}
330
29
100
AcDbVisualStyle
  2

 70
     7
 71
     1
 72
     0
 73
     1
 90
        0
 40
-0.6
 41
-30.0
 62
     5
 63
     7
421
 16777215
 74
     0
 91
        4
 64
     7
 65
   257
 75
     1
175
     1
 42
1.0
 92
        8
 66
     7
 43
1.0
 76
     1
 77
     6
 78
     2
 67
     7
 79
     5
170
     0
171
     0
290
     0
174
     0
 93
        1
 44
0.0
173
     0
291
     1
 45
0.0
1001
ACAD
1000
AcDbSavedByObjectVersion
1070
     0
  0
VISUALSTYLE
  5
35
102
{ACAD_XDICTIONARY
360
4D8D
102
}
102
{ACAD_REACTORS
330
29
102
}
330
29
100
AcDbVisualStyle
  2

 70
    12
 71
     2
 72
     2
 73
     0
 90
        0
 40
-0.6
 41
-30.0
 62
     5
 63
     7
421
 16777215
 74
     1
 91
        4
 64
     7
 65
   257
 75
     1
175
     1
 42
1.0
 92
        8
 66
     7
 43
1.0
 76
     1
 77
     6
 78
     2
 67
     7
 79
     5
170
     0
171
     0
290
     0
174
     0
 93
        1
 44
50.0
173
     0
291
     1
 45
0.0
1001
ACAD
1000
AcDbSavedByObjectVersion
1070
     0
  0
VISUALSTYLE
  5
39
102
{ACAD_XDICTIONARY
360
4D95
102
}
102
{ACAD_REACTORS
330
29
102
}
330
29
100
AcDbVisualStyle
  2

 70
    16
 71
     2
 72
     2
 73
     3
 90
        0
 40
-0.6
 41
-30.0
 62
     5
 63
     8
421
  8421504
 74
     1
 91
        4
 64
     7
 65
   257
 75
     1
175
     1
 42
1.0
 92
        8
 66
     8
424
  8421504
 43
1.0
 76
     1
 77
     6
 78
     2
 67
     7
 79
     5
170
     0
171
     0
290
     0
174
     0
 93
        1
 44
0.0
173
     0
291
     1
 45
0.0
1001
ACAD
1000
AcDbSavedByObjectVersion
1070
     0
  0
VISUALSTYLE
  5
32
102
{ACAD_XDICTIONARY
360
4D87
102
}
102
{ACAD_REACTORS
330
29
102
}
330
29
100
AcDbVisualStyle
  2

 70
     9
 71
     3
 72
     2
 73
     0
 90
        0
 40
-0.6
 41
-30.0
 62
     5
 63
     7
421
 16777215
 74
     2
 91
        2
 64
     7
 65
   257
 75
     1
175
     1
 42
179.0
 92
        8
 66
     7
 43
1.0
 76
     1
 77
     6
 78
     2
 67
     7
 79
     3
170
     0
171
     0
290
     0
174
     0
 93
        1
 44
0.0
173
     0
291
     0
 45
0.0
1001
ACAD
1000
AcDbSavedByObjectVersion
1070
     0
  0
VISUALSTYLE
  5
34
102
{ACAD_XDICTIONARY
360
4D8B
102
}
102
{ACAD_REACTORS
330
29
102
}
330
29
100
AcDbVisualStyle
  2

 70
    11
 71
     2
 72
     2
 73
     0
 90
        0
 40
-0.6
 41
-30.0
 62
     5
 63
     7
421
 16777215
 74
     1
 91
        4
 64
     7
 65
   257
 75
     1
175
     1
 42
1.0
 92
        8
 66
     7
 43
1.0
 76
     1
 77
     6
 78
     2
 67
     7
 79
     5
170
     0
171
     0
290
     0
174
     0
 93
        1
 44
-50.0
173
     0
291
     1
 45
0.0
1001
ACAD
1000
AcDbSavedByObjectVersion
1070
     0
  0
VISUALSTYLE
  5
41
102
{ACAD_XDICTIONARY
360
4DA5
102
}
102
{ACAD_REACTORS
330
29
102
}
330
29
100
AcDbVisualStyle
  2

 70
    22
 71
     2
 72
     2
 73
     0
 90
        0
 40
-0.6
 41
-30.0
 62
     5
 63
     7
421
 16777215
 74
     1
 91
        4
 64
     7
 65
   257
 75
     1
175
     1
 42
1.0
 92
        8
 66
     7
 43
1.0
 76
     1
 77
     6
 78
     2
 67
     7
 79
     5
170
     0
171
     0
290
     0
174
     0
 93
        1
 44
0.0
173
     0
291
     1
 45
0.0
1001
ACAD
1000
AcDbSavedByObjectVersion
1070
     0
  0
VISUALSTYLE
  5
38
102
{ACAD_XDICTIONARY
360
4D93
102
}
102
{ACAD_REACTORS
330
29
102
}
330
29
100
AcDbVisualStyle
  2

 70
    15
 71
     2
 72
     2
 73
     0
 90
        0
 40
-0.6
 41
-30.0
 62
     5
 63
     7
421
 16777215
 74
     1
 91
        4
 64
     7
 65
   257
 75
     1
175
     1
 42
1.0
 92
        8
 66
     7
 43
1.0
 76
     1
 77
     6
 78
     2
 67
     7
 79
     5
170
     0
171
     0
290
     0
174
     0
 93
        1
 44
0.0
173
     0
291
     1
 45
0.0
1001
ACAD
1000
AcDbSavedByObjectVersion
1070
     0
  0
VISUALSTYLE
  5
2A
102
{ACAD_XDICTIONARY
360
4D77
102
}
102
{ACAD_REACTORS
330
29
102
}
330
29
100
AcDbVisualStyle
  2

 70
     0
 71
     2
 72
     1
 73
     1
 90
        2
 40
-0.6
 41
30.0
 62
     5
 63
     7
421
 16777215
 74
     0
 91
        0
 64
     7
 65
   257
 75
     1
175
     1
 42
1.0
 92
        8
 66
     7
 43
1.0
 76
     1
 77
     6
 78
     2
 67
     7
 79
     5
170
     0
171
     0
290
     0
174
     0
 93
       13
 44
0.0
173
     0
291
     1
 45
0.0
1001
ACAD
1000
AcDbSavedByObjectVersion
1070
     0
  0
VISUALSTYLE
  5
2B
102
{ACAD_XDICTIONARY
360
4D79
102
}
102
{ACAD_REACTORS
330
29
102
}
330
29
100
AcDbVisualStyle
  2

 70
     1
 71
     2
 72
     1
 73
     1
 90
        2
 40
-0.6
 41
30.0
 62
     5
 63
     7
421
 16777215
 74
     1
 91
        0
 64
     7
 65
   257
 75
     1
175
     1
 42
1.0
 92
        0
 66
   257
 43
1.0
 76
     1
 77
     6
 78
     2
 67
     7
 79
     5
170
     0
171
     0
290
     0
174
     0
 93
       13
 44
0.0
173
     0
291
     1
 45
0.0
1001
ACAD
1000
AcDbSavedByObjectVersion
1070
     0
  0
VISUALSTYLE
  5
2C
102
{ACAD_XDICTIONARY
360
4D7B
102
}
102
{ACAD_REACTORS
330
29
102
}
330
29
100
AcDbVisualStyle
  2

 70
     2
 71
     2
 72
     2
 73
     1
 90
        2
 40
-0.6
 41
30.0
 62
     5
 63
     7
421
 16777215
 74
     0
 91
        0
 64
     7
 65
   257
 75
     1
175
     1
 42
1.0
 92
        0
 66
     7
 43
1.0
 76
     1
 77
     6
 78
     2
 67
     7
 79
     5
170
     0
171
     0
290
     0
174
     0
 93
       13
 44
0.0
173
     0
291
     1
 45
0.0
1001
ACAD
1000
AcDbSavedByObjectVersion
1070
     0
  0
VISUALSTYLE
  5
2D
102
{ACAD_XDICTIONARY
360
4D7D
102
}
102
{ACAD_REACTORS
330
29
102
}
330
29
100
AcDbVisualStyle
  2

 70
     3
 71
     2
 72
     2
 73
     1
 90
        2
 40
-0.6
 41
30.0
 62
     5
 63
     7
421
 16777215
 74
     1
 91
        0
 64
     7
 65
   257
 75
     1
175
     1
 42
1.0
 92
        0
 66
   257
 43
1.0
 76
     1
 77
     6
 78
     2
 67
     7
 79
     5
170
     0
171
     0
290
     0
174
     0
 93
       13
 44
0.0
173
     0
291
     1
 45
0.0
1001
ACAD
1000
AcDbSavedByObjectVersion
1070
     0
  0
VISUALSTYLE
  5
31
102
{ACAD_XDICTIONARY
360
4D85
102
}
102
{ACAD_REACTORS
330
29
102
}
330
29
100
AcDbVisualStyle
  2

 70
     6
 71
     1
 72
     2
 73
     2
 90
        0
 40
-0.6
 41
-30.0
 62
     5
 63
     7
421
 16777215
 74
     2
 91
        2
 64
     7
 65
   257
 75
     2
175
     1
 42
40.0
 92
        0
 66
   257
 43
1.0
 76
     1
 77
     6
 78
     2
 67
     7
 79
     3
170
     0
171
     0
290
     0
174
     0
 93
        1
 44
0.0
173
     0
291
     0
 45
0.0
1001
ACAD
1000
AcDbSavedByObjectVersion
1070
     0
  0
VISUALSTYLE
  5
3F
102
{ACAD_XDICTIONARY
360
4DA1
102
}
102
{ACAD_REACTORS
330
29
102
}
330
29
100
AcDbVisualStyle
  2

 70
    20
 71
     2
 72
     2
 73
     0
 90
        0
 40
-0.6
 41
-30.0
 62
     5
 63
     7
421
 16777215
 74
     1
 91
        4
 64
     7
 65
   257
 75
     1
175
     1
 42
1.0
 92
       10
 66
     7
 43
1.0
 76
     1
 77
     6
 78
     2
 67
     7
 79
     5
170
     0
171
     0
290
     0
174
     0
 93
        1
 44
0.0
173
     0
291
     1
 45
0.0
1001
ACAD
1000
AcDbSavedByObjectVersion
1070
     0
  0
VISUALSTYLE
  5
37
102
{ACAD_XDICTIONARY
360
4D91
102
}
102
{ACAD_REACTORS
330
29
102
}
330
29
100
AcDbVisualStyle
  2

 70
    14
 71
     2
 72
     2
 73
     0
 90
        0
 40
-0.6
 41
-30.0
 62
     5
 63
     7
421
 16777215
 74
     1
 91
        4
 64
     7
 65
   257
 75
     7
175
     7
 42
1.0
 92
        8
 66
     7
 43
1.0
 76
     1
 77
     6
 78
     2
 67
     7
 79
     5
170
     0
171
     0
290
     0
174
     0
 93
        1
 44
0.0
173
     0
291
     1
 45
0.0
1001
ACAD
1000
AcDbSavedByObjectVersion
1070
     0
  0
VISUALSTYLE
  5
40
102
{ACAD_XDICTIONARY
360
4DA3
102
}
102
{ACAD_REACTORS
330
29
102
}
330
29
100
AcDbVisualStyle
  2

 70
    21
 71
     2
 72
     2
 73
     0
 90
        0
 40
-0.6
 41
-30.0
 62
     5
 63
     7
421
 16777215
 74
     1
 91
        4
 64
     7
 65
   257
 75
     1
175
     1
 42
1.0
 92
        9
 66
     7
 43
1.0
 76
     1
 77
     6
 78
     2
 67
     7
 79
     5
170
     0
171
     0
290
     0
174
     0
 93
        1
 44
0.0
173
     0
291
     1
 45
0.0
1001
ACAD
1000
AcDbSavedByObjectVersion
1070
     0
  0
VISUALSTYLE
  5
33
102
{ACAD_XDICTIONARY
360
4D89
102
}
102
{ACAD_REACTORS
330
29
102
}
330
29
100
AcDbVisualStyle
  2

 70
     8
 71
     2
 72
     3
 73
     0
 90
        2
 40
-0.6
 41
30.0
 62
     5
 63
     7
421
 16777215
 74
     0
 91
        0
 64
     7
 65
   257
 75
     1
175
     1
 42
1.0
 92
        8
 66
   257
 43
1.0
 76
     1
 77
     6
 78
     2
 67
     7
 79
     3
170
     0
171
     0
290
     0
174
     0
 93
       13
 44
0.0
173
     0
291
     0
 45
0.0
1001
ACAD
1000
AcDbSavedByObjectVersion
1070
     0
  0
VISUALSTYLE
  5
3E
102
{ACAD_XDICTIONARY
360
4D9F
102
}
102
{ACAD_REACTORS
330
29
102
}
330
29
100
AcDbVisualStyle
  2

 70
    27
 71
     2
 72
     2
 73
     1
 90
        2
 40
-0.6
 41
30.0
 62
     5
 63
     7
421
 16777215
 74
     0
 91
        4
 64
     7
 65
   257
 75
     1
175
     1
 42
1.0
 92
        8
 66
   257
 43
1.0
 76
     1
 77
     6
 78
     2
 67
     8
425
  7895160
 79
     3
170
     0
171
     0
290
     0
174
     0
 93
        5
 44
0.0
173
     0
291
     0
 45
0.0
1001
ACAD
1000
AcDbSavedByObjectVersion
1070
     0
  0
VISUALSTYLE
  5
3D
102
{ACAD_XDICTIONARY
360
4D9D
102
}
102
{ACAD_REACTORS
330
29
102
}
330
29
100
AcDbVisualStyle
  2

 70
    26
 71
     2
 72
     2
 73
     1
 90
        2
 40
-0.6
 41
30.0
 62
     5
 63
     7
421
 16777215
 74
     1
 91
       10
 64
     7
 65
   257
 75
     2
175
     1
 42
1.0
 92
        8
 66
   257
 43
1.0
 76
     1
 77
     6
 78
     2
 67
     7
 79
     3
170
     0
171
     0
290
     0
174
     0
 93
        5
 44
0.0
173
     0
291
     0
 45
0.0
1001
ACAD
1000
AcDbSavedByObjectVersion
1070
     0
  0
VISUALSTYLE
  5
3A
102
{ACAD_XDICTIONARY
360
4D97
102
}
102
{ACAD_REACTORS
330
29
102
}
330
29
100
AcDbVisualStyle
  2

 70
    23
 71
     2
 72
     2
 73
     3
 90
        0
 40
-0.6
 41
-30.0
 62
     5
 63
     7
421
 16777215
 74
     2
 91
        2
 64
     7
 65
     7
 75
     1
175
     1
 42
40.0
 92
        8
 66
     7
 43
1.0
 76
     1
 77
     6
 78
     2
 67
     7
 79
     3
170
     0
171
     0
290
     0
174
     0
 93
        1
 44
0.0
173
     0
291
     0
 45
0.0
1001
ACAD
1000
AcDbSavedByObjectVersion
1070
     0
  0
VISUALSTYLE
  5
3B
102
{ACAD_XDICTIONARY
360
4D99
102
}
102
{ACAD_REACTORS
330
29
102
}
330
29
100
AcDbVisualStyle
  2

 70
    24
 71
     1
 72
     2
 73
     2
 90
        0
 40
-0.6
 41
-30.0
 62
     5
 63
     7
421
 16777215
 74
     2
 91
        2
 64
     7
 65
     7
 75
     1
175
     1
 42
40.0
 92
       11
 66
     7
 43
1.0
 76
     1
 77
     6
 78
     2
 67
     7
 79
     6
170
     0
171
     0
290
     0
174
     0
 93
        1
 44
0.0
173
     0
291
     0
 45
0.0
1001
ACAD
1000
AcDbSavedByObjectVersion
1070
     0
  0
VISUALSTYLE
  5
36
102
{ACAD_XDICTIONARY
360
4D8F
102
}
102
{ACAD_REACTORS
330
29
102
}
330
29
100
AcDbVisualStyle
  2

 70
    13
 71
     2
 72
     2
 73
     0
 90
        0
 40
-0.6
 41
-30.0
 62
     5
 63
     7
421
 16777215
 74
     1
 91
        4
 64
     7
 65
   257
 75
     1
175
     1
 42
1.0
 92
       12
 66
     7
 43
1.0
 76
     1
 77
     6
 78
     2
 67
     7
 79
     5
170
     0
171
     0
290
     0
174
     0
 93
        1
 44
0.0
173
     0
291
     1
 45
0.0
1001
ACAD
1000
AcDbSavedByObjectVersion
1070
     0
  0
VISUALSTYLE
  5
30
102
{ACAD_XDICTIONARY
360
4D83
102
}
102
{ACAD_REACTORS
330
29
102
}
330
29
100
AcDbVisualStyle
  2

 70
     5
 71
     0
 72
     2
 73
     0
 90
        0
 40
-0.6
 41
-30.0
 62
     5
 63
     7
421
 16777215
 74
     1
 91
        4
 64
     7
 65
   257
 75
     1
175
     1
 42
1.0
 92
        0
 66
   257
 43
1.0
 76
     1
 77
     6
 78
     2
 67
     7
 79
     3
170
     0
171
     0
290
     0
174
     0
 93
        1
 44
0.0
173
     0
291
     0
 45
0.0
1001
ACAD
1000
AcDbSavedByObjectVersion
1070
     0
  0
VISUALSTYLE
  5
3C
102
{ACAD_XDICTIONARY
360
4D9B
102
}
102
{ACAD_REACTORS
330
29
102
}
330
29
100
AcDbVisualStyle
  2

 70
    25
 71
     2
 72
     2
 73
     1
 90
        1
 40
0.5
 41
-30.0
 62
     5
 63
     7
421
 16777215
 74
     1
 91
        0
 64
     7
 65
   257
 75
     1
175
     1
 42
1.0
 92
        8
 66
     7
 43
1.0
 76
     1
 77
     6
 78
     2
 67
     7
 79
     3
170
     0
171
     0
290
     0
174
     0
 93
       13
 44
0.0
173
     0
291
     0
 45
0.0
1001
ACAD
1000
AcDbSavedByObjectVersion
1070
     0
  0
DICTIONARYVAR
  5
4758
102
{ACAD_REACTORS
330
4755
102
}
330
4755
100
DictionaryVariables
280
     0
  1
1:1
  0
DICTIONARYVAR
  5
4757
102
{ACAD_REACTORS
330
4755
102
}
330
4755
100
DictionaryVariables
280
     0
  1
STANDARD
  0
DICTIONARYVAR
  5
4756
102
{ACAD_REACTORS
330
4755
102
}
330
4755
100
DictionaryVariables
280
     0
  1
STANDARD
  0
DICTIONARYVAR
  5
4B47
102
{ACAD_REACTORS
330
4755
102
}
330
4755
100
DictionaryVariables
280
     0
  1
0
  0
DICTIONARYVAR
  5
4B48
102
{ACAD_REACTORS
330
4755
102
}
330
4755
100
DictionaryVariables
280
     0
  1
0
  0
DICTIONARYVAR
  5
4B46
102
{ACAD_REACTORS
330
4755
102
}
330
4755
100
DictionaryVariables
280
     0
  1
2
  0
DICTIONARYVAR
  5
4B45
102
{ACAD_REACTORS
330
4755
102
}
330
4755
100
DictionaryVariables
280
     0
  1
1
  0
DICTIONARYVAR
  5
4B49
102
{ACAD_REACTORS
330
4755
102
}
330
4755
100
DictionaryVariables
280
     0
  1
0
  0
DICTIONARYVAR
  5
4D5A
102
{ACAD_REACTORS
330
4755
102
}
330
4755
100
DictionaryVariables
280
     0
  1
2
  0
DICTIONARY
  5
47CB
102
{ACAD_REACTORS
330
47C1
102
}
330
47C1
100
AcDbDictionary
281
     1
  0
DICTIONARY
  5
1A
330
19
100
AcDbDictionary
280
     1
281
     1
  3
ACAD_XREC_ROUNDTRIP
360
4B63
  3
BUMPTILE
360
1C
  3
DIFFUSETILE
360
1B
  3
OPACITYTILE
360
1F
  3
REFLECTIONTILE
360
1E
  3
REFRACTIONTILE
360
20
  3
SPECULARTILE
360
1D
  0
DICTIONARY
  5
12
330
11
100
AcDbDictionary
280
     1
281
     1
  3
ACAD_XREC_ROUNDTRIP
360
4B62
  3
BUMPTILE
360
14
  3
DIFFUSETILE
360
13
  3
FBXASSET
360
9C
  3
OPACITYTILE
360
17
  3
REFLECTIONTILE
360
16
  3
REFRACTIONTILE
360
18
  3
SPECULARTILE
360
15
  0
DICTIONARY
  5
22
330
21
100
AcDbDictionary
280
     1
281
     1
  3
ACAD_XREC_ROUNDTRIP
360
4B64
  3
BUMPTILE
360
24
  3
DIFFUSETILE
360
23
  3
OPACITYTILE
360
27
  3
REFLECTIONTILE
360
26
  3
REFRACTIONTILE
360
28
  3
SPECULARTILE
360
25
  0
DICTIONARY
  5
471A
330
67
100
AcDbDictionary
280
     1
281
     1
  3
ACAD_XREC_ROUNDTRIP
360
471B
  0
DICTIONARY
  5
4B4B
330
65
100
AcDbDictionary
280
     1
281
     1
  3
ACAD_ROUNDTRIP_2008_TABLESTYLE_CELLSTYLEMAP
360
4D5B
  3
ACAD_XREC_ROUNDTRIP
360
4DA7
  0
DICTIONARY
  5
4D81
330
2F
100
AcDbDictionary
280
     1
281
     1
  3
ACAD_XREC_ROUNDTRIP
360
4D82
  0
DICTIONARY
  5
4DD2
330
475B
100
AcDbDictionary
280
     1
281
     1
  3
ACAD_XREC_ROUNDTRIP
360
4DD3
  0
DICTIONARY
  5
4DD0
330
475A
100
AcDbDictionary
280
     1
281
     1
  3
ACAD_XREC_ROUNDTRIP
360
4DD1
  0
DICTIONARY
  5
4D7F
330
2E
100
AcDbDictionary
280
     1
281
     1
  3
ACAD_XREC_ROUNDTRIP
360
4D80
  0
DICTIONARY
  5
4D8D
330
35
100
AcDbDictionary
280
     1
281
     1
  3
ACAD_XREC_ROUNDTRIP
360
4D8E
  0
DICTIONARY
  5
4D95
330
39
100
AcDbDictionary
280
     1
281
     1
  3
ACAD_XREC_ROUNDTRIP
360
4D96
  0
DICTIONARY
  5
4D87
330
32
100
AcDbDictionary
280
     1
281
     1
  3
ACAD_XREC_ROUNDTRIP
360
4D88
  0
DICTIONARY
  5
4D8B
330
34
100
AcDbDictionary
280
     1
281
     1
  3
ACAD_XREC_ROUNDTRIP
360
4D8C
  0
DICTIONARY
  5
4DA5
330
41
100
AcDbDictionary
280
     1
281
     1
  3
ACAD_XREC_ROUNDTRIP
360
4DA6
  0
DICTIONARY
  5
4D93
330
38
100
AcDbDictionary
280
     1
281
     1
  3
ACAD_XREC_ROUNDTRIP
360
4D94
  0
DICTIONARY
  5
4D77
330
2A
100
AcDbDictionary
280
     1
281
     1
  3
ACAD_XREC_ROUNDTRIP
360
4D78
  0
DICTIONARY
  5
4D79
330
2B
100
AcDbDictionary
280
     1
281
     1
  3
ACAD_XREC_ROUNDTRIP
360
4D7A
  0
DICTIONARY
  5
4D7B
330
2C
100
AcDbDictionary
280
     1
281
     1
  3
ACAD_XREC_ROUNDTRIP
360
4D7C
  0
DICTIONARY
  5
4D7D
330
2D
100
AcDbDictionary
280
     1
281
     1
  3
ACAD_XREC_ROUNDTRIP
360
4D7E
  0
DICTIONARY
  5
4D85
330
31
100
AcDbDictionary
280
     1
281
     1
  3
ACAD_XREC_ROUNDTRIP
360
4D86
  0
DICTIONARY
  5
4DA1
330
3F
100
AcDbDictionary
280
     1
281
     1
  3
ACAD_XREC_ROUNDTRIP
360
4DA2
  0
DICTIONARY
  5
4D91
330
37
100
AcDbDictionary
280
     1
281
     1
  3
ACAD_XREC_ROUNDTRIP
360
4D92
  0
DICTIONARY
  5
4DA3
330
40
100
AcDbDictionary
280
     1
281
     1
  3
ACAD_XREC_ROUNDTRIP
360
4DA4
  0
DICTIONARY
  5
4D89
330
33
100
AcDbDictionary
280
     1
281
     1
  3
ACAD_XREC_ROUNDTRIP
360
4D8A
  0
DICTIONARY
  5
4D9F
330
3E
100
AcDbDictionary
280
     1
281
     1
  3
ACAD_XREC_ROUNDTRIP
360
4DA0
  0
DICTIONARY
  5
4D9D
330
3D
100
AcDbDictionary
280
     1
281
     1
  3
ACAD_XREC_ROUNDTRIP
360
4D9E
  0
DICTIONARY
  5
4D97
330
3A
100
AcDbDictionary
280
     1
281
     1
  3
ACAD_XREC_ROUNDTRIP
360
4D98
  0
DICTIONARY
  5
4D99
330
3B
100
AcDbDictionary
280
     1
281
     1
  3
ACAD_XREC_ROUNDTRIP
360
4D9A
  0
DICTIONARY
  5
4D8F
330
36
100
AcDbDictionary
280
     1
281
     1
  3
ACAD_XREC_ROUNDTRIP
360
4D90
  0
DICTIONARY
  5
4D83
330
30
100
AcDbDictionary
280
     1
281
     1
  3
ACAD_XREC_ROUNDTRIP
360
4D84
  0
DICTIONARY
  5
4D9B
330
3C
100
AcDbDictionary
280
     1
281
     1
  3
ACAD_XREC_ROUNDTRIP
360
4D9C
  0
XRECORD
  5
4B63
102
{ACAD_REACTORS
330
1A
102
}
330
1A
100
AcDbXrecord
280
     1
102
MATERIAL
148
0.0
149
0.0
149
0.0
 93
        0
 94
      127
282
     0
 72
     0
 77
     0
171
     0
175
     0
179
     0
273
     0
  0
XRECORD
  5
1C
102
{ACAD_REACTORS
330
1A
102
}
330
1A
100
AcDbXrecord
280
     1
270
     1
271
     1
  0
XRECORD
  5
1B
102
{ACAD_REACTORS
330
1A
102
}
330
1A
100
AcDbXrecord
280
     1
270
     1
271
     1
  0
XRECORD
  5
1F
102
{ACAD_REACTORS
330
1A
102
}
330
1A
100
AcDbXrecord
280
     1
270
     1
271
     1
  0
XRECORD
  5
1E
102
{ACAD_REACTORS
330
1A
102
}
330
1A
100
AcDbXrecord
280
     1
270
     1
271
     1
  0
XRECORD
  5
20
102
{ACAD_REACTORS
330
1A
102
}
330
1A
100
AcDbXrecord
280
     1
270
     1
271
     1
  0
XRECORD
  5
1D
102
{ACAD_REACTORS
330
1A
102
}
330
1A
100
AcDbXrecord
280
     1
270
     1
271
     1
  0
XRECORD
  5
4B62
102
{ACAD_REACTORS
330
12
102
}
330
12
100
AcDbXrecord
280
     1
102
MATERIAL
148
0.0
149
0.0
149
0.0
 93
        0
 94
      127
282
     0
 72
     0
 77
     0
171
     0
175
     0
179
     0
273
     0
  0
XRECORD
  5
14
102
{ACAD_REACTORS
330
12
102
}
330
12
100
AcDbXrecord
280
     1
270
     1
271
     1
  0
XRECORD
  5
13
102
{ACAD_REACTORS
330
12
102
}
330
12
100
AcDbXrecord
280
     1
270
     1
271
     1
  0
XRECORD
  5
9C
102
{ACAD_REACTORS
330
12
102
}
330
12
100
AcDbXrecord
280
     1
 70
     1
 90
1959938040
 71
     1
  1
B57324D2-636B-4C1B-9F79-7563CE75E8A3
311
504B03040A0000080000EB68DA403DEE336E79000000790000001B0000006175746F6465736B2D64657369676E2D7061636B6167652E786D6C3C3F786D6C2076657273696F6E3D22312E302220656E636F64696E673D227574662D3822203F3E3C666F726D6174733E3C666F726D61743E687474703A2F2F736368656D612E
311
6175746F6465736B2E636F6D2F64657369676E2D7061636B6167652F323030393C2F666F726D61743E3C2F666F726D6174733E504B0304140006080800EB68DA40D486FD9CA0000000F4000000130000005B436F6E74656E745F54797065735D2E786D6C7D8EC10E82300C865F65E91D8A1E8C310C0EEA1BF002731658846E
311
D98AC1B77784ABF1D8FE5FBFBF75BBCE937A534CCEB38643598122B6FEE978D0B0485F9C41B54DDD7D022595594E1A469170414C76A4D9A4D207E29CF43ECE46F218070CC6BECC4078ACAA135ACF422C856C0E68EA1BF5669944DDD7BCDE7B1F8E415D77AECB980613C2E4AC91FC167A2B244592486606FC29C8FD7F045B9A
311
EF7053A7E60B504B0304140006080800EB68DA406BA7876CEB0000007C01000008000000636F72652E786D6C8D904D6EC3201085AF82665BE1F0E326AE8589923A39412F8080B828315806AA1EBF3871A476D7D58CDEBC6F66F4C4FE7BBCA12F3B47177C07B42280ACD7C1383F7490D3053780F652CC21A45F36405E8DB683
311
4506298639E4699574F0C9FA54541F8C5D4515A34D80F4AD341D44FD694755A99C8A235EAB49E9AB1A6C459F5D817376063D8E3853F6B98BB33348FEDABCD7DB9EE3F3B166B8EE9B061FD899E3233B9D0E6F9CD4FD8E88CD024B91DCF8BCAF67AB92352019A10C932D66DB0FCA5BB26B197F21B425055AEC7FA03C997F42D9
311
F9C4D9FAEE038B206979E43E9062B36451CA3DA85297DCE40F504B0304140006080800EB68DA4055019EA25F0000007C00000007000000636E782E786D6C4DCB3B0E80201045D1AD90E915ED2CF8AC45050C11660C8261F98AB1B07AC9C97D42D718D865D3E909258CFD00CCE24AC6E326A164D74DC0B4128928FF32603847
311
2BA13128B1252AC747C6BAB984FC68F0B87FE8960A5C09FE86CFB69FBA01504B0304140006080800EB68DA407A65A55968010000020300000C0000006662782F636F72652E786D6C8D52ED8E8230107C95A67F2F40299C72A6D4E8A94F702F50A1728DD092D2121FFF960FC37931E642529A999DDDD901B6BD3535EAA5ED94
311
D1398E438291D4852995AE72ECDD25C830DA72668D71BFCA30D2A291391E60CC59658D6F67A830DA49ED00D5A6943328BA4E3A8C8A1A2E39EE8A6FD98850780715DD356C457115950CE31068A8E3AC73160CA069C870627E39DF5834E19C79AFCA9955254C5317252DE6C97BF699AE0E4970DAA734480F5916ECE82909F6F4
311
78DC7D24243DAC098B0631674E3577778595C2C912734A621A905540575F71B221EB0D4DDE48BC21201ACA1F44BE2DFF29F24ABB84CE76275987790C4646E2CFB61091439DE8C14FC459348408AF31E1C7A0211008D989737DDFE30A502F0B676C0A4C69FC42F5A2F612A612343E2C9A58E83C3680CD9EF6A12FFABCEE011F
311
50E80AAC0907D7B377C374364D9DA368A50D7A7743DAD846D48BB9C9E2722E839ECA0B531BFB1F7534AF1ACD6146C3DFCB7F00504B0304140006080800EB68DA4009BB5EE27E0000009D0000000B0000006662782F636E782E786D6C4DCCDD0A83201C05F05791FFBDABC08F056A64B9F78865212B1D4EC71E7F36BAD8CD39
311
F0E37044F7D937F4B6F1E58297D05C6A40D6DFC3ECFC2A21A7055F01754AC410D2DF0C909F762BE16050628D213F4F9AED32E52D15DD9C7F9C3836BAD68650CC3931985066704F475EA265C3D0737D6B19544A54BFA7D2C7B1FA02504B0304140006080800EB68DA40567B50842C01000015020000310000006662782F4431
311
4230424534352D373734452D343536452D413544372D4135393643434137424639362F636F72652E786D6C8D515B6EC32010BC0AE22B55651B1C83930813E5D513F4020E901425068B4795E3176A476AFFF2C3A2D999D9D12EDB3E863BF856CE6B6B3A884B048132C24A6DAE1D8CE152AC20D872E6AC0D7F6810987E501DCC
311
30E4ECEA6C1C674858139409093556AA19ECBD570102714F9F0E7AF1A586BEEC63480C7F2BC75EDCFAAB2A7199DA89C7990F2E0500D390FC427EC47BB43F35A468DBE65434849E8A1D39B6E959D3C361D7EE3FD694559390B318B59CE55AA638FAA2957BD5248B390B7A78C6174EF54149C86B84EB02D1A2A69F78B941EDA6
311
5EBE23BC41885599FE4F1447F9A2286A1396F51C779279C831ABA60667D2C6F3FD19463D46EB02C8F3165E8937C85189102104A3A665D5C44D1B48A6B4994D7DB02E6D78713B273A2693336D38ABF29152F9BD60AAF9A0FC07504B0304140006080800EB68DA40295E9D0E4E01000033030000300000006662782F44314230
311
424534352D373734452D343536452D413544372D4135393643434137424639362F636E782E786D6CD593BD6E032110845F05D146F76BEB12591C9652E40952A4E5606D137370E2278ADF3E8B8D1D372E52A641A7D96166F58963DBEFD9902FF0413B3BD2AE6E29012B9DD2763FD21477D50B255BCEBC73F1CE468915338C34
311
CB94B3BD77692992829D4826A26AB43D16D14370C94B0828E79BC438290C0680AD128A304FA014287233E2D70E3CAE82E27422F100E4EDF583B8E913640CACC9299C35B983B37C96A63B1325D28810461AE40166518B149D8270AC9588A2EEEA6BD7839D7E9348BE70AD4C5E935C3ED27C525E36AA91236B70C859881EE915
311
533C2D40B95816A3A58808B9391B2F1ECE92B6715817AF46F01EDDDDB05AAF31EC3CE32CEA198A437A101114E57DDBF5553B54FDF0DEAD36EDF3A65F3DB5DDA66D5993ED9C4DCE99720963C0BB85486723D84879C79A3C7E84AFF888D21E593B7FFA034804505A2F746E19FF994F737EDF88CBE35FC07F00504B0304140006
311
080800EB68DA401F47DD029C0500007B100000340000006662782F44314230424534352D373734452D343536452D413544372D4135393643434137424639362F6F626A656374732E786D6CAD575B6FA33814FE2B887D064292DE56945193B45534DB99D14433DA874A9103867A6B2EB24D279D5FBF9FC110C8246D76352F80
311
8D7D7CCE77BE7371F0619B71EB850AC98AFCDAF6DD916DD13C2A6296A7D776A512E7D2B63E8481280AD55B665B39C9E8B5ADA7ED3048455195662AA609A9B8DA9BBD9BFD6DC988E6D4B6224EA4BCB665F44433E2924A153195CF6E4C1471D364EBFA6EB370283615A47CDA135A124173054D319F438AD528E50F8723DB0B03
311
4FFF0F03FD34AB26C75779B53DC3F3592E15C9A35F0EDB1333F1A78BDBF1D99573369D4E9CE9F9D8776677B385E35F4C46F3F3F9FCEAE6F60A074B2520C96822686287F7C046B028F09A5F6150B15C4DC66689719027E80BD39EB2C3B1E5075EB3A6B3CE187948FDA8C8731AD558018DDA3E233AA625CD63F89C5109CD7A08
311
8D86435FE3D8FB3DD16373647FFA3404FA3B7A825ADDDB775FD362F30F4C90A7304848AA19D860690C6DB83ADA21BC290A6EFE3169654451C108B738DB08225EED104BF592301888D14C163A1AB40576082F34BF87744118BDCFF3435A2615E79AC6765847C11AB14295AC35633FA9D869DF47063AC1579A0D97C620F55A52
311
3BBC6A2872B9C7A606482BE12485CB61A6DE3919EF193AD771BA5CD8E1C7BBCD76A563F7F0E1A5284A2A94A60FA8D53AAE7D6B948C4EFE499ED31BEC3D5576A07C05F29F10EA3B55E037C1B6D3EDD49CA204C96552880CBEB1469633C26364F9F5537FF7BE02AFDB3CF4DE313CE16C0DD56FC0736843DF973D38C3E005842F
311
C4C498B68A0847DA78603900D224B1788129E4E164B3B5C325B21CB23276111EFA3019EABEE033F08C18248AFAA4DE3B07967B69F184040DD86A46428D86FC46C19D9F7E4967F5C166D93178CF7E0B5D6F16AB8FAB4A2424A20F26A6173461395328713BDEF4151A603EB0E899BEFE28440C437FC57BD5C73B334749A0AD31
311
D7C0A76D4ED783DDC9830322EC4B0B9D6E82774E8011BAB0F6E43F301951CE494E8BAA3DF7CDFA81B2D140AC835D33B92B30BBC202D2347FF66210453A12ACD42076D5AA4B9AEE11EBBE2D3F819176387BFD8BBCF6B3D766977BA3821762BD795D3769E920D4DF87DC3618785A0AE85E07491BFF06F475CC92A49248820770
311
FDBE9CF77DA7D30252442BB5899629EC4770116148DBCA45B5160495B4C8D70C75137177F080BE7C406A18500B3CA6B1A43C5933CEAB6C9D308E6AB4CE4879048EFFAFFFA6CACA35C98A2A5747640F54477518EA3E60AFFC4154F46487ABFAEDCC907B631A1F2183AE2507B01AB876767631194F1763E77C723E73A6737FE6
311
5CDD5D5C391767E793F9EDC5D9EDE5CDA4F553A34918B4A5A61FD1F0124A5B500966DCF76D89F83149C00E1F88928FF74D78B6EF6F4B17BD70E0610FEA65B7F1267E41DF47E3F705EC561E14B4CC4A4E339A2BA263E8417FF0AF047DC64099667E9991949E20E5F3FD6ACF18CC9CB0EF8B8E77FA636FAF999DEB803C28443D
311
55D926278CEF6D4C1B24DD324F0D7EAD4FBA775368DAA11E19C7A03395056731F2606CA5B4C8A842363CA108898C4A50AFDFD3C7E6EE71C2EE97A6435464C369ABC9134193CC25C202D4AA22359CB7FE4053A7FBAA6B1BE5D67DC6C3640ADB0267AE6D34E98A4554BA1B1468DD0AD5C2C1A57E278FC69FE42947AFDD6CEAC6
311
DD2E8DCDA024774B4EE99F8C5D4D0A3706208D94E81BD010C13BB5326150EB66FE47FFC9F0561D8B287C6E2AD5D9B29BE88CA98F4188364699DB029A986773F41681FAB659BE5BAF192072D22DEB4D1234521D45445ADF14B47E46A59BC5170F1D8AB5FC6C95BC4AE1CBD325398282CC950E70B008AC30324BA240D5F99F8F
311
5F44819B6C66DD3150E0715E6459919BC18DB9095BAB27DC6BE347A405AA2F24F2713CF2C78FF545C0DC4DD61B22A94B62F98C09F854B00EE281E3C1C8E6B6880AD4FCE8D679DA097BDC5C2E2C53D2A6106A88D2CFAA1A16B41C39B5103DFA32A963A5BFA07CF32EE0D54BA18240171FFE0B504B0304140006080000EB68DA
311
40000000000000000000000000350000006662782F44314230424534352D373734452D343536452D413544372D4135393643434137424639362F76657274696365732E62696E504B0304140006080800EB68DA40F270F1330600000004000000360000006662782F44314230424534352D373734452D343536452D41354437
311
2D4135393643434137424639362F747269616E676C65732E62696E636660600000504B0304140006080000EB68DA40000000000000000000000000370000006662782F44314230424534352D373734452D343536452D413544372D4135393643434137424639362F617474726962757465732E62696E504B03041400060808
311
00EB68DA40D5987DFC8F00000041010000360000006662782F44314230424534352D373734452D343536452D413544372D4135393643434137424639362F6469726563746F72792E786D6C858F410EC2201045AF4266AF15DDB800BA74E7C21B903225242D6328188F2FA5C4183471359997F9FF81E89FF3C41E1816475E02
311
DF1F80A11FC8386F25A438EECEC07A250251FC3803E6F58C12560C4AD840E95E91C151A72936F496F35732D860FE635F62C8F2DA16B505C545B74125BAA2FA9E05D7CC053D063734D5C7665FD55B6B8D15D5E9BFEAFD8490FFA45E504B0304140006080800EB68DA40780CA9F4FE000000A00100003B0000006662782F4431
311
4230424534352D373734452D343536452D413544372D4135393643434137424639362F7265736F75726365732F636F72652E786D6C8D504B6E833010BD0A9A6D65620C2504194749494ED00B586642AD041BF953F5F835814AEDAE9B99D1FB689E1E3F7E4D8FEC139DD7D67450E4143234CA0EDA8C1DC470230D6447C19DB5
311
E1970C322327EC608141F0D1D9386F90B226A009093576C00D94DE63804C3DD2D181571F38C95CC69014FE9ECF52DDE5887991273AE904F7C1A500D9FA6499201C7A1B9D42CF772B2B788C7AD8347A483FF54DA30351BE366F55DD33723D578C547DD39013BB96E4CC2E97D3A1A455BFA77CB798050F7AFAC9A81CCA800308
311
460B46684D58FD5E942DDDB7AC7CA1454B936991FF31C579F8A7296A134AB6C55D6D1E4491823C09C1774B5F693DCB4C7BE9567C03504B010214000A0000080000EB68DA403DEE336E79000000790000001B00000000000000000000000000000000006175746F6465736B2D64657369676E2D7061636B6167652E786D6C50
311
4B01021400140006080800EB68DA40D486FD9CA0000000F40000001300000000000000000000000000B20000005B436F6E74656E745F54797065735D2E786D6C504B01021400140006080800EB68DA406BA7876CEB0000007C010000080000000000000000000000000083010000636F72652E786D6C504B01021400140006
311
080800EB68DA4055019EA25F0000007C000000070000000000000000000000000094020000636E782E786D6C504B01021400140006080800EB68DA407A65A55968010000020300000C00000000000000000000000000180300006662782F636F72652E786D6C504B01021400140006080800EB68DA4009BB5EE27E0000009D
311
0000000B00000000000000000000000000AA0400006662782F636E782E786D6C504B01021400140006080800EB68DA40567B50842C010000150200003100000000000000000000000000510500006662782F44314230424534352D373734452D343536452D413544372D4135393643434137424639362F636F72652E786D6C
311
504B01021400140006080800EB68DA40295E9D0E4E010000330300003000000000000000000000000000CC0600006662782F44314230424534352D373734452D343536452D413544372D4135393643434137424639362F636E782E786D6C504B01021400140006080800EB68DA401F47DD029C0500007B1000003400000000
311
000000000000000000680800006662782F44314230424534352D373734452D343536452D413544372D4135393643434137424639362F6F626A656374732E786D6C504B01021400140006080000EB68DA400000000000000000000000003500000000000000000000000000560E00006662782F44314230424534352D373734
311
452D343536452D413544372D4135393643434137424639362F76657274696365732E62696E504B01021400140006080800EB68DA40F270F13306000000040000003600000000000000000000000000A90E00006662782F44314230424534352D373734452D343536452D413544372D4135393643434137424639362F747269
311
616E676C65732E62696E504B01021400140006080000EB68DA400000000000000000000000003700000000000000000000000000030F00006662782F44314230424534352D373734452D343536452D413544372D4135393643434137424639362F617474726962757465732E62696E504B01021400140006080800EB68DA40
311
D5987DFC8F000000410100003600000000000000000000000000580F00006662782F44314230424534352D373734452D343536452D413544372D4135393643434137424639362F6469726563746F72792E786D6C504B01021400140006080800EB68DA40780CA9F4FE000000A00100003B000000000000000000000000003B
311
1000006662782F44314230424534352D373734452D343536452D413544372D4135393643434137424639362F7265736F75726365732F636F72652E786D6C504B0506000000000E000E0080040000921100000000
310
504B03040A0000080000EB68DA403DEE336E79000000790000001B0000006175746F6465736B2D64657369676E2D7061636B6167652E786D6C3C3F786D6C2076657273696F6E3D22312E302220656E636F64696E673D227574662D3822203F3E3C666F726D6174733E3C666F726D61743E687474703A2F2F736368656D612E
310
6175746F6465736B2E636F6D2F64657369676E2D7061636B6167652F323030393C2F666F726D61743E3C2F666F726D6174733E504B0304140006080800EB68DA40D486FD9CA0000000F4000000130000005B436F6E74656E745F54797065735D2E786D6C7D8EC10E82300C865F65E91D8A1E8C310C0EEA1BF002731658846E
310
D98AC1B77784ABF1D8FE5FBFBF75BBCE937A534CCEB38643598122B6FEE978D0B0485F9C41B54DDD7D022595594E1A469170414C76A4D9A4D207E29CF43ECE46F218070CC6BECC4078ACAA135ACF422C856C0E68EA1BF5669944DDD7BCDE7B1F8E415D77AECB980613C2E4AC91FC167A2B244592486606FC29C8FD7F045B9A
310
EF7053A7E60B504B0304140006080800EB68DA40138A4A15E90000007C01000008000000636F72652E786D6C8D90416EC3201045AF82665B61038EECC6C264D1BA27E805104C1C94182C03558F5F9C3852BBEB6A467FFE9B197D79FA9E6FE40BD7E8821F80570C087A13ACF3D300399DE92B9093926B08E9970D88D7330EB0
310
C9A0E4B486BCEC92093EA14F45F5C1E22EEA18310131B7D20C10CD05675DE99C8A235EAB459BAB9EB0E2CFAEC0393B4B1E479C2DFBDCD9E10AEAD8352D67BCA3E2F036D203FFE0F438BE332A46DE769D10632B84AC3758C9E4E6E77DB3A24E684109C605652D15ED276F7AD6F5A27961BC674CD69BFD0F9417FB4F283B9F1A
310
B1BFFBC022285E1EB90F94ACB72C4AB90755EA969BFA01504B0304140006080800EB68DA4055019EA25F0000007C00000007000000636E782E786D6C4DCB3B0E80201045D1AD90E915ED2CF8AC45050C11660C8261F98AB1B07AC9C97D42D718D865D3E909258CFD00CCE24AC6E326A164D74DC0B4128928FF326038472BA1
310
3128B1252AC747C6BAB984FC68F0B87FE8960A5C09FE86CFB69FBA01504B0304140006080800EB68DA401D16AA7265010000020300000C0000006662782F636F72652E786D6C8D525B6E833010BC8AE5DF0AFC20822632CE474B4FD00B38E05014B091B1518EDFE511D154511421196B66677776401CAF5D8B46ED86C69A1C
310
B39862A44D69ABC6D4390EFE1CBD637494C259EBFF94616454A7733CC1588ADAD9D0AF50698DD7C6036A6CA557500D83F618952D5C723C943FBA53B10A1E2A864BDCABF2A26A1DB31868A89362F00E0CA065C87462793E5D055970294268AA956D2A98D69C1BEDB0DC6749CA28CB22BEFB28A21DFB62D1BEF8A4112F589A65
310
9C1729E7824C62297CD3DDDC954E2BAF2B2C39653CA269C4D36F961C6876E0C91B65074A0599CAEF44A1AF5E1485C6F884AF7617D98025032333F16F5B88C8A3418DE0874841A610E135277C1F340402217B756A6F7B5C001A75E9ADDB0153D9B051A36A8386A914CD8F200B0B9DE706B0D9C33EFC499FE73DE0032A538335
310
E5E17A0A7E9A2E96A96B14BD76D1E8AFC858D7A97633B758DCCE6DD04379695BEB5E51937555B28649A6BF57FE02504B0304140006080800EB68DA4009E4BCF37E0000009D0000000B0000006662782F636E782E786D6C4DCCD10A83201886E15B91FFDCB56933076A64D17DC4B290990EA7D1E5AF46073BFAE0E1E315F5B6
310
38B49AF8B1C14BB85DAE808C7F86D1FA59424E13E6806A256208E9EF06C80F8B9170302831C790DF278D661AB24BBB3AEB5F27524D68DB118DABA6EF70C92A861B4219D6FAFEE0A4E4AC653D144A14BFD2BE47587D01504B0304140006080800EB68DA402347D2CC2B01000014020000310000006662782F33423233434432
310
422D374146442D343637362D413233362D4242353938323438364336462F636F72652E786D6C8D515B6EC32010BC0AE22B55858DC1C1498489E24439412F406D92A2C460F1A872FC42ED48ED5F7E58343B333BDAE5FBC77807DFCA796D4D0BAB0243A04C6F076DAE2D8CE1823610EC0577D6863F34088C1C550B330C05BF3A
310
1BA705EAAD09CA84841A3BA80594DEAB00417F4F9F16FAFE4B8DB290312486BF1593EC6FF2AA8AAA48EDC413DC0797028079487EA1A01DA1C713E95073389F50CD1A860E8432D475EBED86D41B7664675ECE42C163D4C322D7438AA32F5AB9574DB258F0A0C767FCDE2919D40005C115419821C23E2ABAC3CD8ED0775CED30
310
E665A6FF13C569785114B509942C71679987A2E2E5DC107CB0F1F3FE0CA31E937501E4792BAFFA3728708131636BBA6D783953D3029227AB174F1FAC4B0B5EDD3E139B2EC6AC16BCCC374AE5F780A9E67B8A1F504B0304140006080800EB68DA404FF952195501000033030000300000006662782F33423233434432422D37
310
4146442D343637362D413233362D4242353938323438364336462F636E782E786D6CBD93CD6EC32010845F0571ADFC1FB9518489D4439FA0875E316C121A0C16E0AA79FB2E094973C9A152D50BB2668799D527CCB65F93219FE0837676A04D595302563AA5ED7EA04BDC156B4AB69C79E7E29D8D122B2618689229677BEF96
310
394B0A7662311155A3ED318B1E825BBC848072BA498C93C26000D8624111A6119402456E46FCDA81C755501C4F241E80BCBEBC13377E808C81552985B32A757096CEDC7467A2441A11C240833CC0244AB144A7201C4B25A2289BF2DAF560A79F24922E5C2B17AF492A1F683A29CF1B95C8915538E42C448FF4B2299E66A05C
310
CCB3D15244845C9D8D170F678BB6B15F65AF46F01EDD5DDBAFD718769E7116F504D9213D88088AF2B66EDAA2EE8BB67F6BBA4DFDBC69BBA7BAD9D435AB929DB3D139932F610C783713E96C041B296F5895C68FF0651F51DA236BE74FBF00890072EB85CE2DE32FF9347DB75AFD239FEAFCBE1197C7BF807F03504B03041400
310
06080800EB68DA40463016695B070000941B0000340000006662782F33423233434432422D374146442D343637362D413233362D4242353938323438364336462F6F626A656374732E786D6CED595B739B3814FE2B0CFB6C6C7C499A1D4227719A8EA79BB6536F3BFB9019460699682304238924DE5FBF4717301093E06DF6
310
AD0F3620A4A373BE73D52178FF9451E70173417276EEFADEC475308BF384B0F4DC2DE576F4CE75DE8701CF73D998E63A0C65F8DC55C36E18A43C2F0B3B94E02D2AA9EC8C5E5FFEE5881833EC3A3145429CBB22BEC319F25029F3048B7B2F411279E9F6C9F33D33B14D36E5A8B8EB102D10C74C02A730CE808A6398F2DB8F13
310
771C0663F53E0CD4BF9D351B346BDE3F6BACA56E7349989088C5CF58EA90990D6269E6CFAF3E4C1767A3C57C3E1BCD4FA6FEE8F2FAF26AE49FCE26CB93E5F2ECE2C319B0B7C9736A654A70815902FADBB9A11F8CD59B5A748BC021AEE39C311C6B20012A2D569720C102B66AC037693FFA4AA2C66B2D61E379AEDE5B161AC3
310
B33695BE59C38068D10541EC7695C4D5B5295FBEF91B0417438C920B2C815B213968D7C2C3C12BDC70128CCD68186CF6BA20C2C990C49C20EA50B2E188835260AA9A1206668125A39C8303294749A035675EB76D0B3CF375D739C4E5B6A45479861B6AC78AC0FDB0149A33F20FE67BEE9BC8004F206D49987C67B994BB02BB
310
E15930D68361A02EB3A97D698074B614A5422362DE76045D2AD75F5DB9E1A7EBCDD35A8583C39B173C2F3097CAE8941E355F60C8F6AA50B2DBFA8334A71680300654BB720FCA3740FE33448F3D2BA0374E9EE64F733B5772C4C436E719E8C69938A309FC4D1C5FFFABFBC65D30AE17B7B5D78727B8A982EADDCFE3D9964163
310
65F96FC019060F60F0399FD957EB1851B0E71BC2002065240ECD610842FB76F3E4862B089C10E86115A2A10F2203BB0F701B8C2D99BD562AF7B25EC70051BBC76C889200366D91C0468F9E3E42F6E024DEABA929621FBC8B3731D78BABF5A775C9B728C637D6A7AFF0963022216B1E66A885794BA27BBC7BCC7902823EC77B
310
DDC43BB35B09405B61AE804F2B10D4C37EE7D60631AC4B73156E825776002154AE6ED0BF2122C6942286F3B2DAB78E6ECA506B8FB735831B4E0DC4B369C784397E20AAAA00A7D9CF68310A793FE6A45020BAE14723591D34BD1EE9BEAF3E8345D6F37B66AD18845E86E89F3A681DC0A165D915D216885AE0CD3E9CC739CD79
310
B4D94526D2B9504B001B6D6FF9D1220AB1DE284951010FD27E578594D4481B2564BB2D05C4D5032CFE582D9BE630F166FEC269FE779C710ED1167C1771EB779D3D2292A114475B94F46DD7DCADA62D34C91ED21C6F29C8451E88DC4548469304A7C7407314F1B337A59ED25C08C2B0807C7510FC261A130F0289D166C5B2D2
310
6A076822A20C4B448F414091E90157A71D5DE3C6503ABCCE636DBD2F69AC49F47FB2088EA096CC5944A014851CF22AE3BEB78018D246D7A0DCC117ACADA2ADC5A0259410F12E7AC424BD93C7A06EC8F7E01EC391A494515EA018CC7A00D967BEA294DAE17D83E27B953FA2B8A46F652002D36D44282DB3087E84C1C963886B
310
D781E945141AC44DEC933883A20CC9920FD9E4643179B68FA919BA21B0B1D1965008DB51868A1ED45B0151D7234E0DBEA5DEA3D44D991511CAF2920D32146FD6F5264BBEAB56457620BFAA5484B2B1226C09860161B2CEAA55CC0653D78115DC4807AA5D24505650730A7B25F1F8B53769CABD1B70EBA76FBB4106855F8FF6
310
9A11755EC160796C1506E211C9F8CE0DD7FA3ABA84FA3BC1C93ED557B566B30204C454242F39B12AFABE82F2C6D6686E7883A4B8FD68B26E75FDBEF2A0FB118C610DD42EF5C295023AC34C225599DCA81BFA0D41086ED130E32B95538FA1729124BA6A44F49AF4A9B35546B436CD8857DC619667F063B784C5B44CF02D4AC4
310
7D742369B4268A752BA597910AE31705FCF271DD8107460688F4551578F8B1B3D68E2E55B9749088BC2BB30D430482604BB4D4E8C62B586A355269B9BEAA3305D45D606056C5F35F278B663BE2D7C922B586F153278BCBDD1F68D7EC8B34D279ACECFAA863409D9F1495B73806E8B6434DB5CE2226995BF9AD33451014AB28
310
3FB81AAB828621D8C7F17FCEDA7D59D06CD7E1FFB8ACED3FAB388ECA2AADC9AA4B75A0725D3573D8E5E274369D5F4D4727B393CBD17CE95F8ECEAE4FCF46A78B93D9F2C3E9E2C3BB8B7D19A11D350CEA60A673173C9BA0560DAB278B017465454E4902A7F9C44931C47C0967FA01ED739E6101C9B3D9EC4E6C537EC0EA07D3
310
E794684371C5C91D8206311590D601A33296ED71E737684D4A38689FBBD034F2EEE1CF5AA5EB40E63977A15520498C85B78136936AE869E2907275EEB7C4001FC4529512CDA2FAB95EA5B06985FF7ACA903460E56AF530A0702BA0FBD5EA5068DE2C4FF1518257EC3848C2EDA69450AD1959F603B5307A9BBDFA8D6C94B07B
310
BBF513B8EECB62F99E9ED34264D02783178DC0501D49C453DDEF568C59962EAEBE8EA1CFE6ACBE38052D53D0E5704A238EC1984B555081158155589A059260AACBDF6FBFF21C3EF1648EAE8A6E977996E5CC3E5CC0792C814F44CEFA0E3EF824B7503660D55617B7D3893FBDD5ED6CDB618F3648604FD543305095114A848E
310
B181453E6B4DD9C6E55829A1337D75E5D8F0096D006341CFBABBE6F39603DEA33EA4285FD11E5EC9F962477BACA7823570E84587FF02504B0304140006080000EB68DA40000000000000000000000000350000006662782F33423233434432422D374146442D343637362D413233362D4242353938323438364336462F7665
310
7274696365732E62696E504B0304140006080800EB68DA40F270F1330600000004000000360000006662782F33423233434432422D374146442D343637362D413233362D4242353938323438364336462F747269616E676C65732E62696E636660600000504B0304140006080000EB68DA4000000000000000000000000037
310
0000006662782F33423233434432422D374146442D343637362D413233362D4242353938323438364336462F617474726962757465732E62696E504B0304140006080800EB68DA40D5987DFC8F00000041010000360000006662782F33423233434432422D374146442D343637362D413233362D4242353938323438364336
310
462F6469726563746F72792E786D6C858F410EC2201045AF4266AF15DDB800BA74E7C21B903225242D6328188F2FA5C4183471359997F9FF81E89FF3C41E1816475E02DF1F80A11FC8386F25A438EECEC07A250251FC3803E6F58C12560C4AD840E95E91C151A72936F496F35732D860FE635F62C8F2DA16B505C545B74125
310
BAA2FA9E05D7CC053D063734D5C7665FD55B6B8D15D5E9BFEAFD8490FFA45E504B0304140006080800EB68DA400021648DFB000000A00100003B0000006662782F33423233434432422D374146442D343637362D413233362D4242353938323438364336462F7265736F75726365732F636F72652E786D6C8D504B6E833010
310
BD8A35DB0AB04D040D32CEA2A527E8052C7B42AD041BF953F5F835814AEDAE9B99D1FB689E9EB87C2D77F289215AEF46603505824E7B63DD3C424ED7EA19C8458AE07DFA2503E2D482236C304831079FD703D2DE2574A9A0CE1B3C4015232620FA5E8E11A2FEC045D52AA7A288B77A55FAA666AC595DE8A29322A6500290FD
310
C93641068C3E078D51343B2B45CED61C1A6BCA4F7BB518409EFBB6639475153FBD4CD589BDB1EA3CBDD28A4FACEB7BCEA78E73D16C6629925D7E32EA802AA101C929E3152DF6EE9DB503ED07DE3E5136502A9A4DFEC79457F34F53B62EB5FC88BBDB224856823C08299AADAFB21E6596BD752BBF01504B010214000A000008
310
0000EB68DA403DEE336E79000000790000001B00000000000000000000000000000000006175746F6465736B2D64657369676E2D7061636B6167652E786D6C504B01021400140006080800EB68DA40D486FD9CA0000000F40000001300000000000000000000000000B20000005B436F6E74656E745F54797065735D2E786D
310
6C504B01021400140006080800EB68DA40138A4A15E90000007C010000080000000000000000000000000083010000636F72652E786D6C504B01021400140006080800EB68DA4055019EA25F0000007C000000070000000000000000000000000092020000636E782E786D6C504B01021400140006080800EB68DA401D16AA
310
7265010000020300000C00000000000000000000000000160300006662782F636F72652E786D6C504B01021400140006080800EB68DA4009E4BCF37E0000009D0000000B00000000000000000000000000A50400006662782F636E782E786D6C504B01021400140006080800EB68DA402347D2CC2B01000014020000310000
310
00000000000000000000004C0500006662782F33423233434432422D374146442D343637362D413233362D4242353938323438364336462F636F72652E786D6C504B01021400140006080800EB68DA404FF9521955010000330300003000000000000000000000000000C60600006662782F33423233434432422D37414644
310
2D343637362D413233362D4242353938323438364336462F636E782E786D6C504B01021400140006080800EB68DA40463016695B070000941B00003400000000000000000000000000690800006662782F33423233434432422D374146442D343637362D413233362D4242353938323438364336462F6F626A656374732E78
310
6D6C504B01021400140006080000EB68DA400000000000000000000000003500000000000000000000000000161000006662782F33423233434432422D374146442D343637362D413233362D4242353938323438364336462F76657274696365732E62696E504B01021400140006080800EB68DA40F270F133060000000400
310
00003600000000000000000000000000691000006662782F33423233434432422D374146442D343637362D413233362D4242353938323438364336462F747269616E676C65732E62696E504B01021400140006080000EB68DA400000000000000000000000003700000000000000000000000000C31000006662782F334232
310
33434432422D374146442D343637362D413233362D4242353938323438364336462F617474726962757465732E62696E504B01021400140006080800EB68DA40D5987DFC8F000000410100003600000000000000000000000000181100006662782F33423233434432422D374146442D343637362D413233362D4242353938
310
323438364336462F6469726563746F72792E786D6C504B01021400140006080800EB68DA400021648DFB000000A00100003B00000000000000000000000000FB1100006662782F33423233434432422D374146442D343637362D413233362D4242353938323438364336462F7265736F75726365732F636F72652E786D6C50
310
4B0506000000000E000E00800400004F1300000000
  0
XRECORD
  5
17
102
{ACAD_REACTORS
330
12
102
}
330
12
100
AcDbXrecord
280
     1
270
     1
271
     1
  0
XRECORD
  5
16
102
{ACAD_REACTORS
330
12
102
}
330
12
100
AcDbXrecord
280
     1
270
     1
271
     1
  0
XRECORD
  5
18
102
{ACAD_REACTORS
330
12
102
}
330
12
100
AcDbXrecord
280
     1
270
     1
271
     1
  0
XRECORD
  5
15
102
{ACAD_REACTORS
330
12
102
}
330
12
100
AcDbXrecord
280
     1
270
     1
271
     1
  0
XRECORD
  5
4B64
102
{ACAD_REACTORS
330
22
102
}
330
22
100
AcDbXrecord
280
     1
102
MATERIAL
148
0.0
149
0.0
149
0.0
 93
        0
 94
      127
282
     0
 72
     0
 77
     0
171
     0
175
     0
179
     0
273
     0
  0
XRECORD
  5
24
102
{ACAD_REACTORS
330
22
102
}
330
22
100
AcDbXrecord
280
     1
270
     1
271
     1
  0
XRECORD
  5
23
102
{ACAD_REACTORS
330
22
102
}
330
22
100
AcDbXrecord
280
     1
270
     1
271
     1
  0
XRECORD
  5
27
102
{ACAD_REACTORS
330
22
102
}
330
22
100
AcDbXrecord
280
     1
270
     1
271
     1
  0
XRECORD
  5
26
102
{ACAD_REACTORS
330
22
102
}
330
22
100
AcDbXrecord
280
     1
270
     1
271
     1
  0
XRECORD
  5
28
102
{ACAD_REACTORS
330
22
102
}
330
22
100
AcDbXrecord
280
     1
270
     1
271
     1
  0
XRECORD
  5
25
102
{ACAD_REACTORS
330
22
102
}
330
22
100
AcDbXrecord
280
     1
270
     1
271
     1
  0
XRECORD
  5
471B
102
{ACAD_REACTORS
330
471A
102
}
330
471A
100
AcDbXrecord
280
     1
102
ACAD_ROUNDTRIP_2012_MLEADER_STYLE
298
     1
  0
CELLSTYLEMAP
  5
4D5B
102
{ACAD_REACTORS
330
4B4B
102
}
330
4B4B
100
AcDbCellStyleMap
 90
        3
300
CELLSTYLE
  1
TABLEFORMAT_BEGIN
 90
        5
170
     1
 91
        0
 92
    32768
 62
   257
 93
        1
300
CONTENTFORMAT
  1
CONTENTFORMAT_BEGIN
 90
        0
 91
        0
 92
      512
 93
        0
300

 40
0.0
140
1.0
 94
        5
 62
     0
340
55
144
0.25
309
CONTENTFORMAT_END
171
     1
301
MARGIN
  1
CELLMARGIN_BEGIN
 40
0.06
 40
0.06
 40
0.06
 40
0.06
 40
0.18
 40
0.18
309
CELLMARGIN_END
 94
        6
 95
        1
302
GRIDFORMAT
  1
GRIDFORMAT_BEGIN
 90
        0
 91
        1
 62
     0
 92
       -2
340
0
 93
        0
 40
0.045
309
GRIDFORMAT_END
 95
        2
302
GRIDFORMAT
  1
GRIDFORMAT_BEGIN
 90
        0
 91
        1
 62
     0
 92
       -2
340
0
 93
        0
 40
0.045
309
GRIDFORMAT_END
 95
        4
302
GRIDFORMAT
  1
GRIDFORMAT_BEGIN
 90
        0
 91
        1
 62
     0
 92
       -2
340
0
 93
        0
 40
0.045
309
GRIDFORMAT_END
 95
        8
302
GRIDFORMAT
  1
GRIDFORMAT_BEGIN
 90
        0
 91
        1
 62
     0
 92
       -2
340
0
 93
        0
 40
0.045
309
GRIDFORMAT_END
 95
       16
302
GRIDFORMAT
  1
GRIDFORMAT_BEGIN
 90
        0
 91
        1
 62
     0
 92
       -2
340
0
 93
        0
 40
0.045
309
GRIDFORMAT_END
 95
       32
302
GRIDFORMAT
  1
GRIDFORMAT_BEGIN
 90
        0
 91
        1
 62
     0
 92
       -2
340
0
 93
        0
 40
0.045
309
GRIDFORMAT_END
309
TABLEFORMAT_END
  1
CELLSTYLE_BEGIN
 90
        1
 91
        1
300
_TITLE
309
CELLSTYLE_END
300
CELLSTYLE
  1
TABLEFORMAT_BEGIN
 90
        5
170
     1
 91
        0
 92
        0
 62
   257
 93
        1
300
CONTENTFORMAT
  1
CONTENTFORMAT_BEGIN
 90
        0
 91
        0
 92
      512
 93
        0
300

 40
0.0
140
1.0
 94
        5
 62
     0
340
55
144
0.18
309
CONTENTFORMAT_END
171
     1
301
MARGIN
  1
CELLMARGIN_BEGIN
 40
0.06
 40
0.06
 40
0.06
 40
0.06
 40
0.18
 40
0.18
309
CELLMARGIN_END
 94
        6
 95
        1
302
GRIDFORMAT
  1
GRIDFORMAT_BEGIN
 90
        0
 91
        1
 62
     0
 92
       -2
340
0
 93
        0
 40
0.045
309
GRIDFORMAT_END
 95
        2
302
GRIDFORMAT
  1
GRIDFORMAT_BEGIN
 90
        0
 91
        1
 62
     0
 92
       -2
340
0
 93
        0
 40
0.045
309
GRIDFORMAT_END
 95
        4
302
GRIDFORMAT
  1
GRIDFORMAT_BEGIN
 90
        0
 91
        1
 62
     0
 92
       -2
340
0
 93
        0
 40
0.045
309
GRIDFORMAT_END
 95
        8
302
GRIDFORMAT
  1
GRIDFORMAT_BEGIN
 90
        0
 91
        1
 62
     0
 92
       -2
340
0
 93
        0
 40
0.045
309
GRIDFORMAT_END
 95
       16
302
GRIDFORMAT
  1
GRIDFORMAT_BEGIN
 90
        0
 91
        1
 62
     0
 92
       -2
340
0
 93
        0
 40
0.045
309
GRIDFORMAT_END
 95
       32
302
GRIDFORMAT
  1
GRIDFORMAT_BEGIN
 90
        0
 91
        1
 62
     0
 92
       -2
340
0
 93
        0
 40
0.045
309
GRIDFORMAT_END
309
TABLEFORMAT_END
  1
CELLSTYLE_BEGIN
 90
        2
 91
        1
300
_HEADER
309
CELLSTYLE_END
300
CELLSTYLE
  1
TABLEFORMAT_BEGIN
 90
        5
170
     1
 91
        0
 92
        0
 62
   257
 93
        1
300
CONTENTFORMAT
  1
CONTENTFORMAT_BEGIN
 90
        0
 91
        0
 92
      512
 93
        0
300

 40
0.0
140
1.0
 94
        2
 62
     0
340
55
144
0.18
309
CONTENTFORMAT_END
171
     1
301
MARGIN
  1
CELLMARGIN_BEGIN
 40
0.06
 40
0.06
 40
0.06
 40
0.06
 40
0.18
 40
0.18
309
CELLMARGIN_END
 94
        6
 95
        1
302
GRIDFORMAT
  1
GRIDFORMAT_BEGIN
 90
        0
 91
        1
 62
     0
 92
       -2
340
0
 93
        0
 40
0.045
309
GRIDFORMAT_END
 95
        2
302
GRIDFORMAT
  1
GRIDFORMAT_BEGIN
 90
        0
 91
        1
 62
     0
 92
       -2
340
0
 93
        0
 40
0.045
309
GRIDFORMAT_END
 95
        4
302
GRIDFORMAT
  1
GRIDFORMAT_BEGIN
 90
        0
 91
        1
 62
     0
 92
       -2
340
0
 93
        0
 40
0.045
309
GRIDFORMAT_END
 95
        8
302
GRIDFORMAT
  1
GRIDFORMAT_BEGIN
 90
        0
 91
        1
 62
     0
 92
       -2
340
0
 93
        0
 40
0.045
309
GRIDFORMAT_END
 95
       16
302
GRIDFORMAT
  1
GRIDFORMAT_BEGIN
 90
        0
 91
        1
 62
     0
 92
       -2
340
0
 93
        0
 40
0.045
309
GRIDFORMAT_END
 95
       32
302
GRIDFORMAT
  1
GRIDFORMAT_BEGIN
 90
        0
 91
        1
 62
     0
 92
       -2
340
0
 93
        0
 40
0.045
309
GRIDFORMAT_END
309
TABLEFORMAT_END
  1
CELLSTYLE_BEGIN
 90
        3
 91
        2
300
_DATA
309
CELLSTYLE_END
  0
XRECORD
  5
4DA7
102
{ACAD_REACTORS
330
4B4B
102
}
330
4B4B
100
AcDbXrecord
280
     1
102
ACAD_ROUNDTRIP_PRE2007_TABLESTYLE
 90
      512
 91
        0
  1

 92
      512
 93
        0
  2

 94
      512
 95
        0
  3

  0
XRECORD
  5
4D82
102
{ACAD_REACTORS
330
4D81
102
}
330
4D81
100
AcDbXrecord
280
     1
102
RTVSPropertyOp0
 70
     1
102
RTVSPropertyOp1
 70
     1
102
RTVSPropertyOp2
 70
     1
102
RTVSPropertyOp3
 70
     1
102
RTVSPropertyOp4
 70
     1
102
RTVSPropertyOp5
 70
     1
102
RTVSPropertyOp6
 70
     1
102
RTVSPropertyOp7
 70
     1
102
RTVSPropertyOp8
 70
     1
102
RTVSPropertyOp9
 70
     1
102
RTVSPropertyOp10
 70
     1
102
RTVSPropertyOp11
 70
     1
102
RTVSPropertyOp12
 70
     1
102
RTVSPropertyOp13
 70
     1
102
RTVSPropertyOp14
 70
     1
102
RTVSPropertyOp15
 70
     1
102
RTVSPropertyOp16
 70
     1
102
RTVSPropertyOp17
 70
     1
102
RTVSPropertyOp18
 70
     1
102
RTVSPropertyOp19
 70
     1
102
RTVSPropertyOp20
 70
     1
102
RTVSPropertyOp21
 70
     1
102
RTVSPropertyOp22
 70
     1
102
RTVSPropertyOp23
 70
     1
102
RTVSPropertyOp24
 70
     1
102
RTVSPropertyOp25
 70
     1
102
RTVSPropertyOp26
 70
     1
102
RTVSPropertyOp27
 70
     1
  0
XRECORD
  5
4DD3
102
{ACAD_REACTORS
330
4DD2
102
}
330
4DD2
100
AcDbXrecord
280
     1
102
RTVSPropertyOp0
 70
     1
102
RTVSPropertyOp1
 70
     1
102
RTVSPropertyOp2
 70
     1
102
RTVSPropertyOp3
 70
     1
102
RTVSPropertyOp4
 70
     1
102
RTVSPropertyOp5
 70
     1
102
RTVSPropertyOp6
 70
     1
102
RTVSPropertyOp7
 70
     1
102
RTVSPropertyOp8
 70
     1
102
RTVSPropertyOp9
 70
     1
102
RTVSPropertyOp10
 70
     1
102
RTVSPropertyOp11
 70
     1
102
RTVSPropertyOp12
 70
     1
102
RTVSPropertyOp13
 70
     1
102
RTVSPropertyOp14
 70
     1
102
RTVSPropertyOp15
 70
     1
102
RTVSPropertyOp16
 70
     1
102
RTVSPropertyOp17
 70
     1
102
RTVSPropertyOp18
 70
     1
102
RTVSPropertyOp19
 70
     1
102
RTVSPropertyOp20
 70
     1
102
RTVSPropertyOp21
 70
     1
102
RTVSPropertyOp22
 70
     1
102
RTVSPropertyOp23
 70
     1
102
RTVSPropertyOp24
 70
     1
102
RTVSPropertyOp25
 70
     1
102
RTVSPropertyOp26
 70
     1
102
RTVSPropertyOp27
 70
     1
  0
XRECORD
  5
4DD1
102
{ACAD_REACTORS
330
4DD0
102
}
330
4DD0
100
AcDbXrecord
280
     1
102
RTVSPropertyOp0
 70
     1
102
RTVSPropertyOp1
 70
     1
102
RTVSPropertyOp2
 70
     1
102
RTVSPropertyOp3
 70
     1
102
RTVSPropertyOp4
 70
     1
102
RTVSPropertyOp5
 70
     1
102
RTVSPropertyOp6
 70
     1
102
RTVSPropertyOp7
 70
     1
102
RTVSPropertyOp8
 70
     1
102
RTVSPropertyOp9
 70
     1
102
RTVSPropertyOp10
 70
     1
102
RTVSPropertyOp11
 70
     1
102
RTVSPropertyOp12
 70
     1
102
RTVSPropertyOp13
 70
     1
102
RTVSPropertyOp14
 70
     1
102
RTVSPropertyOp15
 70
     1
102
RTVSPropertyOp16
 70
     1
102
RTVSPropertyOp17
 70
     1
102
RTVSPropertyOp18
 70
     1
102
RTVSPropertyOp19
 70
     1
102
RTVSPropertyOp20
 70
     1
102
RTVSPropertyOp21
 70
     1
102
RTVSPropertyOp22
 70
     1
102
RTVSPropertyOp23
 70
     1
102
RTVSPropertyOp24
 70
     1
102
RTVSPropertyOp25
 70
     1
102
RTVSPropertyOp26
 70
     1
102
RTVSPropertyOp27
 70
     1
  0
XRECORD
  5
4D80
102
{ACAD_REACTORS
330
4D7F
102
}
330
4D7F
100
AcDbXrecord
280
     1
102
RTVSPropertyOp0
 70
     1
102
RTVSPropertyOp1
 70
     1
102
RTVSPropertyOp2
 70
     1
102
RTVSPropertyOp3
 70
     1
102
RTVSPropertyOp4
 70
     1
102
RTVSPropertyOp5
 70
     1
102
RTVSPropertyOp6
 70
     1
102
RTVSPropertyOp7
 70
     1
102
RTVSPropertyOp8
 70
     1
102
RTVSPropertyOp9
 70
     1
102
RTVSPropertyOp10
 70
     1
102
RTVSPropertyOp11
 70
     1
102
RTVSPropertyOp12
 70
     1
102
RTVSPropertyOp13
 70
     1
102
RTVSPropertyOp14
 70
     1
102
RTVSPropertyOp15
 70
     1
102
RTVSPropertyOp16
 70
     1
102
RTVSPropertyOp17
 70
     1
102
RTVSPropertyOp18
 70
     1
102
RTVSPropertyOp19
 70
     1
102
RTVSPropertyOp20
 70
     1
102
RTVSPropertyOp21
 70
     1
102
RTVSPropertyOp22
 70
     1
102
RTVSPropertyOp23
 70
     1
102
RTVSPropertyOp24
 70
     1
102
RTVSPropertyOp25
 70
     1
102
RTVSPropertyOp26
 70
     1
102
RTVSPropertyOp27
 70
     1
  0
XRECORD
  5
4D8E
102
{ACAD_REACTORS
330
4D8D
102
}
330
4D8D
100
AcDbXrecord
280
     1
102
RTVSPropertyOp0
 70
     1
102
RTVSPropertyOp1
 70
     1
102
RTVSPropertyOp2
 70
     1
102
RTVSPropertyOp3
 70
     1
102
RTVSPropertyOp4
 70
     1
102
RTVSPropertyOp5
 70
     1
102
RTVSPropertyOp6
 70
     1
102
RTVSPropertyOp7
 70
     1
102
RTVSPropertyOp8
 70
     1
102
RTVSPropertyOp9
 70
     1
102
RTVSPropertyOp10
 70
     1
102
RTVSPropertyOp11
 70
     1
102
RTVSPropertyOp12
 70
     1
102
RTVSPropertyOp13
 70
     1
102
RTVSPropertyOp14
 70
     1
102
RTVSPropertyOp15
 70
     1
102
RTVSPropertyOp16
 70
     1
102
RTVSPropertyOp17
 70
     1
102
RTVSPropertyOp18
 70
     1
102
RTVSPropertyOp19
 70
     1
102
RTVSPropertyOp20
 70
     1
102
RTVSPropertyOp21
 70
     1
102
RTVSPropertyOp22
 70
     1
102
RTVSPropertyOp23
 70
     1
102
RTVSPropertyOp24
 70
     1
102
RTVSPropertyOp25
 70
     1
102
RTVSPropertyOp26
 70
     1
102
RTVSPropertyOp27
 70
     1
  0
XRECORD
  5
4D96
102
{ACAD_REACTORS
330
4D95
102
}
330
4D95
100
AcDbXrecord
280
     1
102
RTVSPropertyOp0
 70
     1
102
RTVSPropertyOp1
 70
     1
102
RTVSPropertyOp2
 70
     1
102
RTVSPropertyOp3
 70
     1
102
RTVSPropertyOp4
 70
     1
102
RTVSPropertyOp5
 70
     1
102
RTVSPropertyOp6
 70
     1
102
RTVSPropertyOp7
 70
     1
102
RTVSPropertyOp8
 70
     1
102
RTVSPropertyOp9
 70
     1
102
RTVSPropertyOp10
 70
     1
102
RTVSPropertyOp11
 70
     1
102
RTVSPropertyOp12
 70
     1
102
RTVSPropertyOp13
 70
     1
102
RTVSPropertyOp14
 70
     1
102
RTVSPropertyOp15
 70
     1
102
RTVSPropertyOp16
 70
     1
102
RTVSPropertyOp17
 70
     1
102
RTVSPropertyOp18
 70
     1
102
RTVSPropertyOp19
 70
     1
102
RTVSPropertyOp20
 70
     1
102
RTVSPropertyOp21
 70
     1
102
RTVSPropertyOp22
 70
     1
102
RTVSPropertyOp23
 70
     1
102
RTVSPropertyOp24
 70
     1
102
RTVSPropertyOp25
 70
     1
102
RTVSPropertyOp26
 70
     1
102
RTVSPropertyOp27
 70
     1
  0
XRECORD
  5
4D88
102
{ACAD_REACTORS
330
4D87
102
}
330
4D87
100
AcDbXrecord
280
     1
102
RTVSPropertyOp0
 70
     1
102
RTVSPropertyOp1
 70
     1
102
RTVSPropertyOp2
 70
     1
102
RTVSPropertyOp3
 70
     1
102
RTVSPropertyOp4
 70
     1
102
RTVSPropertyOp5
 70
     1
102
RTVSPropertyOp6
 70
     1
102
RTVSPropertyOp7
 70
     1
102
RTVSPropertyOp8
 70
     1
102
RTVSPropertyOp9
 70
     1
102
RTVSPropertyOp10
 70
     1
102
RTVSPropertyOp11
 70
     1
102
RTVSPropertyOp12
 70
     1
102
RTVSPropertyOp13
 70
     1
102
RTVSPropertyOp14
 70
     1
102
RTVSPropertyOp15
 70
     1
102
RTVSPropertyOp16
 70
     1
102
RTVSPropertyOp17
 70
     1
102
RTVSPropertyOp18
 70
     1
102
RTVSPropertyOp19
 70
     1
102
RTVSPropertyOp20
 70
     1
102
RTVSPropertyOp21
 70
     1
102
RTVSPropertyOp22
 70
     1
102
RTVSPropertyOp23
 70
     1
102
RTVSPropertyOp24
 70
     1
102
RTVSPropertyOp25
 70
     1
102
RTVSPropertyOp26
 70
     1
102
RTVSPropertyOp27
 70
     1
  0
XRECORD
  5
4D8C
102
{ACAD_REACTORS
330
4D8B
102
}
330
4D8B
100
AcDbXrecord
280
     1
102
RTVSPropertyOp0
 70
     1
102
RTVSPropertyOp1
 70
     1
102
RTVSPropertyOp2
 70
     1
102
RTVSPropertyOp3
 70
     1
102
RTVSPropertyOp4
 70
     1
102
RTVSPropertyOp5
 70
     1
102
RTVSPropertyOp6
 70
     1
102
RTVSPropertyOp7
 70
     1
102
RTVSPropertyOp8
 70
     1
102
RTVSPropertyOp9
 70
     1
102
RTVSPropertyOp10
 70
     1
102
RTVSPropertyOp11
 70
     1
102
RTVSPropertyOp12
 70
     1
102
RTVSPropertyOp13
 70
     1
102
RTVSPropertyOp14
 70
     1
102
RTVSPropertyOp15
 70
     1
102
RTVSPropertyOp16
 70
     1
102
RTVSPropertyOp17
 70
     1
102
RTVSPropertyOp18
 70
     1
102
RTVSPropertyOp19
 70
     1
102
RTVSPropertyOp20
 70
     1
102
RTVSPropertyOp21
 70
     1
102
RTVSPropertyOp22
 70
     1
102
RTVSPropertyOp23
 70
     1
102
RTVSPropertyOp24
 70
     1
102
RTVSPropertyOp25
 70
     1
102
RTVSPropertyOp26
 70
     1
102
RTVSPropertyOp27
 70
     1
  0
XRECORD
  5
4DA6
102
{ACAD_REACTORS
330
4DA5
102
}
330
4DA5
100
AcDbXrecord
280
     1
102
RTVSPropertyOp0
 70
     0
102
RTVSPropertyOp1
 70
     0
102
RTVSPropertyOp2
 70
     0
102
RTVSPropertyOp3
 70
     0
102
RTVSPropertyOp4
 70
     0
102
RTVSPropertyOp5
 70
     0
102
RTVSPropertyOp6
 70
     0
102
RTVSPropertyOp7
 70
     0
102
RTVSPropertyOp8
 70
     0
102
RTVSPropertyOp9
 70
     0
102
RTVSPropertyOp10
 70
     0
102
RTVSPropertyOp11
 70
     0
102
RTVSPropertyOp12
 70
     0
102
RTVSPropertyOp13
 70
     0
102
RTVSPropertyOp14
 70
     2
102
RTVSPropertyOp15
 70
     0
102
RTVSPropertyOp16
 70
     0
102
RTVSPropertyOp17
 70
     0
102
RTVSPropertyOp18
 70
     0
102
RTVSPropertyOp19
 70
     0
102
RTVSPropertyOp20
 70
     0
102
RTVSPropertyOp21
 70
     0
102
RTVSPropertyOp22
 70
     0
102
RTVSPropertyOp23
 70
     0
102
RTVSPropertyOp24
 70
     0
102
RTVSPropertyOp25
 70
     0
102
RTVSPropertyOp26
 70
     0
102
RTVSPropertyOp27
 70
     0
  0
XRECORD
  5
4D94
102
{ACAD_REACTORS
330
4D93
102
}
330
4D93
100
AcDbXrecord
280
     1
102
RTVSPropertyOp0
 70
     1
102
RTVSPropertyOp1
 70
     1
102
RTVSPropertyOp2
 70
     1
102
RTVSPropertyOp3
 70
     1
102
RTVSPropertyOp4
 70
     1
102
RTVSPropertyOp5
 70
     1
102
RTVSPropertyOp6
 70
     1
102
RTVSPropertyOp7
 70
     1
102
RTVSPropertyOp8
 70
     1
102
RTVSPropertyOp9
 70
     1
102
RTVSPropertyOp10
 70
     1
102
RTVSPropertyOp11
 70
     1
102
RTVSPropertyOp12
 70
     1
102
RTVSPropertyOp13
 70
     1
102
RTVSPropertyOp14
 70
     1
102
RTVSPropertyOp15
 70
     1
102
RTVSPropertyOp16
 70
     1
102
RTVSPropertyOp17
 70
     1
102
RTVSPropertyOp18
 70
     1
102
RTVSPropertyOp19
 70
     1
102
RTVSPropertyOp20
 70
     1
102
RTVSPropertyOp21
 70
     1
102
RTVSPropertyOp22
 70
     1
102
RTVSPropertyOp23
 70
     1
102
RTVSPropertyOp24
 70
     1
102
RTVSPropertyOp25
 70
     1
102
RTVSPropertyOp26
 70
     1
102
RTVSPropertyOp27
 70
     1
  0
XRECORD
  5
4D78
102
{ACAD_REACTORS
330
4D77
102
}
330
4D77
100
AcDbXrecord
280
     1
102
RTVSPropertyOp0
 70
     1
102
RTVSPropertyOp1
 70
     1
102
RTVSPropertyOp2
 70
     1
102
RTVSPropertyOp3
 70
     1
102
RTVSPropertyOp4
 70
     1
102
RTVSPropertyOp5
 70
     1
102
RTVSPropertyOp6
 70
     1
102
RTVSPropertyOp7
 70
     1
102
RTVSPropertyOp8
 70
     1
102
RTVSPropertyOp9
 70
     1
102
RTVSPropertyOp10
 70
     1
102
RTVSPropertyOp11
 70
     1
102
RTVSPropertyOp12
 70
     1
102
RTVSPropertyOp13
 70
     1
102
RTVSPropertyOp14
 70
     1
102
RTVSPropertyOp15
 70
     1
102
RTVSPropertyOp16
 70
     1
102
RTVSPropertyOp17
 70
     1
102
RTVSPropertyOp18
 70
     1
102
RTVSPropertyOp19
 70
     1
102
RTVSPropertyOp20
 70
     1
102
RTVSPropertyOp21
 70
     1
102
RTVSPropertyOp22
 70
     1
102
RTVSPropertyOp23
 70
     1
102
RTVSPropertyOp24
 70
     1
102
RTVSPropertyOp25
 70
     1
102
RTVSPropertyOp26
 70
     1
102
RTVSPropertyOp27
 70
     1
  0
XRECORD
  5
4D7A
102
{ACAD_REACTORS
330
4D79
102
}
330
4D79
100
AcDbXrecord
280
     1
102
RTVSPropertyOp0
 70
     1
102
RTVSPropertyOp1
 70
     1
102
RTVSPropertyOp2
 70
     1
102
RTVSPropertyOp3
 70
     1
102
RTVSPropertyOp4
 70
     1
102
RTVSPropertyOp5
 70
     1
102
RTVSPropertyOp6
 70
     1
102
RTVSPropertyOp7
 70
     1
102
RTVSPropertyOp8
 70
     1
102
RTVSPropertyOp9
 70
     1
102
RTVSPropertyOp10
 70
     1
102
RTVSPropertyOp11
 70
     1
102
RTVSPropertyOp12
 70
     1
102
RTVSPropertyOp13
 70
     1
102
RTVSPropertyOp14
 70
     1
102
RTVSPropertyOp15
 70
     1
102
RTVSPropertyOp16
 70
     1
102
RTVSPropertyOp17
 70
     1
102
RTVSPropertyOp18
 70
     1
102
RTVSPropertyOp19
 70
     1
102
RTVSPropertyOp20
 70
     1
102
RTVSPropertyOp21
 70
     1
102
RTVSPropertyOp22
 70
     1
102
RTVSPropertyOp23
 70
     1
102
RTVSPropertyOp24
 70
     1
102
RTVSPropertyOp25
 70
     1
102
RTVSPropertyOp26
 70
     1
102
RTVSPropertyOp27
 70
     1
  0
XRECORD
  5
4D7C
102
{ACAD_REACTORS
330
4D7B
102
}
330
4D7B
100
AcDbXrecord
280
     1
102
RTVSPropertyOp0
 70
     1
102
RTVSPropertyOp1
 70
     1
102
RTVSPropertyOp2
 70
     1
102
RTVSPropertyOp3
 70
     1
102
RTVSPropertyOp4
 70
     1
102
RTVSPropertyOp5
 70
     1
102
RTVSPropertyOp6
 70
     1
102
RTVSPropertyOp7
 70
     1
102
RTVSPropertyOp8
 70
     1
102
RTVSPropertyOp9
 70
     1
102
RTVSPropertyOp10
 70
     1
102
RTVSPropertyOp11
 70
     1
102
RTVSPropertyOp12
 70
     1
102
RTVSPropertyOp13
 70
     1
102
RTVSPropertyOp14
 70
     1
102
RTVSPropertyOp15
 70
     1
102
RTVSPropertyOp16
 70
     1
102
RTVSPropertyOp17
 70
     1
102
RTVSPropertyOp18
 70
     1
102
RTVSPropertyOp19
 70
     1
102
RTVSPropertyOp20
 70
     1
102
RTVSPropertyOp21
 70
     1
102
RTVSPropertyOp22
 70
     1
102
RTVSPropertyOp23
 70
     1
102
RTVSPropertyOp24
 70
     1
102
RTVSPropertyOp25
 70
     1
102
RTVSPropertyOp26
 70
     1
102
RTVSPropertyOp27
 70
     1
  0
XRECORD
  5
4D7E
102
{ACAD_REACTORS
330
4D7D
102
}
330
4D7D
100
AcDbXrecord
280
     1
102
RTVSPropertyOp0
 70
     1
102
RTVSPropertyOp1
 70
     1
102
RTVSPropertyOp2
 70
     1
102
RTVSPropertyOp3
 70
     1
102
RTVSPropertyOp4
 70
     1
102
RTVSPropertyOp5
 70
     1
102
RTVSPropertyOp6
 70
     1
102
RTVSPropertyOp7
 70
     1
102
RTVSPropertyOp8
 70
     1
102
RTVSPropertyOp9
 70
     1
102
RTVSPropertyOp10
 70
     1
102
RTVSPropertyOp11
 70
     1
102
RTVSPropertyOp12
 70
     1
102
RTVSPropertyOp13
 70
     1
102
RTVSPropertyOp14
 70
     1
102
RTVSPropertyOp15
 70
     1
102
RTVSPropertyOp16
 70
     1
102
RTVSPropertyOp17
 70
     1
102
RTVSPropertyOp18
 70
     1
102
RTVSPropertyOp19
 70
     1
102
RTVSPropertyOp20
 70
     1
102
RTVSPropertyOp21
 70
     1
102
RTVSPropertyOp22
 70
     1
102
RTVSPropertyOp23
 70
     1
102
RTVSPropertyOp24
 70
     1
102
RTVSPropertyOp25
 70
     1
102
RTVSPropertyOp26
 70
     1
102
RTVSPropertyOp27
 70
     1
  0
XRECORD
  5
4D86
102
{ACAD_REACTORS
330
4D85
102
}
330
4D85
100
AcDbXrecord
280
     1
102
RTVSPropertyOp0
 70
     1
102
RTVSPropertyOp1
 70
     1
102
RTVSPropertyOp2
 70
     1
102
RTVSPropertyOp3
 70
     1
102
RTVSPropertyOp4
 70
     1
102
RTVSPropertyOp5
 70
     1
102
RTVSPropertyOp6
 70
     1
102
RTVSPropertyOp7
 70
     1
102
RTVSPropertyOp8
 70
     1
102
RTVSPropertyOp9
 70
     1
102
RTVSPropertyOp10
 70
     1
102
RTVSPropertyOp11
 70
     1
102
RTVSPropertyOp12
 70
     1
102
RTVSPropertyOp13
 70
     1
102
RTVSPropertyOp14
 70
     1
102
RTVSPropertyOp15
 70
     1
102
RTVSPropertyOp16
 70
     1
102
RTVSPropertyOp17
 70
     1
102
RTVSPropertyOp18
 70
     1
102
RTVSPropertyOp19
 70
     1
102
RTVSPropertyOp20
 70
     1
102
RTVSPropertyOp21
 70
     1
102
RTVSPropertyOp22
 70
     1
102
RTVSPropertyOp23
 70
     1
102
RTVSPropertyOp24
 70
     1
102
RTVSPropertyOp25
 70
     1
102
RTVSPropertyOp26
 70
     1
102
RTVSPropertyOp27
 70
     1
  0
XRECORD
  5
4DA2
102
{ACAD_REACTORS
330
4DA1
102
}
330
4DA1
100
AcDbXrecord
280
     1
102
RTVSPropertyOp0
 70
     0
102
RTVSPropertyOp1
 70
     0
102
RTVSPropertyOp2
 70
     0
102
RTVSPropertyOp3
 70
     0
102
RTVSPropertyOp4
 70
     0
102
RTVSPropertyOp5
 70
     0
102
RTVSPropertyOp6
 70
     0
102
RTVSPropertyOp7
 70
     0
102
RTVSPropertyOp8
 70
     0
102
RTVSPropertyOp9
 70
     0
102
RTVSPropertyOp10
 70
     0
102
RTVSPropertyOp11
 70
     0
102
RTVSPropertyOp12
 70
     0
102
RTVSPropertyOp13
 70
     0
102
RTVSPropertyOp14
 70
     2
102
RTVSPropertyOp15
 70
     0
102
RTVSPropertyOp16
 70
     0
102
RTVSPropertyOp17
 70
     0
102
RTVSPropertyOp18
 70
     0
102
RTVSPropertyOp19
 70
     0
102
RTVSPropertyOp20
 70
     0
102
RTVSPropertyOp21
 70
     0
102
RTVSPropertyOp22
 70
     0
102
RTVSPropertyOp23
 70
     0
102
RTVSPropertyOp24
 70
     0
102
RTVSPropertyOp25
 70
     0
102
RTVSPropertyOp26
 70
     0
102
RTVSPropertyOp27
 70
     0
  0
XRECORD
  5
4D92
102
{ACAD_REACTORS
330
4D91
102
}
330
4D91
100
AcDbXrecord
280
     1
102
RTVSPropertyOp0
 70
     1
102
RTVSPropertyOp1
 70
     1
102
RTVSPropertyOp2
 70
     1
102
RTVSPropertyOp3
 70
     1
102
RTVSPropertyOp4
 70
     1
102
RTVSPropertyOp5
 70
     1
102
RTVSPropertyOp6
 70
     1
102
RTVSPropertyOp7
 70
     1
102
RTVSPropertyOp8
 70
     1
102
RTVSPropertyOp9
 70
     1
102
RTVSPropertyOp10
 70
     1
102
RTVSPropertyOp11
 70
     1
102
RTVSPropertyOp12
 70
     1
102
RTVSPropertyOp13
 70
     1
102
RTVSPropertyOp14
 70
     1
102
RTVSPropertyOp15
 70
     1
102
RTVSPropertyOp16
 70
     1
102
RTVSPropertyOp17
 70
     1
102
RTVSPropertyOp18
 70
     1
102
RTVSPropertyOp19
 70
     1
102
RTVSPropertyOp20
 70
     1
102
RTVSPropertyOp21
 70
     1
102
RTVSPropertyOp22
 70
     1
102
RTVSPropertyOp23
 70
     1
102
RTVSPropertyOp24
 70
     1
102
RTVSPropertyOp25
 70
     1
102
RTVSPropertyOp26
 70
     1
102
RTVSPropertyOp27
 70
     1
  0
XRECORD
  5
4DA4
102
{ACAD_REACTORS
330
4DA3
102
}
330
4DA3
100
AcDbXrecord
280
     1
102
RTVSPropertyOp0
 70
     0
102
RTVSPropertyOp1
 70
     0
102
RTVSPropertyOp2
 70
     0
102
RTVSPropertyOp3
 70
     0
102
RTVSPropertyOp4
 70
     0
102
RTVSPropertyOp5
 70
     0
102
RTVSPropertyOp6
 70
     0
102
RTVSPropertyOp7
 70
     0
102
RTVSPropertyOp8
 70
     0
102
RTVSPropertyOp9
 70
     0
102
RTVSPropertyOp10
 70
     0
102
RTVSPropertyOp11
 70
     0
102
RTVSPropertyOp12
 70
     0
102
RTVSPropertyOp13
 70
     0
102
RTVSPropertyOp14
 70
     2
102
RTVSPropertyOp15
 70
     0
102
RTVSPropertyOp16
 70
     0
102
RTVSPropertyOp17
 70
     0
102
RTVSPropertyOp18
 70
     0
102
RTVSPropertyOp19
 70
     0
102
RTVSPropertyOp20
 70
     0
102
RTVSPropertyOp21
 70
     0
102
RTVSPropertyOp22
 70
     0
102
RTVSPropertyOp23
 70
     0
102
RTVSPropertyOp24
 70
     0
102
RTVSPropertyOp25
 70
     0
102
RTVSPropertyOp26
 70
     0
102
RTVSPropertyOp27
 70
     0
  0
XRECORD
  5
4D8A
102
{ACAD_REACTORS
330
4D89
102
}
330
4D89
100
AcDbXrecord
280
     1
102
RTVSPropertyOp0
 70
     1
102
RTVSPropertyOp1
 70
     1
102
RTVSPropertyOp2
 70
     1
102
RTVSPropertyOp3
 70
     1
102
RTVSPropertyOp4
 70
     1
102
RTVSPropertyOp5
 70
     1
102
RTVSPropertyOp6
 70
     1
102
RTVSPropertyOp7
 70
     1
102
RTVSPropertyOp8
 70
     1
102
RTVSPropertyOp9
 70
     1
102
RTVSPropertyOp10
 70
     1
102
RTVSPropertyOp11
 70
     1
102
RTVSPropertyOp12
 70
     1
102
RTVSPropertyOp13
 70
     1
102
RTVSPropertyOp14
 70
     1
102
RTVSPropertyOp15
 70
     1
102
RTVSPropertyOp16
 70
     1
102
RTVSPropertyOp17
 70
     1
102
RTVSPropertyOp18
 70
     1
102
RTVSPropertyOp19
 70
     1
102
RTVSPropertyOp20
 70
     1
102
RTVSPropertyOp21
 70
     1
102
RTVSPropertyOp22
 70
     1
102
RTVSPropertyOp23
 70
     1
102
RTVSPropertyOp24
 70
     1
102
RTVSPropertyOp25
 70
     1
102
RTVSPropertyOp26
 70
     1
102
RTVSPropertyOp27
 70
     1
  0
XRECORD
  5
4DA0
102
{ACAD_REACTORS
330
4D9F
102
}
330
4D9F
100
AcDbXrecord
280
     1
102
RTVSPropertyOp0
 70
     1
102
RTVSPropertyOp1
 70
     1
102
RTVSPropertyOp2
 70
     1
102
RTVSPropertyOp3
 70
     1
102
RTVSPropertyOp4
 70
     1
102
RTVSPropertyOp5
 70
     1
102
RTVSPropertyOp6
 70
     1
102
RTVSPropertyOp7
 70
     1
102
RTVSPropertyOp8
 70
     1
102
RTVSPropertyOp9
 70
     1
102
RTVSPropertyOp10
 70
     1
102
RTVSPropertyOp11
 70
     1
102
RTVSPropertyOp12
 70
     1
102
RTVSPropertyOp13
 70
     1
102
RTVSPropertyOp14
 70
     1
102
RTVSPropertyOp15
 70
     1
102
RTVSPropertyOp16
 70
     1
102
RTVSPropertyOp17
 70
     1
102
RTVSPropertyOp18
 70
     1
102
RTVSPropertyOp19
 70
     1
102
RTVSPropertyOp20
 70
     1
102
RTVSPropertyOp21
 70
     1
102
RTVSPropertyOp22
 70
     1
102
RTVSPropertyOp23
 70
     1
102
RTVSPropertyOp24
 70
     1
102
RTVSPropertyOp25
 70
     1
102
RTVSPropertyOp26
 70
     1
102
RTVSPropertyOp27
 70
     1
  0
XRECORD
  5
4D9E
102
{ACAD_REACTORS
330
4D9D
102
}
330
4D9D
100
AcDbXrecord
280
     1
102
RTVSPropertyOp0
 70
     1
102
RTVSPropertyOp1
 70
     1
102
RTVSPropertyOp2
 70
     1
102
RTVSPropertyOp3
 70
     1
102
RTVSPropertyOp4
 70
     1
102
RTVSPropertyOp5
 70
     1
102
RTVSPropertyOp6
 70
     1
102
RTVSPropertyOp7
 70
     1
102
RTVSPropertyOp8
 70
     1
102
RTVSPropertyOp9
 70
     1
102
RTVSPropertyOp10
 70
     1
102
RTVSPropertyOp11
 70
     1
102
RTVSPropertyOp12
 70
     1
102
RTVSPropertyOp13
 70
     1
102
RTVSPropertyOp14
 70
     1
102
RTVSPropertyOp15
 70
     1
102
RTVSPropertyOp16
 70
     1
102
RTVSPropertyOp17
 70
     1
102
RTVSPropertyOp18
 70
     1
102
RTVSPropertyOp19
 70
     1
102
RTVSPropertyOp20
 70
     1
102
RTVSPropertyOp21
 70
     1
102
RTVSPropertyOp22
 70
     1
102
RTVSPropertyOp23
 70
     1
102
RTVSPropertyOp24
 70
     1
102
RTVSPropertyOp25
 70
     1
102
RTVSPropertyOp26
 70
     1
102
RTVSPropertyOp27
 70
     1
  0
XRECORD
  5
4D98
102
{ACAD_REACTORS
330
4D97
102
}
330
4D97
100
AcDbXrecord
280
     1
102
RTVSPropertyOp0
 70
     1
102
RTVSPropertyOp1
 70
     1
102
RTVSPropertyOp2
 70
     1
102
RTVSPropertyOp3
 70
     1
102
RTVSPropertyOp4
 70
     1
102
RTVSPropertyOp5
 70
     1
102
RTVSPropertyOp6
 70
     1
102
RTVSPropertyOp7
 70
     1
102
RTVSPropertyOp8
 70
     1
102
RTVSPropertyOp9
 70
     1
102
RTVSPropertyOp10
 70
     1
102
RTVSPropertyOp11
 70
     1
102
RTVSPropertyOp12
 70
     1
102
RTVSPropertyOp13
 70
     1
102
RTVSPropertyOp14
 70
     1
102
RTVSPropertyOp15
 70
     1
102
RTVSPropertyOp16
 70
     1
102
RTVSPropertyOp17
 70
     1
102
RTVSPropertyOp18
 70
     1
102
RTVSPropertyOp19
 70
     1
102
RTVSPropertyOp20
 70
     1
102
RTVSPropertyOp21
 70
     1
102
RTVSPropertyOp22
 70
     1
102
RTVSPropertyOp23
 70
     1
102
RTVSPropertyOp24
 70
     1
102
RTVSPropertyOp25
 70
     1
102
RTVSPropertyOp26
 70
     1
102
RTVSPropertyOp27
 70
     1
  0
XRECORD
  5
4D9A
102
{ACAD_REACTORS
330
4D99
102
}
330
4D99
100
AcDbXrecord
280
     1
102
RTVSPropertyOp0
 70
     1
102
RTVSPropertyOp1
 70
     1
102
RTVSPropertyOp2
 70
     1
102
RTVSPropertyOp3
 70
     1
102
RTVSPropertyOp4
 70
     1
102
RTVSPropertyOp5
 70
     1
102
RTVSPropertyOp6
 70
     1
102
RTVSPropertyOp7
 70
     1
102
RTVSPropertyOp8
 70
     1
102
RTVSPropertyOp9
 70
     1
102
RTVSPropertyOp10
 70
     1
102
RTVSPropertyOp11
 70
     1
102
RTVSPropertyOp12
 70
     1
102
RTVSPropertyOp13
 70
     1
102
RTVSPropertyOp14
 70
     1
102
RTVSPropertyOp15
 70
     1
102
RTVSPropertyOp16
 70
     1
102
RTVSPropertyOp17
 70
     1
102
RTVSPropertyOp18
 70
     1
102
RTVSPropertyOp19
 70
     1
102
RTVSPropertyOp20
 70
     1
102
RTVSPropertyOp21
 70
     1
102
RTVSPropertyOp22
 70
     1
102
RTVSPropertyOp23
 70
     1
102
RTVSPropertyOp24
 70
     1
102
RTVSPropertyOp25
 70
     1
102
RTVSPropertyOp26
 70
     1
102
RTVSPropertyOp27
 70
     1
  0
XRECORD
  5
4D90
102
{ACAD_REACTORS
330
4D8F
102
}
330
4D8F
100
AcDbXrecord
280
     1
102
RTVSPropertyOp0
 70
     1
102
RTVSPropertyOp1
 70
     1
102
RTVSPropertyOp2
 70
     1
102
RTVSPropertyOp3
 70
     1
102
RTVSPropertyOp4
 70
     1
102
RTVSPropertyOp5
 70
     1
102
RTVSPropertyOp6
 70
     1
102
RTVSPropertyOp7
 70
     1
102
RTVSPropertyOp8
 70
     1
102
RTVSPropertyOp9
 70
     1
102
RTVSPropertyOp10
 70
     1
102
RTVSPropertyOp11
 70
     1
102
RTVSPropertyOp12
 70
     1
102
RTVSPropertyOp13
 70
     1
102
RTVSPropertyOp14
 70
     1
102
RTVSPropertyOp15
 70
     1
102
RTVSPropertyOp16
 70
     1
102
RTVSPropertyOp17
 70
     1
102
RTVSPropertyOp18
 70
     1
102
RTVSPropertyOp19
 70
     1
102
RTVSPropertyOp20
 70
     1
102
RTVSPropertyOp21
 70
     1
102
RTVSPropertyOp22
 70
     1
102
RTVSPropertyOp23
 70
     1
102
RTVSPropertyOp24
 70
     1
102
RTVSPropertyOp25
 70
     1
102
RTVSPropertyOp26
 70
     1
102
RTVSPropertyOp27
 70
     1
  0
XRECORD
  5
4D84
102
{ACAD_REACTORS
330
4D83
102
}
330
4D83
100
AcDbXrecord
280
     1
102
RTVSPropertyOp0
 70
     1
102
RTVSPropertyOp1
 70
     1
102
RTVSPropertyOp2
 70
     1
102
RTVSPropertyOp3
 70
     1
102
RTVSPropertyOp4
 70
     1
102
RTVSPropertyOp5
 70
     1
102
RTVSPropertyOp6
 70
     1
102
RTVSPropertyOp7
 70
     1
102
RTVSPropertyOp8
 70
     1
102
RTVSPropertyOp9
 70
     1
102
RTVSPropertyOp10
 70
     1
102
RTVSPropertyOp11
 70
     1
102
RTVSPropertyOp12
 70
     1
102
RTVSPropertyOp13
 70
     1
102
RTVSPropertyOp14
 70
     1
102
RTVSPropertyOp15
 70
     1
102
RTVSPropertyOp16
 70
     1
102
RTVSPropertyOp17
 70
     1
102
RTVSPropertyOp18
 70
     1
102
RTVSPropertyOp19
 70
     1
102
RTVSPropertyOp20
 70
     1
102
RTVSPropertyOp21
 70
     1
102
RTVSPropertyOp22
 70
     1
102
RTVSPropertyOp23
 70
     1
102
RTVSPropertyOp24
 70
     1
102
RTVSPropertyOp25
 70
     1
102
RTVSPropertyOp26
 70
     1
102
RTVSPropertyOp27
 70
     1
  0
XRECORD
  5
4D9C
102
{ACAD_REACTORS
330
4D9B
102
}
330
4D9B
100
AcDbXrecord
280
     1
102
RTVSPropertyOp0
 70
     1
102
RTVSPropertyOp1
 70
     1
102
RTVSPropertyOp2
 70
     1
102
RTVSPropertyOp3
 70
     1
102
RTVSPropertyOp4
 70
     1
102
RTVSPropertyOp5
 70
     1
102
RTVSPropertyOp6
 70
     1
102
RTVSPropertyOp7
 70
     1
102
RTVSPropertyOp8
 70
     1
102
RTVSPropertyOp9
 70
     1
102
RTVSPropertyOp10
 70
     1
102
RTVSPropertyOp11
 70
     1
102
RTVSPropertyOp12
 70
     1
102
RTVSPropertyOp13
 70
     1
102
RTVSPropertyOp14
 70
     1
102
RTVSPropertyOp15
 70
     1
102
RTVSPropertyOp16
 70
     1
102
RTVSPropertyOp17
 70
     1
102
RTVSPropertyOp18
 70
     1
102
RTVSPropertyOp19
 70
     1
102
RTVSPropertyOp20
 70
     1
102
RTVSPropertyOp21
 70
     1
102
RTVSPropertyOp22
 70
     1
102
RTVSPropertyOp23
 70
     1
102
RTVSPropertyOp24
 70
     1
102
RTVSPropertyOp25
 70
     1
102
RTVSPropertyOp26
 70
     1
102
RTVSPropertyOp27
 70
     1
  0
ENDSEC
  0
EOF
