  0
SECTION
  2
HEADER
  9
$ACADVER
  1
AC1027
  9
$ACADMAINTVER
 70
   125
  9
$DWGCODEPAGE
  3
ANSI_1250
  9
$LASTSAVEDBY
  1
jozvolanek
  9
$REQUIREDVERSIONS
160
                 0
  9
$INSBASE
 10
0.0
 20
0.0
 30
0.0
  9
$EXTMIN
 10
7.578448531265527
 20
64.50000381469727
 30
0.0
  9
$EXTMAX
 10
2781.936356257812
 20
5434.027059406588
 30
0.0
  9
$LIMMIN
 10
0.0
 20
0.0
  9
$LIMMAX
 10
420.0
 20
297.0000076293946
  9
$ORTHOMODE
 70
     0
  9
$REGENMODE
 70
     1
  9
$FILLMODE
 70
     1
  9
$QTEXTMODE
 70
     0
  9
$MIRRTEXT
 70
     0
  9
$LTSCALE
 40
1.0
  9
$ATTMODE
 70
     1
  9
$TEXTSIZE
 40
2.5
  9
$TRACEWID
 40
1.0
  9
$TEXTSTYLE
  7
STANDARD
  9
$CLAYER
  8
AM_0
  9
$CELTYPE
  6
ByLayer
  9
$CECOLOR
 62
   256
  9
$CELTSCALE
 40
1.0
  9
$DISPSILH
 70
     0
  9
$DIMSCALE
 40
1.0
  9
$DIMASZ
 40
3.5
  9
$DIMEXO
 40
0.0
  9
$DIMDLI
 40
10.0
  9
$DIMRND
 40
0.0
  9
$DIMDLE
 40
0.0
  9
$DIMEXE
 40
1.0
  9
$DIMTP
 40
0.1
  9
$DIMTM
 40
0.1
  9
$DIMTXT
 40
3.5
  9
$DIMCEN
 40
0.0
  9
$DIMTSZ
 40
0.0
  9
$DIMTOL
 70
     0
  9
$DIMLIM
 70
     0
  9
$DIMTIH
 70
     0
  9
$DIMTOH
 70
     0
  9
$DIMSE1
 70
     0
  9
$DIMSE2
 70
     0
  9
$DIMTAD
 70
     1
  9
$DIMZIN
 70
     8
  9
$DIMBLK
  1

  9
$DIMASO
 70
     1
  9
$DIMSHO
 70
     1
  9
$DIMPOST
  1

  9
$DIMAPOST
  1
"
  9
$DIMALT
 70
     0
  9
$DIMALTD
 70
     2
  9
$DIMALTF
 40
0.0393701
  9
$DIMLFAC
 40
1.0
  9
$DIMTOFL
 70
     1
  9
$DIMTVP
 40
0.0
  9
$DIMTIX
 70
     0
  9
$DIMSOXD
 70
     0
  9
$DIMSAH
 70
     0
  9
$DIMBLK1
  1

  9
$DIMBLK2
  1

  9
$DIMSTYLE
  2
ACO
  9
$DIMCLRD
 70
   256
  9
$DIMCLRE
 70
   256
  9
$DIMCLRT
 70
     3
  9
$DIMTFAC
 40
0.71
  9
$DIMGAP
 40
1.5
  9
$DIMJUST
 70
     0
  9
$DIMSD1
 70
     0
  9
$DIMSD2
 70
     0
  9
$DIMTOLJ
 70
     0
  9
$DIMTZIN
 70
     8
  9
$DIMALTZ
 70
     0
  9
$DIMALTTZ
 70
     0
  9
$DIMUPT
 70
     0
  9
$DIMDEC
 70
     2
  9
$DIMTDEC
 70
     2
  9
$DIMALTU
 70
     2
  9
$DIMALTTD
 70
     2
  9
$DIMTXSTY
  7
STANDARD
  9
$DIMAUNIT
 70
     0
  9
$DIMADEC
 70
     0
  9
$DIMALTRND
 40
0.0
  9
$DIMAZIN
 70
     2
  9
$DIMDSEP
 70
    46
  9
$DIMATFIT
 70
     3
  9
$DIMFRAC
 70
     0
  9
$DIMLDRBLK
  1

  9
$DIMLUNIT
 70
     2
  9
$DIMLWD
 70
    -1
  9
$DIMLWE
 70
    -1
  9
$DIMTMOVE
 70
     0
  9
$DIMFXL
 40
1.0
  9
$DIMFXLON
 70
     0
  9
$DIMJOGANG
 40
0.7853981633974483
  9
$DIMTFILL
 70
     0
  9
$DIMTFILLCLR
 70
     0
  9
$DIMARCSYM
 70
     1
  9
$DIMLTYPE
  6
ByLayer
  9
$DIMLTEX1
  6
ByLayer
  9
$DIMLTEX2
  6
ByLayer
  9
$DIMTXTDIRECTION
 70
     0
  9
$LUNITS
 70
     2
  9
$LUPREC
 70
     2
  9
$SKETCHINC
 40
1.0
  9
$FILLETRAD
 40
5.0
  9
$AUNITS
 70
     0
  9
$AUPREC
 70
     0
  9
$MENU
  1
.
  9
$ELEVATION
 40
0.0
  9
$PELEVATION
 40
0.0
  9
$THICKNESS
 40
0.0
  9
$LIMCHECK
 70
     0
  9
$CHAMFERA
 40
2.5
  9
$CHAMFERB
 40
2.5
  9
$CHAMFERC
 40
20.0
  9
$CHAMFERD
 40
0.0
  9
$SKPOLY
 70
     0
  9
$TDCREATE
 40
2458275.518275463
  9
$TDUCREATE
 40
2458275.434942130
  9
$TDUPDATE
 40
2458276.269016204
  9
$TDUUPDATE
 40
2458276.185682870
  9
$TDINDWG
 40
0.0098495370
  9
$TDUSRTIMER
 40
0.0098495370
  9
$USRTIMER
 70
     1
  9
$ANGBASE
 50
0.0
  9
$ANGDIR
 70
     0
  9
$PDMODE
 70
     0
  9
$PDSIZE
 40
0.0
  9
$PLINEWID
 40
0.0
  9
$SPLFRAME
 70
     0
  9
$SPLINETYPE
 70
     6
  9
$SPLINESEGS
 70
     8
  9
$HANDSEED
  5
A41
  9
$SURFTAB1
 70
     6
  9
$SURFTAB2
 70
     6
  9
$SURFTYPE
 70
     6
  9
$SURFU
 70
     6
  9
$SURFV
 70
     6
  9
$UCSBASE
  2

  9
$UCSNAME
  2

  9
$UCSORG
 10
0.0
 20
0.0
 30
0.0
  9
$UCSXDIR
 10
1.0
 20
0.0
 30
0.0
  9
$UCSYDIR
 10
0.0
 20
1.0
 30
0.0
  9
$UCSORTHOREF
  2

  9
$UCSORTHOVIEW
 70
     0
  9
$UCSORGTOP
 10
0.0
 20
0.0
 30
0.0
  9
$UCSORGBOTTOM
 10
0.0
 20
0.0
 30
0.0
  9
$UCSORGLEFT
 10
0.0
 20
0.0
 30
0.0
  9
$UCSORGRIGHT
 10
0.0
 20
0.0
 30
0.0
  9
$UCSORGFRONT
 10
0.0
 20
0.0
 30
0.0
  9
$UCSORGBACK
 10
0.0
 20
0.0
 30
0.0
  9
$PUCSBASE
  2

  9
$PUCSNAME
  2

  9
$PUCSORG
 10
0.0
 20
0.0
 30
0.0
  9
$PUCSXDIR
 10
1.0
 20
0.0
 30
0.0
  9
$PUCSYDIR
 10
0.0
 20
1.0
 30
0.0
  9
$PUCSORTHOREF
  2

  9
$PUCSORTHOVIEW
 70
     0
  9
$PUCSORGTOP
 10
0.0
 20
0.0
 30
0.0
  9
$PUCSORGBOTTOM
 10
0.0
 20
0.0
 30
0.0
  9
$PUCSORGLEFT
 10
0.0
 20
0.0
 30
0.0
  9
$PUCSORGRIGHT
 10
0.0
 20
0.0
 30
0.0
  9
$PUCSORGFRONT
 10
0.0
 20
0.0
 30
0.0
  9
$PUCSORGBACK
 10
0.0
 20
0.0
 30
0.0
  9
$USERI1
 70
     0
  9
$USERI2
 70
     0
  9
$USERI3
 70
     0
  9
$USERI4
 70
     0
  9
$USERI5
 70
     0
  9
$USERR1
 40
0.0
  9
$USERR2
 40
0.0
  9
$USERR3
 40
0.0
  9
$USERR4
 40
0.0
  9
$USERR5
 40
0.0
  9
$WORLDVIEW
 70
     1
  9
$SHADEDGE
 70
     3
  9
$SHADEDIF
 70
    70
  9
$TILEMODE
 70
     1
  9
$MAXACTVP
 70
    64
  9
$PINSBASE
 10
0.0
 20
0.0
 30
0.0
  9
$PLIMCHECK
 70
     0
  9
$PEXTMIN
 10
0.0
 20
0.0
 30
0.0
  9
$PEXTMAX
 10
0.0
 20
0.0
 30
0.0
  9
$PLIMMIN
 10
0.0
 20
0.0
  9
$PLIMMAX
 10
12.0
 20
9.0
  9
$UNITMODE
 70
     0
  9
$VISRETAIN
 70
     1
  9
$PLINEGEN
 70
     0
  9
$PSLTSCALE
 70
     1
  9
$TREEDEPTH
 70
  3020
  9
$CMLSTYLE
  2
Standard
  9
$CMLJUST
 70
     0
  9
$CMLSCALE
 40
20.0
  9
$PROXYGRAPHICS
 70
     1
  9
$MEASUREMENT
 70
     1
  9
$CELWEIGHT
370
    -1
  9
$ENDCAPS
280
     0
  9
$JOINSTYLE
280
     0
  9
$LWDISPLAY
290
     0
  9
$INSUNITS
 70
     4
  9
$HYPERLINKBASE
  1

  9
$STYLESHEET
  1

  9
$XEDIT
290
     1
  9
$CEPSNTYPE
380
     0
  9
$PSTYLEMODE
290
     1
  9
$FINGERPRINTGUID
  2
{2C620441-5476-3A47-A7C7-62322C337741}
  9
$VERSIONGUID
  2
{DA9E76FD-DC63-8D47-A744-86564C85E9BF}
  9
$EXTNAMES
290
     1
  9
$PSVPSCALE
 40
0.0
  9
$OLESTARTUP
290
     0
  9
$SORTENTS
280
   127
  9
$INDEXCTL
280
     0
  9
$HIDETEXT
280
     0
  9
$XCLIPFRAME
280
     0
  9
$HALOGAP
280
     0
  9
$OBSCOLOR
 70
   257
  9
$OBSLTYPE
280
     0
  9
$INTERSECTIONDISPLAY
280
     0
  9
$INTERSECTIONCOLOR
 70
   257
  9
$DIMASSOC
280
     2
  9
$PROJECTNAME
  1

  9
$CAMERADISPLAY
290
     0
  9
$LENSLENGTH
 40
50.0
  9
$CAMERAHEIGHT
 40
0.0
  9
$STEPSPERSEC
 40
2.0
  9
$STEPSIZE
 40
6.0
  9
$3DDWFPREC
 40
2.0
  9
$PSOLWIDTH
 40
0.25
  9
$PSOLHEIGHT
 40
4.0
  9
$LOFTANG1
 40
1.570796326794896
  9
$LOFTANG2
 40
1.570796326794896
  9
$LOFTMAG1
 40
0.0
  9
$LOFTMAG2
 40
0.0
  9
$LOFTPARAM
 70
     7
  9
$LOFTNORMALS
280
     1
  9
$LATITUDE
 40
37.795
  9
$LONGITUDE
 40
-122.394
  9
$NORTHDIRECTION
 40
0.0
  9
$TIMEZONE
 70
 -8000
  9
$LIGHTGLYPHDISPLAY
280
     1
  9
$TILEMODELIGHTSYNCH
280
     1
  9
$CMATERIAL
347
EC
  9
$SOLIDHIST
280
     0
  9
$SHOWHIST
280
     1
  9
$DWFFRAME
280
     2
  9
$DGNFRAME
280
     0
  9
$REALWORLDSCALE
290
     1
  9
$INTERFERECOLOR
 62
     1
  9
$INTERFEREOBJVS
345
F9
  9
$INTERFEREVPVS
346
F6
  9
$CSHADOW
280
     0
  9
$SHADOWPLANELOCATION
 40
0.0
  0
ENDSEC
  0
SECTION
  2
CLASSES
  0
CLASS
  1
ACDBDICTIONARYWDFLT
  2
AcDbDictionaryWithDefault
  3
ObjectDBX Classes
 90
        0
 91
        1
280
     0
281
     0
  0
CLASS
  1
DICTIONARYVAR
  2
AcDbDictionaryVar
  3
ObjectDBX Classes
 90
        0
 91
       11
280
     0
281
     0
  0
CLASS
  1
TABLESTYLE
  2
AcDbTableStyle
  3
ObjectDBX Classes
 90
     4095
 91
        1
280
     0
281
     0
  0
CLASS
  1
MATERIAL
  2
AcDbMaterial
  3
ObjectDBX Classes
 90
     1153
 91
        3
280
     0
281
     0
  0
CLASS
  1
VISUALSTYLE
  2
AcDbVisualStyle
  3
ObjectDBX Classes
 90
     4095
 91
       24
280
     0
281
     0
  0
CLASS
  1
SCALE
  2
AcDbScale
  3
ObjectDBX Classes
 90
     1153
 91
       17
280
     0
281
     0
  0
CLASS
  1
MLEADERSTYLE
  2
AcDbMLeaderStyle
  3
ACDB_MLEADERSTYLE_CLASS
 90
     4095
 91
        2
280
     0
281
     0
  0
CLASS
  1
CELLSTYLEMAP
  2
AcDbCellStyleMap
  3
ObjectDBX Classes
 90
     1152
 91
        2
280
     0
281
     0
  0
CLASS
  1
EXACXREFPANELOBJECT
  2
ExAcXREFPanelObject
  3
EXAC_ESW
 90
     1025
 91
        1
280
     0
281
     0
  0
CLASS
  1
NPOCOLLECTION
  2
AcDbImpNonPersistentObjectsCollection
  3
ObjectDBX Classes
 90
     1153
 91
        1
280
     0
281
     0
  0
CLASS
  1
LAYER_INDEX
  2
AcDbLayerIndex
  3
ObjectDBX Classes
 90
        0
 91
        0
280
     0
281
     0
  0
CLASS
  1
SPATIAL_INDEX
  2
AcDbSpatialIndex
  3
ObjectDBX Classes
 90
        0
 91
        0
280
     0
281
     0
  0
CLASS
  1
IDBUFFER
  2
AcDbIdBuffer
  3
ObjectDBX Classes
 90
        0
 91
        0
280
     0
281
     0
  0
CLASS
  1
ACDBSECTIONVIEWSTYLE
  2
AcDbSectionViewStyle
  3
ObjectDBX Classes
 90
     1025
 91
        3
280
     0
281
     0
  0
CLASS
  1
ACDBDETAILVIEWSTYLE
  2
AcDbDetailViewStyle
  3
ObjectDBX Classes
 90
     1025
 91
        3
280
     0
281
     0
  0
CLASS
  1
ACME_DOCUMENT
  2
AcMeDbDoc
  3
AcMeServices
 90
     1024
 91
        1
280
     0
281
     0
  0
CLASS
  1
AMGSETTINGSOBJ
  2
AmgSettingsObj
  3
"AcadM|Product Description: AutoCAD Mechanical|Company: Autodesk, Inc."
 90
     1024
 91
        2
280
     0
281
     0
  0
CLASS
  1
ACMESCOPE
  2
AcMeScope
  3
AcMeServices
 90
     1024
 91
        1
280
     0
281
     0
  0
CLASS
  1
ACMECOMMANDHISTORY
  2
AcMeCommandHistory
  3
AcMeServices
 90
     1024
 91
        1
280
     0
281
     0
  0
CLASS
  1
ACIMSYSVARMAN
  2
AcImSysVarManager
  3
AcMeServices
 90
     1024
 91
        3
280
     0
281
     0
  0
CLASS
  1
ACIMINTSYSVAR
  2
AcImIntSysVar
  3
AcMeServices
 90
     1024
 91
        2
280
     0
281
     0
  0
CLASS
  1
ACMESTATEMGR
  2
AcMeStateMgr
  3
AcMeServices
 90
     1024
 91
        1
280
     0
281
     0
  0
CLASS
  1
ACDBENTITYCACHE
  2
AcMeEntityCache
  3
AcMeServices
 90
     1024
 91
        1
280
     0
281
     0
  0
CLASS
  1
ACGREFMASTER
  2
AcGrefMaster
  3
AcAttribServices
 90
     1024
 91
        1
280
     0
281
     0
  0
CLASS
  1
ACME_DATABASE
  2
AcMeDbDatabase
  3
AcMeServices
 90
     1024
 91
        1
280
     0
281
     0
  0
CLASS
  1
ACRFINSADJUSTERMGR
  2
AcRfInsAdjusterMgr
  3
AcMeServices
 90
     1024
 91
        1
280
     0
281
     0
  0
CLASS
  1
ACGREFACADMASTER
  2
AcGrefacadMaster
  3
AcGrefServices
 90
     1024
 91
        1
280
     0
281
     0
  0
CLASS
  1
AMDTMENUSTATEMGR
  2
AmdtMenuStateMgr
  3
McadcomServices
 90
     1024
 91
        1
280
     0
281
     0
  0
CLASS
  1
AMDTMCOMMENUSTATE
  2
AmdtMcomMenuState
  3
McadcomServices
 90
     1024
 91
        1
280
     0
281
     0
  0
CLASS
  1
AMIMASTER
  2
AmiMaster
  3
AmiServices
 90
     1024
 91
        1
280
     0
281
     0
  0
CLASS
  1
MAPIAMMOUDLE
  2
MApiAmModule
  3
MApiAmServices
 90
     1024
 91
        1
280
     0
281
     0
  0
CLASS
  1
ACIMSTRSYSVAR
  2
AcImStrSysVar
  3
AcMeServices
 90
     1024
 91
        5
280
     0
281
     0
  0
CLASS
  1
AMDTAMMENUSTATE
  2
AmdtAmMenuState
  3
DesignerAssemblies
 90
     1024
 91
        1
280
     0
281
     0
  0
CLASS
  1
ACAMPROJECT
  2
AcAmProject
  3
DesignerAssemblies
 90
     1024
 91
        1
280
     0
281
     0
  0
CLASS
  1
ACAMGRCOMPDEF
  2
AcAmGrCompDef
  3
DesignerAssemblies
 90
     1024
 91
        1
280
     0
281
     0
  0
CLASS
  1
ACAMCOMPDEF
  2
AcAmCompDef
  3
DesignerAssemblies
 90
     1024
 91
        1
280
     0
281
     0
  0
CLASS
  1
ACAMCOMPDEFMGR
  2
AcAmCompDefMgr
  3
DesignerAssemblies
 90
     1024
 91
        1
280
     0
281
     0
  0
CLASS
  1
AMCONTEXTMGR
  2
AcAmContextMgr
  3
DesignerAssemblies
 90
     1024
 91
        1
280
     0
281
     0
  0
CLASS
  1
ACAMCONTEXTMODELER
  2
AcAmContextModeler
  3
DesignerAssemblies
 90
     1024
 91
        1
280
     0
281
     0
  0
CLASS
  1
ACMDATADICTIONARY
  2
AcmDataDictionary
  3
"AcmSymBB|Product Description: AutoCAD Mechanical|Company: Autodesk, Inc."
 90
     1024
 91
        1
280
     0
281
     0
  0
CLASS
  1
ACAMGRCOMPDEFSET
  2
AcAmGrCompDefSet
  3
DesignerAssemblies
 90
     1024
 91
        1
280
     0
281
     0
  0
CLASS
  1
AMDTBROWSERDBTAB
  2
AmdtBrowserDbTab
  3
McadcomServices
 90
     1024
 91
        1
280
     0
281
     0
  0
CLASS
  1
CBROWSERAPPOBJECT
  2
CBrowserAppObject
  3
McadcomServices
 90
     1024
 91
        2
280
     0
281
     0
  0
CLASS
  1
DM_PLACEHOLDER
  2
AcDmSelsetPlaceholder
  3
McadcomServices
 90
     1024
 91
        1
280
     0
281
     0
  0
CLASS
  1
ACMSTANDARDISO
  2
AcmStandardISO
  3
"Amdt_StdImp|Product Description: AutoCAD Mechanical|Company: Autodesk, Inc."
 90
     1024
 91
        1
280
     0
281
     0
  0
CLASS
  1
AMDTEDGESTANDARDISO13715
  2
AmdtEdgeStdISO13715
  3
"Amdt_StdImp|Product Description: AutoCAD Mechanical|Company: Autodesk, Inc."
 90
     1024
 91
        1
280
     0
281
     0
  0
CLASS
  1
ACMSURFSTANDARDISO2002
  2
AcmSurfTextStdISO2002
  3
"Amdt_StdImp|Product Description: AutoCAD Mechanical|Company: Autodesk, Inc."
 90
     1024
 91
        1
280
     0
281
     0
  0
CLASS
  1
ACMFCFSTANDARDISO2004
  2
AcmFCFStdISO2004
  3
"Amdt_StdImp|Product Description: AutoCAD Mechanical|Company: Autodesk, Inc."
 90
     1024
 91
        0
280
     0
281
     0
  0
CLASS
  1
ACMWELDSTANDARDISO
  2
AcmWeldingStdISO
  3
"Amdt_StdImp|Product Description: AutoCAD Mechanical|Company: Autodesk, Inc."
 90
     1024
 91
        1
280
     0
281
     0
  0
CLASS
  1
ACMIDSTANDARDISO2004
  2
AcmIdStdISO2004
  3
"Amdt_StdImp|Product Description: AutoCAD Mechanical|Company: Autodesk, Inc."
 90
     1024
 91
        0
280
     0
281
     0
  0
CLASS
  1
ACMDATUMSTANDARDISO
  2
AcmDatumStdISO
  3
"Amdt_StdImp|Product Description: AutoCAD Mechanical|Company: Autodesk, Inc."
 90
     1024
 91
        0
280
     0
281
     0
  0
CLASS
  1
ACMBOMSTANDARDISO
  2
AcmBOMStdISO
  3
"Amdt_StdImp|Product Description: AutoCAD Mechanical|Company: Autodesk, Inc."
 90
     1024
 91
        1
280
     0
281
     0
  0
CLASS
  1
ACMDETAILSTANDARDISO
  2
AmdtDetailSymStdISO
  3
"Amdt_StdImp|Product Description: AutoCAD Mechanical|Company: Autodesk, Inc."
 90
     1024
 91
        1
280
     0
281
     0
  0
CLASS
  1
ACMSECTIONSTANDARDISO2001
  2
AmdtSectionSymStdISO2001
  3
"Amdt_StdImp|Product Description: AutoCAD Mechanical|Company: Autodesk, Inc."
 90
     1024
 91
        1
280
     0
281
     0
  0
CLASS
  1
ACMCENTERLINESTANDARDISO
  2
AmdtCenterLineStdISO
  3
"Amdt_StdImp|Product Description: AutoCAD Mechanical|Company: Autodesk, Inc."
 90
     1024
 91
        1
280
     0
281
     0
  0
CLASS
  1
ACMTHREADLINESTANDARDISO
  2
AmdtThreadLineStdISO
  3
"Amdt_StdImp|Product Description: AutoCAD Mechanical|Company: Autodesk, Inc."
 90
     1024
 91
        1
280
     0
281
     0
  0
CLASS
  1
ACMNOTESTANDARDISO
  2
AmdtNoteStdISO
  3
"Amdt_StdImp|Product Description: AutoCAD Mechanical|Company: Autodesk, Inc."
 90
     1024
 91
        1
280
     0
281
     0
  0
CLASS
  1
ACMTAPERSTANDARDISO
  2
AcmTaperStdISO
  3
"Amdt_StdImp|Product Description: AutoCAD Mechanical|Company: Autodesk, Inc."
 90
     1024
 91
        1
280
     0
281
     0
  0
CLASS
  1
ACMANOOTATIONVIEWSTANDARDISO
  2
AmdtAnViewStdISO
  3
"Amdt_StdImp|Product Description: AutoCAD Mechanical|Company: Autodesk, Inc."
 90
     1024
 91
        1
280
     0
281
     0
  0
CLASS
  1
ACAMGLAYSTD
  2
AcAmgLayStd
  3
"AmgLay|Product Description: AutoCAD Mechanical|Company: Autodesk, Inc."
 90
     1024
 91
        1
280
     0
281
     0
  0
CLASS
  1
ACAMGDIMSTD
  2
AcAmgDimStd
  3
"AmgDim|Product Description: AutoCAD Mechanical|Company: Autodesk, Inc."
 90
     1024
 91
        1
280
     0
281
     0
  0
CLASS
  1
AMGOBJPROPCFG
  2
AmgObjPropCfg
  3
"AmgLay|Product Description: AutoCAD Mechanical|Company: Autodesk, Inc."
 90
     1024
 91
        1
280
     0
281
     0
  0
CLASS
  1
ACAMGHOLECHARTSTDISO
  2
AcAmgHoleChartStdISO
  3
AmgDim|Product Description: AutoCAD Mechanical|Company: Autodesk, Inc.
 90
     1024
 91
        1
280
     0
281
     0
  0
CLASS
  1
ACAMGTITLESTD
  2
AcAmgTitleStd
  3
"AmgTitle|Product Description: AutoCAD Mechanical|Company: Autodesk, Inc."
 90
     1024
 91
        1
280
     0
281
     0
  0
CLASS
  1
ACMSECTIONSTANDARDCUSTOM
  2
AmdtSectionSymStdCustom
  3
"Amdt_StdImp|Product Description: AutoCAD Mechanical|Company: Autodesk, Inc."
 90
     1024
 91
        2
280
     0
281
     0
  0
CLASS
  1
ACMDETAILTANDARDCUSTOM
  2
AmdtDetailSymStdCustom
  3
"Amdt_StdImp|Product Description: AutoCAD Mechanical|Company: Autodesk, Inc."
 90
     1024
 91
        2
280
     0
281
     0
  0
CLASS
  1
FIELD
  2
AcDbField
  3
ObjectDBX Classes
 90
     1152
 91
        5
280
     0
281
     0
  0
CLASS
  1
FIELDLIST
  2
AcDbFieldList
  3
ObjectDBX Classes
 90
     1152
 91
        1
280
     0
281
     0
  0
CLASS
  1
AMDTNOTETEMPLATEDB
  2
AmdtNoteTemplateDB
  3
AcmSymBB|Product Description: AutoCAD Mechanical|Company: Autodesk, Inc.
 90
     1024
 91
        7
280
     0
281
     0
  0
CLASS
  1
AMDTEDGELIBRARY
  2
AmdtEdgeLibrary
  3
"AcmSymBB|Product Description: AutoCAD Mechanical|Company: Autodesk, Inc."
 90
     1024
 91
        0
280
     0
281
     0
  0
CLASS
  1
AMDTEDGELIBOBJECT
  2
AmdtEdgeLibObject
  3
"AcmSymBB|Product Description: AutoCAD Mechanical|Company: Autodesk, Inc."
 90
     1024
 91
        0
280
     0
281
     0
  0
CLASS
  1
AMDTFCFLIBRARY
  2
AmdtFCFLibrary
  3
"AcmSymBB|Product Description: AutoCAD Mechanical|Company: Autodesk, Inc."
 90
     1024
 91
        0
280
     0
281
     0
  0
CLASS
  1
AMDTFCFLIBOBJECT
  2
AmdtFCFLibObject
  3
"AcmSymBB|Product Description: AutoCAD Mechanical|Company: Autodesk, Inc."
 90
     1024
 91
        0
280
     0
281
     0
  0
CLASS
  1
AMDTSURFTEXTLIBRARY
  2
AmdtSurfTextLibrary
  3
"AcmSymBB|Product Description: AutoCAD Mechanical|Company: Autodesk, Inc."
 90
     1024
 91
        0
280
     0
281
     0
  0
CLASS
  1
AMDTSURFTEXTLIBOBJECT
  2
AmdtSurfTextLibObject
  3
"AcmSymBB|Product Description: AutoCAD Mechanical|Company: Autodesk, Inc."
 90
     1024
 91
        0
280
     0
281
     0
  0
CLASS
  1
AMDTWELDINGLIBRARY
  2
AmdtWeldingLibrary
  3
"AcmSymBB|Product Description: AutoCAD Mechanical|Company: Autodesk, Inc."
 90
     1024
 91
        0
280
     0
281
     0
  0
CLASS
  1
AMDTWELDINGLIBOBJECT
  2
AmdtWeldingLibObject
  3
"AcmSymBB|Product Description: AutoCAD Mechanical|Company: Autodesk, Inc."
 90
     1024
 91
        0
280
     0
281
     0
  0
CLASS
  1
ACDBVIEWREPSTANDARD
  2
AcDbViewRepStandard
  3
AcModelDocObj
 90
      129
 91
        1
280
     0
281
     0
  0
CLASS
  1
CAMSSTRUCTBTNSTATE
  2
StructBtnState
  3
DesignerAssemblies
 90
     1024
 91
        0
280
     0
281
     0
  0
CLASS
  1
ACAMGFILTERDAT
  2
AcAmgFilterDat
  3
"AcadM|Product Description: AutoCAD Mechanical|Company: Autodesk, Inc."
 90
     1024
 91
        0
280
     0
281
     0
  0
CLASS
  1
PLOTSETTINGS
  2
AcDbPlotSettings
  3
ObjectDBX Classes
 90
        0
 91
        5
280
     0
281
     0
  0
CLASS
  1
SORTENTSTABLE
  2
AcDbSortentsTable
  3
ObjectDBX Classes
 90
        0
 91
        2
280
     0
281
     0
  0
CLASS
  1
DIMASSOC
  2
AcDbDimAssoc
  3
"AcDbDimAssoc|Product Desc:     AcDim ARX App For Dimension|Company:          Autodesk, Inc.|WEB Address:      www.autodesk.com"
 90
        0
 91
        4
280
     0
281
     0
  0
CLASS
  1
ACDBLINERES
  2
AcDbLineRes
  3
AcGrefServices
 90
     1024
 91
        0
280
     0
281
     0
  0
CLASS
  1
AMDTNOTE
  2
AmdtNote
  3
"AcmSymBB|Product Description: AutoCAD Mechanical|Company: Autodesk, Inc."
 90
     1024
 91
        0
280
     0
281
     1
  0
CLASS
  1
AMDTFORMULAUPDATEDISPATCHER
  2
AmdtFormulaUpdateDispatcher
  3
AcMeServices
 90
     1024
 91
        0
280
     0
281
     0
  0
CLASS
  1
AMDTINTERNALREACTOR
  2
AmdtInternalReactor
  3
AcMeServices
 90
     1024
 91
        0
280
     0
281
     0
  0
CLASS
  1
ACMFCFSTANDARDISO2012
  2
AcmFCFStdISO2012
  3
"Amdt_StdImp|Product Description: AutoCAD Mechanical|Company: Autodesk, Inc."
 90
     1024
 91
        1
280
     0
281
     0
  0
CLASS
  1
ACMIDSTANDARDISO2012
  2
AcmIdStdISO2012
  3
"Amdt_StdImp|Product Description: AutoCAD Mechanical|Company: Autodesk, Inc."
 90
     1024
 91
        1
280
     0
281
     0
  0
CLASS
  1
ACMDATUMSTANDARDISO2012
  2
AcmDatumStdISO2012
  3
"Amdt_StdImp|Product Description: AutoCAD Mechanical|Company: Autodesk, Inc."
 90
     1024
 91
        1
280
     0
281
     0
  0
ENDSEC
  0
SECTION
  2
TABLES
  0
TABLE
  2
VPORT
  5
8
330
0
100
AcDbSymbolTable
 70
     1
1001
ACAD
1000
DbSaveVer
1071
        8
  0
VPORT
  5
EA
330
8
100
AcDbSymbolTableRecord
100
AcDbViewportTableRecord
  2
*Active
 70
     0
 10
0.0
 20
0.0
 11
1.0
 21
1.0
 12
202.3170607269058
 22
143.8783216358834
 13
0.0
 23
0.0
 14
2.5
 24
2.5
 15
10.0
 25
10.0
 16
0.0
 26
0.0
 36
1.0
 17
0.0
 27
0.0
 37
0.0
 40
298.7866169441933
 41
1.854636591478696
 42
50.0
 43
0.0
 44
0.0
 50
0.0
 51
0.0
 71
     0
 72
  1000
 73
     1
 74
     3
 75
     0
 76
     0
 77
     0
 78
     0
281
     0
 65
     0
110
0.0
120
0.0
130
0.0
111
1.0
121
0.0
131
0.0
112
0.0
122
1.0
132
0.0
 79
     0
146
0.0
348
F5
 60
     3
 61
     5
292
     1
282
     0
141
0.0
142
0.0
 63
   250
421
  3355443
1001
ACAD_NAV_VCDISPLAY
1070
     3
  0
ENDTAB
  0
TABLE
  2
LTYPE
  5
5
330
0
100
AcDbSymbolTable
 70
    15
  0
LTYPE
  5
14
330
5
100
AcDbSymbolTableRecord
100
AcDbLinetypeTableRecord
  2
ByBlock
 70
     0
  3

 72
    65
 73
     0
 40
0.0
  0
LTYPE
  5
15
330
5
100
AcDbSymbolTableRecord
100
AcDbLinetypeTableRecord
  2
ByLayer
 70
     0
  3

 72
    65
 73
     0
 40
0.0
  0
LTYPE
  5
16
330
5
100
AcDbSymbolTableRecord
100
AcDbLinetypeTableRecord
  2
Continuous
 70
     0
  3
Solid line
 72
    65
 73
     0
 40
0.0
  0
LTYPE
  5
24A
330
5
100
AcDbSymbolTableRecord
100
AcDbLinetypeTableRecord
  2
HIDDEN
 70
     0
  3
Hidden __ __ __ __ __ __ __ __ __ __ __ __ __ _
 72
    65
 73
     2
 40
9.524999999999996
 49
6.349999999999997
 74
     0
 49
-3.174999999999998
 74
     0
  0
LTYPE
  5
24B
330
5
100
AcDbSymbolTableRecord
100
AcDbLinetypeTableRecord
  2
PHANTOM2
 70
     0
  3
Phantom (.5x) ___ _ _ ___ _ _ ___ _ _ ___ _ _
 72
    65
 73
     6
 40
31.75
 49
15.875
 74
     0
 49
-3.174999999999998
 74
     0
 49
3.174999999999998
 74
     0
 49
-3.174999999999998
 74
     0
 49
3.174999999999998
 74
     0
 49
-3.174999999999998
 74
     0
  0
LTYPE
  5
24C
330
5
100
AcDbSymbolTableRecord
100
AcDbLinetypeTableRecord
  2
CENTER
 70
     0
  3
Center ____ _ ____ _ ____ _ ____ _ ____ _ ____
 72
    65
 73
     4
 40
50.8
 49
31.75
 74
     0
 49
-6.349999999999997
 74
     0
 49
6.349999999999997
 74
     0
 49
-6.349999999999997
 74
     0
  0
LTYPE
  5
286
330
5
100
AcDbSymbolTableRecord
100
AcDbLinetypeTableRecord
  2
AM_ISO02W050
 70
     0
  3
__ __ __ __ __ __ __ __ __ __ __ __ __ __ __
 72
    65
 73
     2
 40
7.5
 49
6.0
 74
     0
 49
-1.5
 74
     0
  0
LTYPE
  5
287
330
5
100
AcDbSymbolTableRecord
100
AcDbLinetypeTableRecord
  2
AM_ISO08W050
 70
     0
  3
____ . ____ . ____ . ____ . ____ . ____ . ____
 72
    65
 73
     4
 40
18.0
 49
12.0
 74
     0
 49
-1.5
 74
     0
 49
3.0
 74
     0
 49
-1.5
 74
     0
  0
LTYPE
  5
288
330
5
100
AcDbSymbolTableRecord
100
AcDbLinetypeTableRecord
  2
AM_ISO09W050
 70
     0
  3
_____ . . _____ . . _____ . . ____ .. ____
 72
    65
 73
     6
 40
22.5
 49
12.0
 74
     0
 49
-1.5
 74
     0
 49
3.0
 74
     0
 49
-1.5
 74
     0
 49
3.0
 74
     0
 49
-1.5
 74
     0
  0
LTYPE
  5
289
330
5
100
AcDbSymbolTableRecord
100
AcDbLinetypeTableRecord
  2
Amconstr
 70
     0
  3
_______________________
 72
    65
 73
     2
 40
9999.0
 49
9999.0
 74
     0
 49
0.0
 74
     0
  0
LTYPE
  5
28A
330
5
100
AcDbSymbolTableRecord
100
AcDbLinetypeTableRecord
  2
AM_ISO08W050x2
 70
     0
  3
__ . __ . __ . __ . __ . __
 72
    65
 73
     4
 40
9.0
 49
6.0
 74
     0
 49
-0.75
 74
     0
 49
1.5
 74
     0
 49
-0.75
 74
     0
  0
LTYPE
  5
28B
330
5
100
AcDbSymbolTableRecord
100
AcDbLinetypeTableRecord
  2
AM_ISO02W050x2
 70
     0
  3
 _ _ _ _ _ _ _ _ _ _ _ _
 72
    65
 73
     2
 40
3.75
 49
3.0
 74
     0
 49
-0.75
 74
     0
  0
LTYPE
  5
28E
330
5
100
AcDbSymbolTableRecord
100
AcDbLinetypeTableRecord
  2
Amzigzag
 70
     0
  3
/\/-/\/-/\/-/\/-/\/-/\/
 72
    65
 73
     2
 40
11.0001
 49
0.0001
 74
     4
 75
   136
340
28D
 46
0.04
 50
0.0
 44
0.0
 45
0.0
 49
-11.0
 74
     0
  0
LTYPE
  5
29F
330
5
100
AcDbSymbolTableRecord
100
AcDbLinetypeTableRecord
  2
ACISOWELD
 70
     0
  3
_ _ _ _ _
 72
    65
 73
     2
 40
2.0
 49
2.0
 74
     0
 49
-1.0
 74
     0
  0
LTYPE
  5
2A0
330
5
100
AcDbSymbolTableRecord
100
AcDbLinetypeTableRecord
  2
ACISOTGL
 70
     0
  3
_ _ _ _ _
 72
    65
 73
     2
 40
3.0
 49
2.0
 74
     0
 49
-1.0
 74
     0
  0
LTYPE
  5
2A1
330
5
100
AcDbSymbolTableRecord
100
AcDbLinetypeTableRecord
  2
ACISOTGB
 70
     0
  3
__ . . __ . .
 72
    65
 73
     6
 40
9.0
 49
4.0
 74
     0
 49
-1.0
 74
     0
 49
1.0
 74
     0
 49
-1.0
 74
     0
 49
1.0
 74
     0
 49
-1.0
 74
     0
  0
LTYPE
  5
62A
330
5
100
AcDbSymbolTableRecord
100
AcDbLinetypeTableRecord
  2
DASHED_SPACE
 70
     0
  3
Dashed Space __ __ __ __ __ __ __ __ __ __ __ _
 72
    65
 73
     2
 40
0.2067
 49
0.1654
 74
     0
 49
-0.0413
 74
     0
  0
ENDTAB
  0
TABLE
  2
LAYER
  5
2
102
{ACAD_XDICTIONARY
360
1FF
102
}
330
0
100
AcDbSymbolTable
 70
     9
  0
LAYER
  5
10
102
{ACAD_XDICTIONARY
360
13C
102
}
330
2
100
AcDbSymbolTableRecord
100
AcDbLayerTableRecord
  2
0
 70
     0
 62
     7
  6
Continuous
370
    -3
390
F
347
EE
348
0
  0
LAYER
  5
2B1
102
{ACAD_XDICTIONARY
360
5E0
102
}
330
2
100
AcDbSymbolTableRecord
100
AcDbLayerTableRecord
  2
AM_0
 70
     0
 62
     7
  6
Continuous
370
    50
390
F
347
EE
348
0
1001
AcAecLayerStandard
1000

1000

  0
LAYER
  5
2FC
330
2
100
AcDbSymbolTableRecord
100
AcDbLayerTableRecord
  2
Defpoints
 70
     0
 62
     7
  6
Continuous
290
     0
370
    -3
390
F
347
EE
348
0
  0
LAYER
  5
4A7
102
{ACAD_XDICTIONARY
360
5E2
102
}
330
2
100
AcDbSymbolTableRecord
100
AcDbLayerTableRecord
  2
AM_BOR
 70
     0
 62
     3
  6
Continuous
370
    25
390
F
347
EE
348
0
  0
LAYER
  5
586
102
{ACAD_XDICTIONARY
360
5E4
102
}
330
2
100
AcDbSymbolTableRecord
100
AcDbLayerTableRecord
  2
AM_3
 70
     0
 62
     2
  6
AM_ISO02W050
370
    35
390
F
347
EE
348
0
1001
AcAecLayerStandard
1000

1000

  0
LAYER
  5
588
102
{ACAD_XDICTIONARY
360
5E6
102
}
330
2
100
AcDbSymbolTableRecord
100
AcDbLayerTableRecord
  2
AM_5
 70
     0
 62
     3
  6
Continuous
370
    25
390
F
347
EE
348
0
1001
AcAecLayerStandard
1000

1000

  0
LAYER
  5
5D3
102
{ACAD_XDICTIONARY
360
5E8
102
}
330
2
100
AcDbSymbolTableRecord
100
AcDbLayerTableRecord
  2
AM_7
 70
     0
 62
     1
  6
AM_ISO08W050
370
    25
390
F
347
EE
348
0
1001
AcAecLayerStandard
1000

1000

  0
LAYER
  5
62B
330
2
100
AcDbSymbolTableRecord
100
AcDbLayerTableRecord
  2
Hidden (ISO)
 70
     0
 62
   142
420
    32960
  6
DASHED_SPACE
370
     9
390
F
347
EE
348
0
  0
LAYER
  5
62C
330
2
100
AcDbSymbolTableRecord
100
AcDbLayerTableRecord
  2
Visible (ISO)
 70
     0
 62
     7
  6
Continuous
370
    35
390
F
347
EE
348
0
  0
ENDTAB
  0
TABLE
  2
STYLE
  5
3
330
0
100
AcDbSymbolTable
 70
    11
  0
STYLE
  5
11
330
3
100
AcDbSymbolTableRecord
100
AcDbTextStyleTableRecord
  2
STANDARD
 70
     0
 40
0.0
 41
0.75
 50
0.0
 71
     0
 42
2.5
  3
simplex.shx
  4

  0
STYLE
  5
132
330
3
100
AcDbSymbolTableRecord
100
AcDbTextStyleTableRecord
  2
Annotative
 70
     0
 40
0.0
 41
1.0
 50
0.0
 71
     0
 42
2.5
  3
arial.ttf
  4

1001
AcadAnnotative
1000
AnnotativeData
1002
{
1070
     1
1070
     1
1002
}
1001
ACAD
1000
Arial
1071
       34
  0
STYLE
  5
28D
330
3
100
AcDbSymbolTableRecord
100
AcDbTextStyleTableRecord
  2

 70
     1
 40
0.0
 41
1.0
 50
0.0
 71
     0
 42
2.5
  3
genltshp.shx
  4

  0
STYLE
  5
29D
330
3
100
AcDbSymbolTableRecord
100
AcDbTextStyleTableRecord
  2
ACISOTS
 70
     0
 40
0.0
 41
1.0
 50
0.0
 71
     0
 42
2.5
  3
isocp.shx
  4

  0
STYLE
  5
29E
330
3
100
AcDbSymbolTableRecord
100
AcDbTextStyleTableRecord
  2
ACISOGDT
 70
     0
 40
0.0
 41
1.0
 50
0.0
 71
     0
 42
2.5
  3
amgdt.shx
  4

  0
STYLE
  5
2B4
330
3
100
AcDbSymbolTableRecord
100
AcDbTextStyleTableRecord
  2
USER1
 70
     0
 40
0.0
 41
1.0
 50
0.0
 71
     0
 42
2.5
  3
TXT.SHX
  4

  0
STYLE
  5
2B5
330
3
100
AcDbSymbolTableRecord
100
AcDbTextStyleTableRecord
  2
USER2
 70
     0
 40
0.0
 41
1.0
 50
0.0
 71
     0
 42
2.5
  3
SIMPLEX.SHX
  4

  0
STYLE
  5
2B6
330
3
100
AcDbSymbolTableRecord
100
AcDbTextStyleTableRecord
  2
USER3
 70
     0
 40
0.0
 41
1.0
 50
0.0
 71
     0
 42
2.5
  3
ITALIC.SHX
  4

  0
STYLE
  5
3A0
330
3
100
AcDbSymbolTableRecord
100
AcDbTextStyleTableRecord
  2
Text popisu (DIN)
 70
     0
 40
0.0
 41
1.0
 50
0.0
 71
     0
 42
0.2
  3
isocpeur.ttf
  4

1001
ACAD
1000
ISOCPEUR
1071
      256
  0
STYLE
  5
3A1
330
3
100
AcDbSymbolTableRecord
100
AcDbTextStyleTableRecord
  2
Text poznámky (DIN)
 70
     0
 40
0.0
 41
1.0
 50
0.0
 71
     0
 42
0.2
  3
isocpeur.ttf
  4

1001
ACAD
1000
ISOCPEUR
1071
      256
  0
STYLE
  5
62D
330
3
100
AcDbSymbolTableRecord
100
AcDbTextStyleTableRecord
  2
Note Text (ISO)
 70
     0
 40
0.0
 41
1.0
 50
0.0
 71
     0
 42
0.2
  3
tahoma.ttf
  4

1001
ACAD
1000
Tahoma
1071
      256
  0
ENDTAB
  0
TABLE
  2
VIEW
  5
6
330
0
100
AcDbSymbolTable
 70
     6
  0
VIEW
  5
3C2
330
6
100
AcDbSymbolTableRecord
100
AcDbViewTableRecord
  2
AM_VIEW1
 70
     0
 40
148.5000038146973
 10
158.4868461765043
 20
222.7500057220459
 41
316.9736923530087
 11
0.0
 21
0.0
 31
1.0
 12
0.0
 22
0.0
 32
0.0
 42
50.0
 43
0.0
 44
0.0
 50
0.0
 71
     0
281
     0
 72
     0
 73
     0
  0
VIEW
  5
57A
330
6
100
AcDbSymbolTableRecord
100
AcDbViewTableRecord
  2
AM_VIEW2
 70
     0
 40
148.5000038146973
 10
261.5131538234956
 20
222.7500057220459
 41
316.9736923530087
 11
0.0
 21
0.0
 31
1.0
 12
0.0
 22
0.0
 32
0.0
 42
50.0
 43
0.0
 44
0.0
 50
0.0
 71
     0
281
     0
 72
     0
 73
     0
  0
VIEW
  5
57B
330
6
100
AcDbSymbolTableRecord
100
AcDbViewTableRecord
  2
AM_VIEW3
 70
     0
 40
148.5000038146973
 10
158.4868461765043
 20
74.25000190734862
 41
316.9736923530087
 11
0.0
 21
0.0
 31
1.0
 12
0.0
 22
0.0
 32
0.0
 42
50.0
 43
0.0
 44
0.0
 50
0.0
 71
     0
281
     0
 72
     0
 73
     0
  0
VIEW
  5
57C
330
6
100
AcDbSymbolTableRecord
100
AcDbViewTableRecord
  2
AM_VIEW4
 70
     0
 40
148.5000038146973
 10
261.5131538234956
 20
74.25000190734862
 41
316.9736923530087
 11
0.0
 21
0.0
 31
1.0
 12
0.0
 22
0.0
 32
0.0
 42
50.0
 43
0.0
 44
0.0
 50
0.0
 71
     0
281
     0
 72
     0
 73
     0
  0
VIEW
  5
57D
330
6
100
AcDbSymbolTableRecord
100
AcDbViewTableRecord
  2
AM_VIEW5
 70
     0
 40
148.5000038146973
 10
210.0
 20
148.5000038146973
 41
316.9736923530088
 11
0.0
 21
0.0
 31
1.0
 12
0.0
 22
0.0
 32
0.0
 42
50.0
 43
0.0
 44
0.0
 50
0.0
 71
     0
281
     0
 72
     0
 73
     0
  0
VIEW
  5
57E
330
6
100
AcDbSymbolTableRecord
100
AcDbViewTableRecord
  2
AM_VIEW6
 70
     0
 40
296.9970376293182
 10
210.0
 20
148.5000038146973
 41
633.9410452321702
 11
0.0
 21
0.0
 31
1.0
 12
0.0
 22
0.0
 32
0.0
 42
50.0
 43
0.0
 44
0.0
 50
0.0
 71
     0
281
     0
 72
     0
 73
     0
  0
ENDTAB
  0
TABLE
  2
UCS
  5
7
330
0
100
AcDbSymbolTable
 70
     0
  0
ENDTAB
  0
TABLE
  2
APPID
  5
9
330
0
100
AcDbSymbolTable
 70
    70
  0
APPID
  5
12
330
9
100
AcDbSymbolTableRecord
100
AcDbRegAppTableRecord
  2
ACAD
 70
     0
  0
APPID
  5
9E
330
9
100
AcDbSymbolTableRecord
100
AcDbRegAppTableRecord
  2
ACAD_PSEXT
 70
     0
  0
APPID
  5
133
330
9
100
AcDbSymbolTableRecord
100
AcDbRegAppTableRecord
  2
AcadAnnoPO
 70
     0
  0
APPID
  5
134
330
9
100
AcDbSymbolTableRecord
100
AcDbRegAppTableRecord
  2
AcadAnnotative
 70
     0
  0
APPID
  5
135
330
9
100
AcDbSymbolTableRecord
100
AcDbRegAppTableRecord
  2
ACAD_DSTYLE_DIMJAG
 70
     0
  0
APPID
  5
136
330
9
100
AcDbSymbolTableRecord
100
AcDbRegAppTableRecord
  2
ACAD_DSTYLE_DIMTALN
 70
     0
  0
APPID
  5
165
330
9
100
AcDbSymbolTableRecord
100
AcDbRegAppTableRecord
  2
ACAD_MLEADERVER
 70
     0
  0
APPID
  5
217
330
9
100
AcDbSymbolTableRecord
100
AcDbRegAppTableRecord
  2
ACAD_NAV_VCDISPLAY
 70
     0
  0
APPID
  5
243
330
9
100
AcDbSymbolTableRecord
100
AcDbRegAppTableRecord
  2
MCAD_NO_VIS
 70
     0
  0
APPID
  5
244
330
9
100
AcDbSymbolTableRecord
100
AcDbRegAppTableRecord
  2
ACAD_TEMP_GRAPHIC
 70
     0
  0
APPID
  5
251
330
9
100
AcDbSymbolTableRecord
100
AcDbRegAppTableRecord
  2
ACATTRIBSERVICES
 70
     0
  0
APPID
  5
269
330
9
100
AcDbSymbolTableRecord
100
AcDbRegAppTableRecord
  2
DESIGNERASSEMBLIES
 70
     0
  0
APPID
  5
284
330
9
100
AcDbSymbolTableRecord
100
AcDbRegAppTableRecord
  2
ACAD_DSTYLE_DIMBREAK
 70
     0
  0
APPID
  5
2B2
330
9
100
AcDbSymbolTableRecord
100
AcDbRegAppTableRecord
  2
AcAecLayerStandard
 70
     0
  0
APPID
  5
2B8
330
9
100
AcDbSymbolTableRecord
100
AcDbRegAppTableRecord
  2
AD_DRAW
 70
     0
  0
APPID
  5
2B9
330
9
100
AcDbSymbolTableRecord
100
AcDbRegAppTableRecord
  2
ACADM_DIM_EDIT
 70
     0
  0
APPID
  5
2BA
330
9
100
AcDbSymbolTableRecord
100
AcDbRegAppTableRecord
  2
AMDT_DM_ADJ
 70
     0
  0
APPID
  5
2BB
330
9
100
AcDbSymbolTableRecord
100
AcDbRegAppTableRecord
  2
ACAD_DSTYLE_DIMARC_LENGTH_SYMBOL
 70
     0
  0
APPID
  5
2BC
330
9
100
AcDbSymbolTableRecord
100
AcDbRegAppTableRecord
  2
ACAD_DSTYLE_DIMJOGGED_JOGANGLE_SYMBOL
 70
     0
  0
APPID
  5
2BD
330
9
100
AcDbSymbolTableRecord
100
AcDbRegAppTableRecord
  2
ACAD_EXEMPT_FROM_CAD_STANDARDS
 70
     0
  0
APPID
  5
2BE
330
9
100
AcDbSymbolTableRecord
100
AcDbRegAppTableRecord
  2
GENIUS_GENREC_14
 70
     0
  0
APPID
  5
2BF
330
9
100
AcDbSymbolTableRecord
100
AcDbRegAppTableRecord
  2
GENIUS_GENODEF_13
 70
     0
  0
APPID
  5
2C0
330
9
100
AcDbSymbolTableRecord
100
AcDbRegAppTableRecord
  2
GENIUS_GENOBJ-N-REC_13
 70
     0
  0
APPID
  5
2FD
330
9
100
AcDbSymbolTableRecord
100
AcDbRegAppTableRecord
  2
GENIUS_GENBLLY_14
 70
     0
  0
APPID
  5
2FE
330
9
100
AcDbSymbolTableRecord
100
AcDbRegAppTableRecord
  2
GENIUS_GENTRA_14
 70
     0
  0
APPID
  5
2FF
330
9
100
AcDbSymbolTableRecord
100
AcDbRegAppTableRecord
  2
GENIUS_GENOBJ-N-TIT_13
 70
     0
  0
APPID
  5
300
330
9
100
AcDbSymbolTableRecord
100
AcDbRegAppTableRecord
  2
GENIUS_GENOENT_13
 70
     0
  0
APPID
  5
301
330
9
100
AcDbSymbolTableRecord
100
AcDbRegAppTableRecord
  2
GENIUS_GENOLIS_13
 70
     0
  0
APPID
  5
302
330
9
100
AcDbSymbolTableRecord
100
AcDbRegAppTableRecord
  2
GENIUS_GENTITLE_13
 70
     0
  0
APPID
  5
303
330
9
100
AcDbSymbolTableRecord
100
AcDbRegAppTableRecord
  2
GENIUS_GENOREF_13
 70
     0
  0
APPID
  5
304
330
9
100
AcDbSymbolTableRecord
100
AcDbRegAppTableRecord
  2
GENIUS_GENSCREG_15
 70
     0
  0
APPID
  5
305
330
9
100
AcDbSymbolTableRecord
100
AcDbRegAppTableRecord
  2
GENIUS_GENOBJ-N-SDF_13
 70
     0
  0
APPID
  5
306
330
9
100
AcDbSymbolTableRecord
100
AcDbRegAppTableRecord
  2
GENIUS_GENOBJ-N-CRS_13
 70
     0
  0
APPID
  5
307
330
9
100
AcDbSymbolTableRecord
100
AcDbRegAppTableRecord
  2
GENIUS_GENCRS_20
 70
     0
  0
APPID
  5
308
330
9
100
AcDbSymbolTableRecord
100
AcDbRegAppTableRecord
  2
GENIUS_GENDTOL_13
 70
     0
  0
APPID
  5
309
330
9
100
AcDbSymbolTableRecord
100
AcDbRegAppTableRecord
  2
ACAD_DSTYLE_DIMINSPECT
 70
     0
  0
APPID
  5
30A
330
9
100
AcDbSymbolTableRecord
100
AcDbRegAppTableRecord
  2
ACAD_DSTYLE_DIMRADIAL_EXTENSION
 70
     0
  0
APPID
  5
30B
330
9
100
AcDbSymbolTableRecord
100
AcDbRegAppTableRecord
  2
AMG_2DHIDE
 70
     0
  0
APPID
  5
30C
330
9
100
AcDbSymbolTableRecord
100
AcDbRegAppTableRecord
  2
AMG_2DSTRUCT_BTR
 70
     0
  0
APPID
  5
30D
330
9
100
AcDbSymbolTableRecord
100
AcDbRegAppTableRecord
  2
GEVID1462193425
 70
     0
  0
APPID
  5
30E
330
9
100
AcDbSymbolTableRecord
100
AcDbRegAppTableRecord
  2
ACM_PP_DIM_CONSTRAINT
 70
     0
  0
APPID
  5
30F
330
9
100
AcDbSymbolTableRecord
100
AcDbRegAppTableRecord
  2
ACM_PP_ASSOCVAR
 70
     0
  0
APPID
  5
310
330
9
100
AcDbSymbolTableRecord
100
AcDbRegAppTableRecord
  2
ACM_PP_DIM_ACTION_MACRO
 70
     0
  0
APPID
  5
311
330
9
100
AcDbSymbolTableRecord
100
AcDbRegAppTableRecord
  2
ACM_PP_DIM_CONSTRAINT_DRAG_GRIP
 70
     0
  0
APPID
  5
312
330
9
100
AcDbSymbolTableRecord
100
AcDbRegAppTableRecord
  2
GENIUS_GENBH_13
 70
     0
  0
APPID
  5
313
330
9
100
AcDbSymbolTableRecord
100
AcDbRegAppTableRecord
  2
GENIUS_GENOBJ-NBEHI-BHF_13
 70
     0
  0
APPID
  5
314
330
9
100
AcDbSymbolTableRecord
100
AcDbRegAppTableRecord
  2
GENIUS_GENOBJ-NBEHI-BHB_13
 70
     0
  0
APPID
  5
315
330
9
100
AcDbSymbolTableRecord
100
AcDbRegAppTableRecord
  2
GENIUS_GENCFG_13
 70
     0
  0
APPID
  5
316
330
9
100
AcDbSymbolTableRecord
100
AcDbRegAppTableRecord
  2
GENIUS_GENCFG0_13
 70
     0
  0
APPID
  5
317
330
9
100
AcDbSymbolTableRecord
100
AcDbRegAppTableRecord
  2
GENIUS_AMGTXT_16
 70
     0
  0
APPID
  5
318
330
9
100
AcDbSymbolTableRecord
100
AcDbRegAppTableRecord
  2
GENIUS_GENOBJ-N-HTC_13
 70
     0
  0
APPID
  5
319
330
9
100
AcDbSymbolTableRecord
100
AcDbRegAppTableRecord
  2
GENIUS_GENHATCH_13
 70
     0
  0
APPID
  5
31A
330
9
100
AcDbSymbolTableRecord
100
AcDbRegAppTableRecord
  2
GEVID1462193426
 70
     0
  0
APPID
  5
31B
330
9
100
AcDbSymbolTableRecord
100
AcDbRegAppTableRecord
  2
GEVID1462193427
 70
     0
  0
APPID
  5
31C
330
9
100
AcDbSymbolTableRecord
100
AcDbRegAppTableRecord
  2
AcadAnnoMonitorAlertIconDisabled
 70
     0
  0
APPID
  5
31D
330
9
100
AcDbSymbolTableRecord
100
AcDbRegAppTableRecord
  2
GEVID1462193428
 70
     0
  0
APPID
  5
31E
330
9
100
AcDbSymbolTableRecord
100
AcDbRegAppTableRecord
  2
GENIUS_GENBHRL_14
 70
     0
  0
APPID
  5
31F
330
9
100
AcDbSymbolTableRecord
100
AcDbRegAppTableRecord
  2
GENIUS_GENOBJ-F-SCPASSM_13
 70
     0
  0
APPID
  5
320
330
9
100
AcDbSymbolTableRecord
100
AcDbRegAppTableRecord
  2
GENIUS_GENOBJ-N-ZOO_13
 70
     0
  0
APPID
  5
321
330
9
100
AcDbSymbolTableRecord
100
AcDbRegAppTableRecord
  2
GENIUS_GENZOO_17
 70
     0
  0
APPID
  5
322
330
9
100
AcDbSymbolTableRecord
100
AcDbRegAppTableRecord
  2
GENIUS_GENOBJ-N-REV_13
 70
     0
  0
APPID
  5
323
330
9
100
AcDbSymbolTableRecord
100
AcDbRegAppTableRecord
  2
GENIUS_GENOBJ-N-RSSYM_13
 70
     0
  0
APPID
  5
324
330
9
100
AcDbSymbolTableRecord
100
AcDbRegAppTableRecord
  2
GENIUS_GENSYMENT_13
 70
     0
  0
APPID
  5
325
330
9
100
AcDbSymbolTableRecord
100
AcDbRegAppTableRecord
  2
GENIUS_GENSCSYM_13
 70
     0
  0
APPID
  5
326
330
9
100
AcDbSymbolTableRecord
100
AcDbRegAppTableRecord
  2
ACAUTHENVIRON
 70
     0
  0
APPID
  5
327
330
9
100
AcDbSymbolTableRecord
100
AcDbRegAppTableRecord
  2
AcDbDynamicBlockTrueName
 70
     0
  0
APPID
  5
328
330
9
100
AcDbSymbolTableRecord
100
AcDbRegAppTableRecord
  2
AcDbDynamicBlockGUID
 70
     0
  0
APPID
  5
329
330
9
100
AcDbSymbolTableRecord
100
AcDbRegAppTableRecord
  2
ACCMTRANSPARENCY
 70
     0
  0
APPID
  5
5D5
330
9
100
AcDbSymbolTableRecord
100
AcDbRegAppTableRecord
  2
GENIUS_GENOBJ-N-CEN_13
 70
     0
  0
APPID
  5
5D6
330
9
100
AcDbSymbolTableRecord
100
AcDbRegAppTableRecord
  2
GENIUS_GENCEN_19
 70
     0
  0
ENDTAB
  0
TABLE
  2
DIMSTYLE
  5
A
330
0
100
AcDbSymbolTable
 70
    19
100
AcDbDimStyleTable
 71
     4
340
386
340
283
340
27
340
137
  0
DIMSTYLE
105
1B0
330
A
100
AcDbSymbolTableRecord
100
AcDbDimStyleTableRecord
  2
Standard
 70
     0
340
11
  0
DIMSTYLE
105
137
330
A
100
AcDbSymbolTableRecord
100
AcDbDimStyleTableRecord
  2
Annotative
 70
     0
 40
0.0
 41
2.5
 42
0.625
 43
3.75
 44
1.25
 73
     0
 74
     0
 77
     1
 78
     8
140
2.5
141
2.5
143
0.03937007874016
147
0.625
171
     3
172
     1
271
     2
272
     2
274
     3
278
    44
283
     0
284
     8
340
11
1001
AcadAnnotative
1000
AnnotativeData
1002
{
1070
     1
1070
     1
1002
}
1001
ACAD_DSTYLE_DIMJAG
1070
   388
1040
1.5
1001
ACAD_DSTYLE_DIMTALN
1070
   392
1070
     0
  0
DIMSTYLE
105
27
330
A
100
AcDbSymbolTableRecord
100
AcDbDimStyleTableRecord
  2
ISO-25
 70
     0
 41
2.5
 42
0.625
 43
3.75
 44
1.25
 73
     0
 74
     0
 77
     1
 78
     8
140
2.5
141
2.5
143
0.03937007874016
147
0.625
171
     3
172
     1
271
     2
272
     2
274
     3
278
    44
283
     0
284
     8
340
11
  0
DIMSTYLE
105
283
102
{ACAD_REACTORS
330
A14
102
}
330
A
100
AcDbSymbolTableRecord
100
AcDbDimStyleTableRecord
  2
AM_ISO
 70
     0
  4
"
 41
3.5
 42
1.0
 43
10.0
 44
1.0
 47
0.1
 48
0.1
 73
     0
 74
     0
 77
     1
 78
     8
 79
     2
 90
     1
140
3.5
141
0.0
143
0.0393701
146
0.71
147
1.5
172
     1
176
   256
177
   256
178
     2
271
     2
272
     3
274
     4
283
     0
284
     8
340
11
345
14
346
14
347
14
371
    -1
372
    -1
1001
ACAD_DSTYLE_DIMJAG
1070
   388
1040
1.5
1001
ACAD_DSTYLE_DIMBREAK
1070
   391
1040
3.75
  0
DIMSTYLE
105
28F
330
A
100
AcDbSymbolTableRecord
100
AcDbDimStyleTableRecord
  2
AM_ISO$3
 70
     0
  4
"
 41
3.5
 42
1.0
 43
10.0
 44
1.0
 47
0.1
 48
0.1
 73
     0
 77
     1
 78
     8
 79
     2
 90
     1
140
3.5
141
0.0
143
0.0393701
146
0.71
147
1.5
176
   256
177
   256
178
     2
271
     2
272
     3
274
     4
283
     0
284
     8
288
     1
289
     0
340
11
345
14
346
14
347
14
371
    -1
372
    -1
1001
ACAD_DSTYLE_DIMBREAK
1070
   391
1040
3.75
1001
ACAD_DSTYLE_DIMJAG
1070
   388
1040
1.5
  0
DIMSTYLE
105
290
330
A
100
AcDbSymbolTableRecord
100
AcDbDimStyleTableRecord
  2
AM_ISO$4
 70
     0
  4
"
 41
3.5
 42
1.0
 43
10.0
 44
1.0
 47
0.1
 48
0.1
 73
     0
 74
     0
 77
     1
 78
     8
 79
     2
 90
     1
140
3.5
141
0.0
143
0.0393701
146
0.71
147
1.5
172
     1
176
   256
177
   256
178
     2
271
     2
272
     3
274
     4
283
     0
284
     8
340
11
345
14
346
14
347
14
371
    -1
372
    -1
1001
ACAD_DSTYLE_DIMBREAK
1070
   391
1040
3.75
1001
ACAD_DSTYLE_DIMJAG
1070
   388
1040
1.5
  0
DIMSTYLE
105
291
330
A
100
AcDbSymbolTableRecord
100
AcDbDimStyleTableRecord
  2
AM_ISO$6
 70
     0
  4
"
 41
3.5
 42
1.0
 43
10.0
 44
1.0
 47
0.1
 48
0.1
 73
     0
 74
     0
 78
     8
 79
     2
 90
     1
140
3.5
141
0.0
143
0.0393701
146
0.71
147
1.5
172
     1
176
   256
177
   256
178
     2
271
     2
272
     3
274
     4
283
     0
284
     8
340
11
345
14
346
14
347
14
371
    -1
372
    -1
1001
ACAD_DSTYLE_DIMBREAK
1070
   391
1040
3.75
1001
ACAD_DSTYLE_DIMJAG
1070
   388
1040
1.5
  0
DIMSTYLE
105
292
330
A
100
AcDbSymbolTableRecord
100
AcDbDimStyleTableRecord
  2
AM_ISO$7
 70
     0
  4
"
 41
3.5
 42
1.0
 43
10.0
 44
1.0
 47
0.1
 48
0.1
 73
     0
 74
     0
 77
     1
 78
     8
 79
     2
 90
     1
140
3.5
141
0.0
143
0.0393701
146
0.71
147
1.5
172
     1
176
   256
177
   256
178
     2
271
     2
272
     3
274
     4
283
     0
284
     8
340
11
345
14
346
14
347
14
371
    -1
372
    -1
1001
ACAD_DSTYLE_DIMBREAK
1070
   391
1040
3.75
1001
ACAD_DSTYLE_DIMJAG
1070
   388
1040
1.5
  0
DIMSTYLE
105
293
330
A
100
AcDbSymbolTableRecord
100
AcDbDimStyleTableRecord
  2
AM_ISO$SF
 70
     0
  4
"
 41
3.5
 42
1.0
 43
10.0
 44
1.0
 47
0.1
 48
0.1
 73
     0
 74
     0
 75
     1
 76
     1
 77
     1
 78
     8
 79
     2
 90
     1
140
3.5
141
0.0
143
0.0393701
146
0.71
147
1.5
172
     1
176
   256
177
   256
178
     2
271
     2
272
     3
274
     4
283
     0
284
     8
340
11
345
14
346
14
347
14
371
    -1
372
    -1
1001
ACAD_DSTYLE_DIMBREAK
1070
   391
1040
3.75
1001
ACAD_DSTYLE_DIMJAG
1070
   388
1040
1.5
  0
DIMSTYLE
105
298
330
A
100
AcDbSymbolTableRecord
100
AcDbDimStyleTableRecord
  2
AM_ISO$SH
 70
     0
  4
"
 41
3.5
 42
1.0
 43
10.0
 44
1.0
 47
0.1
 48
0.1
 73
     0
 74
     0
 75
     1
 76
     1
 77
     1
 78
     8
 79
     2
 90
     1
140
3.5
141
0.0
143
0.0393701
144
2.0
146
0.71
147
1.5
172
     1
173
     1
176
   256
177
   256
178
     2
271
     2
272
     3
274
     4
283
     0
284
     8
340
11
343
294
345
14
346
14
347
14
371
    -1
372
    -1
1001
ACAD_DSTYLE_DIMBREAK
1070
   391
1040
3.75
1001
ACAD_DSTYLE_DIMJAG
1070
   388
1040
1.5
  0
DIMSTYLE
105
386
330
A
100
AcDbSymbolTableRecord
100
AcDbDimStyleTableRecord
  2
ACO
 70
     0
  4
"
 41
3.5
 42
0.0
 43
10.0
 44
1.0
 47
0.1
 48
0.1
 73
     0
 74
     0
 77
     1
 78
     8
 79
     2
 90
     1
140
3.5
141
0.0
143
0.0393701
146
0.71
147
1.5
172
     1
176
   256
177
   256
178
     3
271
     2
272
     2
283
     0
284
     8
340
11
345
15
346
15
347
15
371
    -1
372
    -1
1001
ACAD_DSTYLE_DIMBREAK
1070
   391
1040
3.75
1001
ACAD_DSTYLE_DIMJAG
1070
   388
1040
1.5
1001
ACAD_DSTYLE_DIMTALN
1070
   392
1070
     0
  0
DIMSTYLE
105
387
102
{ACAD_REACTORS
330
8BF
330
905
330
926
102
}
330
A
100
AcDbSymbolTableRecord
100
AcDbDimStyleTableRecord
  2
ACO$0
 70
     0
  4
"
 41
3.5
 42
0.0
 43
10.0
 44
1.0
 47
0.1
 48
0.1
 73
     0
 74
     0
 77
     1
 78
     8
 79
     2
 90
     1
140
3.5
141
0.0
143
0.0393701
146
0.71
147
1.5
172
     1
176
   256
177
   256
178
     3
271
     2
272
     2
283
     0
284
     8
340
11
345
15
346
15
347
15
371
    -1
372
    -1
1001
ACAD_DSTYLE_DIMBREAK
1070
   391
1040
3.75
1001
ACAD_DSTYLE_DIMJAG
1070
   388
1040
1.5
1001
ACAD_DSTYLE_DIMTALN
1070
   392
1070
     0
  0
DIMSTYLE
105
388
330
A
100
AcDbSymbolTableRecord
100
AcDbDimStyleTableRecord
  2
ACO$3
 70
     0
  4
"
 41
3.5
 42
0.0
 43
10.0
 44
1.0
 47
0.1
 48
0.1
 73
     0
 74
     0
 77
     1
 78
     8
 79
     2
 90
     1
140
3.5
141
0.0
143
0.0393701
146
0.71
147
1.5
172
     1
176
   256
177
   256
178
     3
271
     2
272
     2
283
     0
284
     8
288
     1
289
     0
340
11
345
15
346
15
347
15
371
    -1
372
    -1
1001
ACAD_DSTYLE_DIMBREAK
1070
   391
1040
3.75
1001
ACAD_DSTYLE_DIMJAG
1070
   388
1040
1.5
1001
ACAD_DSTYLE_DIMTALN
1070
   392
1070
     0
  0
DIMSTYLE
105
389
330
A
100
AcDbSymbolTableRecord
100
AcDbDimStyleTableRecord
  2
ACO$4
 70
     0
  4
"
 41
3.5
 42
0.0
 43
10.0
 44
1.0
 47
0.1
 48
0.1
 73
     0
 74
     0
 77
     1
 78
     8
 79
     2
 90
     1
140
3.5
141
0.0
143
0.0393701
146
0.71
147
1.5
176
   256
177
   256
178
     3
271
     2
272
     2
283
     0
284
     8
340
11
345
15
346
15
347
15
371
    -1
372
    -1
1001
ACAD_DSTYLE_DIMBREAK
1070
   391
1040
3.75
1001
ACAD_DSTYLE_DIMJAG
1070
   388
1040
1.5
1001
ACAD_DSTYLE_DIMTALN
1070
   392
1070
     0
  0
DIMSTYLE
105
38A
330
A
100
AcDbSymbolTableRecord
100
AcDbDimStyleTableRecord
  2
ACO$6
 70
     0
  4
"
 41
3.5
 42
0.0
 43
10.0
 44
1.0
 47
0.1
 48
0.1
 73
     0
 74
     0
 78
     8
 79
     2
 90
     1
140
3.5
141
0.0
143
0.0393701
146
0.71
147
1.5
172
     1
176
   256
177
   256
178
     3
271
     2
272
     2
283
     0
284
     8
340
11
345
15
346
15
347
15
371
    -1
372
    -1
1001
ACAD_DSTYLE_DIMBREAK
1070
   391
1040
3.75
1001
ACAD_DSTYLE_DIMJAG
1070
   388
1040
1.5
1001
ACAD_DSTYLE_DIMTALN
1070
   392
1070
     0
  0
DIMSTYLE
105
38B
330
A
100
AcDbSymbolTableRecord
100
AcDbDimStyleTableRecord
  2
ACO$7
 70
     0
  4
"
 41
3.5
 42
0.0
 43
10.0
 44
1.0
 47
0.1
 48
0.1
 73
     0
 74
     0
 77
     1
 78
     8
 79
     2
 90
     1
140
3.5
141
0.0
143
0.0393701
146
0.71
147
1.5
172
     1
176
   256
177
   256
178
     3
271
     2
272
     2
283
     0
284
     8
340
11
345
15
346
15
347
15
371
    -1
372
    -1
1001
ACAD_DSTYLE_DIMBREAK
1070
   391
1040
3.75
1001
ACAD_DSTYLE_DIMJAG
1070
   388
1040
1.5
1001
ACAD_DSTYLE_DIMTALN
1070
   392
1070
     0
  0
DIMSTYLE
105
38C
330
A
100
AcDbSymbolTableRecord
100
AcDbDimStyleTableRecord
  2
ACO$SF
 70
     0
  4
"
 41
3.5
 42
0.0
 43
10.0
 44
1.0
 47
0.1
 48
0.1
 73
     0
 74
     0
 75
     1
 76
     1
 77
     1
 78
     8
 79
     2
 90
     1
140
3.5
141
0.0
143
0.0393701
146
0.71
147
1.5
172
     1
176
   256
177
   256
178
     3
271
     2
272
     2
283
     0
284
     8
340
11
345
15
346
15
347
15
371
    -1
372
    -1
1001
ACAD_DSTYLE_DIMBREAK
1070
   391
1040
3.75
1001
ACAD_DSTYLE_DIMJAG
1070
   388
1040
1.5
1001
ACAD_DSTYLE_DIMTALN
1070
   392
1070
     0
  0
DIMSTYLE
105
38D
330
A
100
AcDbSymbolTableRecord
100
AcDbDimStyleTableRecord
  2
ACO$SH
 70
     0
  4
"
 41
3.5
 42
0.0
 43
10.0
 44
1.0
 47
0.1
 48
0.1
 73
     0
 74
     0
 75
     1
 76
     1
 77
     1
 78
     8
 79
     2
 90
     1
140
3.5
141
0.0
143
0.0393701
144
2.0
146
0.71
147
1.5
172
     1
173
     1
176
   256
177
   256
178
     3
271
     2
272
     2
283
     0
284
     8
340
11
343
294
345
15
346
15
347
15
371
    -1
372
    -1
1001
ACAD_DSTYLE_DIMBREAK
1070
   391
1040
3.75
1001
ACAD_DSTYLE_DIMJAG
1070
   388
1040
1.5
1001
ACAD_DSTYLE_DIMTALN
1070
   392
1070
     0
  0
DIMSTYLE
105
62E
330
A
100
AcDbSymbolTableRecord
100
AcDbDimStyleTableRecord
  2
Default (ISO)
 70
     0
 40
2.0
 41
3.5
 42
0.0
 43
5.999999999999999
 44
1.499999999999999
 45
0.00000001
 46
10.0
 73
     0
 74
     0
 77
     1
 78
     8
 79
     2
140
3.5
143
0.03937
146
1.00148570537567
147
1.0
171
     3
172
     1
176
   256
177
   256
178
   256
179
     2
271
     2
272
     2
274
     3
278
    44
284
     8
340
62D
371
    -1
372
    -1
  0
ENDTAB
  0
TABLE
  2
BLOCK_RECORD
  5
1
330
0
100
AcDbSymbolTable
 70
    11
  0
BLOCK_RECORD
  5
1F
102
{ACAD_XDICTIONARY
360
1CE
102
}
330
1
100
AcDbSymbolTableRecord
100
AcDbBlockTableRecord
  2
*Model_Space
340
22
 70
     0
280
     1
281
     0
  0
BLOCK_RECORD
  5
D2
330
1
100
AcDbSymbolTableRecord
100
AcDbBlockTableRecord
  2
*Paper_Space
340
D3
 70
     0
280
     1
281
     0
  0
BLOCK_RECORD
  5
D6
330
1
100
AcDbSymbolTableRecord
100
AcDbBlockTableRecord
  2
*Paper_Space0
340
D7
 70
     0
280
     1
281
     0
  0
BLOCK_RECORD
  5
294
330
1
100
AcDbSymbolTableRecord
100
AcDbBlockTableRecord
  2
GENAXEH
340
0
 70
     0
280
     1
281
     0
  0
BLOCK_RECORD
  5
461
330
1
100
AcDbSymbolTableRecord
100
AcDbBlockTableRecord
  2
Rámečky Výchozí rámeček
340
0
 70
     0
280
     1
281
     0
  0
BLOCK_RECORD
  5
4A8
102
{ACAD_XDICTIONARY
360
4ED
102
}
330
1
100
AcDbSymbolTableRecord
100
AcDbBlockTableRecord
  2
A3
340
0
 70
     0
280
     1
281
     0
  0
BLOCK_RECORD
  5
4F7
102
{ACAD_XDICTIONARY
360
55F
102
}
330
1
100
AcDbSymbolTableRecord
100
AcDbBlockTableRecord
  2
AM_ISO_ACO
340
0
 70
     0
280
     1
281
     0
  0
BLOCK_RECORD
  5
58D
330
1
100
AcDbSymbolTableRecord
100
AcDbBlockTableRecord
  2
*D5
340
0
 70
     0
280
     1
281
     0
  0
BLOCK_RECORD
  5
8C0
330
1
100
AcDbSymbolTableRecord
100
AcDbBlockTableRecord
  2
*D6
340
0
 70
     0
280
     1
281
     0
  0
BLOCK_RECORD
  5
906
330
1
100
AcDbSymbolTableRecord
100
AcDbBlockTableRecord
  2
*D7
340
0
 70
     0
280
     1
281
     0
  0
BLOCK_RECORD
  5
927
330
1
100
AcDbSymbolTableRecord
100
AcDbBlockTableRecord
  2
*D8
340
0
 70
     0
280
     1
281
     0
  0
BLOCK_RECORD
  5
964
330
1
100
AcDbSymbolTableRecord
100
AcDbBlockTableRecord
  2
*S1299
340
0
 70
     0
280
     1
281
     0
  0
ENDTAB
  0
ENDSEC
  0
SECTION
  2
BLOCKS
  0
BLOCK
  5
20
330
1F
100
AcDbEntity
  8
0
100
AcDbBlockBegin
  2
*Model_Space
 70
     0
 10
0.0
 20
0.0
 30
0.0
  3
*Model_Space
  1

  0
ENDBLK
  5
21
330
1F
100
AcDbEntity
  8
0
100
AcDbBlockEnd
  0
BLOCK
  5
D4
330
D2
100
AcDbEntity
 67
     1
  8
0
100
AcDbBlockBegin
  2
*Paper_Space
 70
     0
 10
0.0
 20
0.0
 30
0.0
  3
*Paper_Space
  1

  0
ENDBLK
  5
D5
330
D2
100
AcDbEntity
 67
     1
  8
0
100
AcDbBlockEnd
  0
BLOCK
  5
D8
330
D6
100
AcDbEntity
 67
     1
  8
0
100
AcDbBlockBegin
  2
*Paper_Space0
 70
     0
 10
0.0
 20
0.0
 30
0.0
  3
*Paper_Space0
  1

  0
ENDBLK
  5
D9
330
D6
100
AcDbEntity
 67
     1
  8
0
100
AcDbBlockEnd
  0
BLOCK
  5
38F
330
294
100
AcDbEntity
  8
0
100
AcDbBlockBegin
  2
GENAXEH
 70
     0
 10
0.0
 20
0.0
 30
0.0
  3
GENAXEH
  1

  0
LINE
  5
390
330
294
100
AcDbEntity
  8
0
100
AcDbLine
 10
-1.0
 20
0.0
 30
0.0
 11
1.0
 21
0.0
 31
0.0
  0
ENDBLK
  5
391
330
294
100
AcDbEntity
  8
0
100
AcDbBlockEnd
  0
BLOCK
  5
462
330
461
100
AcDbEntity
  8
0
100
AcDbBlockBegin
  2
Rámečky Výchozí rámeček
 70
     0
 10
0.0
 20
0.0
 30
0.0
  3
Rámečky Výchozí rámeček
  1

  0
POLYLINE
  5
463
330
461
100
AcDbEntity
  8
AM_BOR
100
AcDb2dPolyline
 66
     1
 10
0.0
 20
0.0
 30
0.0
 70
   128
  0
VERTEX
  5
464
330
463
100
AcDbEntity
  8
AM_BOR
100
AcDbVertex
100
AcDb2dVertex
 10
10.0
 20
10.0
 30
0.0
  0
VERTEX
  5
465
330
463
100
AcDbEntity
  8
AM_BOR
100
AcDbVertex
100
AcDb2dVertex
 10
10.0
 20
287.0000076293946
 30
0.0
  0
VERTEX
  5
466
330
463
100
AcDbEntity
  8
AM_BOR
100
AcDbVertex
100
AcDb2dVertex
 10
410.0
 20
287.0000076293946
 30
0.0
  0
VERTEX
  5
467
330
463
100
AcDbEntity
  8
AM_BOR
100
AcDbVertex
100
AcDb2dVertex
 10
410.0
 20
10.0
 30
0.0
  0
VERTEX
  5
468
330
463
100
AcDbEntity
  8
AM_BOR
100
AcDbVertex
100
AcDb2dVertex
 10
10.0
 20
10.0
 30
0.0
  0
SEQEND
  5
469
330
463
100
AcDbEntity
  8
AM_BOR
  0
POLYLINE
  5
46A
330
461
100
AcDbEntity
  8
AM_BOR
100
AcDb2dPolyline
 66
     1
 10
0.0
 20
0.0
 30
0.0
 70
   128
  0
VERTEX
  5
46B
330
46A
100
AcDbEntity
  8
AM_BOR
100
AcDbVertex
100
AcDb2dVertex
 10
210.0
 20
0.0
 30
0.0
  0
VERTEX
  5
46C
330
46A
100
AcDbEntity
  8
AM_BOR
100
AcDbVertex
100
AcDb2dVertex
 10
210.0
 20
10.0
 30
0.0
  0
VERTEX
  5
46D
330
46A
100
AcDbEntity
  8
AM_BOR
100
AcDbVertex
100
AcDb2dVertex
 10
207.1132469177246
 20
5.0
 30
0.0
  0
VERTEX
  5
46E
330
46A
100
AcDbEntity
  8
AM_BOR
100
AcDbVertex
100
AcDb2dVertex
 10
212.8867530822754
 20
5.0
 30
0.0
  0
VERTEX
  5
46F
330
46A
100
AcDbEntity
  8
AM_BOR
100
AcDbVertex
100
AcDb2dVertex
 10
210.0
 20
10.0
 30
0.0
  0
SEQEND
  5
470
330
46A
100
AcDbEntity
  8
AM_BOR
  0
POLYLINE
  5
471
330
461
100
AcDbEntity
  8
AM_BOR
100
AcDb2dPolyline
 66
     1
 10
0.0
 20
0.0
 30
0.0
 70
   128
  0
VERTEX
  5
472
330
471
100
AcDbEntity
  8
AM_BOR
100
AcDbVertex
100
AcDb2dVertex
 10
210.0
 20
297.0000076293946
 30
0.0
  0
VERTEX
  5
473
330
471
100
AcDbEntity
  8
AM_BOR
100
AcDbVertex
100
AcDb2dVertex
 10
210.0
 20
287.0000076293946
 30
0.0
  0
VERTEX
  5
474
330
471
100
AcDbEntity
  8
AM_BOR
100
AcDbVertex
100
AcDb2dVertex
 10
207.1132469177246
 20
292.0000076293945
 30
0.0
  0
VERTEX
  5
475
330
471
100
AcDbEntity
  8
AM_BOR
100
AcDbVertex
100
AcDb2dVertex
 10
212.8867530822754
 20
292.0000076293945
 30
0.0
  0
VERTEX
  5
476
330
471
100
AcDbEntity
  8
AM_BOR
100
AcDbVertex
100
AcDb2dVertex
 10
210.0
 20
287.0000076293946
 30
0.0
  0
SEQEND
  5
477
330
471
100
AcDbEntity
  8
AM_BOR
  0
POLYLINE
  5
478
330
461
100
AcDbEntity
  8
AM_BOR
100
AcDb2dPolyline
 66
     1
 10
0.0
 20
0.0
 30
0.0
 70
   128
  0
VERTEX
  5
479
330
478
100
AcDbEntity
  8
AM_BOR
100
AcDbVertex
100
AcDb2dVertex
 10
0.0
 20
148.5000038146973
 30
0.0
  0
VERTEX
  5
47A
330
478
100
AcDbEntity
  8
AM_BOR
100
AcDbVertex
100
AcDb2dVertex
 10
10.0
 20
148.5000038146973
 30
0.0
  0
VERTEX
  5
47B
330
478
100
AcDbEntity
  8
AM_BOR
100
AcDbVertex
100
AcDb2dVertex
 10
5.0
 20
151.3867473602295
 30
0.0
  0
VERTEX
  5
47C
330
478
100
AcDbEntity
  8
AM_BOR
100
AcDbVertex
100
AcDb2dVertex
 10
5.0
 20
145.6132507324219
 30
0.0
  0
VERTEX
  5
47D
330
478
100
AcDbEntity
  8
AM_BOR
100
AcDbVertex
100
AcDb2dVertex
 10
10.0
 20
148.5000038146973
 30
0.0
  0
SEQEND
  5
47E
330
478
100
AcDbEntity
  8
AM_BOR
  0
POLYLINE
  5
47F
330
461
100
AcDbEntity
  8
AM_BOR
100
AcDb2dPolyline
 66
     1
 10
0.0
 20
0.0
 30
0.0
 70
   128
  0
VERTEX
  5
480
330
47F
100
AcDbEntity
  8
AM_BOR
100
AcDbVertex
100
AcDb2dVertex
 10
420.0
 20
148.5000038146973
 30
0.0
  0
VERTEX
  5
481
330
47F
100
AcDbEntity
  8
AM_BOR
100
AcDbVertex
100
AcDb2dVertex
 10
410.0
 20
148.5000038146973
 30
0.0
  0
VERTEX
  5
482
330
47F
100
AcDbEntity
  8
AM_BOR
100
AcDbVertex
100
AcDb2dVertex
 10
415.0
 20
151.3867473602295
 30
0.0
  0
VERTEX
  5
483
330
47F
100
AcDbEntity
  8
AM_BOR
100
AcDbVertex
100
AcDb2dVertex
 10
415.0
 20
145.6132507324219
 30
0.0
  0
VERTEX
  5
484
330
47F
100
AcDbEntity
  8
AM_BOR
100
AcDbVertex
100
AcDb2dVertex
 10
410.0
 20
148.5000038146973
 30
0.0
  0
SEQEND
  5
485
330
47F
100
AcDbEntity
  8
AM_BOR
  0
LINE
  5
486
330
461
100
AcDbEntity
  8
AM_BOR
100
AcDbLine
 10
70.0
 20
10.0
 30
0.0
 11
70.0
 21
6.100000143051147
 31
0.0
  0
LINE
  5
487
330
461
100
AcDbEntity
  8
AM_BOR
100
AcDbLine
 10
70.0
 20
287.0000076293946
 30
0.0
 11
70.0
 21
290.9000015258789
 31
0.0
  0
LINE
  5
488
330
461
100
AcDbEntity
  8
AM_BOR
100
AcDbLine
 10
140.0
 20
10.0
 30
0.0
 11
140.0
 21
6.100000143051147
 31
0.0
  0
LINE
  5
489
330
461
100
AcDbEntity
  8
AM_BOR
100
AcDbLine
 10
140.0
 20
287.0000076293946
 30
0.0
 11
140.0
 21
290.9000015258789
 31
0.0
  0
LINE
  5
48A
330
461
100
AcDbEntity
  8
AM_BOR
100
AcDbLine
 10
280.0
 20
10.0
 30
0.0
 11
280.0
 21
6.100000143051147
 31
0.0
  0
LINE
  5
48B
330
461
100
AcDbEntity
  8
AM_BOR
100
AcDbLine
 10
280.0
 20
287.0000076293946
 30
0.0
 11
280.0
 21
290.9000015258789
 31
0.0
  0
LINE
  5
48C
330
461
100
AcDbEntity
  8
AM_BOR
100
AcDbLine
 10
350.0
 20
10.0
 30
0.0
 11
350.0
 21
6.100000143051147
 31
0.0
  0
LINE
  5
48D
330
461
100
AcDbEntity
  8
AM_BOR
100
AcDbLine
 10
350.0
 20
287.0000076293946
 30
0.0
 11
350.0
 21
290.9000015258789
 31
0.0
  0
MTEXT
  5
48E
330
461
100
AcDbEntity
  8
AM_BOR
100
AcDbMText
 10
384.424600776777
 20
287.4
 30
0.0
 40
3.499999940395355
 41
0.0
 46
0.0
 71
     7
 72
     1
  1
1
  7
Text poznámky (DIN)
 73
     1
 44
1.0
  0
MTEXT
  5
48F
330
461
100
AcDbEntity
  8
AM_BOR
100
AcDbMText
 10
384.424600776777
 20
6.100000059604642
 30
0.0
 40
3.499999940395355
 41
0.0
 46
0.0
 71
     7
 72
     1
  1
1
  7
Text poznámky (DIN)
 73
     1
 44
1.0
  0
MTEXT
  5
490
330
461
100
AcDbEntity
  8
AM_BOR
100
AcDbMText
 10
314.0783748340615
 20
287.4
 30
0.0
 40
3.499999940395355
 41
0.0
 46
0.0
 71
     7
 72
     1
  1
2
  7
Text poznámky (DIN)
 73
     1
 44
1.0
  0
MTEXT
  5
491
330
461
100
AcDbEntity
  8
AM_BOR
100
AcDbMText
 10
314.0783748340615
 20
6.100000059604642
 30
0.0
 40
3.499999940395355
 41
0.0
 46
0.0
 71
     7
 72
     1
  1
2
  7
Text poznámky (DIN)
 73
     1
 44
1.0
  0
MTEXT
  5
492
330
461
100
AcDbEntity
  8
AM_BOR
100
AcDbMText
 10
244.0783748340615
 20
287.4
 30
0.0
 40
3.499999940395355
 41
0.0
 46
0.0
 71
     7
 72
     1
  1
3
  7
Text poznámky (DIN)
 73
     1
 44
1.0
  0
MTEXT
  5
493
330
461
100
AcDbEntity
  8
AM_BOR
100
AcDbMText
 10
244.0783748340615
 20
6.100000059604642
 30
0.0
 40
3.499999940395355
 41
0.0
 46
0.0
 71
     7
 72
     1
  1
3
  7
Text poznámky (DIN)
 73
     1
 44
1.0
  0
MTEXT
  5
494
330
461
100
AcDbEntity
  8
AM_BOR
100
AcDbMText
 10
173.9030501556405
 20
287.4
 30
0.0
 40
3.499999940395355
 41
0.0
 46
0.0
 71
     7
 72
     1
  1
4
  7
Text poznámky (DIN)
 73
     1
 44
1.0
  0
MTEXT
  5
495
330
461
100
AcDbEntity
  8
AM_BOR
100
AcDbMText
 10
173.9030501556405
 20
6.100000059604642
 30
0.0
 40
3.499999940395355
 41
0.0
 46
0.0
 71
     7
 72
     1
  1
4
  7
Text poznámky (DIN)
 73
     1
 44
1.0
  0
MTEXT
  5
496
330
461
100
AcDbEntity
  8
AM_BOR
100
AcDbMText
 10
104.0783748340615
 20
287.4
 30
0.0
 40
3.499999940395355
 41
0.0
 46
0.0
 71
     7
 72
     1
  1
5
  7
Text poznámky (DIN)
 73
     1
 44
1.0
  0
MTEXT
  5
497
330
461
100
AcDbEntity
  8
AM_BOR
100
AcDbMText
 10
104.0783748340615
 20
6.100000059604642
 30
0.0
 40
3.499999940395355
 41
0.0
 46
0.0
 71
     7
 72
     1
  1
5
  7
Text poznámky (DIN)
 73
     1
 44
1.0
  0
MTEXT
  5
498
330
461
100
AcDbEntity
  8
AM_BOR
100
AcDbMText
 10
34.07837483406151
 20
287.4
 30
0.0
 40
3.499999940395355
 41
0.0
 46
0.0
 71
     7
 72
     1
  1
6
  7
Text poznámky (DIN)
 73
     1
 44
1.0
  0
MTEXT
  5
499
330
461
100
AcDbEntity
  8
AM_BOR
100
AcDbMText
 10
34.07837483406151
 20
6.100000059604642
 30
0.0
 40
3.499999940395355
 41
0.0
 46
0.0
 71
     7
 72
     1
  1
6
  7
Text poznámky (DIN)
 73
     1
 44
1.0
  0
LINE
  5
49A
330
461
100
AcDbEntity
  8
AM_BOR
100
AcDbLine
 10
10.0
 20
74.25000190734862
 30
0.0
 11
6.100000143051147
 21
74.25000190734862
 31
0.0
  0
LINE
  5
49B
330
461
100
AcDbEntity
  8
AM_BOR
100
AcDbLine
 10
410.0
 20
74.25000190734862
 30
0.0
 11
413.8999938964841
 21
74.25000190734862
 31
0.0
  0
LINE
  5
49C
330
461
100
AcDbEntity
  8
AM_BOR
100
AcDbLine
 10
10.0
 20
222.7499961853027
 30
0.0
 11
6.100000143051147
 21
222.7499961853027
 31
0.0
  0
LINE
  5
49D
330
461
100
AcDbEntity
  8
AM_BOR
100
AcDbLine
 10
410.0
 20
222.7499961853027
 30
0.0
 11
413.8999938964841
 21
222.7499961853027
 31
0.0
  0
MTEXT
  5
49E
330
461
100
AcDbEntity
  8
AM_BOR
100
AcDbMText
 10
6.577725507021793
 20
35.37500002980233
 30
0.0
 40
3.499999940395355
 41
0.0
 46
0.0
 71
     7
 72
     1
  1
A
  7
Text poznámky (DIN)
 73
     1
 44
1.0
  0
MTEXT
  5
49F
330
461
100
AcDbEntity
  8
AM_BOR
100
AcDbMText
 10
410.8777254474171
 20
35.37500002980233
 30
0.0
 40
3.499999940395355
 41
0.0
 46
0.0
 71
     7
 72
     1
  1
A
  7
Text poznámky (DIN)
 73
     1
 44
1.0
  0
MTEXT
  5
4A0
330
461
100
AcDbEntity
  8
AM_BOR
100
AcDbMText
 10
6.753050185442812
 20
109.6250000298023
 30
0.0
 40
3.499999940395355
 41
0.0
 46
0.0
 71
     7
 72
     1
  1
B
  7
Text poznámky (DIN)
 73
     1
 44
1.0
  0
MTEXT
  5
4A1
330
461
100
AcDbEntity
  8
AM_BOR
100
AcDbMText
 10
411.053050125838
 20
109.6250000298023
 30
0.0
 40
3.499999940395355
 41
0.0
 46
0.0
 71
     7
 72
     1
  1
B
  7
Text poznámky (DIN)
 73
     1
 44
1.0
  0
MTEXT
  5
4A2
330
461
100
AcDbEntity
  8
AM_BOR
100
AcDbMText
 10
6.92837486386383
 20
183.8750000298023
 30
0.0
 40
3.499999940395355
 41
0.0
 46
0.0
 71
     7
 72
     1
  1
C
  7
Text poznámky (DIN)
 73
     1
 44
1.0
  0
MTEXT
  5
4A3
330
461
100
AcDbEntity
  8
AM_BOR
100
AcDbMText
 10
411.2283748042591
 20
183.8750000298023
 30
0.0
 40
3.499999940395355
 41
0.0
 46
0.0
 71
     7
 72
     1
  1
C
  7
Text poznámky (DIN)
 73
     1
 44
1.0
  0
MTEXT
  5
4A4
330
461
100
AcDbEntity
  8
AM_BOR
100
AcDbMText
 10
6.753050185442812
 20
258.1250000298023
 30
0.0
 40
3.499999940395355
 41
0.0
 46
0.0
 71
     7
 72
     1
  1
D
  7
Text poznámky (DIN)
 73
     1
 44
1.0
  0
MTEXT
  5
4A5
330
461
100
AcDbEntity
  8
AM_BOR
100
AcDbMText
 10
411.053050125838
 20
258.1250000298023
 30
0.0
 40
3.499999940395355
 41
0.0
 46
0.0
 71
     7
 72
     1
  1
D
  7
Text poznámky (DIN)
 73
     1
 44
1.0
  0
ENDBLK
  5
4A6
330
461
100
AcDbEntity
  8
0
100
AcDbBlockEnd
  0
BLOCK
  5
4EF
330
4A8
100
AcDbEntity
  8
0
100
AcDbBlockBegin
  2
A3
 70
     0
 10
0.0
 20
0.0
 30
0.0
  3
A3
  1

  0
LWPOLYLINE
  5
4A9
330
4A8
100
AcDbEntity
  8
AM_BOR
 62
    22
100
AcDbPolyline
 90
        4
 70
     1
 43
0.0
 10
0.0000000000000273
 20
297.0000076293946
 10
420.0
 20
297.0000076293946
 10
420.0
 20
0.0
 10
0.0000000000000273
 20
0.0
  0
POLYLINE
  5
4AA
330
4A8
100
AcDbEntity
  8
AM_BOR
 62
     7
100
AcDb2dPolyline
 66
     1
 10
0.0
 20
0.0
 30
0.0
 70
   128
  0
VERTEX
  5
4AB
330
4AA
100
AcDbEntity
  8
AM_BOR
 62
     7
100
AcDbVertex
100
AcDb2dVertex
 10
10.0
 20
10.0
 30
0.0
  0
VERTEX
  5
4AC
330
4AA
100
AcDbEntity
  8
AM_BOR
 62
     7
100
AcDbVertex
100
AcDb2dVertex
 10
10.0
 20
287.0000076293946
 30
0.0
  0
VERTEX
  5
4AD
330
4AA
100
AcDbEntity
  8
AM_BOR
 62
     7
100
AcDbVertex
100
AcDb2dVertex
 10
410.0
 20
287.0000076293946
 30
0.0
  0
VERTEX
  5
4AE
330
4AA
100
AcDbEntity
  8
AM_BOR
 62
     7
100
AcDbVertex
100
AcDb2dVertex
 10
410.0
 20
10.0
 30
0.0
  0
VERTEX
  5
4AF
330
4AA
100
AcDbEntity
  8
AM_BOR
 62
     7
100
AcDbVertex
100
AcDb2dVertex
 10
10.0
 20
10.0
 30
0.0
  0
SEQEND
  5
4B0
330
4AA
100
AcDbEntity
  8
AM_BOR
 62
     7
  0
POLYLINE
  5
4B1
330
4A8
100
AcDbEntity
  8
AM_BOR
 62
    22
100
AcDb2dPolyline
 66
     1
 10
0.0
 20
0.0
 30
0.0
 70
   128
  0
VERTEX
  5
4B2
330
4B1
100
AcDbEntity
  8
AM_BOR
 62
    22
100
AcDbVertex
100
AcDb2dVertex
 10
210.0
 20
0.0
 30
0.0
  0
VERTEX
  5
4B3
330
4B1
100
AcDbEntity
  8
AM_BOR
 62
    22
100
AcDbVertex
100
AcDb2dVertex
 10
210.0
 20
10.0
 30
0.0
  0
VERTEX
  5
4B4
330
4B1
100
AcDbEntity
  8
AM_BOR
 62
    22
100
AcDbVertex
100
AcDb2dVertex
 10
207.1132469177246
 20
5.0
 30
0.0
  0
VERTEX
  5
4B5
330
4B1
100
AcDbEntity
  8
AM_BOR
 62
    22
100
AcDbVertex
100
AcDb2dVertex
 10
212.8867530822754
 20
5.0
 30
0.0
  0
VERTEX
  5
4B6
330
4B1
100
AcDbEntity
  8
AM_BOR
 62
    22
100
AcDbVertex
100
AcDb2dVertex
 10
210.0
 20
10.0
 30
0.0
  0
SEQEND
  5
4B7
330
4B1
100
AcDbEntity
  8
AM_BOR
 62
    22
  0
POLYLINE
  5
4B8
330
4A8
100
AcDbEntity
  8
AM_BOR
 62
    22
100
AcDb2dPolyline
 66
     1
 10
0.0
 20
0.0
 30
0.0
 70
   128
  0
VERTEX
  5
4B9
330
4B8
100
AcDbEntity
  8
AM_BOR
 62
    22
100
AcDbVertex
100
AcDb2dVertex
 10
210.0
 20
297.0000076293946
 30
0.0
  0
VERTEX
  5
4BA
330
4B8
100
AcDbEntity
  8
AM_BOR
 62
    22
100
AcDbVertex
100
AcDb2dVertex
 10
210.0
 20
287.0000076293946
 30
0.0
  0
VERTEX
  5
4BB
330
4B8
100
AcDbEntity
  8
AM_BOR
 62
    22
100
AcDbVertex
100
AcDb2dVertex
 10
207.1132469177246
 20
292.0000076293945
 30
0.0
  0
VERTEX
  5
4BC
330
4B8
100
AcDbEntity
  8
AM_BOR
 62
    22
100
AcDbVertex
100
AcDb2dVertex
 10
212.8867530822754
 20
292.0000076293945
 30
0.0
  0
VERTEX
  5
4BD
330
4B8
100
AcDbEntity
  8
AM_BOR
 62
    22
100
AcDbVertex
100
AcDb2dVertex
 10
210.0
 20
287.0000076293946
 30
0.0
  0
SEQEND
  5
4BE
330
4B8
100
AcDbEntity
  8
AM_BOR
 62
    22
  0
POLYLINE
  5
4BF
330
4A8
100
AcDbEntity
  8
AM_BOR
 62
    22
100
AcDb2dPolyline
 66
     1
 10
0.0
 20
0.0
 30
0.0
 70
   128
  0
VERTEX
  5
4C0
330
4BF
100
AcDbEntity
  8
AM_BOR
 62
    22
100
AcDbVertex
100
AcDb2dVertex
 10
0.0
 20
148.5000038146973
 30
0.0
  0
VERTEX
  5
4C1
330
4BF
100
AcDbEntity
  8
AM_BOR
 62
    22
100
AcDbVertex
100
AcDb2dVertex
 10
10.0
 20
148.5000038146973
 30
0.0
  0
VERTEX
  5
4C2
330
4BF
100
AcDbEntity
  8
AM_BOR
 62
    22
100
AcDbVertex
100
AcDb2dVertex
 10
5.0
 20
151.3867473602295
 30
0.0
  0
VERTEX
  5
4C3
330
4BF
100
AcDbEntity
  8
AM_BOR
 62
    22
100
AcDbVertex
100
AcDb2dVertex
 10
5.0
 20
145.6132507324219
 30
0.0
  0
VERTEX
  5
4C4
330
4BF
100
AcDbEntity
  8
AM_BOR
 62
    22
100
AcDbVertex
100
AcDb2dVertex
 10
10.0
 20
148.5000038146973
 30
0.0
  0
SEQEND
  5
4C5
330
4BF
100
AcDbEntity
  8
AM_BOR
 62
    22
  0
POLYLINE
  5
4C6
330
4A8
100
AcDbEntity
  8
AM_BOR
 62
    22
100
AcDb2dPolyline
 66
     1
 10
0.0
 20
0.0
 30
0.0
 70
   128
  0
VERTEX
  5
4C7
330
4C6
100
AcDbEntity
  8
AM_BOR
 62
    22
100
AcDbVertex
100
AcDb2dVertex
 10
420.0
 20
148.5000038146973
 30
0.0
  0
VERTEX
  5
4C8
330
4C6
100
AcDbEntity
  8
AM_BOR
 62
    22
100
AcDbVertex
100
AcDb2dVertex
 10
410.0
 20
148.5000038146973
 30
0.0
  0
VERTEX
  5
4C9
330
4C6
100
AcDbEntity
  8
AM_BOR
 62
    22
100
AcDbVertex
100
AcDb2dVertex
 10
415.0
 20
151.3867473602295
 30
0.0
  0
VERTEX
  5
4CA
330
4C6
100
AcDbEntity
  8
AM_BOR
 62
    22
100
AcDbVertex
100
AcDb2dVertex
 10
415.0
 20
145.6132507324219
 30
0.0
  0
VERTEX
  5
4CB
330
4C6
100
AcDbEntity
  8
AM_BOR
 62
    22
100
AcDbVertex
100
AcDb2dVertex
 10
410.0
 20
148.5000038146973
 30
0.0
  0
SEQEND
  5
4CC
330
4C6
100
AcDbEntity
  8
AM_BOR
 62
    22
  0
LINE
  5
4CD
330
4A8
100
AcDbEntity
  8
AM_BOR
 62
    22
100
AcDbLine
 10
70.0
 20
10.0
 30
0.0
 11
70.0
 21
6.100000143051147
 31
0.0
  0
LINE
  5
4CE
330
4A8
100
AcDbEntity
  8
AM_BOR
 62
    22
100
AcDbLine
 10
70.0
 20
287.0000076293946
 30
0.0
 11
70.0
 21
290.9000015258789
 31
0.0
  0
LINE
  5
4CF
330
4A8
100
AcDbEntity
  8
AM_BOR
 62
    22
100
AcDbLine
 10
140.0
 20
10.0
 30
0.0
 11
140.0
 21
6.100000143051147
 31
0.0
  0
LINE
  5
4D0
330
4A8
100
AcDbEntity
  8
AM_BOR
 62
    22
100
AcDbLine
 10
140.0
 20
287.0000076293946
 30
0.0
 11
140.0
 21
290.9000015258789
 31
0.0
  0
LINE
  5
4D1
330
4A8
100
AcDbEntity
  8
AM_BOR
 62
    22
100
AcDbLine
 10
280.0
 20
10.0
 30
0.0
 11
280.0
 21
6.100000143051147
 31
0.0
  0
LINE
  5
4D2
330
4A8
100
AcDbEntity
  8
AM_BOR
 62
    22
100
AcDbLine
 10
280.0
 20
287.0000076293946
 30
0.0
 11
280.0
 21
290.9000015258789
 31
0.0
  0
LINE
  5
4D3
330
4A8
100
AcDbEntity
  8
AM_BOR
 62
    22
100
AcDbLine
 10
350.0
 20
10.0
 30
0.0
 11
350.0
 21
6.100000143051147
 31
0.0
  0
LINE
  5
4D4
330
4A8
100
AcDbEntity
  8
AM_BOR
 62
    22
100
AcDbLine
 10
350.0
 20
287.0000076293946
 30
0.0
 11
350.0
 21
290.9000015258789
 31
0.0
  0
LINE
  5
4D5
330
4A8
100
AcDbEntity
  8
AM_BOR
 62
    22
100
AcDbLine
 10
10.0
 20
74.25000190734862
 30
0.0
 11
6.100000143051147
 21
74.25000190734862
 31
0.0
  0
LINE
  5
4D6
330
4A8
100
AcDbEntity
  8
AM_BOR
 62
    22
100
AcDbLine
 10
410.0
 20
74.25000190734862
 30
0.0
 11
413.8999938964841
 21
74.25000190734862
 31
0.0
  0
LINE
  5
4D7
330
4A8
100
AcDbEntity
  8
AM_BOR
 62
    22
100
AcDbLine
 10
10.0
 20
222.7499961853027
 30
0.0
 11
6.100000143051147
 21
222.7499961853027
 31
0.0
  0
LINE
  5
4D8
330
4A8
100
AcDbEntity
  8
AM_BOR
 62
    22
100
AcDbLine
 10
410.0
 20
222.7499961853027
 30
0.0
 11
413.8999938964841
 21
222.7499961853027
 31
0.0
  0
TEXT
  5
4D9
330
4A8
100
AcDbEntity
  8
AM_BOR
 62
    22
100
AcDbText
 10
35.00000000000006
 20
5.000000195578532
 30
0.0
 40
3.5
  1
6
 41
0.75
100
AcDbText
  0
TEXT
  5
4DA
330
4A8
100
AcDbEntity
  8
AM_BOR
 62
    22
100
AcDbText
 10
105.0
 20
5.000000195578536
 30
0.0
 40
3.5
  1
5
 41
0.75
100
AcDbText
  0
TEXT
  5
4DB
330
4A8
100
AcDbEntity
  8
AM_BOR
 62
    22
100
AcDbText
 10
175.0
 20
5.00000019557854
 30
0.0
 40
3.5
  1
4
 41
0.75
100
AcDbText
  0
TEXT
  5
4DC
330
4A8
100
AcDbEntity
  8
AM_BOR
 62
    22
100
AcDbText
 10
245.0
 20
5.000000195578536
 30
0.0
 40
3.5
  1
3
 41
0.75
100
AcDbText
  0
TEXT
  5
4DD
330
4A8
100
AcDbEntity
  8
AM_BOR
 62
    22
100
AcDbText
 10
315.0
 20
5.000000195578536
 30
0.0
 40
3.5
  1
2
 41
0.75
100
AcDbText
  0
TEXT
  5
4DE
330
4A8
100
AcDbEntity
  8
AM_BOR
 62
    22
100
AcDbText
 10
385.0
 20
5.000000195578536
 30
0.0
 40
3.5
  1
1
 41
0.75
100
AcDbText
  0
TEXT
  5
4DF
330
4A8
100
AcDbEntity
  8
AM_BOR
 62
    22
 60
     1
100
AcDbText
 10
410.0
 20
10.0
 30
0.0
 40
6.0
  1
!GENTITLE-INSERT
 41
0.75
100
AcDbText
  0
TEXT
  5
4E0
330
4A8
100
AcDbEntity
  8
AM_BOR
 62
    22
 60
     1
100
AcDbText
 10
410.0
 20
287.0000076293946
 30
0.0
 40
6.0
  1
!GENTITLE-RU
 41
0.75
100
AcDbText
  0
TEXT
  5
4E1
330
4A8
100
AcDbEntity
  8
AM_BOR
 62
    22
 60
     1
100
AcDbText
 10
420.0
 20
297.0000076293946
 30
0.0
 40
6.0
  1
!GENTITLE-MAX
 41
0.75
100
AcDbText
  0
TEXT
  5
4E2
330
4A8
100
AcDbEntity
  8
AM_BOR
 62
    22
 60
     1
100
AcDbText
 10
9.999999775867538
 20
15.00000019557854
 30
0.0
 40
6.0
  1
!GENTITLE-LL
 41
0.75
100
AcDbText
  0
TEXT
  5
4E3
330
4A8
100
AcDbEntity
  8
AM_BOR
 62
    22
100
AcDbText
 10
411.5
 20
37.1250057220459
 30
0.0
 40
3.5
  1
A
 41
0.75
100
AcDbText
  0
TEXT
  5
4E4
330
4A8
100
AcDbEntity
  8
AM_BOR
 62
    22
100
AcDbText
 10
411.5
 20
111.3750028610229
 30
0.0
 40
3.5
  1
B
 41
0.75
100
AcDbText
  0
TEXT
  5
4E5
330
4A8
100
AcDbEntity
  8
AM_BOR
 62
    22
100
AcDbText
 10
411.5
 20
185.625
 30
0.0
 40
3.5
  1
C
 41
0.75
100
AcDbText
  0
TEXT
  5
4E6
330
4A8
100
AcDbEntity
  8
AM_BOR
 62
    22
100
AcDbText
 10
411.5
 20
259.8749971389771
 30
0.0
 40
3.5
  1
D
 41
0.75
100
AcDbText
  0
TEXT
  5
4E7
330
4A8
100
AcDbEntity
  8
AM_BOR
 62
    22
100
AcDbText
 10
35.00000000000006
 20
288.5000076293945
 30
0.0
 40
3.5
  1
6
 41
0.75
100
AcDbText
  0
TEXT
  5
4E8
330
4A8
100
AcDbEntity
  8
AM_BOR
 62
    22
100
AcDbText
 10
105.0
 20
288.5000076293945
 30
0.0
 40
3.5
  1
5
 41
0.75
100
AcDbText
  0
TEXT
  5
4E9
330
4A8
100
AcDbEntity
  8
AM_BOR
 62
    22
100
AcDbText
 10
175.0
 20
288.5000076293945
 30
0.0
 40
3.5
  1
4
 41
0.75
100
AcDbText
  0
TEXT
  5
4EA
330
4A8
100
AcDbEntity
  8
AM_BOR
 62
    22
100
AcDbText
 10
245.0
 20
288.5000076293945
 30
0.0
 40
3.5
  1
3
 41
0.75
100
AcDbText
  0
TEXT
  5
4EB
330
4A8
100
AcDbEntity
  8
AM_BOR
 62
    22
100
AcDbText
 10
315.0
 20
288.5000076293945
 30
0.0
 40
3.5
  1
2
 41
0.75
100
AcDbText
  0
TEXT
  5
4EC
330
4A8
100
AcDbEntity
  8
AM_BOR
 62
    22
100
AcDbText
 10
385.0
 20
288.5000076293945
 30
0.0
 40
3.5
  1
1
 41
0.75
100
AcDbText
  0
ENDBLK
  5
4F0
330
4A8
100
AcDbEntity
  8
0
100
AcDbBlockEnd
  0
BLOCK
  5
561
330
4F7
100
AcDbEntity
  8
0
100
AcDbBlockBegin
  2
AM_ISO_ACO
 70
     2
 10
0.0
 20
0.0
 30
0.0
  3
AM_ISO_ACO
  1

  0
HATCH
  5
4F8
330
4F7
100
AcDbEntity
  8
AM_BOR
 62
     1
100
AcDbHatch
 10
0.0
 20
0.0
 30
0.0
210
0.0
220
0.0
230
1.0
  2
SOLID
 70
     1
 71
     0
 91
        2
 92
        0
 93
        1
 72
     2
 10
-162.1210995529566
 20
32.81724359616133
 40
2.281499999999998
 50
0.0
 51
360.0
 73
     1
 97
        0
 92
        1
 93
        4
 72
     1
 10
-159.3267147985312
 20
29.34820997555153
 11
-164.9154843073818
 21
29.34820997555153
 72
     1
 10
-164.9154843073818
 20
29.34820997555153
 11
-164.9154843073818
 21
42.58301229655553
 72
     1
 10
-164.9154843073818
 20
42.58301229655557
 11
-159.3267147985312
 21
42.58301229655557
 72
     1
 10
-159.3267147985312
 20
42.58301229655557
 11
-159.3267147985312
 21
29.34820997555154
 97
        0
 75
     0
 76
     1
 98
        1
 10
-295.4154401583217
 20
-45.0
450
        0
451
        0
460
0.0
461
0.0
452
        0
462
0.0
453
        0
470

  0
HATCH
  5
4F9
330
4F7
100
AcDbEntity
  8
AM_BOR
 62
     1
100
AcDbHatch
 10
0.0
 20
0.0
 30
0.0
210
0.0
220
0.0
230
1.0
  2
SOLID
 70
     1
 71
     0
 91
        1
 92
        1
 93
        1
 72
     2
 10
-162.1210995529566
 20
32.81724359616133
 40
1.579499999999999
 50
0.0
 51
360.0
 73
     1
 97
        0
 75
     0
 76
     1
 98
        1
 10
-295.4154401583217
 20
-45.0
450
        0
451
        0
460
0.0
461
0.0
452
        0
462
0.0
453
        0
470

  0
HATCH
  5
4FA
330
4F7
100
AcDbEntity
  8
AM_BOR
 62
     1
100
AcDbHatch
 10
0.0
 20
0.0
 30
0.0
210
0.0
220
0.0
230
1.0
  2
SOLID
 70
     1
 71
     0
 91
        2
 92
        0
 93
        4
 72
     1
 10
-166.6097688313197
 20
31.67649359616135
 11
-167.2177186647763
 21
32.02749359616135
 72
     2
 10
-168.5856057900539
 20
32.8172435961614
 40
1.57950000000007
 50
30.00000000000129
 51
328.9441995009132
 73
     0
 72
     1
 10
-167.2325029527451
 20
33.63206441184238
 11
-166.6244816554613
 21
33.9831056715022
 72
     2
 10
-168.5856057900539
 20
32.81724359616126
 40
2.281500000000015
 50
30.73091726592649
 51
330.0000000000026
 73
     1
 97
        0
 92
        1
 93
        4
 72
     1
 10
-171.3799905444791
 20
42.58301229655557
 11
-171.3799905444791
 21
29.34820997555154
 72
     1
 10
-171.3799905444791
 20
29.34820997555153
 11
-165.7912210356285
 21
29.34820997555153
 72
     1
 10
-165.7912210356285
 20
29.34820997555153
 11
-165.7912210356285
 21
42.58301229655553
 72
     1
 10
-165.7912210356285
 20
42.58301229655557
 11
-171.3799905444791
 21
42.58301229655557
 97
        0
 75
     0
 76
     1
 98
        1
 10
-295.4154401583217
 20
-45.0
450
        0
451
        0
460
0.0
461
0.0
452
        0
462
0.0
453
        0
470

  0
HATCH
  5
4FB
330
4F7
100
AcDbEntity
  8
AM_BOR
 62
     1
100
AcDbHatch
 10
0.0
 20
0.0
 30
0.0
210
0.0
220
0.0
230
1.0
  2
SOLID
 70
     1
 71
     0
 91
        2
 92
        0
 93
        7
 72
     1
 10
-177.3315574449364
 20
30.50503684648902
 11
-176.6295496473843
 21
30.50503684648902
 72
     2
 10
-171.7156120271512
 20
30.48027670795838
 40
4.914000000000251
 50
180.2886970779242
 51
187.6941629645909
 73
     0
 72
     1
 10
-176.5853705209267
 20
31.13818871750345
 11
-173.5148535333759
 21
31.13818871750345
 72
     2
 10
-178.3846120271514
 20
30.48027670795925
 40
4.914000000000132
 50
352.3058370354192
 51
359.7113029220858
 73
     0
 72
     1
 10
-173.4706744069184
 20
30.50503684648902
 11
-172.7686666093664
 21
30.50503684648902
 72
     2
 10
-178.3846120271513
 20
30.48027670795932
 40
5.616000000000016
 50
0.2526096926473688
 51
53.57642635766907
 73
     1
 72
     2
 10
-171.7156120271514
 20
30.48027670795925
 40
5.616000000000025
 50
126.4235736423299
 51
179.7473903073512
 73
     1
 97
        0
 92
        1
 93
        4
 72
     1
 10
-177.8444967815765
 20
42.58301229655557
 11
-177.8444967815765
 21
29.34820997555154
 72
     1
 10
-177.8444967815765
 20
29.34820997555153
 11
-172.255727272726
 21
29.34820997555153
 72
     1
 10
-172.2557272727261
 20
29.34820997555153
 11
-172.2557272727261
 21
42.58301229655553
 72
     1
 10
-172.2557272727261
 20
42.58301229655557
 11
-177.8444967815765
 21
42.58301229655557
 97
        0
 75
     0
 76
     1
 98
        1
 10
-295.4154401583217
 20
-45.0
450
        0
451
        0
460
0.0
461
0.0
452
        0
462
0.0
453
        0
470

  0
HATCH
  5
4FC
330
4F7
100
AcDbEntity
  8
AM_BOR
 62
     1
100
AcDbHatch
 10
0.0
 20
0.0
 30
0.0
210
0.0
220
0.0
230
1.0
  2
SOLID
 70
     1
 71
     0
 91
        1
 92
        1
 93
        3
 72
     2
 10
-178.3846120271512
 20
30.48027670795943
 40
4.913999999999818
 50
16.06587502723203
 51
47.26788995739744
 73
     1
 72
     2
 10
-171.7156120271519
 20
30.48027670795932
 40
4.913999999999568
 50
132.7321100425977
 51
163.9341249727658
 73
     1
 72
     1
 10
-176.4376915824213
 20
31.84018871750347
 11
-173.6625324718815
 21
31.84018871750347
 97
        0
 75
     0
 76
     1
 98
        1
 10
-295.4154401583217
 20
-45.0
450
        0
451
        0
460
0.0
461
0.0
452
        0
462
0.0
453
        0
470

  0
CIRCLE
  5
4FD
330
4F7
100
AcDbEntity
  8
AM_BOR
  6
Continuous
 62
    22
370
    25
100
AcDbCircle
 10
-25.80008738758927
 20
30.30000000000007
 30
0.0
 40
1.1
  0
LINE
  5
4FE
330
4F7
100
AcDbEntity
  8
AM_BOR
  6
Continuous
 62
    22
370
    25
100
AcDbLine
 10
-15.80008738758926
 20
31.40000000000008
 30
0.0
 11
-15.80008738758926
 21
29.20000000000007
 31
0.0
  0
LINE
  5
4FF
330
4F7
100
AcDbEntity
  8
AM_BOR
  6
Continuous
 62
    22
370
    25
100
AcDbLine
 10
-20.80008738758926
 20
32.55000000000007
 30
0.0
 11
-20.80008738758926
 21
28.05000000000007
 31
0.0
  0
LINE
  5
500
330
4F7
100
AcDbEntity
  8
AM_BOR
  6
Continuous
 62
    22
370
    25
100
AcDbLine
 10
-15.80008738758926
 20
31.40000000000008
 30
0.0
 11
-20.80008738758926
 21
32.55000000000007
 31
0.0
  0
CIRCLE
  5
501
330
4F7
100
AcDbEntity
  8
AM_BOR
  6
Continuous
 62
    22
370
    25
100
AcDbCircle
 10
-25.80008738758927
 20
30.30000000000007
 30
0.0
 40
2.25
  0
CIRCLE
  5
502
330
4F7
100
AcDbEntity
  8
AM_BOR
  6
Continuous
 62
     1
370
    25
100
AcDbCircle
 10
-162.1210995529566
 20
32.81724359616133
 30
0.0
 40
2.281499999999998
  0
CIRCLE
  5
503
330
4F7
100
AcDbEntity
  8
AM_BOR
  6
Continuous
 62
     1
370
    25
100
AcDbCircle
 10
-162.1210995529566
 20
32.81724359616133
 30
0.0
 40
1.579499999999999
  0
ARC
  5
504
330
4F7
100
AcDbEntity
  8
AM_BOR
  6
Continuous
 62
     1
370
    25
100
AcDbCircle
 10
-168.5856057900539
 20
32.8172435961614
 30
0.0
 40
1.57950000000007
100
AcDbArc
 50
31.05580049908742
 51
329.9999999999978
  0
LINE
  5
505
330
4F7
100
AcDbEntity
  8
AM_BOR
  6
Continuous
 62
     1
370
    25
100
AcDbLine
 10
-167.2325029527451
 20
33.63206441184238
 30
0.0
 11
-166.6244816554613
 21
33.9831056715022
 31
0.0
  0
ARC
  5
506
330
4F7
100
AcDbEntity
  8
AM_BOR
  6
Continuous
 62
     1
370
    25
100
AcDbCircle
 10
-168.5856057900539
 20
32.81724359616126
 30
0.0
 40
2.281500000000015
100
AcDbArc
 50
30.73091726592576
 51
330.0000000000042
  0
LINE
  5
507
330
4F7
100
AcDbEntity
  8
AM_BOR
  6
Continuous
 62
     1
370
    25
100
AcDbLine
 10
-166.6097688313197
 20
31.67649359616135
 30
0.0
 11
-167.2177186647764
 21
32.02749359616135
 31
0.0
  0
LINE
  5
508
330
4F7
100
AcDbEntity
  8
AM_BOR
  6
Continuous
 62
     1
370
    25
100
AcDbLine
 10
-171.3799905444791
 20
42.58301229655557
 30
0.0
 11
-171.3799905444791
 21
29.34820997555153
 31
0.0
  0
LINE
  5
509
330
4F7
100
AcDbEntity
  8
AM_BOR
  6
Continuous
 62
     1
370
    25
100
AcDbLine
 10
-171.3799905444791
 20
29.34820997555153
 30
0.0
 11
-165.7912210356285
 21
29.34820997555153
 31
0.0
  0
LINE
  5
50A
330
4F7
100
AcDbEntity
  8
AM_BOR
  6
Continuous
 62
     1
370
    25
100
AcDbLine
 10
-165.7912210356285
 20
29.34820997555153
 30
0.0
 11
-165.7912210356285
 21
42.58301229655557
 31
0.0
  0
LINE
  5
50B
330
4F7
100
AcDbEntity
  8
AM_BOR
  6
Continuous
 62
     1
370
    25
100
AcDbLine
 10
-165.7912210356285
 20
42.58301229655557
 30
0.0
 11
-171.3799905444791
 21
42.58301229655557
 31
0.0
  0
LINE
  5
50C
330
4F7
100
AcDbEntity
  8
AM_BOR
  6
Continuous
 62
     1
370
    25
100
AcDbLine
 10
-159.3267147985312
 20
42.58301229655557
 30
0.0
 11
-159.3267147985312
 21
29.34820997555153
 31
0.0
  0
LINE
  5
50D
330
4F7
100
AcDbEntity
  8
AM_BOR
  6
Continuous
 62
     1
370
    25
100
AcDbLine
 10
-159.3267147985312
 20
29.34820997555153
 30
0.0
 11
-164.9154843073818
 21
29.34820997555153
 31
0.0
  0
LINE
  5
50E
330
4F7
100
AcDbEntity
  8
AM_BOR
  6
Continuous
 62
     1
370
    25
100
AcDbLine
 10
-164.9154843073818
 20
29.34820997555153
 30
0.0
 11
-164.9154843073818
 21
42.58301229655557
 31
0.0
  0
LINE
  5
50F
330
4F7
100
AcDbEntity
  8
AM_BOR
  6
Continuous
 62
     1
370
    25
100
AcDbLine
 10
-164.9154843073818
 20
42.58301229655557
 30
0.0
 11
-159.3267147985312
 21
42.58301229655557
 31
0.0
  0
ARC
  5
510
330
4F7
100
AcDbEntity
  8
AM_BOR
  6
Continuous
 62
     1
370
    25
100
AcDbCircle
 10
-171.7156120271512
 20
30.48027670795838
 30
0.0
 40
4.914000000000251
100
AcDbArc
 50
172.3058370354069
 51
179.7113029220752
  0
LINE
  5
511
330
4F7
100
AcDbEntity
  8
AM_BOR
  6
Continuous
 62
     1
370
    25
100
AcDbLine
 10
-176.5853705209267
 20
31.13818871750345
 30
0.0
 11
-173.5148535333759
 21
31.13818871750345
 31
0.0
  0
ARC
  5
512
330
4F7
100
AcDbEntity
  8
AM_BOR
  6
Continuous
 62
     1
370
    25
100
AcDbCircle
 10
-178.3846120271514
 20
30.48027670795925
 30
0.0
 40
4.914000000000132
100
AcDbArc
 50
0.2886970779141822
 51
7.694162964578518
  0
LINE
  5
513
330
4F7
100
AcDbEntity
  8
AM_BOR
  6
Continuous
 62
     1
370
    25
100
AcDbLine
 10
-173.4706744069184
 20
30.50503684648902
 30
0.0
 11
-172.7686666093663
 21
30.50503684648902
 31
0.0
  0
ARC
  5
514
330
4F7
100
AcDbEntity
  8
AM_BOR
  6
Continuous
 62
     1
370
    25
100
AcDbCircle
 10
-178.3846120271513
 20
30.48027670795932
 30
0.0
 40
5.616000000000016
100
AcDbArc
 50
0.2526096926470212
 51
53.57642635766886
  0
ARC
  5
515
330
4F7
100
AcDbEntity
  8
AM_BOR
  6
Continuous
 62
     1
370
    25
100
AcDbCircle
 10
-171.7156120271514
 20
30.48027670795925
 30
0.0
 40
5.616000000000023
100
AcDbArc
 50
126.4235736423311
 51
179.7473903073513
  0
LINE
  5
516
330
4F7
100
AcDbEntity
  8
AM_BOR
  6
Continuous
 62
     1
370
    25
100
AcDbLine
 10
-177.3315574449364
 20
30.50503684648902
 30
0.0
 11
-176.6295496473843
 21
30.50503684648902
 31
0.0
  0
LINE
  5
517
330
4F7
100
AcDbEntity
  8
AM_BOR
  6
Continuous
 62
     1
370
    25
100
AcDbLine
 10
-177.8444967815765
 20
42.58301229655557
 30
0.0
 11
-177.8444967815765
 21
29.34820997555153
 31
0.0
  0
LINE
  5
518
330
4F7
100
AcDbEntity
  8
AM_BOR
  6
Continuous
 62
     1
370
    25
100
AcDbLine
 10
-177.8444967815765
 20
29.34820997555153
 30
0.0
 11
-172.2557272727261
 21
29.34820997555153
 31
0.0
  0
LINE
  5
519
330
4F7
100
AcDbEntity
  8
AM_BOR
  6
Continuous
 62
     1
370
    25
100
AcDbLine
 10
-172.2557272727261
 20
29.34820997555153
 30
0.0
 11
-172.2557272727261
 21
42.58301229655557
 31
0.0
  0
LINE
  5
51A
330
4F7
100
AcDbEntity
  8
AM_BOR
  6
Continuous
 62
     1
370
    25
100
AcDbLine
 10
-172.2557272727261
 20
42.58301229655557
 30
0.0
 11
-177.8444967815765
 21
42.58301229655557
 31
0.0
  0
ARC
  5
51B
330
4F7
100
AcDbEntity
  8
AM_BOR
  6
Continuous
 62
     1
370
    25
100
AcDbCircle
 10
-178.3846120271512
 20
30.48027670795943
 30
0.0
 40
4.913999999999818
100
AcDbArc
 50
16.06587502723552
 51
47.26788995739659
  0
LINE
  5
51C
330
4F7
100
AcDbEntity
  8
AM_BOR
  6
Continuous
 62
     1
370
    25
100
AcDbLine
 10
-173.6625324718815
 20
31.84018871750347
 30
0.0
 11
-176.4376915824213
 21
31.84018871750347
 31
0.0
  0
ARC
  5
51D
330
4F7
100
AcDbEntity
  8
AM_BOR
  6
Continuous
 62
     1
370
    25
100
AcDbCircle
 10
-171.7156120271519
 20
30.48027670795932
 30
0.0
 40
4.913999999999566
100
AcDbArc
 50
132.7321100425989
 51
163.9341249727639
  0
LINE
  5
51E
330
4F7
100
AcDbEntity
  8
AM_BOR
 62
     7
100
AcDbLine
 10
-0.0000873875893035
 20
54.00000000000003
 30
0.0
 11
-0.0000873875892466
 21
0.0
 31
0.0
  0
LINE
  5
51F
330
4F7
100
AcDbEntity
  8
AM_BOR
 62
    22
100
AcDbLine
 10
-10.00008738758924
 20
9.000000000000056
 30
0.0
 11
-10.00008738758924
 21
-0.0000000000000142
 31
0.0
  0
LINE
  5
520
330
4F7
100
AcDbEntity
  8
AM_BOR
 62
     7
100
AcDbLine
 10
-0.0000873875892466
 20
0.0
 30
0.0
 11
-180.0000873875892
 21
-0.0000000000000142
 31
0.0
  0
LINE
  5
521
330
4F7
100
AcDbEntity
  8
AM_BOR
 62
     7
100
AcDbLine
 10
-180.0000873875892
 20
-0.0000000000000142
 30
0.0
 11
-180.0000873875893
 21
53.99999999999998
 31
0.0
  0
LINE
  5
522
330
4F7
100
AcDbEntity
  8
AM_BOR
 62
     7
100
AcDbLine
 10
-180.0000873875893
 20
53.99999999999998
 30
0.0
 11
-0.0000873875892466
 21
54.00000000000003
 31
0.0
  0
LINE
  5
523
330
4F7
100
AcDbEntity
  8
AM_BOR
 62
    22
100
AcDbLine
 10
-80.00008738758927
 20
54.00000000000003
 30
0.0
 11
-80.00008738758927
 21
44.99999999999999
 31
0.0
  0
LINE
  5
524
330
4F7
100
AcDbEntity
  8
AM_BOR
 62
    22
100
AcDbLine
 10
-80.00008738758927
 20
44.99999999999999
 30
0.0
 11
-180.0000873875892
 21
45.0
 31
0.0
  0
LINE
  5
525
330
4F7
100
AcDbEntity
  8
AM_BOR
 62
    22
100
AcDbLine
 10
-80.00008738758927
 20
44.99999999999999
 30
0.0
 11
-0.0000873875892466
 21
45.00000000000002
 31
0.0
  0
LINE
  5
526
330
4F7
100
AcDbEntity
  8
AM_BOR
 62
     7
100
AcDbLine
 10
-0.0000873875892466
 20
27.0
 30
0.0
 11
-180.0000873875892
 21
26.99999999999999
 31
0.0
  0
LINE
  5
527
330
4F7
100
AcDbEntity
  8
AM_BOR
 62
    22
100
AcDbLine
 10
-30.00008738758925
 20
54.00000000000003
 30
0.0
 11
-30.00008738758925
 21
45.0
 31
0.0
  0
LINE
  5
528
330
4F7
100
AcDbEntity
  8
AM_BOR
 62
     7
100
AcDbLine
 10
-180.0000873875892
 20
8.999999999999969
 30
0.0
 11
-0.0000873875892466
 21
9.000000000000056
 31
0.0
  0
LINE
  5
529
330
4F7
100
AcDbEntity
  8
AM_BOR
 62
    22
100
AcDbLine
 10
-70.00008738758926
 20
9.000000000000012
 30
0.0
 11
-70.00008738758926
 21
-0.0000000000000142
 31
0.0
  0
LINE
  5
52A
330
4F7
100
AcDbEntity
  8
AM_BOR
 62
    22
100
AcDbLine
 10
-130.0000873875892
 20
35.99999999999996
 30
0.0
 11
-0.0000873875892466
 21
36.00000000000007
 31
0.0
  0
LINE
  5
52B
330
4F7
100
AcDbEntity
  8
AM_BOR
 62
    22
100
AcDbLine
 10
-80.00008738758927
 20
36.0
 30
0.0
 11
-80.00008738758927
 21
27.0
 31
0.0
  0
LINE
  5
52C
330
4F7
100
AcDbEntity
  8
AM_BOR
 62
    22
100
AcDbLine
 10
-40.00008738758924
 20
9.000000000000042
 30
0.0
 11
-40.00008738758924
 21
0.0
 31
0.0
  0
LINE
  5
52D
330
4F7
100
AcDbEntity
  8
AM_BOR
 62
    22
100
AcDbLine
 10
-30.00008738758925
 20
36.00000000000004
 30
0.0
 11
-30.00008738758925
 21
27.00000000000006
 31
0.0
  0
LINE
  5
52E
330
4F7
100
AcDbEntity
  8
AM_BOR
 62
    22
100
AcDbLine
 10
-10.00008738758924
 20
36.00000000000008
 30
0.0
 11
-10.00008738758924
 21
27.0000000000001
 31
0.0
  0
LINE
  5
52F
330
4F7
100
AcDbEntity
  8
AM_BOR
 62
    22
100
AcDbLine
 10
-20.80008738758926
 20
28.05000000000007
 30
0.0
 11
-15.80008738758926
 21
29.20000000000007
 31
0.0
  0
LINE
  5
530
330
4F7
100
AcDbEntity
  8
AM_BOR
 62
    22
100
AcDbLine
 10
-80.00008738758927
 20
36.0
 30
0.0
 11
-80.00008738758927
 21
45.00000000000006
 31
0.0
  0
LINE
  5
531
330
4F7
100
AcDbEntity
  8
AM_BOR
 62
    22
100
AcDbLine
 10
-65.00008738758926
 20
36.00000000000001
 30
0.0
 11
-65.00008738758926
 21
45.00000000000006
 31
0.0
  0
LINE
  5
532
330
4F7
100
AcDbEntity
  8
AM_BOR
 62
    22
100
AcDbLine
 10
-130.0000873875892
 20
27.0
 30
0.0
 11
-130.0000873875893
 21
53.99999999999998
 31
0.0
  0
LINE
  5
533
330
4F7
100
AcDbEntity
  8
AM_BOR
 62
    22
100
AcDbLine
 10
-30.00008738758925
 20
45.00000000000014
 30
0.0
 11
-30.00008738758925
 21
36.00000000000007
 31
0.0
  0
LINE
  5
534
330
4F7
100
AcDbEntity
  8
AM_BOR
 62
    22
 48
0.2
100
AcDbLine
 10
-15.30008738758926
 20
30.30000000000007
 30
0.0
 11
-21.30008738758926
 21
30.30000000000007
 31
0.0
  0
LINE
  5
535
330
4F7
100
AcDbEntity
  8
AM_BOR
 62
    22
 48
0.2
100
AcDbLine
 10
-25.80008738758927
 20
33.05000000000005
 30
0.0
 11
-25.80008738758927
 21
27.55000000000007
 31
0.0
  0
LINE
  5
536
330
4F7
100
AcDbEntity
  8
AM_BOR
 62
    22
 48
0.2
100
AcDbLine
 10
-28.55008738758927
 20
30.30000000000006
 30
0.0
 11
-23.05008738758926
 21
30.30000000000007
 31
0.0
  0
MTEXT
  5
537
102
{ACAD_XDICTIONARY
360
538
102
}
330
4F7
100
AcDbEntity
  8
AM_BOR
 62
    22
100
AcDbMText
 10
-179.3000873875892
 20
7.438735887408212
 30
0.0
 40
1.199999973177909
 41
0.0
 46
0.0
 71
     1
 72
     1
  3
The reproduction, distribution and utilization of this document as well as the communication of its contents to others without express authorization is\Pprohibited. Offenders will be held liable for the payment of damages. All rights reserved in the 
  1
event of the grant of a patent, utility model or design.{\H1.73568x; }\PObserve copyright by ISO 16016{\H2.47137x; }
 73
     2
 44
0.6585894227027893
  0
MTEXT
  5
539
330
4F7
100
AcDbEntity
  8
0
 62
     1
100
AcDbMText
 10
-157.0000873875892
 20
42.96646344661712
 30
0.0
 40
2.000000029802321
 41
0.0
 46
0.0
 71
     1
 72
     1
  1
{\fArial|b1|i0|c0|p34;\C1;ACO Industries k.s.}
 73
     2
 44
1.0
  0
MTEXT
  5
53A
330
4F7
100
AcDbEntity
  8
0
 62
     1
100
AcDbMText
 10
-157.0000873875892
 20
39.49085366725923
 30
0.0
 40
1.500000059604644
 41
0.0
 46
0.0
 71
     1
 72
     1
  1
{\fArial|b0|i0|c0|p34;\C1;Havlíčkova 260\P582 22 Přibyslav; CZ\PTel.: +420 569 491 111\Pwww.aco.com\Pwww.aco-industries.cz}
 73
     2
 44
0.9442214965820312
  0
ATTDEF
  5
53B
330
4F7
100
AcDbEntity
  8
AM_BOR
 62
     7
100
AcDbText
 10
-175.2809828846612
 20
19.97058557888066
 30
0.0
 40
3.5
  1

 41
0.75
100
AcDbAttributeDefinition
280
     0
  3
Description
  2
DESCRIPTION
 70
     0
280
     0
  0
ATTDEF
  5
53C
102
{ACAD_XDICTIONARY
360
53D
102
}
330
4F7
100
AcDbEntity
  8
AM_BOR
 62
     3
100
AcDbText
 10
-125.0000873875892
 20
38.4515918054344
 30
0.0
 40
2.70000010728836
  1
416912
 41
0.75
100
AcDbAttributeDefinition
280
     0
  3
Drawing Number
  2
DRAWING_NUMBER
 70
     8
280
     0
  0
ATTDEF
  5
541
330
4F7
100
AcDbEntity
  8
AM_BOR
 62
     3
100
AcDbText
 10
-61.31575711723765
 20
38.4515918054344
 30
0.0
 40
2.70000010728836
  1

 41
0.75
100
AcDbAttributeDefinition
280
     0
  3
Article Number
  2
ARTICLE_NUMBER
 70
     0
280
     0
  0
ATTDEF
  5
542
330
4F7
100
AcDbEntity
  8
AM_BOR
 62
     7
100
AcDbText
 10
-175.2809828846612
 20
12.43869674478581
 30
0.0
 40
3.5
  1

 41
0.75
100
AcDbAttributeDefinition
280
     0
  3
Project
  2
PROJECT
 70
     0
280
     0
  0
ATTDEF
  5
543
330
4F7
100
AcDbEntity
  8
AM_BOR
 62
     3
370
    25
100
AcDbText
 10
-125.0000873875892
 20
29.10998220850728
 30
0.0
 40
2.70000010728836
  1

 41
0.75
100
AcDbAttributeDefinition
280
     0
  3
Drawn by
  2
GEN-TITLE-NAME{14.9}
 70
     0
280
     0
1001
GENIUS_GENTRA_14
1002
{
1070
     3
1000
GENTRAPR,%s,(GENMSG gentitis 72)
1000
Drawn by
1000
ENU
1070
     0
1070
     0
1002
}
  0
ATTDEF
  5
544
330
4F7
100
AcDbEntity
  8
AM_BOR
 62
     3
370
    25
100
AcDbText
 10
-68.32276418469326
 20
2.275911252322075
 30
0.0
 40
2.7
  1

 41
0.75
100
AcDbAttributeDefinition
280
     0
  3
Draft Date
  2
GEN-TITLE-DAT{7.1}
 70
     0
280
     0
1001
GENIUS_GENTRA_14
1002
{
1070
     3
1000
GENTRAPR,%s,(GENMSG gentitis 73)
1000
Draft Date
1000
ENU
1070
     0
1070
     0
1002
}
  0
ATTDEF
  5
545
330
4F7
100
AcDbEntity
  8
AM_BOR
 62
     3
100
AcDbText
 10
-77.35573440948576
 20
29.49380101988673
 30
0.0
 40
2.70000010728836
  1

 41
0.75
100
AcDbAttributeDefinition
280
     0
  3
Manager
  2
MANAGER
 70
     0
280
     0
  0
ATTDEF
  5
546
330
4F7
100
AcDbEntity
  8
AM_BOR
 62
     3
370
    25
100
AcDbText
 10
-38.32276418469326
 20
2.275911252322075
 30
0.0
 40
2.7
  1

 41
0.75
100
AcDbAttributeDefinition
280
     0
  3
Relase Date
  2
RELASE_DATE
 70
     0
280
     0
  0
ATTDEF
  5
547
330
4F7
100
AcDbEntity
  8
AM_BOR
 62
     3
100
AcDbText
 10
-170.7458059250444
 20
47.51243165344564
 30
0.0
 40
2.70000010728836
  1

 41
0.75
100
AcDbAttributeDefinition
280
     0
  3
Material
  2
MATERIAL
 70
     0
280
     0
  0
ATTDEF
  5
548
330
4F7
100
AcDbEntity
  8
AM_BOR
 62
     3
100
AcDbText
 10
-10.43516091682522
 20
47.45159180543459
 30
0.0
 40
2.70000010728836
  1

 41
0.75
 72
     2
 11
-10.43516091682522
 21
47.45159180543459
 31
0.0
100
AcDbAttributeDefinition
280
     0
  3
Mass (kg)
  2
MASS
 70
     0
280
     0
  0
ATTDEF
  5
549
330
4F7
100
AcDbEntity
  8
AM_BOR
 62
     3
100
AcDbText
 10
-15.00004369379462
 20
38.45159180543453
 30
0.0
 40
2.399999999999999
  1

 41
0.6
 72
     1
 11
-15.00004369379462
 21
38.45159180543453
 31
0.0
100
AcDbAttributeDefinition
280
     0
  3
Surface finish
  2
SURFACE_FINISH
 70
     0
280
     0
  0
TEXT
  5
54A
330
4F7
100
AcDbEntity
  8
AM_BOR
 62
    22
100
AcDbText
 10
-179.3000873875893
 20
51.79999994039535
 30
0.0
 40
1.5
  1
Material
 41
0.75
100
AcDbText
  0
TEXT
  5
54B
330
4F7
100
AcDbEntity
  8
AM_BOR
 62
    22
100
AcDbText
 10
-129.3000873875892
 20
51.7999999403954
 30
0.0
 40
1.5
  1
Tolerance
 41
0.75
100
AcDbText
  0
TEXT
  5
54C
330
4F7
100
AcDbEntity
  8
AM_BOR
 62
    22
100
AcDbText
 10
-79.31330372008409
 20
51.81295218151342
 30
0.0
 40
1.5
  1
Tolerance for welding
 41
0.75
100
AcDbText
  0
TEXT
  5
54D
330
4F7
100
AcDbEntity
  8
AM_BOR
 62
    22
100
AcDbText
 10
-29.30008738758927
 20
51.79999994039557
 30
0.0
 40
1.5
  1
Mass
 41
0.75
100
AcDbText
  0
TEXT
  5
54E
330
4F7
100
AcDbEntity
  8
AM_BOR
 62
    22
100
AcDbText
 10
-129.3000873875892
 20
42.74725942245754
 30
0.0
 40
1.5
  1
Drawing NO.
 41
0.75
100
AcDbText
  0
TEXT
  5
54F
330
4F7
100
AcDbEntity
  8
AM_BOR
 62
    22
100
AcDbText
 10
-79.30008738758925
 20
42.7754433227757
 30
0.0
 40
1.5
  1
Index
 41
0.75
100
AcDbText
  0
TEXT
  5
550
330
4F7
100
AcDbEntity
  8
AM_BOR
 62
    22
100
AcDbText
 10
-64.30008738758925
 20
42.79999994039545
 30
0.0
 40
1.5
  1
Article
 41
0.75
100
AcDbText
  0
TEXT
  5
551
330
4F7
100
AcDbEntity
  8
AM_BOR
 62
    22
100
AcDbText
 10
-29.30008738758927
 20
42.79999994039549
 30
0.0
 40
1.5
  1
Surface finish
 41
0.75
100
AcDbText
  0
TEXT
  5
552
330
4F7
100
AcDbEntity
  8
AM_BOR
 62
    22
100
AcDbText
 10
-129.3000873875892
 20
33.77198915843531
 30
0.0
 40
1.5
  1
Created by
 41
0.75
100
AcDbText
  0
TEXT
  5
553
330
4F7
100
AcDbEntity
  8
AM_BOR
 62
    22
100
AcDbText
 10
-79.30008738758925
 20
33.7929220574444
 30
0.0
 40
1.5
  1
Reviewed by
 41
0.75
100
AcDbText
  0
TEXT
  5
554
330
4F7
100
AcDbEntity
  8
AM_BOR
 62
    22
100
AcDbText
 10
-29.30470212204216
 20
33.79672426885379
 30
0.0
 40
1.5
  1
Projection ISO-E
 41
0.75
100
AcDbText
  0
TEXT
  5
555
330
4F7
100
AcDbEntity
  8
AM_BOR
 62
    22
100
AcDbText
 10
-9.298890019821213
 20
33.79773427974983
 30
0.0
 40
1.5
  1
Scale
 41
0.75
100
AcDbText
  0
TEXT
  5
556
330
4F7
100
AcDbEntity
  8
AM_BOR
 62
    22
100
AcDbText
 10
-179.3000873875892
 20
24.7754433227755
 30
0.0
 40
1.5
  1
Title
 41
0.75
100
AcDbText
  0
TEXT
  5
557
330
4F7
100
AcDbEntity
  8
AM_BOR
 62
    22
100
AcDbText
 10
-69.20387214788928
 20
6.78738247230012
 30
0.0
 40
1.5
  1
Created date
 41
0.75
100
AcDbText
  0
TEXT
  5
558
330
4F7
100
AcDbEntity
  8
AM_BOR
 62
    22
100
AcDbText
 10
-39.22806713963564
 20
6.795756816832747
 30
0.0
 40
1.5
  1
Relase date
 41
0.75
100
AcDbText
  0
TEXT
  5
559
330
4F7
100
AcDbEntity
  8
AM_BOR
 62
     3
100
AcDbText
 10
-125.0000873875892
 20
46.99999988079077
 30
0.0
 40
3.0
  1
ISO 2768 - 1m - 2L
 41
0.6
100
AcDbText
  0
TEXT
  5
55A
330
4F7
100
AcDbEntity
  8
AM_BOR
 62
     3
100
AcDbText
 10
-74.9882286534218
 20
46.97413160587564
 30
0.0
 40
3.0
  1
EN ISO 13920 - A
 41
0.6
100
AcDbText
  0
ATTDEF
  5
55B
330
4F7
100
AcDbEntity
  8
AM_BOR
 62
     3
370
    25
100
AcDbText
 10
-72.17405650158788
 20
38.43515106531924
 30
0.0
 40
2.70000010728836
  1

 41
0.75
 72
     1
 11
-72.17405650158788
 21
38.43515106531924
 31
0.0
100
AcDbAttributeDefinition
280
     0
  3
Revision
  2
GEN-TITLE-REV{22.6}
 70
     0
280
     0
1001
GENIUS_GENTRA_14
1002
{
1070
     3
1000
GENTRAPR,%s,(GENMSG gentitis 87)
1000
Revision
1000
ENU
1070
     0
1070
     0
1002
}
  0
ATTDEF
  5
55C
330
4F7
100
AcDbEntity
  8
AM_BOR
 62
     3
370
    50
100
AcDbText
 10
-5.86790087113731
 20
29.44619633413276
 30
0.0
 40
2.70000010728836
  1
-
 41
0.75
 72
     1
 11
-5.000043693794623
 21
29.44619633413276
 31
0.0
100
AcDbAttributeDefinition
280
     0
  3
Scale
  2
GEN-TITLE-SCA{5.42}
 70
     0
280
     0
1001
GENIUS_GENTRA_14
1002
{
1070
     3
1000
GENTRAPR,%s,(GENMSG gendwg 83)
1000
Scale
1000
ENU
1070
     0
1070
     0
1002
}
  0
ATTDEF
  5
55D
330
4F7
100
AcDbEntity
  8
AM_BOR
 62
     3
370
    25
100
AcDbText
 10
-4.837525798838669
 20
2.292009612959418
 30
0.0
 40
2.70000010728836
  1

 41
0.75
 72
     1
 11
-4.837525798838669
 21
2.292009612959418
 31
0.0
100
AcDbAttributeDefinition
280
     0
  3
Size
  2
GEN-TITLE-SIZ{22.6}
 70
     0
280
     0
1001
GENIUS_GENTRA_14
1002
{
1070
     3
1000
GENTRAPR,%s,(GENMSG gentitis 88)
1000
Size
1000
ENU
1070
     0
1070
     0
1002
}
  0
TEXT
  5
55E
330
4F7
100
AcDbEntity
  8
AM_BOR
100
AcDbText
 10
-7.5
 20
47.5
 30
0.0
 40
2.7
  1
kg
 41
0.75
100
AcDbText
  0
ENDBLK
  5
562
330
4F7
100
AcDbEntity
  8
0
100
AcDbBlockEnd
  0
BLOCK
  5
58E
330
58D
100
AcDbEntity
  8
0
100
AcDbBlockBegin
  2
*D5
 70
     1
 10
0.0
 20
0.0
 30
0.0
  3
*D5
  1

  0
LINE
  5
5CA
330
58D
100
AcDbEntity
  8
AM_5
440
 16777216
100
AcDbLine
 10
879.254346594098
 20
5177.323097808869
 30
0.0
 11
879.254346594098
 21
4533.899165782401
 31
0.0
  0
LINE
  5
5CB
330
58D
100
AcDbEntity
  8
AM_5
440
 16777216
100
AcDbLine
 10
2367.717206054687
 20
5177.323097808869
 30
0.0
 11
2367.717206054687
 21
4533.899165782401
 31
0.0
  0
LINE
  5
5CC
330
58D
100
AcDbEntity
  8
AM_5
440
 16777216
100
AcDbLine
 10
949.2543465940981
 20
4553.899165782399
 30
0.0
 11
2297.717206054687
 21
4553.899165782399
 31
0.0
  0
SOLID
  5
5CD
330
58D
100
AcDbEntity
  8
AM_5
440
 16777216
100
AcDbTrace
 10
949.2543465940981
 20
4565.565832449068
 30
0.0
 11
949.2543465940981
 21
4542.232499115733
 31
0.0
 12
879.254346594098
 22
4553.899165782399
 32
0.0
 13
879.254346594098
 23
4553.899165782399
 33
0.0
  0
SOLID
  5
5CE
330
58D
100
AcDbEntity
  8
AM_5
440
 16777216
100
AcDbTrace
 10
2297.717206054687
 20
4565.565832449068
 30
0.0
 11
2297.717206054687
 21
4542.232499115733
 31
0.0
 12
2367.717206054687
 22
4553.899165782399
 32
0.0
 13
2367.717206054687
 23
4553.899165782399
 33
0.0
  0
MTEXT
  5
5CF
330
58D
100
AcDbEntity
  8
AM_5
 62
     3
440
 16777216
100
AcDbMText
 10
1623.485776324393
 20
4618.899165782401
 30
0.0
 40
70.0
 41
0.0
 46
0.0
 71
     5
 72
     1
  1
1488.46
 73
     1
 44
1.0
  0
POINT
  5
5D0
330
58D
100
AcDbEntity
  8
Defpoints
 62
     0
440
 16777216
100
AcDbPoint
 10
879.254346594098
 20
5177.323097808869
 30
0.0
  0
POINT
  5
5D1
330
58D
100
AcDbEntity
  8
Defpoints
 62
     0
440
 16777216
100
AcDbPoint
 10
2367.717206054687
 20
5177.323097808869
 30
0.0
  0
POINT
  5
5D2
330
58D
100
AcDbEntity
  8
Defpoints
 62
     0
440
 16777216
100
AcDbPoint
 10
2367.717206054687
 20
4553.899165782399
 30
0.0
  0
ENDBLK
  5
58F
330
58D
100
AcDbEntity
  8
0
100
AcDbBlockEnd
  0
BLOCK
  5
8C1
330
8C0
100
AcDbEntity
  8
0
100
AcDbBlockBegin
  2
*D6
 70
     1
 10
0.0
 20
0.0
 30
0.0
  3
*D6
  1

  0
LINE
  5
8FC
330
8C0
100
AcDbEntity
  8
AM_5
440
 16777216
100
AcDbLine
 10
24.57844953126552
 20
222.5000038146973
 30
0.0
 11
24.57844953126552
 21
245.5000048146973
 31
0.0
  0
LINE
  5
8FD
330
8C0
100
AcDbEntity
  8
AM_5
440
 16777216
100
AcDbLine
 10
192.5784495312655
 20
222.5000038146973
 30
0.0
 11
192.5784495312655
 21
245.5000048146973
 31
0.0
  0
LINE
  5
8FE
330
8C0
100
AcDbEntity
  8
AM_5
440
 16777216
100
AcDbLine
 10
28.07844953126551
 20
244.5000048146972
 30
0.0
 11
189.0784495312655
 21
244.5000048146972
 31
0.0
  0
SOLID
  5
8FF
330
8C0
100
AcDbEntity
  8
AM_5
440
 16777216
100
AcDbTrace
 10
28.07844953126551
 20
245.0833381480306
 30
0.0
 11
28.07844953126551
 21
243.9166714813639
 31
0.0
 12
24.57844953126552
 22
244.5000048146972
 32
0.0
 13
24.57844953126552
 23
244.5000048146972
 33
0.0
  0
SOLID
  5
900
330
8C0
100
AcDbEntity
  8
AM_5
440
 16777216
100
AcDbTrace
 10
189.0784495312655
 20
245.0833381480306
 30
0.0
 11
189.0784495312655
 21
243.9166714813639
 31
0.0
 12
192.5784495312655
 22
244.5000048146972
 32
0.0
 13
192.5784495312655
 23
244.5000048146972
 33
0.0
  0
MTEXT
  5
901
330
8C0
100
AcDbEntity
  8
AM_5
 62
     3
440
 16777216
100
AcDbMText
 10
108.5784495312655
 20
247.7500048146973
 30
0.0
 40
3.5
 41
0.0
 46
0.0
 71
     5
 72
     1
  1
168
 73
     1
 44
1.0
  0
POINT
  5
902
330
8C0
100
AcDbEntity
  8
Defpoints
 62
     0
440
 16777216
100
AcDbPoint
 10
24.57844953126552
 20
222.5000038146973
 30
0.0
  0
POINT
  5
903
330
8C0
100
AcDbEntity
  8
Defpoints
 62
     0
440
 16777216
100
AcDbPoint
 10
192.5784495312655
 20
222.5000038146973
 30
0.0
  0
POINT
  5
904
330
8C0
100
AcDbEntity
  8
Defpoints
 62
     0
440
 16777216
100
AcDbPoint
 10
192.5784495312655
 20
244.5000048146972
 30
0.0
  0
ENDBLK
  5
8C2
330
8C0
100
AcDbEntity
  8
0
100
AcDbBlockEnd
  0
BLOCK
  5
907
330
906
100
AcDbEntity
  8
0
100
AcDbBlockBegin
  2
*D7
 70
     1
 10
0.0
 20
0.0
 30
0.0
  3
*D7
  1

  0
LINE
  5
91D
330
906
100
AcDbEntity
  8
AM_5
440
 16777216
100
AcDbLine
 10
34.57844953126552
 20
232.5000038146974
 30
0.0
 11
11.57844853126547
 21
232.5000038146974
 31
0.0
  0
LINE
  5
91E
330
906
100
AcDbEntity
  8
AM_5
440
 16777216
100
AcDbLine
 10
34.57844953126552
 20
64.50000381469727
 30
0.0
 11
11.57844853126551
 21
64.50000381469727
 31
0.0
  0
LINE
  5
91F
330
906
100
AcDbEntity
  8
AM_5
440
 16777216
100
AcDbLine
 10
12.57844853126547
 20
229.0000038146974
 30
0.0
 11
12.57844853126551
 21
68.00000381469728
 31
0.0
  0
SOLID
  5
920
330
906
100
AcDbEntity
  8
AM_5
440
 16777216
100
AcDbTrace
 10
11.99511519793214
 20
229.0000038146974
 30
0.0
 11
13.16178186459881
 21
229.0000038146974
 31
0.0
 12
12.57844853126547
 22
232.5000038146974
 32
0.0
 13
12.57844853126547
 23
232.5000038146974
 33
0.0
  0
SOLID
  5
921
330
906
100
AcDbEntity
  8
AM_5
440
 16777216
100
AcDbTrace
 10
11.99511519793217
 20
68.00000381469728
 30
0.0
 11
13.16178186459884
 21
68.00000381469728
 31
0.0
 12
12.57844853126551
 22
64.50000381469727
 32
0.0
 13
12.57844853126551
 23
64.50000381469727
 33
0.0
  0
MTEXT
  5
922
330
906
100
AcDbEntity
  8
AM_5
 62
     3
440
 16777216
100
AcDbMText
 10
9.328448531265527
 20
148.5000038146973
 30
0.0
 40
3.5
 41
0.0
 46
0.0
 71
     5
 72
     1
  1
168
 11
0.0000000000000001
 21
1.0
 31
0.0
 73
     1
 44
1.0
  0
POINT
  5
923
330
906
100
AcDbEntity
  8
Defpoints
 62
     0
440
 16777216
100
AcDbPoint
 10
34.57844953126552
 20
232.5000038146974
 30
0.0
  0
POINT
  5
924
330
906
100
AcDbEntity
  8
Defpoints
 62
     0
440
 16777216
100
AcDbPoint
 10
34.57844953126552
 20
64.50000381469727
 30
0.0
  0
POINT
  5
925
330
906
100
AcDbEntity
  8
Defpoints
 62
     0
440
 16777216
100
AcDbPoint
 10
12.57844853126551
 20
64.50000381469727
 30
0.0
  0
ENDBLK
  5
908
330
906
100
AcDbEntity
  8
0
100
AcDbBlockEnd
  0
BLOCK
  5
928
330
927
100
AcDbEntity
  8
0
100
AcDbBlockBegin
  2
*D8
 70
     1
 10
0.0
 20
0.0
 30
0.0
  3
*D8
  1

  0
LINE
  5
947
330
927
100
AcDbEntity
  8
AM_5
440
 16777216
100
AcDbLine
 10
378.1256214896249
 20
161.7781003885521
 30
0.0
 11
391.1256214896257
 21
161.7781003885521
 31
0.0
  0
LINE
  5
948
330
927
100
AcDbEntity
  8
AM_5
440
 16777216
100
AcDbLine
 10
378.1256214896249
 20
136.7781003885521
 30
0.0
 11
391.1256214896257
 21
136.7781003885521
 31
0.0
  0
LINE
  5
949
330
927
100
AcDbEntity
  8
AM_5
440
 16777216
100
AcDbLine
 10
390.1256214896257
 20
158.2781003885521
 30
0.0
 11
390.1256214896257
 21
140.2781003885521
 31
0.0
  0
SOLID
  5
94A
330
927
100
AcDbEntity
  8
AM_5
440
 16777216
100
AcDbTrace
 10
389.5422881562923
 20
158.2781003885521
 30
0.0
 11
390.708954822959
 21
158.2781003885521
 31
0.0
 12
390.1256214896257
 22
161.7781003885521
 32
0.0
 13
390.1256214896257
 23
161.7781003885521
 33
0.0
  0
SOLID
  5
94B
330
927
100
AcDbEntity
  8
AM_5
440
 16777216
100
AcDbTrace
 10
389.5422881562923
 20
140.2781003885521
 30
0.0
 11
390.708954822959
 21
140.2781003885521
 31
0.0
 12
390.1256214896257
 22
136.7781003885521
 32
0.0
 13
390.1256214896257
 23
136.7781003885521
 33
0.0
  0
MTEXT
  5
94C
330
927
100
AcDbEntity
  8
AM_5
 62
     3
440
 16777216
100
AcDbMText
 10
386.8756214896257
 20
149.2781003885519
 30
0.0
 40
3.5
 41
0.0
 46
0.0
 71
     5
 72
     1
  1
25
 11
0.0000000000000001
 21
1.0
 31
0.0
 73
     1
 44
1.0
  0
POINT
  5
94D
330
927
100
AcDbEntity
  8
Defpoints
 62
     0
440
 16777216
100
AcDbPoint
 10
378.1256214896249
 20
161.7781003885521
 30
0.0
  0
POINT
  5
94E
330
927
100
AcDbEntity
  8
Defpoints
 62
     0
440
 16777216
100
AcDbPoint
 10
378.1256214896249
 20
136.7781003885521
 30
0.0
  0
POINT
  5
94F
330
927
100
AcDbEntity
  8
Defpoints
 62
     0
440
 16777216
100
AcDbPoint
 10
390.1256214896257
 20
136.7781003885521
 30
0.0
  0
ENDBLK
  5
929
330
927
100
AcDbEntity
  8
0
100
AcDbBlockEnd
  0
BLOCK
  5
969
330
964
100
AcDbEntity
  8
0
100
AcDbBlockBegin
  2
*S1299
 70
     1
 10
0.0
 20
0.0
 30
0.0
  3
*S1299
  1

  0
LINE
  5
965
330
964
100
AcDbEntity
  8
AM_5
 62
    52
370
    25
100
AcDbLine
 10
2781.936356257812
 20
4450.3658921321
 30
0.0
 11
2699.436356257811
 21
4450.3658921321
 31
0.0
  0
LINE
  5
966
330
964
100
AcDbEntity
  8
AM_5
 62
    52
370
    25
100
AcDbLine
 10
2699.436356257811
 20
4450.3658921321
 30
0.0
 11
2476.857660084369
 21
4227.787195958658
 31
0.0
  0
TRACE
  5
967
330
964
100
AcDbEntity
  8
AM_5
  6
Continuous
 62
    52
370
    25
100
AcDbTrace
 10
2468.608081003524
 20
4236.036775039504
 30
0.0
 11
2485.107239165214
 21
4219.537616877813
 31
0.0
 12
2427.36018540131
 22
4178.289721275599
 32
0.0
 13
2427.36018540131
 23
4178.289721275599
 33
0.0
  0
MTEXT
  5
968
330
964
100
AcDbEntity
  8
AM_5
 62
    52
100
AcDbMText
 10
2769.436356257811
 20
4485.3658921321
 30
0.0
 40
70.0
 41
0.0
 46
0.0
 71
     7
 72
     5
  1
\H70;1
 73
     1
 44
1.0
  0
ENDBLK
  5
96A
330
964
100
AcDbEntity
  8
0
100
AcDbBlockEnd
  0
ENDSEC
  0
SECTION
  2
ENTITIES
  0
LINE
  5
76E
330
1F
100
AcDbEntity
  8
AM_0
100
AcDbLine
 10
24.57844953126552
 20
148.5500038146974
 30
0.0
 11
29.57844953126551
 21
148.5500038146974
 31
0.0
  0
LINE
  5
76F
330
1F
100
AcDbEntity
  8
AM_0
100
AcDbLine
 10
29.57844953126551
 20
148.4500038146971
 30
0.0
 11
24.57844953126552
 21
148.4500038146971
 31
0.0
  0
LINE
  5
770
330
1F
100
AcDbEntity
  8
AM_0
100
AcDbLine
 10
29.57844953126551
 20
74.50000381469727
 30
0.0
 11
29.57844953126551
 21
148.4500038146971
 31
0.0
  0
LINE
  5
771
330
1F
100
AcDbEntity
  8
AM_0
100
AcDbLine
 10
24.57844953126552
 20
148.5500038146974
 30
0.0
 11
24.57844953126552
 21
222.5000038146973
 31
0.0
  0
LINE
  5
772
330
1F
100
AcDbEntity
  8
AM_0
100
AcDbLine
 10
29.57844953126551
 20
148.5500038146974
 30
0.0
 11
29.57844953126551
 21
222.5000038146973
 31
0.0
  0
LINE
  5
773
330
1F
100
AcDbEntity
  8
AM_0
100
AcDbLine
 10
34.57844953126552
 20
227.5000038146973
 30
0.0
 11
182.5784495312655
 21
227.5000038146973
 31
0.0
  0
LINE
  5
774
330
1F
100
AcDbEntity
  8
AM_0
100
AcDbLine
 10
187.5784495312655
 20
222.5000038146973
 30
0.0
 11
187.5784495312655
 21
74.50000381469727
 31
0.0
  0
LINE
  5
775
102
{ACAD_REACTORS
330
913
102
}
330
1F
100
AcDbEntity
  8
AM_0
100
AcDbLine
 10
182.5784495312655
 20
64.50000381469727
 30
0.0
 11
34.57844953126552
 21
64.50000381469727
 31
0.0
  0
LINE
  5
776
330
1F
100
AcDbEntity
  8
AM_0
100
AcDbLine
 10
182.5784495312655
 20
69.50000381469727
 30
0.0
 11
34.57844953126552
 21
69.50000381469727
 31
0.0
  0
LINE
  5
777
330
1F
100
AcDbEntity
  8
AM_0
100
AcDbLine
 10
24.57844953126552
 20
74.50000381469727
 30
0.0
 11
24.57844953126552
 21
148.4500038146971
 31
0.0
  0
LINE
  5
778
330
1F
100
AcDbEntity
  8
AM_0
100
AcDbLine
 10
192.5784495312655
 20
222.5000038146973
 30
0.0
 11
192.5784495312655
 21
74.50000381469727
 31
0.0
  0
LINE
  5
779
330
1F
100
AcDbEntity
  8
AM_0
100
AcDbLine
 10
34.57844953126552
 20
232.5000038146973
 30
0.0
 11
182.5784495312655
 21
232.5000038146973
 31
0.0
  0
ARC
  5
77A
330
1F
100
AcDbEntity
  8
AM_0
100
AcDbCircle
 10
34.57844953126552
 20
222.5000038146973
 30
0.0
 40
4.999999999999971
100
AcDbArc
 50
90.0
 51
180.0
  0
ARC
  5
77B
330
1F
100
AcDbEntity
  8
AM_0
100
AcDbCircle
 10
182.5784495312655
 20
222.5000038146973
 30
0.0
 40
5.0
100
AcDbArc
 50
0.0
 51
90.0
  0
ARC
  5
77C
330
1F
100
AcDbEntity
  8
AM_0
100
AcDbCircle
 10
182.5784495312655
 20
74.50000381469727
 30
0.0
 40
4.999999999999971
100
AcDbArc
 50
270.0
 51
0.0
  0
ARC
  5
77D
330
1F
100
AcDbEntity
  8
AM_0
100
AcDbCircle
 10
34.57844953126552
 20
74.50000381469727
 30
0.0
 40
5.0
100
AcDbArc
 50
180.0
 51
270.0
  0
ARC
  5
77E
330
1F
100
AcDbEntity
  8
AM_0
100
AcDbCircle
 10
182.5784495312655
 20
74.50000381469727
 30
0.0
 40
9.999999999999991
100
AcDbArc
 50
270.0
 51
0.0
  0
ARC
  5
77F
330
1F
100
AcDbEntity
  8
AM_0
100
AcDbCircle
 10
34.57844953126552
 20
74.50000381469727
 30
0.0
 40
9.999999999999991
100
AcDbArc
 50
180.0
 51
270.0
  0
ARC
  5
780
102
{ACAD_REACTORS
330
8CD
102
}
330
1F
100
AcDbEntity
  8
AM_0
100
AcDbCircle
 10
182.5784495312655
 20
222.5000038146973
 30
0.0
 40
9.999999999999991
100
AcDbArc
 50
0.0
 51
90.0
  0
ARC
  5
781
102
{ACAD_REACTORS
330
8CD
330
913
102
}
330
1F
100
AcDbEntity
  8
AM_0
100
AcDbCircle
 10
34.57844953126552
 20
222.5000038146973
 30
0.0
 40
9.999999999999991
100
AcDbArc
 50
90.0
 51
180.0
  0
LINE
  5
782
330
1F
100
AcDbEntity
  8
AM_0
100
AcDbLine
 10
43.57844953126551
 20
211.5000038146973
 30
0.0
 11
48.57844953126551
 21
211.5000038146973
 31
0.0
  0
LINE
  5
783
330
1F
100
AcDbEntity
  8
AM_0
100
AcDbLine
 10
43.57844953126551
 20
205.5000038146973
 30
0.0
 11
43.57844953126551
 21
211.5000038146973
 31
0.0
  0
LINE
  5
784
330
1F
100
AcDbEntity
  8
AM_0
100
AcDbLine
 10
48.57844953126551
 20
205.5000038146973
 30
0.0
 11
43.57844953126551
 21
205.5000038146973
 31
0.0
  0
LINE
  5
785
330
1F
100
AcDbEntity
  8
AM_0
100
AcDbLine
 10
48.57844953126551
 20
211.5000038146973
 30
0.0
 11
48.57844953126551
 21
205.5000038146973
 31
0.0
  0
LINE
  5
786
330
1F
100
AcDbEntity
  8
AM_0
100
AcDbLine
 10
43.57844953126551
 20
171.5000038146972
 30
0.0
 11
48.57844953126551
 21
171.5000038146972
 31
0.0
  0
LINE
  5
787
330
1F
100
AcDbEntity
  8
AM_0
100
AcDbLine
 10
43.57844953126551
 20
165.5000038146972
 30
0.0
 11
43.57844953126551
 21
171.5000038146972
 31
0.0
  0
LINE
  5
788
330
1F
100
AcDbEntity
  8
AM_0
100
AcDbLine
 10
48.57844953126551
 20
165.5000038146972
 30
0.0
 11
43.57844953126551
 21
165.5000038146972
 31
0.0
  0
LINE
  5
789
330
1F
100
AcDbEntity
  8
AM_0
100
AcDbLine
 10
48.57844953126551
 20
171.5000038146972
 30
0.0
 11
48.57844953126551
 21
165.5000038146972
 31
0.0
  0
LINE
  5
78A
330
1F
100
AcDbEntity
  8
AM_0
100
AcDbLine
 10
43.57844953126551
 20
131.5000038146972
 30
0.0
 11
48.57844953126551
 21
131.5000038146972
 31
0.0
  0
LINE
  5
78B
330
1F
100
AcDbEntity
  8
AM_0
100
AcDbLine
 10
43.57844953126551
 20
125.5000038146972
 30
0.0
 11
43.57844953126551
 21
131.5000038146972
 31
0.0
  0
LINE
  5
78C
330
1F
100
AcDbEntity
  8
AM_0
100
AcDbLine
 10
48.57844953126551
 20
125.5000038146972
 30
0.0
 11
43.57844953126551
 21
125.5000038146972
 31
0.0
  0
LINE
  5
78D
330
1F
100
AcDbEntity
  8
AM_0
100
AcDbLine
 10
48.57844953126551
 20
131.5000038146972
 30
0.0
 11
48.57844953126551
 21
125.5000038146972
 31
0.0
  0
LINE
  5
78E
330
1F
100
AcDbEntity
  8
AM_0
100
AcDbLine
 10
48.57844953126551
 20
171.5000038146972
 30
0.0
 11
48.57844953126551
 21
205.5000038146973
 31
0.0
  0
LINE
  5
78F
330
1F
100
AcDbEntity
  8
AM_0
100
AcDbLine
 10
48.57844953126551
 20
131.5000038146972
 30
0.0
 11
48.57844953126551
 21
165.5000038146972
 31
0.0
  0
LINE
  5
790
330
1F
100
AcDbEntity
  8
AM_0
100
AcDbLine
 10
48.57844953126551
 20
91.50000381469729
 30
0.0
 11
48.57844953126551
 21
125.5000038146972
 31
0.0
  0
LINE
  5
791
330
1F
100
AcDbEntity
  8
AM_0
100
AcDbLine
 10
48.57844953126551
 20
69.50000381469727
 30
0.0
 11
48.57844953126551
 21
85.50000381469727
 31
0.0
  0
LINE
  5
792
330
1F
100
AcDbEntity
  8
AM_0
100
AcDbLine
 10
48.57844953126551
 20
211.5000038146973
 30
0.0
 11
48.57844953126551
 21
227.5000038146973
 31
0.0
  0
LINE
  5
793
330
1F
100
AcDbEntity
  8
AM_0
100
AcDbLine
 10
43.57844953126551
 20
91.50000381469729
 30
0.0
 11
43.57844953126551
 21
125.5000038146972
 31
0.0
  0
LINE
  5
794
330
1F
100
AcDbEntity
  8
AM_0
100
AcDbLine
 10
43.57844953126551
 20
131.5000038146972
 30
0.0
 11
43.57844953126551
 21
165.5000038146972
 31
0.0
  0
LINE
  5
795
330
1F
100
AcDbEntity
  8
AM_0
100
AcDbLine
 10
43.57844953126551
 20
171.5000038146972
 30
0.0
 11
43.57844953126551
 21
205.5000038146973
 31
0.0
  0
LINE
  5
796
330
1F
100
AcDbEntity
  8
AM_0
100
AcDbLine
 10
43.57844953126551
 20
211.5000038146973
 30
0.0
 11
43.57844953126551
 21
227.5000038146973
 31
0.0
  0
LINE
  5
797
330
1F
100
AcDbEntity
  8
AM_0
100
AcDbLine
 10
43.57844953126551
 20
69.50000381469727
 30
0.0
 11
43.57844953126551
 21
85.50000381469727
 31
0.0
  0
LINE
  5
798
330
1F
100
AcDbEntity
  8
AM_0
100
AcDbLine
 10
48.57844953126551
 20
227.5000038146973
 30
0.0
 11
43.57844953126551
 21
227.5000038146973
 31
0.0
  0
LINE
  5
799
330
1F
100
AcDbEntity
  8
AM_0
100
AcDbLine
 10
43.57844953126551
 20
69.50000381469727
 30
0.0
 11
48.57844953126551
 21
69.50000381469727
 31
0.0
  0
LINE
  5
79A
330
1F
100
AcDbEntity
  8
AM_0
100
AcDbLine
 10
48.57844953126551
 20
91.50000381469729
 30
0.0
 11
48.57844953126551
 21
85.50000381469727
 31
0.0
  0
LINE
  5
79B
330
1F
100
AcDbEntity
  8
AM_0
100
AcDbLine
 10
43.57844953126551
 20
91.50000381469729
 30
0.0
 11
48.57844953126551
 21
91.50000381469729
 31
0.0
  0
LINE
  5
79C
330
1F
100
AcDbEntity
  8
AM_0
100
AcDbLine
 10
43.57844953126551
 20
85.50000381469727
 30
0.0
 11
43.57844953126551
 21
91.50000381469729
 31
0.0
  0
LINE
  5
79D
330
1F
100
AcDbEntity
  8
AM_0
100
AcDbLine
 10
48.57844953126551
 20
85.50000381469727
 30
0.0
 11
43.57844953126551
 21
85.50000381469727
 31
0.0
  0
LINE
  5
79E
330
1F
100
AcDbEntity
  8
AM_0
100
AcDbLine
 10
68.57844953126551
 20
211.5000038146973
 30
0.0
 11
73.57844953126551
 21
211.5000038146973
 31
0.0
  0
LINE
  5
79F
330
1F
100
AcDbEntity
  8
AM_0
100
AcDbLine
 10
68.57844953126551
 20
205.5000038146973
 30
0.0
 11
68.57844953126551
 21
211.5000038146973
 31
0.0
  0
LINE
  5
7A0
330
1F
100
AcDbEntity
  8
AM_0
100
AcDbLine
 10
73.57844953126551
 20
205.5000038146973
 30
0.0
 11
68.57844953126551
 21
205.5000038146973
 31
0.0
  0
LINE
  5
7A1
330
1F
100
AcDbEntity
  8
AM_0
100
AcDbLine
 10
73.57844953126551
 20
211.5000038146973
 30
0.0
 11
73.57844953126551
 21
205.5000038146973
 31
0.0
  0
LINE
  5
7A2
330
1F
100
AcDbEntity
  8
AM_0
100
AcDbLine
 10
68.57844953126551
 20
171.5000038146972
 30
0.0
 11
73.57844953126551
 21
171.5000038146972
 31
0.0
  0
LINE
  5
7A3
330
1F
100
AcDbEntity
  8
AM_0
100
AcDbLine
 10
68.57844953126551
 20
165.5000038146972
 30
0.0
 11
68.57844953126551
 21
171.5000038146972
 31
0.0
  0
LINE
  5
7A4
330
1F
100
AcDbEntity
  8
AM_0
100
AcDbLine
 10
73.57844953126551
 20
165.5000038146972
 30
0.0
 11
68.57844953126551
 21
165.5000038146972
 31
0.0
  0
LINE
  5
7A5
330
1F
100
AcDbEntity
  8
AM_0
100
AcDbLine
 10
73.57844953126551
 20
171.5000038146972
 30
0.0
 11
73.57844953126551
 21
165.5000038146972
 31
0.0
  0
LINE
  5
7A6
330
1F
100
AcDbEntity
  8
AM_0
100
AcDbLine
 10
68.57844953126551
 20
131.5000038146972
 30
0.0
 11
73.57844953126551
 21
131.5000038146972
 31
0.0
  0
LINE
  5
7A7
330
1F
100
AcDbEntity
  8
AM_0
100
AcDbLine
 10
68.57844953126551
 20
125.5000038146972
 30
0.0
 11
68.57844953126551
 21
131.5000038146972
 31
0.0
  0
LINE
  5
7A8
330
1F
100
AcDbEntity
  8
AM_0
100
AcDbLine
 10
73.57844953126551
 20
125.5000038146972
 30
0.0
 11
68.57844953126551
 21
125.5000038146972
 31
0.0
  0
LINE
  5
7A9
330
1F
100
AcDbEntity
  8
AM_0
100
AcDbLine
 10
73.57844953126551
 20
131.5000038146972
 30
0.0
 11
73.57844953126551
 21
125.5000038146972
 31
0.0
  0
LINE
  5
7AA
330
1F
100
AcDbEntity
  8
AM_0
100
AcDbLine
 10
73.57844953126551
 20
171.5000038146972
 30
0.0
 11
73.57844953126551
 21
205.5000038146973
 31
0.0
  0
LINE
  5
7AB
330
1F
100
AcDbEntity
  8
AM_0
100
AcDbLine
 10
73.57844953126551
 20
131.5000038146972
 30
0.0
 11
73.57844953126551
 21
165.5000038146972
 31
0.0
  0
LINE
  5
7AC
330
1F
100
AcDbEntity
  8
AM_0
100
AcDbLine
 10
73.57844953126551
 20
91.50000381469729
 30
0.0
 11
73.57844953126551
 21
125.5000038146972
 31
0.0
  0
LINE
  5
7AD
330
1F
100
AcDbEntity
  8
AM_0
100
AcDbLine
 10
73.57844953126551
 20
69.50000381469727
 30
0.0
 11
73.57844953126551
 21
85.50000381469727
 31
0.0
  0
LINE
  5
7AE
330
1F
100
AcDbEntity
  8
AM_0
100
AcDbLine
 10
73.57844953126551
 20
211.5000038146973
 30
0.0
 11
73.57844953126551
 21
227.5000038146973
 31
0.0
  0
LINE
  5
7AF
330
1F
100
AcDbEntity
  8
AM_0
100
AcDbLine
 10
68.57844953126551
 20
91.50000381469729
 30
0.0
 11
68.57844953126551
 21
125.5000038146972
 31
0.0
  0
LINE
  5
7B0
330
1F
100
AcDbEntity
  8
AM_0
100
AcDbLine
 10
68.57844953126551
 20
131.5000038146972
 30
0.0
 11
68.57844953126551
 21
165.5000038146972
 31
0.0
  0
LINE
  5
7B1
330
1F
100
AcDbEntity
  8
AM_0
100
AcDbLine
 10
68.57844953126551
 20
171.5000038146972
 30
0.0
 11
68.57844953126551
 21
205.5000038146973
 31
0.0
  0
LINE
  5
7B2
330
1F
100
AcDbEntity
  8
AM_0
100
AcDbLine
 10
68.57844953126551
 20
211.5000038146973
 30
0.0
 11
68.57844953126551
 21
227.5000038146973
 31
0.0
  0
LINE
  5
7B3
330
1F
100
AcDbEntity
  8
AM_0
100
AcDbLine
 10
68.57844953126551
 20
69.50000381469727
 30
0.0
 11
68.57844953126551
 21
85.50000381469727
 31
0.0
  0
LINE
  5
7B4
330
1F
100
AcDbEntity
  8
AM_0
100
AcDbLine
 10
73.57844953126551
 20
227.5000038146973
 30
0.0
 11
68.57844953126551
 21
227.5000038146973
 31
0.0
  0
LINE
  5
7B5
330
1F
100
AcDbEntity
  8
AM_0
100
AcDbLine
 10
68.57844953126551
 20
69.50000381469727
 30
0.0
 11
73.57844953126551
 21
69.50000381469727
 31
0.0
  0
LINE
  5
7B6
330
1F
100
AcDbEntity
  8
AM_0
100
AcDbLine
 10
73.57844953126551
 20
91.50000381469729
 30
0.0
 11
73.57844953126551
 21
85.50000381469727
 31
0.0
  0
LINE
  5
7B7
330
1F
100
AcDbEntity
  8
AM_0
100
AcDbLine
 10
68.57844953126551
 20
91.50000381469729
 30
0.0
 11
73.57844953126551
 21
91.50000381469729
 31
0.0
  0
LINE
  5
7B8
330
1F
100
AcDbEntity
  8
AM_0
100
AcDbLine
 10
68.57844953126551
 20
85.50000381469727
 30
0.0
 11
68.57844953126551
 21
91.50000381469729
 31
0.0
  0
LINE
  5
7B9
330
1F
100
AcDbEntity
  8
AM_0
100
AcDbLine
 10
73.57844953126551
 20
85.50000381469727
 30
0.0
 11
68.57844953126551
 21
85.50000381469727
 31
0.0
  0
LINE
  5
7BA
330
1F
100
AcDbEntity
  8
AM_0
100
AcDbLine
 10
93.5784495312655
 20
211.5000038146973
 30
0.0
 11
98.57844953126551
 21
211.5000038146973
 31
0.0
  0
LINE
  5
7BB
330
1F
100
AcDbEntity
  8
AM_0
100
AcDbLine
 10
93.5784495312655
 20
205.5000038146973
 30
0.0
 11
93.5784495312655
 21
211.5000038146973
 31
0.0
  0
LINE
  5
7BC
330
1F
100
AcDbEntity
  8
AM_0
100
AcDbLine
 10
98.57844953126551
 20
205.5000038146973
 30
0.0
 11
93.5784495312655
 21
205.5000038146973
 31
0.0
  0
LINE
  5
7BD
330
1F
100
AcDbEntity
  8
AM_0
100
AcDbLine
 10
98.57844953126551
 20
211.5000038146973
 30
0.0
 11
98.57844953126551
 21
205.5000038146973
 31
0.0
  0
LINE
  5
7BE
330
1F
100
AcDbEntity
  8
AM_0
100
AcDbLine
 10
93.5784495312655
 20
171.5000038146972
 30
0.0
 11
98.57844953126551
 21
171.5000038146972
 31
0.0
  0
LINE
  5
7BF
330
1F
100
AcDbEntity
  8
AM_0
100
AcDbLine
 10
93.5784495312655
 20
165.5000038146972
 30
0.0
 11
93.5784495312655
 21
171.5000038146972
 31
0.0
  0
LINE
  5
7C0
330
1F
100
AcDbEntity
  8
AM_0
100
AcDbLine
 10
98.57844953126551
 20
165.5000038146972
 30
0.0
 11
93.5784495312655
 21
165.5000038146972
 31
0.0
  0
LINE
  5
7C1
330
1F
100
AcDbEntity
  8
AM_0
100
AcDbLine
 10
98.57844953126551
 20
171.5000038146972
 30
0.0
 11
98.57844953126551
 21
165.5000038146972
 31
0.0
  0
LINE
  5
7C2
330
1F
100
AcDbEntity
  8
AM_0
100
AcDbLine
 10
93.5784495312655
 20
131.5000038146972
 30
0.0
 11
98.57844953126551
 21
131.5000038146972
 31
0.0
  0
LINE
  5
7C3
330
1F
100
AcDbEntity
  8
AM_0
100
AcDbLine
 10
93.5784495312655
 20
125.5000038146972
 30
0.0
 11
93.5784495312655
 21
131.5000038146972
 31
0.0
  0
LINE
  5
7C4
330
1F
100
AcDbEntity
  8
AM_0
100
AcDbLine
 10
98.57844953126551
 20
125.5000038146972
 30
0.0
 11
93.5784495312655
 21
125.5000038146972
 31
0.0
  0
LINE
  5
7C5
330
1F
100
AcDbEntity
  8
AM_0
100
AcDbLine
 10
98.57844953126551
 20
131.5000038146972
 30
0.0
 11
98.57844953126551
 21
125.5000038146972
 31
0.0
  0
LINE
  5
7C6
330
1F
100
AcDbEntity
  8
AM_0
100
AcDbLine
 10
98.57844953126551
 20
171.5000038146972
 30
0.0
 11
98.57844953126551
 21
205.5000038146973
 31
0.0
  0
LINE
  5
7C7
330
1F
100
AcDbEntity
  8
AM_0
100
AcDbLine
 10
98.57844953126551
 20
131.5000038146972
 30
0.0
 11
98.57844953126551
 21
165.5000038146972
 31
0.0
  0
LINE
  5
7C8
330
1F
100
AcDbEntity
  8
AM_0
100
AcDbLine
 10
98.57844953126551
 20
91.50000381469729
 30
0.0
 11
98.57844953126551
 21
125.5000038146972
 31
0.0
  0
LINE
  5
7C9
330
1F
100
AcDbEntity
  8
AM_0
100
AcDbLine
 10
98.57844953126551
 20
69.50000381469727
 30
0.0
 11
98.57844953126551
 21
85.50000381469727
 31
0.0
  0
LINE
  5
7CA
330
1F
100
AcDbEntity
  8
AM_0
100
AcDbLine
 10
98.57844953126551
 20
211.5000038146973
 30
0.0
 11
98.57844953126551
 21
227.5000038146973
 31
0.0
  0
LINE
  5
7CB
330
1F
100
AcDbEntity
  8
AM_0
100
AcDbLine
 10
93.5784495312655
 20
91.50000381469729
 30
0.0
 11
93.5784495312655
 21
125.5000038146972
 31
0.0
  0
LINE
  5
7CC
330
1F
100
AcDbEntity
  8
AM_0
100
AcDbLine
 10
93.5784495312655
 20
131.5000038146972
 30
0.0
 11
93.5784495312655
 21
165.5000038146972
 31
0.0
  0
LINE
  5
7CD
330
1F
100
AcDbEntity
  8
AM_0
100
AcDbLine
 10
93.5784495312655
 20
171.5000038146972
 30
0.0
 11
93.5784495312655
 21
205.5000038146973
 31
0.0
  0
LINE
  5
7CE
330
1F
100
AcDbEntity
  8
AM_0
100
AcDbLine
 10
93.5784495312655
 20
211.5000038146973
 30
0.0
 11
93.5784495312655
 21
227.5000038146973
 31
0.0
  0
LINE
  5
7CF
330
1F
100
AcDbEntity
  8
AM_0
100
AcDbLine
 10
93.5784495312655
 20
69.50000381469727
 30
0.0
 11
93.5784495312655
 21
85.50000381469727
 31
0.0
  0
LINE
  5
7D0
330
1F
100
AcDbEntity
  8
AM_0
100
AcDbLine
 10
98.57844953126551
 20
227.5000038146973
 30
0.0
 11
93.5784495312655
 21
227.5000038146973
 31
0.0
  0
LINE
  5
7D1
330
1F
100
AcDbEntity
  8
AM_0
100
AcDbLine
 10
93.5784495312655
 20
69.50000381469727
 30
0.0
 11
98.57844953126551
 21
69.50000381469727
 31
0.0
  0
LINE
  5
7D2
330
1F
100
AcDbEntity
  8
AM_0
100
AcDbLine
 10
98.57844953126551
 20
91.50000381469729
 30
0.0
 11
98.57844953126551
 21
85.50000381469727
 31
0.0
  0
LINE
  5
7D3
330
1F
100
AcDbEntity
  8
AM_0
100
AcDbLine
 10
93.5784495312655
 20
91.50000381469729
 30
0.0
 11
98.57844953126551
 21
91.50000381469729
 31
0.0
  0
LINE
  5
7D4
330
1F
100
AcDbEntity
  8
AM_0
100
AcDbLine
 10
93.5784495312655
 20
85.50000381469727
 30
0.0
 11
93.5784495312655
 21
91.50000381469729
 31
0.0
  0
LINE
  5
7D5
330
1F
100
AcDbEntity
  8
AM_0
100
AcDbLine
 10
98.57844953126551
 20
85.50000381469727
 30
0.0
 11
93.5784495312655
 21
85.50000381469727
 31
0.0
  0
LINE
  5
7D6
330
1F
100
AcDbEntity
  8
AM_0
100
AcDbLine
 10
118.5784495312655
 20
211.5000038146973
 30
0.0
 11
123.5784495312655
 21
211.5000038146973
 31
0.0
  0
LINE
  5
7D7
330
1F
100
AcDbEntity
  8
AM_0
100
AcDbLine
 10
118.5784495312655
 20
205.5000038146973
 30
0.0
 11
118.5784495312655
 21
211.5000038146973
 31
0.0
  0
LINE
  5
7D8
330
1F
100
AcDbEntity
  8
AM_0
100
AcDbLine
 10
123.5784495312655
 20
205.5000038146973
 30
0.0
 11
118.5784495312655
 21
205.5000038146973
 31
0.0
  0
LINE
  5
7D9
330
1F
100
AcDbEntity
  8
AM_0
100
AcDbLine
 10
123.5784495312655
 20
211.5000038146973
 30
0.0
 11
123.5784495312655
 21
205.5000038146973
 31
0.0
  0
LINE
  5
7DA
330
1F
100
AcDbEntity
  8
AM_0
100
AcDbLine
 10
118.5784495312655
 20
171.5000038146972
 30
0.0
 11
123.5784495312655
 21
171.5000038146972
 31
0.0
  0
LINE
  5
7DB
330
1F
100
AcDbEntity
  8
AM_0
100
AcDbLine
 10
118.5784495312655
 20
165.5000038146972
 30
0.0
 11
118.5784495312655
 21
171.5000038146972
 31
0.0
  0
LINE
  5
7DC
330
1F
100
AcDbEntity
  8
AM_0
100
AcDbLine
 10
123.5784495312655
 20
165.5000038146972
 30
0.0
 11
118.5784495312655
 21
165.5000038146972
 31
0.0
  0
LINE
  5
7DD
330
1F
100
AcDbEntity
  8
AM_0
100
AcDbLine
 10
123.5784495312655
 20
171.5000038146972
 30
0.0
 11
123.5784495312655
 21
165.5000038146972
 31
0.0
  0
LINE
  5
7DE
330
1F
100
AcDbEntity
  8
AM_0
100
AcDbLine
 10
118.5784495312655
 20
131.5000038146972
 30
0.0
 11
123.5784495312655
 21
131.5000038146972
 31
0.0
  0
LINE
  5
7DF
330
1F
100
AcDbEntity
  8
AM_0
100
AcDbLine
 10
118.5784495312655
 20
125.5000038146972
 30
0.0
 11
118.5784495312655
 21
131.5000038146972
 31
0.0
  0
LINE
  5
7E0
330
1F
100
AcDbEntity
  8
AM_0
100
AcDbLine
 10
123.5784495312655
 20
125.5000038146972
 30
0.0
 11
118.5784495312655
 21
125.5000038146972
 31
0.0
  0
LINE
  5
7E1
330
1F
100
AcDbEntity
  8
AM_0
100
AcDbLine
 10
123.5784495312655
 20
131.5000038146972
 30
0.0
 11
123.5784495312655
 21
125.5000038146972
 31
0.0
  0
LINE
  5
7E2
330
1F
100
AcDbEntity
  8
AM_0
100
AcDbLine
 10
123.5784495312655
 20
171.5000038146972
 30
0.0
 11
123.5784495312655
 21
205.5000038146973
 31
0.0
  0
LINE
  5
7E3
330
1F
100
AcDbEntity
  8
AM_0
100
AcDbLine
 10
123.5784495312655
 20
131.5000038146972
 30
0.0
 11
123.5784495312655
 21
165.5000038146972
 31
0.0
  0
LINE
  5
7E4
330
1F
100
AcDbEntity
  8
AM_0
100
AcDbLine
 10
123.5784495312655
 20
91.50000381469729
 30
0.0
 11
123.5784495312655
 21
125.5000038146972
 31
0.0
  0
LINE
  5
7E5
330
1F
100
AcDbEntity
  8
AM_0
100
AcDbLine
 10
123.5784495312655
 20
69.50000381469727
 30
0.0
 11
123.5784495312655
 21
85.50000381469727
 31
0.0
  0
LINE
  5
7E6
330
1F
100
AcDbEntity
  8
AM_0
100
AcDbLine
 10
123.5784495312655
 20
211.5000038146973
 30
0.0
 11
123.5784495312655
 21
227.5000038146973
 31
0.0
  0
LINE
  5
7E7
330
1F
100
AcDbEntity
  8
AM_0
100
AcDbLine
 10
118.5784495312655
 20
91.50000381469729
 30
0.0
 11
118.5784495312655
 21
125.5000038146972
 31
0.0
  0
LINE
  5
7E8
330
1F
100
AcDbEntity
  8
AM_0
100
AcDbLine
 10
118.5784495312655
 20
131.5000038146972
 30
0.0
 11
118.5784495312655
 21
165.5000038146972
 31
0.0
  0
LINE
  5
7E9
330
1F
100
AcDbEntity
  8
AM_0
100
AcDbLine
 10
118.5784495312655
 20
171.5000038146972
 30
0.0
 11
118.5784495312655
 21
205.5000038146973
 31
0.0
  0
LINE
  5
7EA
330
1F
100
AcDbEntity
  8
AM_0
100
AcDbLine
 10
118.5784495312655
 20
211.5000038146973
 30
0.0
 11
118.5784495312655
 21
227.5000038146973
 31
0.0
  0
LINE
  5
7EB
330
1F
100
AcDbEntity
  8
AM_0
100
AcDbLine
 10
118.5784495312655
 20
69.50000381469727
 30
0.0
 11
118.5784495312655
 21
85.50000381469727
 31
0.0
  0
LINE
  5
7EC
330
1F
100
AcDbEntity
  8
AM_0
100
AcDbLine
 10
123.5784495312655
 20
227.5000038146973
 30
0.0
 11
118.5784495312655
 21
227.5000038146973
 31
0.0
  0
LINE
  5
7ED
330
1F
100
AcDbEntity
  8
AM_0
100
AcDbLine
 10
118.5784495312655
 20
69.50000381469727
 30
0.0
 11
123.5784495312655
 21
69.50000381469727
 31
0.0
  0
LINE
  5
7EE
330
1F
100
AcDbEntity
  8
AM_0
100
AcDbLine
 10
123.5784495312655
 20
91.50000381469729
 30
0.0
 11
123.5784495312655
 21
85.50000381469727
 31
0.0
  0
LINE
  5
7EF
330
1F
100
AcDbEntity
  8
AM_0
100
AcDbLine
 10
118.5784495312655
 20
91.50000381469729
 30
0.0
 11
123.5784495312655
 21
91.50000381469729
 31
0.0
  0
LINE
  5
7F0
330
1F
100
AcDbEntity
  8
AM_0
100
AcDbLine
 10
118.5784495312655
 20
85.50000381469727
 30
0.0
 11
118.5784495312655
 21
91.50000381469729
 31
0.0
  0
LINE
  5
7F1
330
1F
100
AcDbEntity
  8
AM_0
100
AcDbLine
 10
123.5784495312655
 20
85.50000381469727
 30
0.0
 11
118.5784495312655
 21
85.50000381469727
 31
0.0
  0
CIRCLE
  5
7F2
330
1F
100
AcDbEntity
  8
AM_0
100
AcDbCircle
 10
158.4784579026172
 20
98.33333398944752
 30
0.0
 40
2.833334999999998
  0
CIRCLE
  5
7F3
330
1F
100
AcDbEntity
  8
AM_0
100
AcDbCircle
 10
158.4784579026172
 20
98.33333398944752
 30
0.0
 40
3.033334999999998
  0
CIRCLE
  5
7F4
330
1F
100
AcDbEntity
  8
AM_0
100
AcDbCircle
 10
158.4784579026172
 20
98.33333398944752
 30
0.0
 40
4.299999999999998
  0
CIRCLE
  5
7F5
330
1F
100
AcDbEntity
  8
AM_0
100
AcDbCircle
 10
158.4784579026172
 20
98.33333398944752
 30
0.0
 40
4.499999999999998
  0
ARC
  5
7F6
330
1F
100
AcDbEntity
  8
AM_0
100
AcDbCircle
 10
158.4784539961656
 20
108.5000039027472
 30
0.0
 40
3.033334035339883
100
AcDbArc
 50
313.4771656768144
 51
229.0397180108369
  0
LINE
  5
7F7
330
1F
100
AcDbEntity
  8
AM_0
100
AcDbLine
 10
160.5655862974718
 20
106.2988691665728
 30
0.0
 11
161.3286782585874
 21
105.2803374899949
 31
0.0
  0
ARC
  5
7F8
330
1F
100
AcDbEntity
  8
AM_0
100
AcDbCircle
 10
158.478449531266
 20
108.5000038146972
 30
0.0
 40
4.300006400049975
100
AcDbArc
 50
311.5170508733543
 51
230.8869915758565
  0
LINE
  5
7F9
330
1F
100
AcDbEntity
  8
AM_0
100
AcDbLine
 10
155.7657819599106
 20
105.1636150951694
 30
0.0
 11
156.4899952486248
 21
106.2093386763818
 31
0.0
  0
ARC
  5
7FA
330
1F
100
AcDbEntity
  8
AM_0
100
AcDbCircle
 10
158.4784539961656
 20
108.5000039027482
 30
0.0
 40
2.833334035339883
100
AcDbArc
 50
309.8867644527032
 51
232.6549007903357
  0
LINE
  5
7FB
330
1F
100
AcDbEntity
  8
AM_0
100
AcDbLine
 10
161.2956079026198
 20
104.9909189893897
 30
0.0
 11
160.2953929026143
 21
106.3259489894462
 31
0.0
  0
ARC
  5
7FC
330
1F
100
AcDbEntity
  8
AM_0
100
AcDbCircle
 10
158.478449531266
 20
108.5000038146972
 30
0.0
 40
4.500006400049971
100
AcDbArc
 50
308.7581428925062
 51
233.6333253814223
  0
LINE
  5
7FD
330
1F
100
AcDbEntity
  8
AM_0
100
AcDbLine
 10
156.7597129027053
 20
106.24751398946
 30
0.0
 11
155.8101679025585
 21
104.8764239893871
 31
0.0
  0
LINE
  5
7FE
330
1F
100
AcDbEntity
  8
AM_0
100
AcDbLine
 10
155.8452729027131
 20
122.143939517904
 30
0.0
 11
155.845272902613
 21
116.9365334609901
 31
0.0
  0
ARC
  5
7FF
330
1F
100
AcDbEntity
  8
AM_0
100
AcDbCircle
 10
153.978558894315
 20
126.9642661352472
 30
0.0
 40
10.20000214583991
100
AcDbArc
 50
271.1237094911259
 51
280.5451994913308
  0
LINE
  5
800
330
1F
100
AcDbEntity
  8
AM_0
100
AcDbLine
 10
154.1785929027128
 20
116.7662256288254
 30
0.0
 11
154.178592902629
 21
115.4993432293258
 31
0.0
  0
ARC
  5
801
330
1F
100
AcDbEntity
  8
AM_0
100
AcDbCircle
 10
153.9785973747157
 20
126.9642710976968
 30
0.0
 40
11.46667210825095
100
AcDbArc
 50
270.9993728448238
 51
319.6508381433504
  0
ARC
  5
802
330
1F
100
AcDbEntity
  8
AM_0
100
AcDbCircle
 10
153.9786074986132
 20
112.1161971086562
 30
0.0
 40
11.4666768808
100
AcDbArc
 50
40.34926805951284
 51
89.00067816522758
  0
LINE
  5
803
330
1F
100
AcDbEntity
  8
AM_0
100
AcDbLine
 10
154.1785929026155
 20
123.5811299269007
 30
0.0
 11
154.1785929026155
 21
122.3142473500888
 31
0.0
  0
ARC
  5
804
330
1F
100
AcDbEntity
  8
AM_0
100
AcDbCircle
 10
153.9785588943159
 20
112.116206843647
 30
0.0
 40
10.20000214585804
100
AcDbArc
 50
79.45480050808656
 51
88.87629050944768
  0
LINE
  5
805
330
1F
100
AcDbEntity
  8
AM_0
100
AcDbLine
 10
155.6452729026168
 20
117.1041389894471
 30
0.0
 11
155.645272902705
 21
121.9763339894498
 31
0.0
  0
ARC
  5
806
330
1F
100
AcDbEntity
  8
AM_0
100
AcDbCircle
 10
153.9785588943168
 20
126.9642661352463
 30
0.0
 40
10.00000214583878
100
AcDbArc
 50
270.0001948531471
 51
279.5943412439573
  0
LINE
  5
807
330
1F
100
AcDbEntity
  8
AM_0
100
AcDbLine
 10
153.9785929026157
 20
115.2975989894471
 30
0.0
 11
153.978592902612
 21
116.9642639894655
 31
0.0
  0
ARC
  5
808
330
1F
100
AcDbEntity
  8
AM_0
100
AcDbCircle
 10
153.9785973747157
 20
126.9642710976973
 30
0.0
 40
11.66667210825088
100
AcDbArc
 50
269.9999780372149
 51
320.4801964870211
  0
ARC
  5
809
330
1F
100
AcDbEntity
  8
AM_0
100
AcDbCircle
 10
153.9786074986186
 20
112.1161971086562
 30
0.0
 40
11.66667688079995
100
AcDbArc
 50
39.5199100581044
 51
90.00007168139502
  0
LINE
  5
80A
330
1F
100
AcDbEntity
  8
AM_0
100
AcDbLine
 10
153.9785929026129
 20
122.1162089894469
 30
0.0
 11
153.978592902713
 21
123.7828739894471
 31
0.0
  0
ARC
  5
80B
330
1F
100
AcDbEntity
  8
AM_0
100
AcDbCircle
 10
153.9785588943159
 20
112.116206843647
 30
0.0
 40
10.00000214585764
100
AcDbArc
 50
80.40565875551155
 51
89.99980514685299
  0
ARC
  5
80C
330
1F
100
AcDbEntity
  8
AM_0
100
AcDbCircle
 10
153.9785937531305
 20
126.9642694958529
 30
0.0
 40
9.999998976750212
100
AcDbArc
 50
289.471288438516
 51
312.0635133264447
  0
ARC
  5
80D
330
1F
100
AcDbEntity
  8
AM_0
100
AcDbCircle
 10
153.9785871598469
 20
112.1162074084045
 30
0.0
 40
10.00001161574977
100
AcDbArc
 50
47.93650113842049
 51
70.52869709639391
  0
LINE
  5
80E
330
1F
100
AcDbEntity
  8
AM_0
100
AcDbLine
 10
157.3119379025946
 20
121.5443039894198
 30
0.0
 11
157.3119379026166
 21
117.5361839894472
 31
0.0
  0
ARC
  5
80F
330
1F
100
AcDbEntity
  8
AM_0
100
AcDbCircle
 10
153.9785937531314
 20
126.9642694958529
 30
0.0
 40
10.19999897675001
100
AcDbArc
 50
287.8900063303785
 51
313.2939051959588
  0
ARC
  5
810
330
1F
100
AcDbEntity
  8
AM_0
100
AcDbCircle
 10
153.978587159866
 20
112.1162074083972
 30
0.0
 40
10.20001161574997
100
AcDbArc
 50
46.70611080893046
 51
72.10997766965076
  0
LINE
  5
811
330
1F
100
AcDbEntity
  8
AM_0
100
AcDbLine
 10
157.1119379026177
 20
117.2574608768177
 30
0.0
 11
157.1119379025931
 21
121.8230271803149
 31
0.0
  0
LINE
  5
812
330
1F
100
AcDbEntity
  8
AM_0
100
AcDbLine
 10
148.6784495312658
 20
125.5000038146972
 30
0.0
 11
168.478449531266
 21
125.5000038146972
 31
0.0
  0
LINE
  5
813
330
1F
100
AcDbEntity
  8
AM_0
100
AcDbLine
 10
168.478449531266
 20
91.50000381469729
 30
0.0
 11
148.6784495312658
 21
91.50000381469729
 31
0.0
  0
LINE
  5
814
330
1F
100
AcDbEntity
  8
AM_0
100
AcDbLine
 10
143.5784495312655
 20
125.5000038146959
 30
0.0
 11
148.6784495312658
 21
125.5000038146972
 31
0.0
  0
LINE
  5
815
330
1F
100
AcDbEntity
  8
AM_0
100
AcDbLine
 10
143.5784495312655
 20
125.5000038146959
 30
0.0
 11
143.5784495312655
 21
91.50000381469594
 31
0.0
  0
LINE
  5
816
330
1F
100
AcDbEntity
  8
AM_0
100
AcDbLine
 10
148.6784495312658
 20
91.50000381469729
 30
0.0
 11
143.5784495312655
 21
91.50000381469594
 31
0.0
  0
LINE
  5
817
330
1F
100
AcDbEntity
  8
AM_0
100
AcDbLine
 10
148.5784495312655
 20
128.5000038146954
 30
0.0
 11
148.5784495312655
 21
125.5000038146959
 31
0.0
  0
LINE
  5
818
330
1F
100
AcDbEntity
  8
AM_0
100
AcDbLine
 10
143.5784495312655
 20
128.5000038146954
 30
0.0
 11
143.5784495312655
 21
125.5000038146959
 31
0.0
  0
LINE
  5
819
330
1F
100
AcDbEntity
  8
AM_0
100
AcDbLine
 10
148.5784495312655
 20
91.50000381469594
 30
0.0
 11
148.5784495312655
 21
88.50000381469589
 31
0.0
  0
LINE
  5
81A
330
1F
100
AcDbEntity
  8
AM_0
100
AcDbLine
 10
148.5784495312655
 20
88.50000381469589
 30
0.0
 11
148.5784495312655
 21
85.50000381469635
 31
0.0
  0
LINE
  5
81B
330
1F
100
AcDbEntity
  8
AM_0
100
AcDbLine
 10
148.5784495312655
 20
85.00000381469726
 30
0.0
 11
148.5784495312655
 21
85.50000381469727
 31
0.0
  0
LINE
  5
81C
330
1F
100
AcDbEntity
  8
AM_0
100
AcDbLine
 10
148.5784495312655
 20
85.00000381469726
 30
0.0
 11
148.5784495312655
 21
69.50000381469727
 31
0.0
  0
LINE
  5
81D
330
1F
100
AcDbEntity
  8
AM_0
100
AcDbLine
 10
148.5784495312655
 20
227.5000038146973
 30
0.0
 11
148.5784495312655
 21
211.5000038146973
 31
0.0
  0
LINE
  5
81E
330
1F
100
AcDbEntity
  8
AM_0
100
AcDbLine
 10
148.5784495312655
 20
205.5000038146973
 30
0.0
 11
148.5784495312655
 21
211.5000038146973
 31
0.0
  0
LINE
  5
81F
330
1F
100
AcDbEntity
  8
AM_0
100
AcDbLine
 10
148.5784495312655
 20
205.5000038146973
 30
0.0
 11
148.5784495312655
 21
171.5000038146972
 31
0.0
  0
LINE
  5
820
330
1F
100
AcDbEntity
  8
AM_0
100
AcDbLine
 10
148.5784495312655
 20
165.5000038146972
 30
0.0
 11
148.5784495312655
 21
171.5000038146972
 31
0.0
  0
LINE
  5
821
330
1F
100
AcDbEntity
  8
AM_0
100
AcDbLine
 10
148.5784495312655
 20
165.5000038146972
 30
0.0
 11
148.5784495312655
 21
132.0000038146972
 31
0.0
  0
LINE
  5
822
330
1F
100
AcDbEntity
  8
AM_0
100
AcDbLine
 10
148.5784495312655
 20
131.5000038146972
 30
0.0
 11
148.5784495312655
 21
132.0000038146972
 31
0.0
  0
LINE
  5
823
330
1F
100
AcDbEntity
  8
AM_0
100
AcDbLine
 10
148.5784495312655
 20
131.5000038146963
 30
0.0
 11
148.5784495312655
 21
128.5000038146959
 31
0.0
  0
LINE
  5
824
330
1F
100
AcDbEntity
  8
AM_0
100
AcDbLine
 10
148.5784495312655
 20
171.5000038146972
 30
0.0
 11
143.5784495312655
 21
171.5000038146972
 31
0.0
  0
LINE
  5
825
330
1F
100
AcDbEntity
  8
AM_0
100
AcDbLine
 10
143.5784495312655
 20
171.5000038146972
 30
0.0
 11
143.5784495312655
 21
165.5000038146972
 31
0.0
  0
LINE
  5
826
330
1F
100
AcDbEntity
  8
AM_0
100
AcDbLine
 10
143.5784495312655
 20
165.5000038146972
 30
0.0
 11
148.5784495312655
 21
165.5000038146972
 31
0.0
  0
LINE
  5
827
330
1F
100
AcDbEntity
  8
AM_0
100
AcDbLine
 10
143.5784495312655
 20
131.5000038146963
 30
0.0
 11
143.5784495312655
 21
128.5000038146959
 31
0.0
  0
LINE
  5
828
330
1F
100
AcDbEntity
  8
AM_0
100
AcDbLine
 10
143.5784495312655
 20
131.5000038146972
 30
0.0
 11
143.5784495312655
 21
132.0000038146972
 31
0.0
  0
LINE
  5
829
330
1F
100
AcDbEntity
  8
AM_0
100
AcDbLine
 10
143.5784495312655
 20
165.5000038146972
 30
0.0
 11
143.5784495312655
 21
132.0000038146972
 31
0.0
  0
LINE
  5
82A
330
1F
100
AcDbEntity
  8
AM_0
100
AcDbLine
 10
143.5784495312655
 20
205.5000038146973
 30
0.0
 11
143.5784495312655
 21
171.5000038146972
 31
0.0
  0
LINE
  5
82B
330
1F
100
AcDbEntity
  8
AM_0
100
AcDbLine
 10
143.5784495312655
 20
211.5000038146973
 30
0.0
 11
143.5784495312655
 21
205.5000038146973
 31
0.0
  0
LINE
  5
82C
330
1F
100
AcDbEntity
  8
AM_0
100
AcDbLine
 10
143.5784495312655
 20
227.5000038146973
 30
0.0
 11
143.5784495312655
 21
211.5000038146973
 31
0.0
  0
LINE
  5
82D
330
1F
100
AcDbEntity
  8
AM_0
100
AcDbLine
 10
143.5784495312655
 20
85.00000381469726
 30
0.0
 11
143.5784495312655
 21
69.50000381469727
 31
0.0
  0
LINE
  5
82E
330
1F
100
AcDbEntity
  8
AM_0
100
AcDbLine
 10
143.5784495312655
 20
85.00000381469726
 30
0.0
 11
143.5784495312655
 21
85.50000381469727
 31
0.0
  0
LINE
  5
82F
330
1F
100
AcDbEntity
  8
AM_0
100
AcDbLine
 10
143.5784495312655
 20
88.50000381469589
 30
0.0
 11
143.5784495312655
 21
85.50000381469635
 31
0.0
  0
LINE
  5
830
330
1F
100
AcDbEntity
  8
AM_0
100
AcDbLine
 10
143.5784495312655
 20
91.50000381469594
 30
0.0
 11
143.5784495312655
 21
88.50000381469589
 31
0.0
  0
LINE
  5
831
330
1F
100
AcDbEntity
  8
AM_0
100
AcDbLine
 10
148.5784495312655
 20
211.5000038146973
 30
0.0
 11
143.5784495312655
 21
211.5000038146973
 31
0.0
  0
LINE
  5
832
330
1F
100
AcDbEntity
  8
AM_0
100
AcDbLine
 10
143.5784495312655
 20
205.5000038146973
 30
0.0
 11
148.5784495312655
 21
205.5000038146973
 31
0.0
  0
LINE
  5
833
330
1F
100
AcDbEntity
  8
AM_0
100
AcDbLine
 10
143.5784495312655
 20
227.5000038146973
 30
0.0
 11
148.5784495312655
 21
227.5000038146973
 31
0.0
  0
LINE
  5
834
330
1F
100
AcDbEntity
  8
AM_0
100
AcDbLine
 10
143.5784495312655
 20
131.5000038146972
 30
0.0
 11
148.5784495312655
 21
131.5000038146972
 31
0.0
  0
LINE
  5
835
330
1F
100
AcDbEntity
  8
AM_0
100
AcDbLine
 10
143.5784495312655
 20
85.50000381469727
 30
0.0
 11
148.5784495312655
 21
85.50000381469727
 31
0.0
  0
LINE
  5
836
330
1F
100
AcDbEntity
  8
AM_0
100
AcDbLine
 10
143.5784495312655
 20
69.50000381469727
 30
0.0
 11
148.5784495312655
 21
69.50000381469727
 31
0.0
  0
LINE
  5
837
330
1F
100
AcDbEntity
  8
AM_3
 48
11.74925708770752
100
AcDbLine
 10
148.5784495312655
 20
125.5000038146959
 30
0.0
 11
148.5784495312655
 21
91.50000381469594
 31
0.0
  0
LINE
  5
838
330
1F
100
AcDbEntity
  8
AM_0
100
AcDbLine
 10
168.478449531266
 20
91.50000381469729
 30
0.0
 11
173.5784495312655
 21
91.50000381469594
 31
0.0
  0
LINE
  5
839
330
1F
100
AcDbEntity
  8
AM_0
100
AcDbLine
 10
173.5784495312655
 20
125.5000038146959
 30
0.0
 11
173.5784495312655
 21
91.50000381469594
 31
0.0
  0
LINE
  5
83A
330
1F
100
AcDbEntity
  8
AM_0
100
AcDbLine
 10
173.5784495312655
 20
125.5000038146959
 30
0.0
 11
168.478449531266
 21
125.5000038146972
 31
0.0
  0
LINE
  5
83B
330
1F
100
AcDbEntity
  8
AM_3
 48
11.74925708770752
100
AcDbLine
 10
168.5784495312655
 20
125.5000038146959
 30
0.0
 11
168.5784495312655
 21
91.50000381469594
 31
0.0
  0
LINE
  5
83C
330
1F
100
AcDbEntity
  8
AM_0
100
AcDbLine
 10
173.5784495312655
 20
128.5000038146954
 30
0.0
 11
173.5784495312655
 21
125.5000038146959
 31
0.0
  0
LINE
  5
83D
330
1F
100
AcDbEntity
  8
AM_0
100
AcDbLine
 10
168.5784495312655
 20
128.5000038146954
 30
0.0
 11
168.5784495312655
 21
125.5000038146959
 31
0.0
  0
LINE
  5
83E
330
1F
100
AcDbEntity
  8
AM_0
100
AcDbLine
 10
168.5784495312655
 20
131.5000038146963
 30
0.0
 11
168.5784495312655
 21
128.5000038146959
 31
0.0
  0
LINE
  5
83F
330
1F
100
AcDbEntity
  8
AM_0
100
AcDbLine
 10
168.5784495312655
 20
131.5000038146972
 30
0.0
 11
168.5784495312655
 21
132.0000038146972
 31
0.0
  0
LINE
  5
840
330
1F
100
AcDbEntity
  8
AM_0
100
AcDbLine
 10
168.5784495312655
 20
165.5000038146972
 30
0.0
 11
168.5784495312655
 21
132.0000038146972
 31
0.0
  0
LINE
  5
841
330
1F
100
AcDbEntity
  8
AM_0
100
AcDbLine
 10
168.5784495312655
 20
205.5000038146973
 30
0.0
 11
168.5784495312655
 21
171.5000038146972
 31
0.0
  0
LINE
  5
842
330
1F
100
AcDbEntity
  8
AM_0
100
AcDbLine
 10
168.5784495312655
 20
227.5000038146973
 30
0.0
 11
168.5784495312655
 21
211.5000038146973
 31
0.0
  0
LINE
  5
843
330
1F
100
AcDbEntity
  8
AM_0
100
AcDbLine
 10
168.5784495312655
 20
85.00000381469726
 30
0.0
 11
168.5784495312655
 21
69.50000381469727
 31
0.0
  0
LINE
  5
844
330
1F
100
AcDbEntity
  8
AM_0
100
AcDbLine
 10
168.5784495312655
 20
85.00000381469726
 30
0.0
 11
168.5784495312655
 21
85.50000381469727
 31
0.0
  0
LINE
  5
845
330
1F
100
AcDbEntity
  8
AM_0
100
AcDbLine
 10
168.5784495312655
 20
88.50000381469589
 30
0.0
 11
168.5784495312655
 21
85.50000381469635
 31
0.0
  0
LINE
  5
846
330
1F
100
AcDbEntity
  8
AM_0
100
AcDbLine
 10
168.5784495312655
 20
91.50000381469594
 30
0.0
 11
168.5784495312655
 21
88.50000381469589
 31
0.0
  0
LINE
  5
847
330
1F
100
AcDbEntity
  8
AM_0
100
AcDbLine
 10
173.5784495312655
 20
91.50000381469594
 30
0.0
 11
173.5784495312655
 21
88.50000381469589
 31
0.0
  0
LINE
  5
848
330
1F
100
AcDbEntity
  8
AM_0
100
AcDbLine
 10
173.5784495312655
 20
88.50000381469589
 30
0.0
 11
173.5784495312655
 21
85.50000381469635
 31
0.0
  0
LINE
  5
849
330
1F
100
AcDbEntity
  8
AM_0
100
AcDbLine
 10
173.5784495312655
 20
85.00000381469726
 30
0.0
 11
173.5784495312655
 21
85.50000381469727
 31
0.0
  0
LINE
  5
84A
330
1F
100
AcDbEntity
  8
AM_0
100
AcDbLine
 10
173.5784495312655
 20
85.00000381469726
 30
0.0
 11
173.5784495312655
 21
69.50000381469727
 31
0.0
  0
LINE
  5
84B
330
1F
100
AcDbEntity
  8
AM_0
100
AcDbLine
 10
173.5784495312655
 20
227.5000038146973
 30
0.0
 11
173.5784495312655
 21
211.5000038146973
 31
0.0
  0
LINE
  5
84C
330
1F
100
AcDbEntity
  8
AM_0
100
AcDbLine
 10
173.5784495312655
 20
205.5000038146973
 30
0.0
 11
173.5784495312655
 21
171.5000038146972
 31
0.0
  0
LINE
  5
84D
330
1F
100
AcDbEntity
  8
AM_0
100
AcDbLine
 10
173.5784495312655
 20
165.5000038146972
 30
0.0
 11
173.5784495312655
 21
132.0000038146972
 31
0.0
  0
LINE
  5
84E
330
1F
100
AcDbEntity
  8
AM_0
100
AcDbLine
 10
173.5784495312655
 20
131.5000038146972
 30
0.0
 11
173.5784495312655
 21
132.0000038146972
 31
0.0
  0
LINE
  5
84F
330
1F
100
AcDbEntity
  8
AM_0
100
AcDbLine
 10
173.5784495312655
 20
131.5000038146963
 30
0.0
 11
173.5784495312655
 21
128.5000038146959
 31
0.0
  0
LINE
  5
850
330
1F
100
AcDbEntity
  8
AM_0
100
AcDbLine
 10
173.5784495312655
 20
227.5000038146973
 30
0.0
 11
168.5784495312655
 21
227.5000038146973
 31
0.0
  0
LINE
  5
851
330
1F
100
AcDbEntity
  8
AM_0
100
AcDbLine
 10
173.5784495312655
 20
131.5000038146972
 30
0.0
 11
168.5784495312655
 21
131.5000038146972
 31
0.0
  0
LINE
  5
852
330
1F
100
AcDbEntity
  8
AM_0
100
AcDbLine
 10
173.5784495312655
 20
85.50000381469727
 30
0.0
 11
168.5784495312655
 21
85.50000381469727
 31
0.0
  0
LINE
  5
853
330
1F
100
AcDbEntity
  8
AM_0
100
AcDbLine
 10
173.5784495312655
 20
69.50000381469727
 30
0.0
 11
168.5784495312655
 21
69.50000381469727
 31
0.0
  0
LINE
  5
854
330
1F
100
AcDbEntity
  8
AM_0
100
AcDbLine
 10
168.5784495312655
 20
165.5000038146972
 30
0.0
 11
168.5784495312655
 21
171.5000038146972
 31
0.0
  0
LINE
  5
855
330
1F
100
AcDbEntity
  8
AM_0
100
AcDbLine
 10
168.5784495312655
 20
171.5000038146972
 30
0.0
 11
173.5784495312655
 21
171.5000038146972
 31
0.0
  0
LINE
  5
856
330
1F
100
AcDbEntity
  8
AM_0
100
AcDbLine
 10
173.5784495312655
 20
165.5000038146972
 30
0.0
 11
168.5784495312655
 21
165.5000038146972
 31
0.0
  0
LINE
  5
857
330
1F
100
AcDbEntity
  8
AM_0
100
AcDbLine
 10
173.5784495312655
 20
171.5000038146972
 30
0.0
 11
173.5784495312655
 21
165.5000038146972
 31
0.0
  0
LINE
  5
858
330
1F
100
AcDbEntity
  8
AM_0
100
AcDbLine
 10
168.5784495312655
 20
205.5000038146973
 30
0.0
 11
168.5784495312655
 21
211.5000038146973
 31
0.0
  0
LINE
  5
859
330
1F
100
AcDbEntity
  8
AM_0
100
AcDbLine
 10
173.5784495312655
 20
211.5000038146973
 30
0.0
 11
173.5784495312655
 21
205.5000038146973
 31
0.0
  0
LINE
  5
85A
330
1F
100
AcDbEntity
  8
AM_0
100
AcDbLine
 10
168.5784495312655
 20
211.5000038146973
 30
0.0
 11
173.5784495312655
 21
211.5000038146973
 31
0.0
  0
LINE
  5
85B
330
1F
100
AcDbEntity
  8
AM_0
100
AcDbLine
 10
173.5784495312655
 20
205.5000038146973
 30
0.0
 11
168.5784495312655
 21
205.5000038146973
 31
0.0
  0
LINE
  5
85C
330
1F
100
AcDbEntity
  8
AM_0
100
AcDbLine
 10
294.0756214896219
 20
136.778100388552
 30
0.0
 11
294.0756214896209
 21
161.778100388552
 31
0.0
  0
LINE
  5
85D
330
1F
100
AcDbEntity
  8
AM_0
100
AcDbLine
 10
294.1756214896214
 20
161.778100388552
 30
0.0
 11
294.1756214896214
 21
136.778100388552
 31
0.0
  0
LINE
  5
85E
330
1F
100
AcDbEntity
  8
AM_0
100
AcDbLine
 10
220.1256214896211
 20
136.778100388552
 30
0.0
 11
294.0756214896219
 21
136.778100388552
 31
0.0
  0
LINE
  5
85F
330
1F
100
AcDbEntity
  8
AM_0
100
AcDbLine
 10
294.1756214896214
 20
136.778100388552
 30
0.0
 11
368.1256214896212
 21
136.778100388552
 31
0.0
  0
LINE
  5
860
330
1F
100
AcDbEntity
  8
AM_0
100
AcDbLine
 10
294.0756214896209
 20
161.778100388552
 30
0.0
 11
220.1256214896211
 21
161.778100388552
 31
0.0
  0
LINE
  5
861
330
1F
100
AcDbEntity
  8
AM_0
100
AcDbLine
 10
368.1256214896212
 20
161.778100388552
 30
0.0
 11
294.1756214896214
 21
161.778100388552
 31
0.0
  0
LINE
  5
862
330
1F
100
AcDbEntity
  8
AM_0
100
AcDbLine
 10
220.1256214896211
 20
136.778100388552
 30
0.0
 11
210.1256214896239
 21
136.778100388552
 31
0.0
  0
LINE
  5
863
330
1F
100
AcDbEntity
  8
AM_0
100
AcDbLine
 10
378.1256214896248
 20
136.778100388552
 30
0.0
 11
368.1256214896212
 21
136.778100388552
 31
0.0
  0
LINE
  5
864
102
{ACAD_REACTORS
330
934
102
}
330
1F
100
AcDbEntity
  8
AM_0
100
AcDbLine
 10
378.1256214896248
 20
136.778100388552
 30
0.0
 11
378.1256214896248
 21
161.778100388552
 31
0.0
  0
LINE
  5
865
102
{ACAD_REACTORS
330
934
102
}
330
1F
100
AcDbEntity
  8
AM_0
100
AcDbLine
 10
368.1256214896212
 20
161.778100388552
 30
0.0
 11
378.1256214896248
 21
161.778100388552
 31
0.0
  0
LINE
  5
866
330
1F
100
AcDbEntity
  8
AM_0
100
AcDbLine
 10
210.1256214896239
 20
161.778100388552
 30
0.0
 11
220.1256214896211
 21
161.778100388552
 31
0.0
  0
LINE
  5
867
330
1F
100
AcDbEntity
  8
AM_0
100
AcDbLine
 10
210.1256214896239
 20
161.778100388552
 30
0.0
 11
210.1256214896239
 21
136.778100388552
 31
0.0
  0
LINE
  5
868
330
1F
100
AcDbEntity
  8
AM_3
 48
12.09482383728027
100
AcDbLine
 10
215.1256214896239
 20
136.778100388552
 30
0.0
 11
215.1256214896239
 21
161.778100388552
 31
0.0
  0
LINE
  5
869
330
1F
100
AcDbEntity
  8
AM_3
 48
12.09482383728027
100
AcDbLine
 10
373.1256214896248
 20
161.778100388552
 30
0.0
 11
373.1256214896248
 21
136.778100388552
 31
0.0
  0
ARC
  5
86A
330
1F
100
AcDbEntity
  8
AM_3
 48
11.39910221099853
100
AcDbCircle
 10
234.1256214896275
 20
161.778100388552
 30
0.0
 40
2.999999999999995
100
AcDbArc
 50
180.0
 51
0.0
  0
ARC
  5
86B
330
1F
100
AcDbEntity
  8
AM_3
 48
11.39910221099853
100
AcDbCircle
 10
274.1256214896275
 20
161.778100388552
 30
0.0
 40
2.999999999999996
100
AcDbArc
 50
180.0
 51
0.0
  0
ARC
  5
86C
330
1F
100
AcDbEntity
  8
AM_3
 48
11.39910221099853
100
AcDbCircle
 10
314.1256214896275
 20
161.778100388552
 30
0.0
 40
2.999999999999995
100
AcDbArc
 50
180.0
 51
0.0
  0
LINE
  5
86D
330
1F
100
AcDbEntity
  8
AM_0
 48
0.0951348319649697
100
AcDbLine
 10
294.1756214896268
 20
161.778100388552
 30
0.0
 11
294.0756214896273
 21
161.778100388552
 31
0.0
  0
LINE
  5
86E
330
1F
100
AcDbEntity
  8
AM_0
 48
0.0951348319649697
100
AcDbLine
 10
294.0756214896273
 20
136.7781003885525
 30
0.0
 11
294.1756214896268
 21
136.7781003885525
 31
0.0
  0
ARC
  5
86F
330
1F
100
AcDbEntity
  8
AM_3
 48
11.39910221099853
100
AcDbCircle
 10
354.1256214896275
 20
161.7781003885525
 30
0.0
 40
2.999999999999995
100
AcDbArc
 50
180.0
 51
0.0
  0
LINE
  5
870
330
1F
100
AcDbEntity
  8
AM_3
 48
11.39910221099853
100
AcDbLine
 10
339.7922913149105
 20
161.6781003885526
 30
0.0
 11
348.7922913149105
 21
161.6781003885526
 31
0.0
  0
LINE
  5
871
330
1F
100
AcDbEntity
  8
AM_3
 48
0.0951348319649697
100
AcDbLine
 10
336.4162866279758
 20
161.7781003885525
 30
0.0
 11
336.4162866279758
 21
161.6781003885526
 31
0.0
  0
LINE
  5
872
330
1F
100
AcDbEntity
  8
AM_3
 48
0.0951348319649697
100
AcDbLine
 10
336.3267561377861
 20
161.7781003885525
 30
0.0
 11
336.3267561377861
 21
161.6781003885526
 31
0.0
  0
LINE
  5
873
330
1F
100
AcDbEntity
  8
AM_3
 48
0.0951348319649697
100
AcDbLine
 10
337.3452878143644
 20
161.7781003885525
 30
0.0
 11
337.3452878143644
 21
161.6781003885526
 31
0.0
  0
LINE
  5
874
330
1F
100
AcDbEntity
  8
AM_3
 48
0.0951348319649697
100
AcDbLine
 10
337.4620102091885
 20
161.7781003885525
 30
0.0
 11
337.4620102091885
 21
161.6781003885526
 31
0.0
  0
LINE
  5
875
330
1F
100
AcDbEntity
  8
AM_3
 48
0.0951348319649697
100
AcDbLine
 10
336.2996763149131
 20
161.7781003885525
 30
0.0
 11
336.2996763149131
 21
161.6781003885526
 31
0.0
  0
LINE
  5
876
330
1F
100
AcDbEntity
  8
AM_3
 48
0.0951348319649697
100
AcDbLine
 10
336.378111314898
 20
161.7781003885525
 30
0.0
 11
336.378111314898
 21
161.6781003885526
 31
0.0
  0
LINE
  5
877
330
1F
100
AcDbEntity
  8
AM_3
 48
0.0951348319649697
100
AcDbLine
 10
337.6347063149697
 20
161.7781003885525
 30
0.0
 11
337.6347063149697
 21
161.6781003885526
 31
0.0
  0
LINE
  5
878
330
1F
100
AcDbEntity
  8
AM_3
 48
0.0951348319649697
100
AcDbLine
 10
337.7492013149704
 20
161.7781003885525
 30
0.0
 11
337.7492013149704
 21
161.6781003885526
 31
0.0
  0
LINE
  5
879
330
1F
100
AcDbEntity
  8
AM_3
 48
13.64411067962646
100
AcDbLine
 10
329.6256150896115
 20
161.6781003885526
 30
0.0
 11
337.7492013149704
 21
161.6781003885526
 31
0.0
  0
LINE
  5
87A
330
1F
100
AcDbEntity
  8
AM_3
 48
0.0951348319649697
100
AcDbLine
 10
320.4816857864535
 20
161.7781003885525
 30
0.0
 11
320.4816857864535
 21
161.6781003885526
 31
0.0
  0
LINE
  5
87B
330
1F
100
AcDbEntity
  8
AM_3
 48
0.0951348319649697
100
AcDbLine
 10
325.6890918433673
 20
161.7781003885525
 30
0.0
 11
325.6890918433673
 21
161.6781003885526
 31
0.0
  0
LINE
  5
87C
330
1F
100
AcDbEntity
  8
AM_3
 48
0.0951348319649697
100
AcDbLine
 10
325.8593996755317
 20
161.7781003885525
 30
0.0
 11
325.8593996755317
 21
161.6781003885526
 31
0.0
  0
LINE
  5
87D
330
1F
100
AcDbEntity
  8
AM_3
 48
0.0951348319649697
100
AcDbLine
 10
327.1262820750317
 20
161.7781003885525
 30
0.0
 11
327.1262820750317
 21
161.6781003885526
 31
0.0
  0
LINE
  5
87E
330
1F
100
AcDbEntity
  8
AM_3
 48
0.0951348319649697
100
AcDbLine
 10
319.0444953774568
 20
161.7781003885525
 30
0.0
 11
319.0444953774568
 21
161.6781003885526
 31
0.0
  0
LINE
  5
87F
330
1F
100
AcDbEntity
  8
AM_3
 48
0.0951348319649697
100
AcDbLine
 10
320.3113779542682
 20
161.7781003885525
 30
0.0
 11
320.3113779542682
 21
161.6781003885526
 31
0.0
  0
LINE
  5
880
330
1F
100
AcDbEntity
  8
AM_3
 48
0.0951348319649697
100
AcDbLine
 10
325.5214863149104
 20
161.7781003885525
 30
0.0
 11
325.5214863149104
 21
161.6781003885526
 31
0.0
  0
LINE
  5
881
330
1F
100
AcDbEntity
  8
AM_3
 48
4.639926433563231
100
AcDbLine
 10
325.5214863149104
 20
161.6781003885526
 30
0.0
 11
320.6492913149077
 21
161.6781003885526
 31
0.0
  0
LINE
  5
882
330
1F
100
AcDbEntity
  8
AM_3
 48
0.0951348319649697
100
AcDbLine
 10
320.6492913149077
 20
161.7781003885525
 30
0.0
 11
320.6492913149077
 21
161.6781003885526
 31
0.0
  0
LINE
  5
883
330
1F
100
AcDbEntity
  8
AM_3
 48
0.0951348319649697
100
AcDbLine
 10
325.661361314892
 20
161.7781003885525
 30
0.0
 11
325.661361314892
 21
161.6781003885526
 31
0.0
  0
LINE
  5
884
330
1F
100
AcDbEntity
  8
AM_3
 48
1.594602227210996
100
AcDbLine
 10
325.661361314892
 20
161.6781003885526
 30
0.0
 11
325.5214863149104
 21
161.6781003885526
 31
0.0
  0
LINE
  5
885
330
1F
100
AcDbEntity
  8
AM_3
 48
0.0951348319649697
100
AcDbLine
 10
327.32802631491
 20
161.7781003885525
 30
0.0
 11
327.32802631491
 21
161.6781003885526
 31
0.0
  0
LINE
  5
886
330
1F
100
AcDbEntity
  8
AM_3
 48
1.587145566940305
100
AcDbLine
 10
327.32802631491
 20
161.6781003885526
 30
0.0
 11
325.661361314892
 21
161.6781003885526
 31
0.0
  0
LINE
  5
887
330
1F
100
AcDbEntity
  8
AM_3
 48
0.0951348319649697
100
AcDbLine
 10
318.84275131491
 20
161.7781003885525
 30
0.0
 11
318.84275131491
 21
161.6781003885526
 31
0.0
  0
LINE
  5
888
330
1F
100
AcDbEntity
  8
AM_3
 48
0.0951348319649697
100
AcDbLine
 10
320.5094163149097
 20
161.7781003885525
 30
0.0
 11
320.5094163149097
 21
161.6781003885526
 31
0.0
  0
LINE
  5
889
330
1F
100
AcDbEntity
  8
AM_3
 48
1.587145566940305
100
AcDbLine
 10
320.5094163149097
 20
161.6781003885526
 30
0.0
 11
318.84275131491
 21
161.6781003885526
 31
0.0
  0
LINE
  5
88A
330
1F
100
AcDbEntity
  8
AM_3
 48
1.594602227210996
100
AcDbLine
 10
320.6492913149077
 20
161.6781003885526
 30
0.0
 11
320.5094163149097
 21
161.6781003885526
 31
0.0
  0
LINE
  5
88B
330
1F
100
AcDbEntity
  8
AM_3
 48
0.0951348319649697
100
AcDbLine
 10
325.0894413149108
 20
161.7781003885525
 30
0.0
 11
325.0894413149108
 21
161.6781003885526
 31
0.0
  0
LINE
  5
88C
330
1F
100
AcDbEntity
  8
AM_3
 48
0.0951348319649697
100
AcDbLine
 10
323.085381314937
 20
161.7781003885525
 30
0.0
 11
323.085381314937
 21
161.6781003885526
 31
0.0
  0
LINE
  5
88D
330
1F
100
AcDbEntity
  8
AM_3
 48
0.0951348319649697
100
AcDbLine
 10
321.0813213149386
 20
161.7781003885525
 30
0.0
 11
321.0813213149386
 21
161.6781003885526
 31
0.0
  0
LINE
  5
88E
330
1F
100
AcDbEntity
  8
AM_3
 48
0.0951348319649697
100
AcDbLine
 10
325.3681644275403
 20
161.7781003885525
 30
0.0
 11
325.3681644275403
 21
161.6781003885526
 31
0.0
  0
LINE
  5
88F
330
1F
100
AcDbEntity
  8
AM_3
 48
0.0951348319649697
100
AcDbLine
 10
320.8025981240435
 20
161.7781003885525
 30
0.0
 11
320.8025981240435
 21
161.6781003885526
 31
0.0
  0
LINE
  5
890
330
1F
100
AcDbEntity
  8
AM_3
 48
0.0951348319649697
100
AcDbLine
 10
347.1256263149107
 20
161.7781003885525
 30
0.0
 11
347.1256263149107
 21
161.6781003885526
 31
0.0
  0
LINE
  5
891
330
1F
100
AcDbEntity
  8
AM_3
 48
0.0951348319649697
100
AcDbLine
 10
341.4589563149111
 20
161.7781003885525
 30
0.0
 11
341.4589563149111
 21
161.6781003885526
 31
0.0
  0
LINE
  5
892
330
1F
100
AcDbEntity
  8
AM_3
 48
0.0951348319649697
100
AcDbLine
 10
347.3256263149107
 20
161.7781003885525
 30
0.0
 11
347.3256263149107
 21
161.6781003885526
 31
0.0
  0
LINE
  5
893
330
1F
100
AcDbEntity
  8
AM_3
 48
0.0951348319649697
100
AcDbLine
 10
341.2589563149104
 20
161.7781003885525
 30
0.0
 11
341.2589563149104
 21
161.6781003885526
 31
0.0
  0
LINE
  5
894
330
1F
100
AcDbEntity
  8
AM_3
 48
0.0951348319649697
100
AcDbLine
 10
348.5922913149106
 20
161.7781003885525
 30
0.0
 11
348.5922913149106
 21
161.6781003885526
 31
0.0
  0
LINE
  5
895
330
1F
100
AcDbEntity
  8
AM_3
 48
0.0951348319649697
100
AcDbLine
 10
339.9922913149112
 20
161.7781003885525
 30
0.0
 11
339.9922913149112
 21
161.6781003885526
 31
0.0
  0
LINE
  5
896
330
1F
100
AcDbEntity
  8
AM_3
 48
0.0951348319649697
100
AcDbLine
 10
348.7922913149105
 20
161.7781003885525
 30
0.0
 11
348.7922913149105
 21
161.6781003885526
 31
0.0
  0
LINE
  5
897
330
1F
100
AcDbEntity
  8
AM_3
 48
0.0951348319649697
100
AcDbLine
 10
339.7922913149105
 20
161.7781003885525
 30
0.0
 11
339.7922913149105
 21
161.6781003885526
 31
0.0
  0
LINE
  5
898
330
1F
100
AcDbEntity
  8
AM_3
 48
0.0951348319649697
100
AcDbLine
 10
331.0922873662712
 20
161.7781003885525
 30
0.0
 11
331.0922873662712
 21
161.6781003885526
 31
0.0
  0
LINE
  5
899
330
1F
100
AcDbEntity
  8
AM_3
 48
0.0951348319649697
100
AcDbLine
 10
329.8256150896114
 20
161.7781003885525
 30
0.0
 11
329.8256150896114
 21
161.6781003885526
 31
0.0
  0
LINE
  5
89A
330
1F
100
AcDbEntity
  8
AM_3
 48
0.0951348319649697
100
AcDbLine
 10
331.292287366271
 20
161.7781003885525
 30
0.0
 11
331.292287366271
 21
161.6781003885526
 31
0.0
  0
LINE
  5
89B
330
1F
100
AcDbEntity
  8
AM_3
 48
0.0951348319649697
100
AcDbLine
 10
329.6256150896115
 20
161.7781003885525
 30
0.0
 11
329.6256150896115
 21
161.6781003885526
 31
0.0
  0
LINE
  5
89C
330
1F
100
AcDbEntity
  8
AM_3
 48
0.0951348319649697
100
AcDbLine
 10
318.8427513149008
 20
161.7781003885525
 30
0.0
 11
318.8427513149008
 21
161.6781003885526
 31
0.0
  0
LINE
  5
89D
330
1F
100
AcDbEntity
  8
AM_3
 48
9.689237594604492
100
AcDbLine
 10
317.1256214896566
 20
156.6781003885526
 30
0.0
 11
317.1256214896585
 21
161.7781003885525
 31
0.0
  0
LINE
  5
89E
330
1F
100
AcDbEntity
  8
AM_3
 48
9.689237594604492
100
AcDbLine
 10
351.1256214896584
 20
161.7781003885525
 30
0.0
 11
351.1256214896566
 21
156.6781003885526
 31
0.0
  0
LINE
  5
89F
330
1F
100
AcDbEntity
  8
AM_3
 48
11.74925708770752
100
AcDbLine
 10
317.1256214896585
 20
156.7781003885525
 30
0.0
 11
351.1256214896584
 21
156.7781003885525
 31
0.0
  0
LINE
  5
8A0
330
1F
100
AcDbEntity
  8
AM_3
 48
2.856944799423216
100
AcDbLine
 10
314.1256214896566
 20
156.678100388552
 30
0.0
 11
317.1256214896566
 21
156.6781003885526
 31
0.0
  0
ARC
  5
8A1
330
1F
100
AcDbEntity
  8
AM_3
 48
4.487735748291013
100
AcDbCircle
 10
314.1256214896566
 20
159.6781003885521
 30
0.0
 40
2.999999999999998
100
AcDbArc
 50
180.0
 51
270.0
  0
LINE
  5
8A2
330
1F
100
AcDbEntity
  8
AM_3
 48
1.523657321929929
100
AcDbLine
 10
311.1256214896566
 20
161.278100388552
 30
0.0
 11
311.1256214896566
 21
159.6781003885521
 31
0.0
  0
ARC
  5
8A3
330
1F
100
AcDbEntity
  8
AM_3
 48
0.7478725910186768
100
AcDbCircle
 10
310.6256214896566
 20
161.278100388552
 30
0.0
 40
0.4999999999999961
100
AcDbArc
 50
0.0
 51
90.0
  0
ARC
  5
8A4
330
1F
100
AcDbEntity
  8
AM_3
 48
0.7478725910186768
100
AcDbCircle
 10
357.6256214896566
 20
161.278100388552
 30
0.0
 40
0.4999999999999984
100
AcDbArc
 50
90.0
 51
180.0
  0
LINE
  5
8A5
330
1F
100
AcDbEntity
  8
AM_3
 48
1.523657321929929
100
AcDbLine
 10
357.1256214896566
 20
159.6781003885521
 30
0.0
 11
357.1256214896566
 21
161.278100388552
 31
0.0
  0
ARC
  5
8A6
330
1F
100
AcDbEntity
  8
AM_3
 48
4.487735748291013
100
AcDbCircle
 10
354.1256214896566
 20
159.6781003885521
 30
0.0
 40
3.000000000000003
100
AcDbArc
 50
270.0
 51
0.0
  0
LINE
  5
8A7
330
1F
100
AcDbEntity
  8
AM_3
 48
2.856944799423216
100
AcDbLine
 10
351.1256214896566
 20
156.6781003885526
 30
0.0
 11
354.1256214896566
 21
156.678100388552
 31
0.0
  0
DIMENSION
  5
8BF
102
{ACAD_XDICTIONARY
360
8CC
102
}
102
{ACAD_REACTORS
330
8CD
102
}
330
1F
100
AcDbEntity
  8
AM_5
100
AcDbDimension
280
     0
  2
*D6
 10
192.5784495312655
 20
244.5000048146972
 30
0.0
 11
108.5784495312655
 21
247.7500048146973
 31
0.0
 70
    32
  1
<>
 71
     5
 42
168.0
 73
     0
 74
     0
 75
     0
  3
ACO$0
100
AcDbAlignedDimension
 13
24.57844953126552
 23
222.5000038146973
 33
0.0
 14
192.5784495312655
 24
222.5000038146973
 34
0.0
100
AcDbRotatedDimension
1001
ACAD_DSTYLE_DIMINSPECT
1070
   396
1000
100%
1070
   395
1000

1070
   394
1070
    33
1070
   393
1070
     0
1001
ACAD
1000
DSTYLE
1002
{
1070
     3
1000

1002
}
  0
DIMENSION
  5
905
102
{ACAD_XDICTIONARY
360
912
102
}
102
{ACAD_REACTORS
330
913
102
}
330
1F
100
AcDbEntity
  8
AM_5
100
AcDbDimension
280
     0
  2
*D7
 10
12.57844853126551
 20
64.50000381469727
 30
0.0
 11
9.328448531265527
 21
148.5000038146973
 31
0.0
 70
    32
 71
     5
 42
168.0
 73
     0
 74
     0
 75
     0
  3
ACO$0
100
AcDbAlignedDimension
 13
34.57844953126552
 23
232.5000038146973
 33
0.0
 14
34.57844953126552
 24
64.50000381469727
 34
0.0
 50
90.00000000000005
100
AcDbRotatedDimension
1001
ACAD_DSTYLE_DIMINSPECT
1070
   396
1000
100%
1070
   395
1000

1070
   394
1070
    33
1070
   393
1070
     0
  0
DIMENSION
  5
926
102
{ACAD_XDICTIONARY
360
933
102
}
102
{ACAD_REACTORS
330
934
102
}
330
1F
100
AcDbEntity
  8
AM_5
100
AcDbDimension
280
     0
  2
*D8
 10
390.1256214896257
 20
136.7781003885521
 30
0.0
 11
386.8756214896257
 21
149.2781003885519
 31
0.0
 70
    32
 71
     5
 42
25.0
 73
     0
 74
     0
 75
     0
  3
ACO$0
100
AcDbAlignedDimension
 13
378.1256214896248
 23
161.778100388552
 33
0.0
 14
378.1256214896248
 24
136.778100388552
 34
0.0
 50
90.0
100
AcDbRotatedDimension
1001
ACAD_DSTYLE_DIMINSPECT
1070
   396
1000
100%
1070
   395
1000

1070
   394
1070
    33
1070
   393
1070
     0
  0
ENDSEC
  0
SECTION
  2
OBJECTS
  0
DICTIONARY
  5
C
330
0
100
AcDbDictionary
281
     1
  3
ACAD_CIP_PREVIOUS_PRODUCT_INFO
350
216
  3
ACAD_COLOR
350
6B
  3
ACAD_DETAILVIEWSTYLE
350
21B
  3
ACAD_FIELDLIST
350
2A8
  3
ACAD_GROUP
350
D
  3
ACAD_LAYOUT
350
1A
  3
ACAD_MATERIAL
350
6A
  3
ACAD_MLEADERSTYLE
350
12D
  3
ACAD_MLINESTYLE
350
17
  3
ACAD_PLOTSETTINGS
350
19
  3
ACAD_PLOTSTYLENAME
350
E
  3
ACAD_SCALELIST
350
10C
  3
ACAD_SECTIONVIEWSTYLE
350
219
  3
ACAD_TABLESTYLE
350
7E
  3
ACAD_VISUALSTYLE
350
EF
  3
ACDB_RECOMPOSE_DATA
350
A40
  3
AcDbVariableDictionary
350
5E
  3
AcmDictionary
350
26A
  3
AMG
350
23E
  3
AMGSNAPSETTINGS
350
2F5
  3
SY_ROOT_DICTIONARY
350
2D4
  0
DICTIONARY
  5
1FF
330
2
100
AcDbDictionary
280
     1
281
     1
  3
ACAD_LAYERSTATES
360
200
  3
AMLAYER_GROUPCOLORS
360
2B3
  0
DICTIONARY
  5
13C
330
10
100
AcDbDictionary
280
     1
281
     1
  3
ADSK_XREC_LAYER_RECONCILED
360
5DF
  0
DICTIONARY
  5
5E0
330
2B1
100
AcDbDictionary
280
     1
281
     1
  3
ADSK_XREC_LAYER_RECONCILED
360
5E1
  0
DICTIONARY
  5
5E2
330
4A7
100
AcDbDictionary
280
     1
281
     1
  3
ADSK_XREC_LAYER_RECONCILED
360
5E3
  0
DICTIONARY
  5
5E4
330
586
100
AcDbDictionary
280
     1
281
     1
  3
ADSK_XREC_LAYER_RECONCILED
360
5E5
  0
DICTIONARY
  5
5E6
330
588
100
AcDbDictionary
280
     1
281
     1
  3
ADSK_XREC_LAYER_RECONCILED
360
5E7
  0
DICTIONARY
  5
5E8
330
5D3
100
AcDbDictionary
280
     1
281
     1
  3
ADSK_XREC_LAYER_RECONCILED
360
5E9
  0
DICTIONARY
  5
1CE
330
1F
100
AcDbDictionary
280
     1
281
     1
  0
DICTIONARY
  5
4ED
330
4A8
100
AcDbDictionary
280
     1
281
     1
  3
ACAD_SORTENTS
360
4EE
  0
DICTIONARY
  5
55F
330
4F7
100
AcDbDictionary
280
     1
281
     1
  3
ACAD_SORTENTS
360
560
  0
DICTIONARY
  5
538
330
537
100
AcDbDictionary
280
     1
281
     1
  3
ACAD_MTEXT_2008_RT
360
A3F
  0
DICTIONARY
  5
53D
330
53C
100
AcDbDictionary
280
     1
281
     1
  3
ACAD_FIELD
360
53E
  0
DICTIONARY
  5
8CC
330
8BF
100
AcDbDictionary
280
     1
281
     1
  3
ACAD_DIMASSOC
360
8CD
  0
DICTIONARY
  5
912
330
905
100
AcDbDictionary
280
     1
281
     1
  3
ACAD_DIMASSOC
360
913
  0
DICTIONARY
  5
933
330
926
100
AcDbDictionary
280
     1
281
     1
  3
ACAD_DIMASSOC
360
934
  0
XRECORD
  5
216
102
{ACAD_REACTORS
330
C
102
}
330
C
100
AcDbXrecord
280
     1
300
AMECH_PP
300
2017
300
PDSP_F_S
  0
DICTIONARY
  5
6B
102
{ACAD_REACTORS
330
C
102
}
330
C
100
AcDbDictionary
281
     1
  0
DICTIONARY
  5
21B
102
{ACAD_REACTORS
330
C
102
}
330
C
100
AcDbDictionary
281
     1
  3
Imperial24
350
35E
  3
Metric50
350
21C
  0
FIELDLIST
  5
2A8
102
{ACAD_REACTORS
330
C
102
}
330
C
100
AcDbIdSet
 90
        5
330
A30
330
A31
330
A32
330
53F
330
540
100
AcDbFieldList
  0
DICTIONARY
  5
D
102
{ACAD_REACTORS
330
C
102
}
330
C
100
AcDbDictionary
281
     1
  0
DICTIONARY
  5
1A
102
{ACAD_REACTORS
330
C
102
}
330
C
100
AcDbDictionary
281
     1
  3
Layout1
350
D3
  3
Layout2
350
D7
  3
Model
350
22
  0
DICTIONARY
  5
6A
102
{ACAD_REACTORS
330
C
102
}
330
C
100
AcDbDictionary
281
     1
  3
ByBlock
350
ED
  3
ByLayer
350
EC
  3
Global
350
EE
  0
DICTIONARY
  5
12D
102
{ACAD_REACTORS
330
C
102
}
330
C
100
AcDbDictionary
281
     1
  3
Annotative
350
13B
  3
Standard
350
12E
  0
DICTIONARY
  5
17
102
{ACAD_REACTORS
330
C
102
}
330
C
100
AcDbDictionary
281
     1
  3
Standard
350
18
  0
DICTIONARY
  5
19
102
{ACAD_REACTORS
330
C
102
}
330
C
100
AcDbDictionary
281
     1
  3
Laser A3
350
3C6
  3
Laser A4
350
3C7
  3
Plotter A0
350
3C3
  3
Plotter A1
350
3C4
  3
Plotter A2
350
3C5
  0
ACDBDICTIONARYWDFLT
  5
E
102
{ACAD_REACTORS
330
C
102
}
330
C
100
AcDbDictionary
281
     1
  3
Normal
350
F
100
AcDbDictionaryWithDefault
340
F
  0
DICTIONARY
  5
10C
102
{ACAD_REACTORS
330
C
102
}
330
C
100
AcDbDictionary
281
     1
  3
A0
350
10D
  3
A1
350
1BE
  3
A2
350
1BF
  3
A3
350
1C0
  3
A4
350
1C1
  3
A5
350
1C2
  3
A6
350
1C3
  3
A7
350
1C4
  3
A8
350
1C5
  3
A9
350
1C6
  3
B0
350
1C7
  3
B1
350
1C8
  3
B2
350
1C9
  3
B3
350
1CA
  3
B4
350
1CB
  3
B5
350
1CC
  3
B6
350
1CD
  0
DICTIONARY
  5
219
102
{ACAD_REACTORS
330
C
102
}
330
C
100
AcDbDictionary
281
     1
  3
Imperial24
350
36C
  3
Metric50
350
21A
  0
DICTIONARY
  5
7E
102
{ACAD_REACTORS
330
C
102
}
330
C
100
AcDbDictionary
281
     1
  3
Standard
350
7F
  0
DICTIONARY
  5
EF
102
{ACAD_REACTORS
330
C
102
}
330
C
100
AcDbDictionary
281
     1
  3
2dWireframe
350
F5
  3
Basic
350
F4
  3
Brighten
350
FB
  3
ColorChange
350
FF
  3
Conceptual
350
F8
  3
Dim
350
FA
  3
EdgeColorOff
350
1E6
  3
Facepattern
350
FE
  3
Flat
350
F0
  3
FlatWithEdges
350
F1
  3
Gouraud
350
F2
  3
GouraudWithEdges
350
F3
  3
Hidden
350
F7
  3
JitterOff
350
1E4
  3
Linepattern
350
FD
  3
OverhangOff
350
1E5
  3
Realistic
350
F9
  3
Shaded
350
1F3
  3
Shaded with edges
350
1F2
  3
Shades of Gray
350
1EF
  3
Sketchy
350
1F0
  3
Thicken
350
FC
  3
Wireframe
350
F6
  3
X-Ray
350
1F1
  0
XRECORD
  5
A40
102
{ACAD_REACTORS
330
C
102
}
330
C
100
AcDbXrecord
280
     1
 90
        1
330
7F
330
21A
330
21C
330
35E
330
36C
330
537
  0
DICTIONARY
  5
5E
102
{ACAD_REACTORS
330
C
102
}
330
C
100
AcDbDictionary
281
     1
  3
CANNOSCALE
350
146
  3
CMLEADERSTYLE
350
145
  3
CTABLESTYLE
350
84
  3
CVIEWDETAILSTYLE
350
227
  3
CVIEWSECTIONSTYLE
350
228
  3
DIMASSOC
350
5F
  3
HIDETEXT
350
63
  3
LAYEREVAL
350
1AE
  3
LAYERNOTIFY
350
1AF
  3
LIGHTINGUNITS
350
2DE
  3
MSLTSCALE
350
2DD
  0
DICTIONARY
  5
26A
102
{ACAD_REACTORS
330
C
102
}
330
C
100
AcDbDictionary
281
     1
  3
AcmStdDictionary
350
271
  3
AMDTSECTSYM_ARROWCOLOR
350
2D3
  0
DICTIONARY
  5
23E
102
{ACAD_REACTORS
330
C
102
}
330
C
100
AcDbDictionary
281
     1
  0
DICTIONARY
  5
2F5
102
{ACAD_REACTORS
330
C
102
}
330
C
100
AcDbDictionary
281
     1
  0
DICTIONARY
  5
2D4
102
{ACAD_REACTORS
330
C
102
}
330
C
100
AcDbDictionary
281
     1
  3
SY_VIEWSTD
350
2D5
  0
DICTIONARY
  5
200
102
{ACAD_REACTORS
330
1FF
102
}
330
1FF
100
AcDbDictionary
281
     1
  0
DICTIONARY
  5
2B3
102
{ACAD_REACTORS
330
1FF
102
}
330
1FF
100
AcDbDictionary
280
     1
281
     1
  0
XRECORD
  5
5DF
102
{ACAD_REACTORS
330
13C
102
}
330
13C
100
AcDbXrecord
280
     1
290
     1
  0
XRECORD
  5
5E1
102
{ACAD_REACTORS
330
5E0
102
}
330
5E0
100
AcDbXrecord
280
     1
290
     1
  0
XRECORD
  5
5E3
102
{ACAD_REACTORS
330
5E2
102
}
330
5E2
100
AcDbXrecord
280
     1
290
     1
  0
XRECORD
  5
5E5
102
{ACAD_REACTORS
330
5E4
102
}
330
5E4
100
AcDbXrecord
280
     1
290
     1
  0
XRECORD
  5
5E7
102
{ACAD_REACTORS
330
5E6
102
}
330
5E6
100
AcDbXrecord
280
     1
290
     1
  0
XRECORD
  5
5E9
102
{ACAD_REACTORS
330
5E8
102
}
330
5E8
100
AcDbXrecord
280
     1
290
     1
  0
SORTENTSTABLE
  5
4EE
102
{ACAD_REACTORS
330
4ED
102
}
330
4ED
100
AcDbSortentsTable
330
4A8
331
4AA
  5
4A9
331
4CD
  5
4C6
331
4D3
  5
4D2
331
4D8
  5
4D7
331
4A9
  5
4D8
331
4D2
  5
4D1
331
4D1
  5
4D0
331
4D0
  5
4CF
331
4B1
  5
4AA
331
4D7
  5
4D6
331
4B8
  5
4B1
331
4D6
  5
4D5
331
4C6
  5
4BF
331
4CF
  5
4CE
331
4D5
  5
4D4
331
4CE
  5
4CD
331
4BF
  5
4B8
331
4D4
  5
4D3
  0
SORTENTSTABLE
  5
560
102
{ACAD_REACTORS
330
55F
102
}
330
55F
100
AcDbSortentsTable
330
4F7
  0
XRECORD
  5
A3F
102
{ACAD_REACTORS
330
538
102
}
330
538
100
AcDbXrecord
280
     1
 40
5970207.0
  1
\pxsm1.1;The reproduction, distribution and utilization of this document as well as the communication of its contents to others without express authorization is\Pprohibited. Offenders will be held liable for the payment of damages. All rights reserve
  1
d in the event of the grant of a patent, utility model or design.\PObserve copyright by ISO 16016
  0
DICTIONARY
  5
53E
102
{ACAD_REACTORS
330
53D
102
}
330
53D
100
AcDbDictionary
280
     1
281
     1
  3
TEXT
360
53F
  0
DIMASSOC
  5
8CD
102
{ACAD_REACTORS
330
8CC
102
}
330
8CC
100
AcDbDimAssoc
330
8BF
 90
        3
 70
     0
 71
     0
  1
AcDbOsnapPointRef
 72
     1
331
781
 73
     0
 91
        0
 40
0.0
 10
0.0
 20
0.0
 30
2.000000000000000E+50
 75
     0
  1
AcDbOsnapPointRef
 72
    13
331
780
 73
     0
 91
        0
 40
0.0
 10
0.0
 20
0.0
 30
2.000000000000000E+50
 75
     0
  0
DIMASSOC
  5
913
102
{ACAD_REACTORS
330
912
102
}
330
912
100
AcDbDimAssoc
330
905
 90
        3
 70
     0
 71
     0
  1
AcDbOsnapPointRef
 72
    13
331
781
 73
     0
 91
        0
 40
0.0
 10
0.0
 20
0.0
 30
2.000000000000000E+50
 75
     0
  1
AcDbOsnapPointRef
 72
     1
331
775
 73
     0
 91
        0
 40
0.0
 10
0.0
 20
0.0
 30
2.000000000000000E+50
 75
     0
  0
DIMASSOC
  5
934
102
{ACAD_REACTORS
330
933
102
}
330
933
100
AcDbDimAssoc
330
926
 90
        3
 70
     0
 71
     0
  1
AcDbOsnapPointRef
 72
     1
331
865
 73
     0
 91
        0
 40
0.0
 10
0.0
 20
0.0
 30
2.000000000000000E+50
 75
     0
  1
AcDbOsnapPointRef
 72
    13
331
864
 73
     0
 91
        0
 40
0.0
 10
0.0
 20
0.0
 30
2.000000000000000E+50
 75
     0
  0
ACDBDETAILVIEWSTYLE
  5
35E
102
{ACAD_XDICTIONARY
360
35F
102
}
102
{ACAD_REACTORS
330
21B
330
A2A
102
}
330
21B
100
AcDbModelDocViewStyle
 70
     0
  3
Imperial24
290
     0
100
AcDbDetailViewStyle
 70
     0
 71
     0
 90
        3
 71
     1
340
11
 62
   256
 40
0.24
340
0
 62
   256
 40
0.24
300

 40
0.36
280
     3
 71
     2
340
16
 90
       25
 62
   256
 71
     3
340
11
 62
   256
 40
0.24
 90
        1
 40
0.75
 90
        1
300
%<\AcVar ViewType \f "%tc1">% %<\AcVar ViewDetailId>%\PMĚŘÍTKO %<\AcVar ViewScale \f "%sn">%
 71
     4
340
16
 90
       25
 62
   256
340
16
 90
       25
 62
   256
280
     0
  0
ACDBDETAILVIEWSTYLE
  5
21C
102
{ACAD_XDICTIONARY
360
236
102
}
102
{ACAD_REACTORS
330
21B
330
A2B
102
}
330
21B
100
AcDbModelDocViewStyle
 70
     0
  3
Metric50
290
     0
100
AcDbDetailViewStyle
 70
     0
 71
     0
 90
        3
 71
     1
340
11
 62
   256
 40
5.0
340
0
 62
   256
 40
5.0
300

 40
0.0
280
     0
 71
     2
340
16
 90
       25
 62
   256
 71
     3
340
11
 62
   256
 40
5.0
 90
        0
 40
15.0
 90
        1
300
%<\AcVar ViewDetailId>% (%<\AcVar ViewScale \f "%sn">%)
 71
     4
340
16
 90
       25
 62
   256
340
16
 90
       25
 62
   256
280
     0
  0
LAYOUT
  5
D3
102
{ACAD_REACTORS
330
1A
102
}
330
1A
100
AcDbPlotSettings
  1

  2
C:\Documents and Settings\basas\Application Data\Autodesk\AutoCAD 2005\R16.1\enu\plotters\Default Windows System Printer.pc3
  4

  6

 40
0.0
 41
0.0
 42
0.0
 43
0.0
 44
0.0
 45
0.0
 46
0.0
 47
0.0
 48
0.0
 49
0.0
140
0.0
141
0.0
142
1.0
143
1.0
 70
   688
 72
     0
 73
     0
 74
     5
  7

 75
    16
147
1.0
 76
     0
 77
     2
 78
   300
148
0.0
149
0.0
100
AcDbLayout
  1
Layout1
 70
     1
 71
     1
 10
0.0
 20
0.0
 11
12.0
 21
9.0
 12
0.0
 22
0.0
 32
0.0
 14
0.0
 24
0.0
 34
0.0
 15
0.0
 25
0.0
 35
0.0
146
0.0
 13
0.0
 23
0.0
 33
0.0
 16
1.0
 26
0.0
 36
0.0
 17
0.0
 27
1.0
 37
0.0
 76
     0
330
D2
  0
LAYOUT
  5
D7
102
{ACAD_REACTORS
330
1A
102
}
330
1A
100
AcDbPlotSettings
  1

  2
C:\Documents and Settings\basas\Application Data\Autodesk\AutoCAD 2005\R16.1\enu\plotters\Default Windows System Printer.pc3
  4

  6

 40
0.0
 41
0.0
 42
0.0
 43
0.0
 44
0.0
 45
0.0
 46
0.0
 47
0.0
 48
0.0
 49
0.0
140
0.0
141
0.0
142
1.0
143
1.0
 70
   688
 72
     0
 73
     0
 74
     5
  7

 75
    16
147
1.0
 76
     0
 77
     2
 78
   300
148
0.0
149
0.0
100
AcDbLayout
  1
Layout2
 70
     1
 71
     2
 10
0.0
 20
0.0
 11
12.0
 21
9.0
 12
0.0
 22
0.0
 32
0.0
 14
0.0
 24
0.0
 34
0.0
 15
0.0
 25
0.0
 35
0.0
146
0.0
 13
0.0
 23
0.0
 33
0.0
 16
1.0
 26
0.0
 36
0.0
 17
0.0
 27
1.0
 37
0.0
 76
     0
330
D6
  0
LAYOUT
  5
22
102
{ACAD_XDICTIONARY
360
205
102
}
102
{ACAD_REACTORS
330
1A
102
}
330
1A
100
AcDbPlotSettings
  1
Laser A3
  2
LASER.pc3
  4
A3
  6

 40
5.873749732971191
 41
5.873748779296875
 42
5.873748779296875
 43
5.873748779296875
 44
296.9259948730469
 45
419.9466552734373
 46
-5.910755634307861
 47
-5.900421142578125
 48
0.0000000000000273
 49
0.0
140
420.0
141
297.0000076293946
142
1.0
143
1.0
 70
 11940
 72
     1
 73
     1
 74
     4
  7
Laser BW.ctb
 75
     0
147
0.6789964199066162
 76
     0
 77
     2
 78
   300
148
-0.0000000000000273
149
0.0
100
AcDbLayout
  1
Model
 70
     1
 71
     0
 10
0.0
 20
0.0
 11
12.0
 21
9.0
 12
0.0
 22
0.0
 32
0.0
 14
0.0
 24
0.0
 34
0.0
 15
0.0
 25
0.0
 35
0.0
146
0.0
 13
0.0
 23
0.0
 33
0.0
 16
1.0
 26
0.0
 36
0.0
 17
0.0
 27
1.0
 37
0.0
 76
     0
330
1F
331
EA
1001
ACAD_PSEXT
1000
LASER.pc3
1000
Canon iR-ADV C5235/5240 UFR II
1000
\\CZ-PRY-SR-0035
1000

1070
     0
  0
MATERIAL
  5
ED
102
{ACAD_XDICTIONARY
360
1F9
102
}
102
{ACAD_REACTORS
330
6A
102
}
330
6A
100
AcDbMaterial
  1
ByBlock
 94
       63
  0
MATERIAL
  5
EC
102
{ACAD_XDICTIONARY
360
1F7
102
}
102
{ACAD_REACTORS
330
6A
102
}
330
6A
100
AcDbMaterial
  1
ByLayer
 94
       63
  0
MATERIAL
  5
EE
102
{ACAD_XDICTIONARY
360
173
102
}
102
{ACAD_REACTORS
330
6A
102
}
330
6A
100
AcDbMaterial
  1
Global
 43
0.0007999999797903
 43
0.0
 43
0.0
 43
0.0
 43
0.0
 43
0.0007999999797903
 43
0.0
 43
0.0
 43
0.0
 43
0.0
 43
1.0
 43
0.0
 43
0.0
 43
0.0
 43
0.0
 43
1.0
 49
0.0007999999797903
 49
0.0
 49
0.0
 49
0.0
 49
0.0
 49
0.0007999999797903
 49
0.0
 49
0.0
 49
0.0
 49
0.0
 49
1.0
 49
0.0
 49
0.0
 49
0.0
 49
0.0
 49
1.0
142
0.0007999999797903
142
0.0
142
0.0
142
0.0
142
0.0
142
0.0007999999797903
142
0.0
142
0.0
142
0.0
142
0.0
142
1.0
142
0.0
142
0.0
142
0.0
142
0.0
142
1.0
144
0.0007999999797903
144
0.0
144
0.0
144
0.0
144
0.0
144
0.0007999999797903
144
0.0
144
0.0
144
0.0
144
0.0
144
1.0
144
0.0
144
0.0
144
0.0
144
0.0
144
1.0
 94
       63
1001
ACAD
1070
    -1
1070
     3
1070
     0
1000

1071
        0
1070
     0
  0
MLEADERSTYLE
  5
13B
102
{ACAD_REACTORS
330
12D
102
}
330
12D
100
AcDbMLeaderStyle
179
     2
170
     2
171
     1
172
     0
 90
        2
 40
0.0
 41
0.0
173
     1
 91
-1056964608
340
14
 92
       -2
290
     1
 42
2.0
291
     1
 43
8.0
  3
Standard
 44
4.0
300

342
11
174
     1
178
     1
175
     1
176
     0
 93
-1056964608
 45
4.0
292
     0
297
     0
 46
4.0
 94
-1056964608
 47
1.0
 49
1.0
140
1.0
293
     1
141
0.0
294
     1
177
     0
142
1.0
295
     0
296
     1
143
3.75
271
     0
272
     9
273
     9
298
     0
  0
MLEADERSTYLE
  5
12E
102
{ACAD_REACTORS
330
12D
102
}
330
12D
100
AcDbMLeaderStyle
179
     2
170
     2
171
     1
172
     0
 90
        2
 40
0.0
 41
0.0
173
     1
 91
-1056964608
340
14
 92
       -2
290
     1
 42
2.0
291
     1
 43
8.0
  3
Standard
 44
4.0
300

342
11
174
     1
178
     1
175
     1
176
     0
 93
-1056964608
 45
4.0
292
     0
297
     0
 46
4.0
 94
-1056964608
 47
1.0
 49
1.0
140
1.0
293
     1
141
0.0
294
     1
177
     0
142
1.0
295
     0
296
     0
143
3.75
271
     0
272
     9
273
     9
298
     0
  0
MLINESTYLE
  5
18
102
{ACAD_REACTORS
330
17
102
}
330
17
100
AcDbMlineStyle
  2
STANDARD
 70
     0
  3

 62
   256
 51
90.0
 52
90.0
 71
     2
 49
0.5
 62
   256
  6
BYLAYER
 49
-0.5
 62
   256
  6
BYLAYER
  0
PLOTSETTINGS
  5
3C6
102
{ACAD_REACTORS
330
19
102
}
330
19
100
AcDbPlotSettings
  1
Laser A3
  2
LASER.pc3
  4
A3
  6

 40
5.873749732971191
 41
5.873748779296875
 42
5.873748779296875
 43
5.873748779296875
 44
296.9259948730469
 45
419.9466552734373
 46
-5.910755634307861
 47
-5.900421142578125
 48
0.0000000000000273
 49
0.0
140
420.0
141
297.0000076293946
142
1.0
143
1.0
 70
 11940
 72
     1
 73
     1
 74
     4
  7
Laser BW.ctb
 75
     0
147
0.6789964199066162
 76
     0
 77
     2
 78
   300
148
-0.0000000000000273
149
0.0
1001
ACAD_PSEXT
1000
LASER.pc3
1000
Canon iR-ADV C5235/5240 UFR II
1000
\\CZ-PRY-SR-0035
1000

1070
     0
  0
PLOTSETTINGS
  5
3C7
102
{ACAD_REACTORS
330
19
102
}
330
19
100
AcDbPlotSettings
  1
Laser A4
  2
LASER.pc3
  4
A4
  6

 40
5.873749732971191
 41
5.873748779296875
 42
5.873733520507812
 43
5.873748779296875
 44
209.9733276367186
 45
296.9259948730469
 46
-5.887077808380126
 47
-5.910755157470702
 48
0.0
 49
0.0
140
210.0
141
297.0000076293946
142
1.0
143
1.0
 70
 11940
 72
     1
 73
     0
 74
     4
  7
Laser BW.ctb
 75
     0
147
0.9439325923011415
 76
     0
 77
     2
 78
   300
148
0.0
149
0.0
1001
ACAD_PSEXT
1000
LASER.pc3
1000
Canon iR-ADV C5235/5240 UFR II
1000
\\CZ-PRY-SR-0035
1000

1070
     0
  0
PLOTSETTINGS
  5
3C3
102
{ACAD_REACTORS
330
19
102
}
330
19
100
AcDbPlotSettings
  1
Plotter A0
  2
PLOTTER.pc3
  4
User272
  6
AM_VIEW1
 40
4.995333194732666
 41
8.17041015625
 42
4.99530029296875
 43
8.1702880859375
 44
840.9516601562499
 45
1188.931640625
 46
-5.01947903633129
 47
-8.204536437988281
 48
0.0000000000000772
 49
-0.0000000000002274
140
1189.000015258789
141
840.9999847412109
142
1.0
143
1.0
 70
 11940
 72
     1
 73
     1
 74
     4
  7
Plotter BW.ctb
 75
     0
147
2.791883196149552
 76
     0
 77
     2
 78
   300
148
-0.0000000000000772
149
0.0000000000002274
1001
ACAD_PSEXT
1000
PLOTTER.pc3
1000
HP Designjet 4000 HPGL2/RTL
1000
Konstrukce plotr
1000
HP DJ 4000 HPGL2/RTL
1070
     0
  0
PLOTSETTINGS
  5
3C4
102
{ACAD_REACTORS
330
19
102
}
330
19
100
AcDbPlotSettings
  1
Plotter A1
  2
PLOTTER.pc3
  4
User1295
  6
AM_VIEW1
 40
4.995333194732666
 41
8.1702880859375
 42
4.99530029296875
 43
8.17034912109375
 44
840.9516601562499
 45
593.9366455078125
 46
-5.019479036331174
 47
-8.202003479003906
 48
0.0
 49
0.0
140
840.9999847412109
141
594.0000152587892
142
1.0
143
1.0
 70
 11940
 72
     1
 73
     0
 74
     4
  7
Plotter BW.ctb
 75
     0
147
2.791883196149552
 76
     0
 77
     2
 78
   300
148
0.0
149
0.0
1001
ACAD_PSEXT
1000
PLOTTER.pc3
1000
HP Designjet 4000 HPGL2/RTL
1000
Konstrukce plotr
1000
HP DJ 4000 HPGL2/RTL
1070
     0
  0
PLOTSETTINGS
  5
3C5
102
{ACAD_REACTORS
330
19
102
}
330
19
100
AcDbPlotSettings
  1
Plotter A2
  2
PLOTTER.pc3
  4
User1294
  6

 40
4.995333194732666
 41
8.17034912109375
 42
4.99530029296875
 43
8.170318603515625
 44
593.97900390625
 45
419.9043273925781
 46
-5.005822420120238
 47
-8.218170166015651
 48
0.0
 49
-0.0000000000000568
140
594.0000152587892
141
420.0
142
1.0
143
1.0
 70
 11940
 72
     1
 73
     0
 74
     4
  7
Plotter BW.ctb
 75
     0
147
0.9608658563523066
 76
     0
 77
     2
 78
   300
148
0.0
149
0.0000000000000568
1001
ACAD_PSEXT
1000
PLOTTER.pc3
1000
HP Designjet 4000 HPGL2/RTL
1000
Konstrukce plotr
1000
HP DJ 4000 HPGL2/RTL
1070
     0
  0
ACDBPLACEHOLDER
  5
F
102
{ACAD_REACTORS
330
E
102
}
330
E
  0
SCALE
  5
10D
102
{ACAD_REACTORS
330
10C
102
}
330
10C
100
AcDbScale
 70
     0
300
1:1
140
1.0
141
1.0
290
     1
  0
SCALE
  5
1BE
102
{ACAD_REACTORS
330
10C
102
}
330
10C
100
AcDbScale
 70
     0
300
1:2
140
1.0
141
2.0
290
     0
  0
SCALE
  5
1BF
102
{ACAD_REACTORS
330
10C
102
}
330
10C
100
AcDbScale
 70
     0
300
1:4
140
1.0
141
4.0
290
     0
  0
SCALE
  5
1C0
102
{ACAD_REACTORS
330
10C
102
}
330
10C
100
AcDbScale
 70
     0
300
1:5
140
1.0
141
5.0
290
     0
  0
SCALE
  5
1C1
102
{ACAD_REACTORS
330
10C
102
}
330
10C
100
AcDbScale
 70
     0
300
1:8
140
1.0
141
8.0
290
     0
  0
SCALE
  5
1C2
102
{ACAD_REACTORS
330
10C
102
}
330
10C
100
AcDbScale
 70
     0
300
1:10
140
1.0
141
10.0
290
     0
  0
SCALE
  5
1C3
102
{ACAD_REACTORS
330
10C
102
}
330
10C
100
AcDbScale
 70
     0
300
1:16
140
1.0
141
16.0
290
     0
  0
SCALE
  5
1C4
102
{ACAD_REACTORS
330
10C
102
}
330
10C
100
AcDbScale
 70
     0
300
1:20
140
1.0
141
20.0
290
     0
  0
SCALE
  5
1C5
102
{ACAD_REACTORS
330
10C
102
}
330
10C
100
AcDbScale
 70
     0
300
1:30
140
1.0
141
30.0
290
     0
  0
SCALE
  5
1C6
102
{ACAD_REACTORS
330
10C
102
}
330
10C
100
AcDbScale
 70
     0
300
1:40
140
1.0
141
40.0
290
     0
  0
SCALE
  5
1C7
102
{ACAD_REACTORS
330
10C
102
}
330
10C
100
AcDbScale
 70
     0
300
1:50
140
1.0
141
50.0
290
     0
  0
SCALE
  5
1C8
102
{ACAD_REACTORS
330
10C
102
}
330
10C
100
AcDbScale
 70
     0
300
1:100
140
1.0
141
100.0
290
     0
  0
SCALE
  5
1C9
102
{ACAD_REACTORS
330
10C
102
}
330
10C
100
AcDbScale
 70
     0
300
2:1
140
2.0
141
1.0
290
     0
  0
SCALE
  5
1CA
102
{ACAD_REACTORS
330
10C
102
}
330
10C
100
AcDbScale
 70
     0
300
4:1
140
4.0
141
1.0
290
     0
  0
SCALE
  5
1CB
102
{ACAD_REACTORS
330
10C
102
}
330
10C
100
AcDbScale
 70
     0
300
8:1
140
8.0
141
1.0
290
     0
  0
SCALE
  5
1CC
102
{ACAD_REACTORS
330
10C
102
}
330
10C
100
AcDbScale
 70
     0
300
10:1
140
10.0
141
1.0
290
     0
  0
SCALE
  5
1CD
102
{ACAD_REACTORS
330
10C
102
}
330
10C
100
AcDbScale
 70
     0
300
100:1
140
100.0
141
1.0
290
     0
  0
ACDBSECTIONVIEWSTYLE
  5
36C
102
{ACAD_XDICTIONARY
360
36D
102
}
102
{ACAD_REACTORS
330
219
330
A28
102
}
330
219
100
AcDbModelDocViewStyle
 70
     0
  3
Imperial24
290
     0
100
AcDbSectionViewStyle
 70
     0
 71
     0
 90
       78
 71
     1
340
11
 62
   256
 40
0.24
340
0
340
0
 62
   256
 40
0.24
300
I, O, Q, S, X, Z
 40
0.48
 90
        3
 40
0.18
 90
        1
 71
     2
340
16
 90
       25
 62
   256
340
16
 90
       50
 62
   256
 40
0.24
 40
0.0
 40
0.24
 71
     3
340
11
 62
   256
 40
0.24
 90
        1
 40
0.75
 90
        1
300
%<\AcVar ViewType \f "%tc1">% %<\AcVar ViewSectionStartId>%-%<\AcVar ViewSectionEndId>%\PMĚŘÍTKO %<\AcVar ViewScale \f "%sn">%
 71
     4
 62
   256
 62
   257
300
ANSI31
 40
1.0
 90
        0
290
     0
290
     0
 90
        6
 40
0.0
 40
1.570796326794896
 40
0.2617993877991494
 40
1.308996938995747
 40
-0.2617993877991494
 40
1.832595714594044
  0
ACDBSECTIONVIEWSTYLE
  5
21A
102
{ACAD_XDICTIONARY
360
234
102
}
102
{ACAD_REACTORS
330
219
330
A29
102
}
330
219
100
AcDbModelDocViewStyle
 70
     0
  3
Metric50
290
     0
100
AcDbSectionViewStyle
 70
     0
 71
     0
 90
      102
 71
     1
340
11
 62
   256
 40
5.0
340
0
340
0
 62
   256
 40
5.0
300
I, O, Q, S, X, Z
 40
10.0
 90
        0
 40
2.5
 90
        0
 71
     2
340
16
 90
       25
 62
   256
340
16
 90
       50
 62
   256
 40
5.0
 40
2.5
 40
5.0
 71
     3
340
11
 62
   256
 40
5.0
 90
        0
 40
15.0
 90
        1
300
%<\AcVar ViewSectionStartId>%-%<\AcVar ViewSectionEndId>% (%<\AcVar ViewScale \f "%sn">%)
 71
     4
 62
     6
 62
   257
300
ANSI31
 40
1.0
 90
        0
290
     0
290
     0
 90
        6
 40
0.0
 40
1.570796326794896
 40
0.2617993877991494
 40
1.308996938995747
 40
-0.2617993877991494
 40
1.832595714594044
  0
TABLESTYLE
  5
7F
102
{ACAD_XDICTIONARY
360
162
102
}
102
{ACAD_REACTORS
330
7E
102
}
330
7E
100
AcDbTableStyle
280
     0
  3
Standard
 70
     0
 71
     0
 40
1.5
 41
1.5
280
     0
281
     0
  7
STANDARD
140
4.5
170
     2
 62
     0
 63
     7
283
     0
 90
      512
 91
        0
  1

274
    -2
284
     1
 64
     0
275
    -2
285
     1
 65
     0
276
    -2
286
     1
 66
     0
277
    -2
287
     1
 67
     0
278
    -2
288
     1
 68
     0
279
    -2
289
     1
 69
     0
  7
STANDARD
140
6.0
170
     5
 62
     0
 63
     7
283
     0
 90
      512
 91
        0
  1

274
    -2
284
     1
 64
     0
275
    -2
285
     1
 65
     0
276
    -2
286
     1
 66
     0
277
    -2
287
     1
 67
     0
278
    -2
288
     1
 68
     0
279
    -2
289
     1
 69
     0
  7
STANDARD
140
4.5
170
     5
 62
     0
 63
     7
283
     0
 90
      512
 91
        0
  1

274
    -2
284
     1
 64
     0
275
    -2
285
     1
 65
     0
276
    -2
286
     1
 66
     0
277
    -2
287
     1
 67
     0
278
    -2
288
     1
 68
     0
279
    -2
289
     1
 69
     0
  0
VISUALSTYLE
  5
F5
102
{ACAD_REACTORS
330
EF
102
}
330
EF
100
AcDbVisualStyle
  2
2dWireframe
 70
     4
177
     3
291
     0
 70
    58
 90
        0
176
     1
 90
        2
176
     1
 90
        1
176
     1
 90
        0
176
     1
 40
0.6
176
     1
 40
30.0
176
     1
 62
     7
420
 16777215
176
     1
 90
        1
176
     1
 90
        4
176
     1
 62
     7
176
     1
 62
   257
176
     1
 90
        1
176
     1
 90
        1
176
     1
 40
1.0
176
     1
 90
        0
176
     1
 62
   257
176
     1
 40
1.0
176
     1
 90
        1
176
     1
 90
        6
176
     1
 90
        2
176
     1
 62
     7
176
     1
 90
        5
176
     1
 90
        0
176
     1
 90
        0
176
     1
290
     0
176
     1
 90
        1
176
     1
 40
0.0
176
     1
 90
        0
176
     1
290
     1
176
     1
290
     1
176
     1
290
     0
176
     1
290
     0
176
     1
290
     0
176
     1
290
     0
176
     1
290
     0
176
     1
290
     0
176
     1
290
     0
176
     1
 90
       50
176
     1
 40
0.0
176
     1
 40
1.0
176
     1
 90
        0
176
     1
 62
    18
176
     1
 90
       50
176
     1
 90
        3
176
     1
 62
     5
420
      255
176
     1
290
     0
176
     1
 90
       50
176
     1
 90
       50
176
     1
 90
       50
176
     1
290
     0
176
     1
 90
       50
176
     1
 62
   256
176
     0
 40
1.0
176
     0
 90
        2
176
     1
  1
strokes_ogs.tif
176
     1
290
     0
176
     1
 40
1.0
176
     1
 40
1.0
176
     1
  0
VISUALSTYLE
  5
F4
102
{ACAD_REACTORS
330
EF
102
}
330
EF
100
AcDbVisualStyle
  2
Basic
 70
     7
177
     3
291
     1
 70
    58
 90
        1
176
     1
 90
        0
176
     1
 90
        1
176
     1
 90
        0
176
     1
 40
0.6
176
     1
 40
30.0
176
     1
 62
     7
420
 16777215
176
     1
 90
        0
176
     1
 90
        4
176
     1
 62
     7
176
     1
 62
   257
176
     1
 90
        1
176
     1
 90
        1
176
     1
 40
1.0
176
     1
 90
        8
176
     1
 62
     7
176
     1
 40
1.0
176
     1
 90
        1
176
     1
 90
        6
176
     1
 90
        2
176
     1
 62
     7
176
     1
 90
        5
176
     1
 90
        0
176
     1
 90
        0
176
     1
290
     0
176
     1
 90
        1
176
     1
 40
0.0
176
     1
 90
        0
176
     1
290
     0
176
     1
290
     1
176
     1
290
     1
176
     1
290
     0
176
     1
290
     0
176
     1
290
     0
176
     1
290
     0
176
     1
290
     0
176
     1
290
     0
176
     1
 90
       50
176
     1
 40
0.0
176
     1
 40
1.0
176
     1
 90
        0
176
     1
 62
    18
176
     1
 90
       50
176
     1
 90
        3
176
     1
 62
     5
420
      255
176
     1
290
     0
176
     1
 90
       50
176
     1
 90
       50
176
     1
 90
       50
176
     1
290
     0
176
     1
 90
       50
176
     1
 62
   256
176
     0
 40
1.0
176
     0
 90
        2
176
     1
  1
strokes_ogs.tif
176
     1
290
     0
176
     1
 40
1.0
176
     1
 40
1.0
176
     1
  0
VISUALSTYLE
  5
FB
102
{ACAD_REACTORS
330
EF
102
}
330
EF
100
AcDbVisualStyle
  2
Brighten
 70
    12
177
     3
291
     1
 70
    58
 90
        2
176
     1
 90
        2
176
     1
 90
        1
176
     1
 90
        0
176
     1
 40
0.6
176
     1
 40
30.0
176
     1
 62
     7
420
 16777215
176
     1
 90
        1
176
     1
 90
        4
176
     1
 62
     7
176
     1
 62
   257
176
     1
 90
        1
176
     1
 90
        1
176
     1
 40
1.0
176
     1
 90
        8
176
     1
 62
     7
176
     1
 40
1.0
176
     1
 90
        1
176
     1
 90
        6
176
     1
 90
        2
176
     1
 62
     7
176
     1
 90
        5
176
     1
 90
        0
176
     1
 90
        0
176
     1
290
     0
176
     1
 90
        1
176
     1
 40
50.0
176
     1
 90
        0
176
     1
290
     0
176
     1
290
     1
176
     1
290
     1
176
     1
290
     0
176
     1
290
     0
176
     1
290
     0
176
     1
290
     0
176
     1
290
     0
176
     1
290
     0
176
     1
 90
       50
176
     1
 40
0.0
176
     1
 40
1.0
176
     1
 90
        0
176
     1
 62
    18
176
     1
 90
       50
176
     1
 90
        3
176
     1
 62
     5
420
      255
176
     1
290
     0
176
     1
 90
       50
176
     1
 90
       50
176
     1
 90
       50
176
     1
290
     0
176
     1
 90
       50
176
     1
 62
   256
176
     0
 40
1.0
176
     0
 90
        2
176
     1
  1
strokes_ogs.tif
176
     1
290
     0
176
     1
 40
1.0
176
     1
 40
1.0
176
     1
  0
VISUALSTYLE
  5
FF
102
{ACAD_REACTORS
330
EF
102
}
330
EF
100
AcDbVisualStyle
  2
ColorChange
 70
    16
177
     3
291
     1
 70
    58
 90
        2
176
     1
 90
        2
176
     1
 90
        3
176
     1
 90
        0
176
     1
 40
0.6
176
     1
 40
30.0
176
     1
 62
     8
420
  8421504
176
     1
 90
        1
176
     1
 90
        4
176
     1
 62
     7
176
     1
 62
   257
176
     1
 90
        1
176
     1
 90
        1
176
     1
 40
1.0
176
     1
 90
        8
176
     1
 62
     8
420
  8421504
176
     1
 40
1.0
176
     1
 90
        1
176
     1
 90
        6
176
     1
 90
        2
176
     1
 62
     7
176
     1
 90
        5
176
     1
 90
        0
176
     1
 90
        0
176
     1
290
     0
176
     1
 90
        1
176
     1
 40
0.0
176
     1
 90
        0
176
     1
290
     0
176
     1
290
     1
176
     1
290
     1
176
     1
290
     0
176
     1
290
     0
176
     1
290
     0
176
     1
290
     0
176
     1
290
     0
176
     1
290
     0
176
     1
 90
       50
176
     1
 40
0.0
176
     1
 40
1.0
176
     1
 90
        0
176
     1
 62
    18
176
     1
 90
       50
176
     1
 90
        3
176
     1
 62
     5
420
      255
176
     1
290
     0
176
     1
 90
       50
176
     1
 90
       50
176
     1
 90
       50
176
     1
290
     0
176
     1
 90
       50
176
     1
 62
   256
176
     0
 40
1.0
176
     0
 90
        2
176
     1
  1
strokes_ogs.tif
176
     1
290
     0
176
     1
 40
1.0
176
     1
 40
1.0
176
     1
  0
VISUALSTYLE
  5
F8
102
{ACAD_REACTORS
330
EF
102
}
330
EF
100
AcDbVisualStyle
  2
Conceptual
 70
     9
177
     3
291
     0
 70
    58
 90
        3
176
     1
 90
        2
176
     1
 90
        1
176
     1
 90
        0
176
     1
 40
0.6
176
     1
 40
30.0
176
     1
 62
     7
420
 16777215
176
     1
 90
        2
176
     1
 90
        2
176
     1
 62
     7
176
     1
 62
   257
176
     1
 90
        1
176
     1
 90
        1
176
     1
 40
40.0
176
     1
 90
        8
176
     1
 62
     7
176
     1
 40
1.0
176
     1
 90
        1
176
     1
 90
        6
176
     1
 90
        2
176
     1
 62
     7
176
     1
 90
        3
176
     1
 90
        0
176
     1
 90
        0
176
     1
290
     0
176
     1
 90
        1
176
     1
 40
0.0
176
     1
 90
        0
176
     1
290
     0
176
     1
290
     1
176
     1
290
     1
176
     1
290
     0
176
     1
290
     0
176
     1
290
     0
176
     1
290
     0
176
     1
290
     0
176
     1
290
     0
176
     1
 90
       50
176
     1
 40
0.0
176
     1
 40
1.0
176
     1
 90
        0
176
     1
 62
    18
176
     1
 90
       50
176
     1
 90
        3
176
     1
 62
     5
420
      255
176
     1
290
     0
176
     1
 90
       50
176
     1
 90
       50
176
     1
 90
       50
176
     1
290
     0
176
     1
 90
       50
176
     1
 62
   256
176
     0
 40
1.0
176
     0
 90
        2
176
     1
  1
strokes_ogs.tif
176
     1
290
     0
176
     1
 40
1.0
176
     1
 40
1.0
176
     1
  0
VISUALSTYLE
  5
FA
102
{ACAD_REACTORS
330
EF
102
}
330
EF
100
AcDbVisualStyle
  2
Dim
 70
    11
177
     3
291
     1
 70
    58
 90
        2
176
     1
 90
        2
176
     1
 90
        1
176
     1
 90
        0
176
     1
 40
0.6
176
     1
 40
30.0
176
     1
 62
     7
420
 16777215
176
     1
 90
        1
176
     1
 90
        4
176
     1
 62
     7
176
     1
 62
   257
176
     1
 90
        1
176
     1
 90
        1
176
     1
 40
1.0
176
     1
 90
        8
176
     1
 62
     7
176
     1
 40
1.0
176
     1
 90
        1
176
     1
 90
        6
176
     1
 90
        2
176
     1
 62
     7
176
     1
 90
        5
176
     1
 90
        0
176
     1
 90
        0
176
     1
290
     0
176
     1
 90
        1
176
     1
 40
-50.0
176
     1
 90
        0
176
     1
290
     0
176
     1
290
     1
176
     1
290
     1
176
     1
290
     0
176
     1
290
     0
176
     1
290
     0
176
     1
290
     0
176
     1
290
     0
176
     1
290
     0
176
     1
 90
       50
176
     1
 40
0.0
176
     1
 40
1.0
176
     1
 90
        0
176
     1
 62
    18
176
     1
 90
       50
176
     1
 90
        3
176
     1
 62
     5
420
      255
176
     1
290
     0
176
     1
 90
       50
176
     1
 90
       50
176
     1
 90
       50
176
     1
290
     0
176
     1
 90
       50
176
     1
 62
   256
176
     0
 40
1.0
176
     0
 90
        2
176
     1
  1
strokes_ogs.tif
176
     1
290
     0
176
     1
 40
1.0
176
     1
 40
1.0
176
     1
  0
VISUALSTYLE
  5
1E6
102
{ACAD_REACTORS
330
EF
102
}
330
EF
100
AcDbVisualStyle
  2
EdgeColorOff
 70
    22
177
     3
291
     1
 70
    58
 90
        2
176
     0
 90
        2
176
     0
 90
        0
176
     0
 90
        0
176
     0
 40
0.6
176
     0
 40
30.0
176
     0
 62
     7
420
 16777215
176
     0
 90
        1
176
     0
 90
        4
176
     0
 62
     7
176
     0
 62
   257
176
     0
 90
        1
176
     0
 90
        1
176
     0
 40
1.0
176
     0
 90
        8
176
     2
 62
     7
176
     0
 40
1.0
176
     0
 90
        1
176
     0
 90
        6
176
     0
 90
        2
176
     0
 62
     7
176
     0
 90
        5
176
     0
 90
        0
176
     0
 90
        0
176
     0
290
     0
176
     0
 90
        1
176
     0
 40
0.0
176
     0
 90
        0
176
     0
290
     0
176
     1
290
     1
176
     1
290
     1
176
     1
290
     0
176
     1
290
     0
176
     1
290
     0
176
     1
290
     0
176
     1
290
     0
176
     1
290
     0
176
     1
 90
       50
176
     1
 40
0.0
176
     1
 40
1.0
176
     1
 90
        0
176
     1
 62
    18
176
     1
 90
       50
176
     1
 90
        3
176
     1
 62
     5
420
      255
176
     1
290
     0
176
     1
 90
       50
176
     1
 90
       50
176
     1
 90
       50
176
     1
290
     0
176
     1
 90
       50
176
     1
 62
   256
176
     0
 40
1.0
176
     0
 90
        2
176
     1
  1
strokes_ogs.tif
176
     1
290
     0
176
     1
 40
1.0
176
     1
 40
1.0
176
     1
  0
VISUALSTYLE
  5
FE
102
{ACAD_REACTORS
330
EF
102
}
330
EF
100
AcDbVisualStyle
  2
Facepattern
 70
    15
177
     3
291
     1
 70
    58
 90
        2
176
     1
 90
        2
176
     1
 90
        1
176
     1
 90
        0
176
     1
 40
0.6
176
     1
 40
30.0
176
     1
 62
     7
420
 16777215
176
     1
 90
        1
176
     1
 90
        4
176
     1
 62
     7
176
     1
 62
   257
176
     1
 90
        1
176
     1
 90
        1
176
     1
 40
1.0
176
     1
 90
        8
176
     1
 62
     7
176
     1
 40
1.0
176
     1
 90
        1
176
     1
 90
        6
176
     1
 90
        2
176
     1
 62
     7
176
     1
 90
        5
176
     1
 90
        0
176
     1
 90
        0
176
     1
290
     0
176
     1
 90
        1
176
     1
 40
0.0
176
     1
 90
        0
176
     1
290
     0
176
     1
290
     1
176
     1
290
     1
176
     1
290
     0
176
     1
290
     0
176
     1
290
     0
176
     1
290
     0
176
     1
290
     0
176
     1
290
     0
176
     1
 90
       50
176
     1
 40
0.0
176
     1
 40
1.0
176
     1
 90
        0
176
     1
 62
    18
176
     1
 90
       50
176
     1
 90
        3
176
     1
 62
     5
420
      255
176
     1
290
     0
176
     1
 90
       50
176
     1
 90
       50
176
     1
 90
       50
176
     1
290
     0
176
     1
 90
       50
176
     1
 62
   256
176
     0
 40
1.0
176
     0
 90
        2
176
     1
  1
strokes_ogs.tif
176
     1
290
     0
176
     1
 40
1.0
176
     1
 40
1.0
176
     1
  0
VISUALSTYLE
  5
F0
102
{ACAD_REACTORS
330
EF
102
}
330
EF
100
AcDbVisualStyle
  2
Flat
 70
     0
177
     3
291
     1
 70
    58
 90
        2
176
     1
 90
        1
176
     1
 90
        1
176
     1
 90
        2
176
     1
 40
0.6
176
     1
 40
30.0
176
     1
 62
     7
420
 16777215
176
     1
 90
        0
176
     1
 90
        0
176
     1
 62
     7
176
     1
 62
   257
176
     1
 90
        1
176
     1
 90
        1
176
     1
 40
1.0
176
     1
 90
        8
176
     1
 62
     7
176
     1
 40
1.0
176
     1
 90
        1
176
     1
 90
        6
176
     1
 90
        2
176
     1
 62
     7
176
     1
 90
        5
176
     1
 90
        0
176
     1
 90
        0
176
     1
290
     0
176
     1
 90
       13
176
     1
 40
0.0
176
     1
 90
        0
176
     1
290
     0
176
     1
290
     1
176
     1
290
     1
176
     1
290
     0
176
     1
290
     0
176
     1
290
     0
176
     1
290
     0
176
     1
290
     0
176
     1
290
     0
176
     1
 90
       50
176
     1
 40
0.0
176
     1
 40
1.0
176
     1
 90
        0
176
     1
 62
    18
176
     1
 90
       50
176
     1
 90
        3
176
     1
 62
     5
420
      255
176
     1
290
     0
176
     1
 90
       50
176
     1
 90
       50
176
     1
 90
       50
176
     1
290
     0
176
     1
 90
       50
176
     1
 62
   256
176
     0
 40
1.0
176
     0
 90
        2
176
     1
  1
strokes_ogs.tif
176
     1
290
     0
176
     1
 40
1.0
176
     1
 40
1.0
176
     1
  0
VISUALSTYLE
  5
F1
102
{ACAD_REACTORS
330
EF
102
}
330
EF
100
AcDbVisualStyle
  2
FlatWithEdges
 70
     1
177
     3
291
     1
 70
    58
 90
        2
176
     1
 90
        1
176
     1
 90
        1
176
     1
 90
        2
176
     1
 40
0.6
176
     1
 40
30.0
176
     1
 62
     7
420
 16777215
176
     1
 90
        1
176
     1
 90
        0
176
     1
 62
     7
176
     1
 62
   257
176
     1
 90
        1
176
     1
 90
        1
176
     1
 40
1.0
176
     1
 90
        0
176
     1
 62
   257
176
     1
 40
1.0
176
     1
 90
        1
176
     1
 90
        6
176
     1
 90
        2
176
     1
 62
     7
176
     1
 90
        5
176
     1
 90
        0
176
     1
 90
        0
176
     1
290
     0
176
     1
 90
       13
176
     1
 40
0.0
176
     1
 90
        0
176
     1
290
     0
176
     1
290
     1
176
     1
290
     1
176
     1
290
     0
176
     1
290
     0
176
     1
290
     0
176
     1
290
     0
176
     1
290
     0
176
     1
290
     0
176
     1
 90
       50
176
     1
 40
0.0
176
     1
 40
1.0
176
     1
 90
        0
176
     1
 62
    18
176
     1
 90
       50
176
     1
 90
        3
176
     1
 62
     5
420
      255
176
     1
290
     0
176
     1
 90
       50
176
     1
 90
       50
176
     1
 90
       50
176
     1
290
     0
176
     1
 90
       50
176
     1
 62
   256
176
     0
 40
1.0
176
     0
 90
        2
176
     1
  1
strokes_ogs.tif
176
     1
290
     0
176
     1
 40
1.0
176
     1
 40
1.0
176
     1
  0
VISUALSTYLE
  5
F2
102
{ACAD_REACTORS
330
EF
102
}
330
EF
100
AcDbVisualStyle
  2
Gouraud
 70
     2
177
     3
291
     1
 70
    58
 90
        2
176
     1
 90
        2
176
     1
 90
        1
176
     1
 90
        2
176
     1
 40
0.6
176
     1
 40
30.0
176
     1
 62
     7
420
 16777215
176
     1
 90
        0
176
     1
 90
        0
176
     1
 62
     7
176
     1
 62
   257
176
     1
 90
        1
176
     1
 90
        1
176
     1
 40
1.0
176
     1
 90
        0
176
     1
 62
     7
176
     1
 40
1.0
176
     1
 90
        1
176
     1
 90
        6
176
     1
 90
        2
176
     1
 62
     7
176
     1
 90
        5
176
     1
 90
        0
176
     1
 90
        0
176
     1
290
     0
176
     1
 90
       13
176
     1
 40
0.0
176
     1
 90
        0
176
     1
290
     0
176
     1
290
     1
176
     1
290
     1
176
     1
290
     0
176
     1
290
     0
176
     1
290
     0
176
     1
290
     0
176
     1
290
     0
176
     1
290
     0
176
     1
 90
       50
176
     1
 40
0.0
176
     1
 40
1.0
176
     1
 90
        0
176
     1
 62
    18
176
     1
 90
       50
176
     1
 90
        3
176
     1
 62
     5
420
      255
176
     1
290
     0
176
     1
 90
       50
176
     1
 90
       50
176
     1
 90
       50
176
     1
290
     0
176
     1
 90
       50
176
     1
 62
   256
176
     0
 40
1.0
176
     0
 90
        2
176
     1
  1
strokes_ogs.tif
176
     1
290
     0
176
     1
 40
1.0
176
     1
 40
1.0
176
     1
  0
VISUALSTYLE
  5
F3
102
{ACAD_REACTORS
330
EF
102
}
330
EF
100
AcDbVisualStyle
  2
GouraudWithEdges
 70
     3
177
     3
291
     1
 70
    58
 90
        2
176
     1
 90
        2
176
     1
 90
        1
176
     1
 90
        2
176
     1
 40
0.6
176
     1
 40
30.0
176
     1
 62
     7
420
 16777215
176
     1
 90
        1
176
     1
 90
        0
176
     1
 62
     7
176
     1
 62
   257
176
     1
 90
        1
176
     1
 90
        1
176
     1
 40
1.0
176
     1
 90
        0
176
     1
 62
   257
176
     1
 40
1.0
176
     1
 90
        1
176
     1
 90
        6
176
     1
 90
        2
176
     1
 62
     7
176
     1
 90
        5
176
     1
 90
        0
176
     1
 90
        0
176
     1
290
     0
176
     1
 90
       13
176
     1
 40
0.0
176
     1
 90
        0
176
     1
290
     0
176
     1
290
     1
176
     1
290
     1
176
     1
290
     0
176
     1
290
     0
176
     1
290
     0
176
     1
290
     0
176
     1
290
     0
176
     1
290
     0
176
     1
 90
       50
176
     1
 40
0.0
176
     1
 40
1.0
176
     1
 90
        0
176
     1
 62
    18
176
     1
 90
       50
176
     1
 90
        3
176
     1
 62
     5
420
      255
176
     1
290
     0
176
     1
 90
       50
176
     1
 90
       50
176
     1
 90
       50
176
     1
290
     0
176
     1
 90
       50
176
     1
 62
   256
176
     0
 40
1.0
176
     0
 90
        2
176
     1
  1
strokes_ogs.tif
176
     1
290
     0
176
     1
 40
1.0
176
     1
 40
1.0
176
     1
  0
VISUALSTYLE
  5
F7
102
{ACAD_REACTORS
330
EF
102
}
330
EF
100
AcDbVisualStyle
  2
Hidden
 70
     6
177
     3
291
     0
 70
    58
 90
        1
176
     1
 90
        2
176
     1
 90
        2
176
     1
 90
        0
176
     1
 40
0.6
176
     1
 40
30.0
176
     1
 62
     7
420
 16777215
176
     1
 90
        2
176
     1
 90
        2
176
     1
 62
     7
176
     1
 62
   257
176
     1
 90
        2
176
     1
 90
        1
176
     1
 40
40.0
176
     1
 90
        0
176
     1
 62
   257
176
     1
 40
1.0
176
     1
 90
        1
176
     1
 90
        6
176
     1
 90
        2
176
     1
 62
     7
176
     1
 90
        3
176
     1
 90
        0
176
     1
 90
        0
176
     1
290
     0
176
     1
 90
        1
176
     1
 40
0.0
176
     1
 90
        0
176
     1
290
     0
176
     1
290
     1
176
     1
290
     1
176
     1
290
     0
176
     1
290
     0
176
     1
290
     0
176
     1
290
     0
176
     1
290
     0
176
     1
290
     0
176
     1
 90
       50
176
     1
 40
0.0
176
     1
 40
1.0
176
     1
 90
        0
176
     1
 62
    18
176
     1
 90
       50
176
     1
 90
        3
176
     1
 62
     5
420
      255
176
     1
290
     0
176
     1
 90
       50
176
     1
 90
       50
176
     1
 90
       50
176
     1
290
     0
176
     1
 90
       50
176
     1
 62
   256
176
     0
 40
1.0
176
     0
 90
        2
176
     1
  1
strokes_ogs.tif
176
     1
290
     0
176
     1
 40
1.0
176
     1
 40
1.0
176
     1
  0
VISUALSTYLE
  5
1E4
102
{ACAD_REACTORS
330
EF
102
}
330
EF
100
AcDbVisualStyle
  2
JitterOff
 70
    20
177
     3
291
     1
 70
    58
 90
        2
176
     0
 90
        2
176
     0
 90
        0
176
     0
 90
        0
176
     0
 40
0.6
176
     0
 40
30.0
176
     0
 62
     7
420
 16777215
176
     0
 90
        1
176
     0
 90
        4
176
     0
 62
     7
176
     0
 62
   257
176
     0
 90
        1
176
     0
 90
        1
176
     0
 40
1.0
176
     0
 90
       10
176
     2
 62
     7
176
     0
 40
1.0
176
     0
 90
        1
176
     0
 90
        6
176
     0
 90
        2
176
     0
 62
     7
176
     0
 90
        5
176
     0
 90
        0
176
     0
 90
        0
176
     0
290
     0
176
     0
 90
        1
176
     0
 40
0.0
176
     0
 90
        0
176
     0
290
     0
176
     1
290
     1
176
     1
290
     1
176
     1
290
     0
176
     1
290
     0
176
     1
290
     0
176
     1
290
     0
176
     1
290
     0
176
     1
290
     0
176
     1
 90
       50
176
     1
 40
0.0
176
     1
 40
1.0
176
     1
 90
        0
176
     1
 62
    18
176
     1
 90
       50
176
     1
 90
        3
176
     1
 62
     5
420
      255
176
     1
290
     0
176
     1
 90
       50
176
     1
 90
       50
176
     1
 90
       50
176
     1
290
     0
176
     1
 90
       50
176
     1
 62
   256
176
     0
 40
1.0
176
     0
 90
        2
176
     1
  1
strokes_ogs.tif
176
     1
290
     0
176
     1
 40
1.0
176
     1
 40
1.0
176
     1
  0
VISUALSTYLE
  5
FD
102
{ACAD_REACTORS
330
EF
102
}
330
EF
100
AcDbVisualStyle
  2
Linepattern
 70
    14
177
     3
291
     1
 70
    58
 90
        2
176
     1
 90
        2
176
     1
 90
        1
176
     1
 90
        0
176
     1
 40
0.6
176
     1
 40
30.0
176
     1
 62
     7
420
 16777215
176
     1
 90
        1
176
     1
 90
        4
176
     1
 62
     7
176
     1
 62
   257
176
     1
 90
        7
176
     1
 90
        7
176
     1
 40
1.0
176
     1
 90
        8
176
     1
 62
     7
176
     1
 40
1.0
176
     1
 90
        1
176
     1
 90
        6
176
     1
 90
        2
176
     1
 62
     7
176
     1
 90
        5
176
     1
 90
        0
176
     1
 90
        0
176
     1
290
     0
176
     1
 90
        1
176
     1
 40
0.0
176
     1
 90
        0
176
     1
290
     0
176
     1
290
     1
176
     1
290
     1
176
     1
290
     0
176
     1
290
     0
176
     1
290
     0
176
     1
290
     0
176
     1
290
     0
176
     1
290
     0
176
     1
 90
       50
176
     1
 40
0.0
176
     1
 40
1.0
176
     1
 90
        0
176
     1
 62
    18
176
     1
 90
       50
176
     1
 90
        3
176
     1
 62
     5
420
      255
176
     1
290
     0
176
     1
 90
       50
176
     1
 90
       50
176
     1
 90
       50
176
     1
290
     0
176
     1
 90
       50
176
     1
 62
   256
176
     0
 40
1.0
176
     0
 90
        2
176
     1
  1
strokes_ogs.tif
176
     1
290
     0
176
     1
 40
1.0
176
     1
 40
1.0
176
     1
  0
VISUALSTYLE
  5
1E5
102
{ACAD_REACTORS
330
EF
102
}
330
EF
100
AcDbVisualStyle
  2
OverhangOff
 70
    21
177
     3
291
     1
 70
    58
 90
        2
176
     0
 90
        2
176
     0
 90
        0
176
     0
 90
        0
176
     0
 40
0.6
176
     0
 40
30.0
176
     0
 62
     7
420
 16777215
176
     0
 90
        1
176
     0
 90
        4
176
     0
 62
     7
176
     0
 62
   257
176
     0
 90
        1
176
     0
 90
        1
176
     0
 40
1.0
176
     0
 90
        9
176
     2
 62
     7
176
     0
 40
1.0
176
     0
 90
        1
176
     0
 90
        6
176
     0
 90
        2
176
     0
 62
     7
176
     0
 90
        5
176
     0
 90
        0
176
     0
 90
        0
176
     0
290
     0
176
     0
 90
        1
176
     0
 40
0.0
176
     0
 90
        0
176
     0
290
     0
176
     1
290
     1
176
     1
290
     1
176
     1
290
     0
176
     1
290
     0
176
     1
290
     0
176
     1
290
     0
176
     1
290
     0
176
     1
290
     0
176
     1
 90
       50
176
     1
 40
0.0
176
     1
 40
1.0
176
     1
 90
        0
176
     1
 62
    18
176
     1
 90
       50
176
     1
 90
        3
176
     1
 62
     5
420
      255
176
     1
290
     0
176
     1
 90
       50
176
     1
 90
       50
176
     1
 90
       50
176
     1
290
     0
176
     1
 90
       50
176
     1
 62
   256
176
     0
 40
1.0
176
     0
 90
        2
176
     1
  1
strokes_ogs.tif
176
     1
290
     0
176
     1
 40
1.0
176
     1
 40
1.0
176
     1
  0
VISUALSTYLE
  5
F9
102
{ACAD_REACTORS
330
EF
102
}
330
EF
100
AcDbVisualStyle
  2
Realistic
 70
     8
177
     3
291
     0
 70
    58
 90
        2
176
     1
 90
        3
176
     1
 90
        0
176
     1
 90
        2
176
     1
 40
0.6
176
     1
 40
30.0
176
     1
 62
     7
420
 16777215
176
     1
 90
        0
176
     1
 90
        0
176
     1
 62
     7
176
     1
 62
   257
176
     1
 90
        1
176
     1
 90
        1
176
     1
 40
1.0
176
     1
 90
        8
176
     1
 62
   257
176
     1
 40
1.0
176
     1
 90
        1
176
     1
 90
        6
176
     1
 90
        2
176
     1
 62
     7
176
     1
 90
        3
176
     1
 90
        0
176
     1
 90
        0
176
     1
290
     0
176
     1
 90
       13
176
     1
 40
0.0
176
     1
 90
        0
176
     1
290
     0
176
     1
290
     1
176
     1
290
     1
176
     1
290
     0
176
     1
290
     0
176
     1
290
     0
176
     1
290
     0
176
     1
290
     0
176
     1
290
     0
176
     1
 90
       50
176
     1
 40
0.0
176
     1
 40
1.0
176
     1
 90
        0
176
     1
 62
    18
176
     1
 90
       50
176
     1
 90
        3
176
     1
 62
     5
420
      255
176
     1
290
     0
176
     1
 90
       50
176
     1
 90
       50
176
     1
 90
       50
176
     1
290
     0
176
     1
 90
       50
176
     1
 62
   256
176
     0
 40
1.0
176
     0
 90
        2
176
     1
  1
strokes_ogs.tif
176
     1
290
     0
176
     1
 40
1.0
176
     1
 40
1.0
176
     1
  0
VISUALSTYLE
  5
1F3
102
{ACAD_REACTORS
330
EF
102
}
330
EF
100
AcDbVisualStyle
  2
Shaded
 70
    27
177
     3
291
     0
 70
    58
 90
        2
176
     1
 90
        2
176
     1
 90
        1
176
     1
 90
        2
176
     1
 40
0.6
176
     1
 40
30.0
176
     1
 62
     7
420
 16777215
176
     1
 90
        0
176
     1
 90
        4
176
     1
 62
     7
176
     1
 62
   257
176
     1
 90
        1
176
     1
 90
        1
176
     1
 40
1.0
176
     1
 90
        8
176
     1
 62
   257
176
     1
 40
1.0
176
     1
 90
        1
176
     1
 90
        6
176
     1
 90
        2
176
     1
 62
     8
420
  7895160
176
     1
 90
        3
176
     1
 90
        0
176
     1
 90
        0
176
     1
290
     0
176
     1
 90
        5
176
     1
 40
0.0
176
     1
 90
        0
176
     1
290
     0
176
     1
290
     1
176
     1
290
     1
176
     1
290
     0
176
     1
290
     0
176
     1
290
     0
176
     1
290
     0
176
     1
290
     0
176
     1
290
     0
176
     1
 90
       50
176
     1
 40
0.0
176
     1
 40
1.0
176
     1
 90
        0
176
     1
 62
    18
176
     1
 90
       50
176
     1
 90
        3
176
     1
 62
     5
420
      255
176
     1
290
     0
176
     1
 90
       50
176
     1
 90
       50
176
     1
 90
       50
176
     1
290
     0
176
     1
 90
       50
176
     1
 62
   256
176
     0
 40
1.0
176
     0
 90
        2
176
     1
  1
strokes_ogs.tif
176
     1
290
     0
176
     1
 40
1.0
176
     1
 40
1.0
176
     1
  0
VISUALSTYLE
  5
1F2
102
{ACAD_REACTORS
330
EF
102
}
330
EF
100
AcDbVisualStyle
  2
Shaded with edges
 70
    26
177
     3
291
     0
 70
    58
 90
        2
176
     1
 90
        2
176
     1
 90
        1
176
     1
 90
        2
176
     1
 40
0.6
176
     1
 40
30.0
176
     1
 62
     7
420
 16777215
176
     1
 90
        1
176
     1
 90
        2
176
     1
 62
     7
176
     1
 62
   257
176
     1
 90
        2
176
     1
 90
        1
176
     1
 40
1.0
176
     1
 90
        8
176
     1
 62
   257
176
     1
 40
1.0
176
     1
 90
        1
176
     1
 90
        6
176
     1
 90
        2
176
     1
 62
     7
176
     1
 90
        3
176
     1
 90
        0
176
     1
 90
        0
176
     1
290
     0
176
     1
 90
        5
176
     1
 40
0.0
176
     1
 90
        0
176
     1
290
     0
176
     1
290
     1
176
     1
290
     1
176
     1
290
     0
176
     1
290
     0
176
     1
290
     0
176
     1
290
     0
176
     1
290
     0
176
     1
290
     0
176
     1
 90
       50
176
     1
 40
0.0
176
     1
 40
1.0
176
     1
 90
        0
176
     1
 62
    18
176
     1
 90
       50
176
     1
 90
        3
176
     1
 62
     5
420
      255
176
     1
290
     0
176
     1
 90
       50
176
     1
 90
       50
176
     1
 90
       50
176
     1
290
     0
176
     1
 90
       50
176
     1
 62
   256
176
     0
 40
1.0
176
     0
 90
        2
176
     1
  1
strokes_ogs.tif
176
     1
290
     0
176
     1
 40
1.0
176
     1
 40
1.0
176
     1
  0
VISUALSTYLE
  5
1EF
102
{ACAD_REACTORS
330
EF
102
}
330
EF
100
AcDbVisualStyle
  2
Shades of Gray
 70
    23
177
     3
291
     0
 70
    58
 90
        2
176
     1
 90
        2
176
     1
 90
        3
176
     1
 90
        0
176
     1
 40
0.6
176
     1
 40
30.0
176
     1
 62
     7
420
 16777215
176
     1
 90
        2
176
     1
 90
        2
176
     1
 62
     7
176
     1
 62
     7
176
     1
 90
        1
176
     1
 90
        1
176
     1
 40
40.0
176
     1
 90
        8
176
     1
 62
     7
176
     1
 40
1.0
176
     1
 90
        1
176
     1
 90
        6
176
     1
 90
        2
176
     1
 62
     7
176
     1
 90
        3
176
     1
 90
        0
176
     1
 90
        0
176
     1
290
     0
176
     1
 90
        1
176
     1
 40
0.0
176
     1
 90
        0
176
     1
290
     0
176
     1
290
     1
176
     1
290
     1
176
     1
290
     0
176
     1
290
     0
176
     1
290
     0
176
     1
290
     0
176
     1
290
     0
176
     1
290
     0
176
     1
 90
       50
176
     1
 40
0.0
176
     1
 40
1.0
176
     1
 90
        0
176
     1
 62
    18
176
     1
 90
       50
176
     1
 90
        3
176
     1
 62
     5
420
      255
176
     1
290
     0
176
     1
 90
       50
176
     1
 90
       50
176
     1
 90
       50
176
     1
290
     0
176
     1
 90
       50
176
     1
 62
   256
176
     0
 40
1.0
176
     0
 90
        2
176
     1
  1
strokes_ogs.tif
176
     1
290
     0
176
     1
 40
1.0
176
     1
 40
1.0
176
     1
  0
VISUALSTYLE
  5
1F0
102
{ACAD_REACTORS
330
EF
102
}
330
EF
100
AcDbVisualStyle
  2
Sketchy
 70
    24
177
     3
291
     0
 70
    58
 90
        1
176
     1
 90
        2
176
     1
 90
        2
176
     1
 90
        0
176
     1
 40
0.6
176
     1
 40
30.0
176
     1
 62
     7
420
 16777215
176
     1
 90
        2
176
     1
 90
        2
176
     1
 62
     7
176
     1
 62
     7
176
     1
 90
        1
176
     1
 90
        1
176
     1
 40
40.0
176
     1
 90
       11
176
     1
 62
     7
176
     1
 40
1.0
176
     1
 90
        1
176
     1
 90
        6
176
     1
 90
        2
176
     1
 62
     7
176
     1
 90
        6
176
     1
 90
        0
176
     1
 90
        0
176
     1
290
     0
176
     1
 90
        1
176
     1
 40
0.0
176
     1
 90
        0
176
     1
290
     0
176
     1
290
     1
176
     1
290
     1
176
     1
290
     0
176
     1
290
     0
176
     1
290
     0
176
     1
290
     0
176
     1
290
     0
176
     1
290
     0
176
     1
 90
       50
176
     1
 40
0.0
176
     1
 40
1.0
176
     1
 90
        0
176
     1
 62
    18
176
     1
 90
       50
176
     1
 90
        3
176
     1
 62
     5
420
      255
176
     1
290
     0
176
     1
 90
       50
176
     1
 90
       50
176
     1
 90
       50
176
     1
290
     0
176
     1
 90
       50
176
     1
 62
   256
176
     0
 40
1.0
176
     0
 90
        2
176
     1
  1
strokes_ogs.tif
176
     1
290
     0
176
     1
 40
1.0
176
     1
 40
1.0
176
     1
  0
VISUALSTYLE
  5
FC
102
{ACAD_REACTORS
330
EF
102
}
330
EF
100
AcDbVisualStyle
  2
Thicken
 70
    13
177
     3
291
     1
 70
    58
 90
        2
176
     1
 90
        2
176
     1
 90
        1
176
     1
 90
        0
176
     1
 40
0.6
176
     1
 40
30.0
176
     1
 62
     7
420
 16777215
176
     1
 90
        1
176
     1
 90
        4
176
     1
 62
     7
176
     1
 62
   257
176
     1
 90
        1
176
     1
 90
        1
176
     1
 40
1.0
176
     1
 90
       12
176
     1
 62
     7
176
     1
 40
1.0
176
     1
 90
        1
176
     1
 90
        6
176
     1
 90
        2
176
     1
 62
     7
176
     1
 90
        5
176
     1
 90
        0
176
     1
 90
        0
176
     1
290
     0
176
     1
 90
        1
176
     1
 40
0.0
176
     1
 90
        0
176
     1
290
     0
176
     1
290
     1
176
     1
290
     1
176
     1
290
     0
176
     1
290
     0
176
     1
290
     0
176
     1
290
     0
176
     1
290
     0
176
     1
290
     0
176
     1
 90
       50
176
     1
 40
0.0
176
     1
 40
1.0
176
     1
 90
        0
176
     1
 62
    18
176
     1
 90
       50
176
     1
 90
        3
176
     1
 62
     5
420
      255
176
     1
290
     0
176
     1
 90
       50
176
     1
 90
       50
176
     1
 90
       50
176
     1
290
     0
176
     1
 90
       50
176
     1
 62
   256
176
     0
 40
1.0
176
     0
 90
        2
176
     1
  1
strokes_ogs.tif
176
     1
290
     0
176
     1
 40
1.0
176
     1
 40
1.0
176
     1
  0
VISUALSTYLE
  5
F6
102
{ACAD_REACTORS
330
EF
102
}
330
EF
100
AcDbVisualStyle
  2
Wireframe
 70
     5
177
     3
291
     0
 70
    58
 90
        0
176
     1
 90
        2
176
     1
 90
        0
176
     1
 90
        0
176
     1
 40
0.6
176
     1
 40
30.0
176
     1
 62
     7
420
 16777215
176
     1
 90
        1
176
     1
 90
        4
176
     1
 62
     7
176
     1
 62
   257
176
     1
 90
        1
176
     1
 90
        1
176
     1
 40
1.0
176
     1
 90
        0
176
     1
 62
   257
176
     1
 40
1.0
176
     1
 90
        1
176
     1
 90
        6
176
     1
 90
        2
176
     1
 62
     7
176
     1
 90
        3
176
     1
 90
        0
176
     1
 90
        0
176
     1
290
     0
176
     1
 90
        1
176
     1
 40
0.0
176
     1
 90
        0
176
     1
290
     0
176
     1
290
     1
176
     1
290
     1
176
     1
290
     0
176
     1
290
     0
176
     1
290
     0
176
     1
290
     0
176
     1
290
     0
176
     1
290
     0
176
     1
 90
       50
176
     1
 40
0.0
176
     1
 40
1.0
176
     1
 90
        0
176
     1
 62
    18
176
     1
 90
       50
176
     1
 90
        3
176
     1
 62
     5
420
      255
176
     1
290
     0
176
     1
 90
       50
176
     1
 90
       50
176
     1
 90
       50
176
     1
290
     0
176
     1
 90
       50
176
     1
 62
   256
176
     0
 40
1.0
176
     0
 90
        2
176
     1
  1
strokes_ogs.tif
176
     1
290
     0
176
     1
 40
1.0
176
     1
 40
1.0
176
     1
  0
VISUALSTYLE
  5
1F1
102
{ACAD_REACTORS
330
EF
102
}
330
EF
100
AcDbVisualStyle
  2
X-Ray
 70
    25
177
     3
291
     0
 70
    58
 90
        2
176
     1
 90
        2
176
     1
 90
        1
176
     1
 90
        1
176
     1
 40
0.5
176
     1
 40
30.0
176
     1
 62
     7
420
 16777215
176
     1
 90
        1
176
     1
 90
        0
176
     1
 62
     7
176
     1
 62
   257
176
     1
 90
        1
176
     1
 90
        1
176
     1
 40
1.0
176
     1
 90
        8
176
     1
 62
     7
176
     1
 40
1.0
176
     1
 90
        1
176
     1
 90
        6
176
     1
 90
        2
176
     1
 62
     7
176
     1
 90
        3
176
     1
 90
        0
176
     1
 90
        0
176
     1
290
     0
176
     1
 90
       13
176
     1
 40
0.0
176
     1
 90
        0
176
     1
290
     0
176
     1
290
     1
176
     1
290
     1
176
     1
290
     0
176
     1
290
     0
176
     1
290
     0
176
     1
290
     0
176
     1
290
     0
176
     1
290
     0
176
     1
 90
       50
176
     1
 40
0.0
176
     1
 40
1.0
176
     1
 90
        0
176
     1
 62
    18
176
     1
 90
       50
176
     1
 90
        3
176
     1
 62
     5
420
      255
176
     1
290
     0
176
     1
 90
       50
176
     1
 90
       50
176
     1
 90
       50
176
     1
290
     0
176
     1
 90
       50
176
     1
 62
   256
176
     0
 40
1.0
176
     0
 90
        2
176
     1
  1
strokes_ogs.tif
176
     1
290
     0
176
     1
 40
1.0
176
     1
 40
1.0
176
     1
  0
DICTIONARYVAR
  5
146
102
{ACAD_REACTORS
330
5E
102
}
330
5E
100
DictionaryVariables
280
     0
  1
1:1
  0
DICTIONARYVAR
  5
145
102
{ACAD_REACTORS
330
5E
102
}
330
5E
100
DictionaryVariables
280
     0
  1
STANDARD
  0
DICTIONARYVAR
  5
84
102
{ACAD_REACTORS
330
5E
102
}
330
5E
100
DictionaryVariables
280
     0
  1
STANDARD
  0
DICTIONARYVAR
  5
227
102
{ACAD_REACTORS
330
5E
102
}
330
5E
100
DictionaryVariables
280
     0
  1
Metric50
  0
DICTIONARYVAR
  5
228
102
{ACAD_REACTORS
330
5E
102
}
330
5E
100
DictionaryVariables
280
     0
  1
Metric50
  0
DICTIONARYVAR
  5
5F
102
{ACAD_REACTORS
330
5E
102
}
330
5E
100
DictionaryVariables
280
     0
  1
2
  0
DICTIONARYVAR
  5
63
102
{ACAD_REACTORS
330
5E
102
}
330
5E
100
DictionaryVariables
280
     0
  1
1
  0
DICTIONARYVAR
  5
1AE
102
{ACAD_REACTORS
330
5E
102
}
330
5E
100
DictionaryVariables
280
     0
  1
1
  0
DICTIONARYVAR
  5
1AF
102
{ACAD_REACTORS
330
5E
102
}
330
5E
100
DictionaryVariables
280
     0
  1
15
  0
DICTIONARYVAR
  5
2DE
102
{ACAD_REACTORS
330
5E
102
}
330
5E
100
DictionaryVariables
280
     0
  1
0
  0
DICTIONARYVAR
  5
2DD
102
{ACAD_REACTORS
330
5E
102
}
330
5E
100
DictionaryVariables
280
     0
  1
0
  0
DICTIONARY
  5
271
102
{ACAD_REACTORS
330
26A
102
}
330
26A
100
AcDbDictionary
281
     1
  0
XRECORD
  5
2D3
102
{ACAD_REACTORS
330
26A
102
}
330
26A
100
AcDbXrecord
280
     1
 90
-1023410169
  0
ACDBVIEWREPSTANDARD
  5
2D5
102
{ACAD_REACTORS
330
2D4
102
}
330
2D4
100
AcDbViewRepStandard
 90
      100
 90
        0
 90
        1
 90
        0
 90
        1
 90
        1
  0
FIELD
  5
53F
102
{ACAD_REACTORS
330
53E
102
}
330
53E
100
AcDbField
  1
_text
  2
%<\_FldIdx 0>%
 90
        1
360
540
 97
        0
 91
       63
 92
        0
 94
        9
 95
        2
 96
        0
300

 93
        2
  6
ACFD_FIELDTEXT_ATTDEF
 93
        2
 90
        1
 91
        1
 94
        0
300

302

304
ACVALUE_END
  6
ACFD_FIELDTEXT_CHECKSUM
 93
        2
 90
        2
140
1085.0
 94
        0
300

302

304
ACVALUE_END
  7
ACFD_FIELD_VALUE
 93
        3
 90
        0
 94
        0
300

302

304
ACVALUE_END
301

 98
        0
  0
DICTIONARY
  5
35F
330
35E
100
AcDbDictionary
280
     1
281
     1
  3
ACAD_XREC_ROUNDTRIP
360
A3D
  0
DICTIONARY
  5
236
330
21C
100
AcDbDictionary
280
     1
281
     1
  3
ACAD_XREC_ROUNDTRIP
360
A3C
  0
DICTIONARY
  5
205
330
22
100
AcDbDictionary
280
     1
281
     1
  0
DICTIONARY
  5
1F9
330
ED
100
AcDbDictionary
280
     1
281
     1
  3
FBXASSET
360
1FA
  0
DICTIONARY
  5
1F7
330
EC
100
AcDbDictionary
280
     1
281
     1
  3
FBXASSET
360
1F8
  0
DICTIONARY
  5
173
330
EE
100
AcDbDictionary
280
     1
281
     1
  3
BUMPTILE
360
175
  3
DIFFUSETILE
360
174
  3
FBXASSET
360
1FB
  3
OPACITYTILE
360
176
  3
REFLECTIONTILE
360
177
  0
DICTIONARY
  5
36D
330
36C
100
AcDbDictionary
280
     1
281
     1
  3
ACAD_XREC_ROUNDTRIP
360
A3E
  0
DICTIONARY
  5
234
330
21A
100
AcDbDictionary
280
     1
281
     1
  3
ACAD_XREC_ROUNDTRIP
360
A3B
  0
DICTIONARY
  5
162
330
7F
100
AcDbDictionary
280
     1
281
     1
  3
ACAD_ROUNDTRIP_2008_TABLESTYLE_CELLSTYLEMAP
360
A3A
  0
FIELD
  5
540
330
53F
100
AcDbField
  1
AcVar
  2
\AcVar Filename \f "%tc1%fn2"
 90
        0
 97
        0
 91
       63
 92
        0
 94
       59
 95
        2
 96
        0
300

 93
        1
  6
Variable
 93
        2
 90
        4
  1
Filename
 94
        0
300

302

304
ACVALUE_END
  7
ACFD_FIELD_VALUE
 93
        4
 90
        4
  1
\\cz-pry-sr-0002\home$\JoZvolanek\Desktop\Vykresy ePIM\ladder gratings\416912.dxf
 94
        0
300
%tc1%fn2
302
416912
304
ACVALUE_END
301
416912
 98
        6
  0
XRECORD
  5
A3D
102
{ACAD_REACTORS
330
35F
102
}
330
35F
100
AcDbXrecord
280
     1
102
DISPLAYNAME
  1
Imperial24
102
FLAGS
 90
        0
  0
XRECORD
  5
A3C
102
{ACAD_REACTORS
330
236
102
}
330
236
100
AcDbXrecord
280
     1
102
DISPLAYNAME
  1
Metric50
102
FLAGS
 90
        0
  0
XRECORD
  5
1FA
102
{ACAD_REACTORS
330
1F9
102
}
330
1F9
100
AcDbXrecord
280
     1
 70
     1
 90
429727718
  1
D62C5603-E3A1-4AEA-B7FB-FE5D8D0755AF
310
504B03040A0000080000CC70623B3DEE336E79000000790000001B0000006175746F6465736B2D64657369676E2D7061636B6167652E786D6C3C3F786D6C2076657273696F6E3D22312E302220656E636F64696E673D227574662D3822203F3E3C666F726D6174733E3C666F726D61743E687474703A2F2F736368656D612E
310
6175746F6465736B2E636F6D2F64657369676E2D7061636B6167652F323030393C2F666F726D61743E3C2F666F726D6174733E504B0304140006080800CC70623BD486FD9CA0000000F4000000130000005B436F6E74656E745F54797065735D2E786D6C7D8EC10E82300C865F65E91D8A1E8C310C0EEA1BF002731658846E
310
D98AC1B77784ABF1D8FE5FBFBF75BBCE937A534CCEB38643598122B6FEE978D0B0485F9C41B54DDD7D022595594E1A469170414C76A4D9A4D207E29CF43ECE46F218070CC6BECC4078ACAA135ACF422C856C0E68EA1BF5669944DDD7BCDE7B1F8E415D77AECB980613C2E4AC91FC167A2B244592486606FC29C8FD7F045B9A
310
EF7053A7E60B504B0304140006080800CC70623B853B8169EB0000007C01000008000000636F72652E786D6C8D90416EC3201045AF62CDB6C206821CC7C244919D9CA01740401C94182C03558F5F9C3852BBEB6A467FFE9B197D7EFC9E1EC5975982F5AE035262288C535E5B377690E21535501C055FBC8FBF6C503839990E
310
5619041F179FE64D52DE45E362569DD7661365082642A11EB9E920A89B99642953CC8E702F67A9EE7234257977194EC9EAE275C4EABCCF5EAD5940D4AC6F0E35A568B8F43562CD7046CD199FD07E60174276A7BE677B5EADB0E0D14EEFFB6A31321A0D82627C4084204C3F096B71DD52F6819B16635EADF63F509AF53FA164
310
5DDCD1EDDD17164090FCC8732078B56691CB33A85CD7DCC40F504B0304140006080800CC70623B55019EA25F0000007C00000007000000636E782E786D6C4DCB3B0E80201045D1AD90E915ED2CF8AC45050C11660C8261F98AB1B07AC9C97D42D718D865D3E909258CFD00CCE24AC6E326A164D74DC0B4128928FF32603847
310
2BA13128B1252AC747C6BAB984FC68F0B87FE8960A5C09FE86CFB69FBA01504B0304140006080800CC70623BDBABAAF470010000D40300000C0000006662782F636F72652E786D6CC553D16E823014FD95A6AF4B694182CC941A83FA05FB810A9511A125A5257EFE2E82712ECEB8A7F100CD39F7F69E734AF9FADC366850B6
310
AF8DCE7018308C942E4C59EB2AC3DE1D498AD15A706B8CFB56869196ADCAF00863C12B6B7C374385D14E6907A836A59A41D9F7CA615434B0C8705F7CAA5606D23BA8E84F41278B93AC54100640439DE0BDB320004D43C63716C7C399D30917DCFBBA9CD9BA8469F5B156168B24CED3F7248AC8769F27244EB73B92EED8862C
310
B7F13E0C179B3C8F979C8ECD82BBBABDAA2BAC924E9558448CBD9330242CFA08E3154B5651FCC6D215639C8EE5774DBE2B5F6CF2B5768B68963BB5F5588420E442FC700B1139D4CB01F450C1E918227C2E09DF070D8140C84E1E9AAB8F1340832A9CB13130A5F1376A908D57309505ECF2A0DF179C4E9D30F5B239B87E3823
310
7A79C6F31DE1A8A5AEC08474B03C7837EAE4938639B44E5932B833D2C6B6B279CDC613877FA26EE21F4A2A4C63EC7F29A2F301D1F9F7A0E37D145F504B0304140006080800CC70623B9C113CC27E0000009D0000000B0000006662782F636E782E786D6C4DCCDF0A83201C86E15B91DFB94BFB330DD428C8FB886521330DA7
310
6397BF1A1DECE883878F57749FCDA1B7892F1BBC047A23808C7F84D9FA55424E0BE6803A256208E9EF06C84F9B91703228B1C690F78B66B34CD9A5439DF5CF0BFBF65E35BCA1B8D6A5C6F540381E886698B5741C695F9503EBA150A2F8958E3DC3EA0B504B0304140006080800CC70623B7DF2F77C2A010000120200003100
310
00006662782F41393633353835312D344632462D344230382D423046372D3739314545314133324237412F636F72652E786D6C8D51DB8EC22014FC15C2939B0D2DB4B45643319AE817EC0F6041255A68B86CFCFC856D4D76DF7CE190393373060EDB3DC707F856CE6B6B7A480A0C81328395DA5C7B18C3057510EC3873D686
310
3F34088C18550F330C39BB3A1BA7051AAC09CA84841A2BD5020AEF55806078A44B0FFD7053A328440C89E1EFC52486BBB8AA8214A99D789CF9E05200300FC927E4FB4D5B375D43103D5527440FB843077C5AA3F5861C8F645F5787F59E95B390B318B55CE45AA638FAA2957BD7248B390B7A7CC51F9C124149C82B8C378810
310
84AB2F42B7B8DD56F413775B8C5999E9FF4471926F8AA236A1AE96B8B3CC434E5839373893369E1FAF30EA395917409EB7F26AF8801C171837A4A6AC9C89E9F9C9B1A58BA30FD6A5EF5DDDCF894B9AD9B6A59C957943A9FCAE2FD5BC4DFE03504B0304140006080800CC70623BAD7543B64E01000033030000300000006662
310
782F41393633353835312D344632462D344230382D423046372D3739314545314133324237412F636E782E786D6CD593CD6EC32010845F0571AD6CE3D48AD20813A9873E410FBD12D82434182C7EAAE6EDBB2424CD25871E7B41D6EC30B3FA84F9E67BB2E40B4234DE8DB46F1925E094D7C6ED479AD3AE5951B2113C789FEE
310
6C943839C1488B4C05DF079FE72A69D8C96C13AAD6B8631503449F83828872B949AC57D26200B826A308D316B4064D6E46FCDA41C05550DC9E483A00797BFD207EFB092A45DE9514C1BBD22178396BD39D891265658C238DEA00936C654E5E433CB65A26D9F6EDB5EBC14EBF49A45CB856E66048291F6939A9A81BB5C89177
310
38143CA680F4AA299D66A042CEB3354A2684DC9D8D178FE0D9B8B41CAAD720F880EE7EF93C0C18769E099ECC04D5A102C8049A8A05632F4DDF376CF1DE0F6BB65C2F8627B65A33C6BB62177CEBBDAD973006829F89F22E814B54F4BC2BE347F8AA8F681390B50FA73F804400B5F542E796F19FF974E7F78DB802FE05E20750
310
4B0304140006080800CC70623BE75B7789680500003C100000340000006662782F41393633353835312D344632462D344230382D423046372D3739314545314133324237412F6F626A656374732E786D6CAD575B8F9B3818FD2B887D06C22499CB8AA1CA655245D5B455A356FB305264C061D8018C6C3393D95FBFC7600890
310
A4CD5EF210B0B1BFEBF98E3F7B1FF6596ABC522E1296DF9BAE3D320D9A872C4AF2F8DE2CE5CEBA358D0FBEC719939D65A691938CDE9B6ADAF4BD98B3B2D05311DD91329583D9D5FC0F438434A7A611A644887B5384CF34233629258BA878B12322891DEFF6B66BD70BFB62634E8AE781D082709A4B588AF91C528CDA28B73F
310
1C998EEF39EABBEFA97FBD6A7C7E9553F9D3D79FE442923C3C523610337627CB87ABE99D359D4CC6D6E4FACAB5E6ABF9D2726FC6A3C5F56271377BB88362213924694B38DD99FE47C48627A1E7D49F5A8BB5E1A74C0A599ED3B0F21F1E56366B89112D681E218F0915D0D6F17AD41FBA2A369DCF6335D62ABBD39779D5DDD1
310
11D4D8DE3CBB96B2E04FB8202E41051754A1AA8E8F76B4C6DFE810B580B1547F4B84911149794252234D024EF8BBE963A95AE27B3D310A9D5C215C7960FAEE415ED75694C6AFB17BCACA5D99A60A9AA65F217B0BFC53292ACB92BF283FAD0D3621576592CB5BED907C2FA8E9DF794E35E97BEA31BED21FEB401ABB94C44839
310
DCACBF0E1C5DA8DA5B2F4DFFD32AD86F543D9E565E7056502E157C00AD2671CD534549AB752FCA9CDA00677A313F04E51B22FF19E57B300579E3C97EB29F682D92935CEC18CF901B7B54FD8C51F362B56FC72FE0B3C1EAE335EDCCBF5AEC39ADB17DC238973F804BA5E6F6BFE7AF1FB32E523BE9F3BD571418E3631DCA4D48
310
5250CF639223210A9446CA30052EDF057BD35F8329C1ECD84552BF0DC8D18BE7BCE23BFE6BD960AB4A7DE79923A103BEBD80F911CBAA2C60DB19B01CF164A5583B772EE6D3FFA56666CBCDA74DC97724A48F9A58967497E489C4D979006FD7A05E227A1EBDD0F737C623387A9C844D3709995625106D157315F8B8392CD4E0
310
A0B9A720C4BE9829CEF37EA1E13111214D53925356365ADA634861B52519DD27A00AEB808EAF0628E6F435519D446F45CF2C9CF5214F0A15B2F6D06B79DA3EE3CBF7F56780D2F4E7EF73A0F5E5B02A38D07DC852C6B7C1FBB6664213E0C39E3EBA7FF4E1AD23EA2829407C85E586727488B751B2DB9502BC7B228A3FD68B6E
310
A65A22397E690AA8D158D7E404EC8CDA235CC3B7D1898680131CEC2CDF2638C65196279577750F15884AEE19F94199155B92B13297978469D4F8D358DF0AEF7631E28DC8F0D9F437D5D39A83B2231A1D52D543813A824EF8D44BCFF2FA6A31BD1E8DAD87F1CCB526B3879935BF59CDADD5C37479BB1CDD4CA7B3556B516589
310
EF352754B706114D9C885EC9131DE6EFEB43D99AFE2391C2F958179413D7CFEF6B1B6DB1E7600F00DE6E5C67454A339A4BA2E0FBA85ED26F045D454F463DBFCE484C2F90F2E5E3666003662ED8F755951A7D1BECD5B30B550B2785C8E7320B7292A4838DDA71BBC863ED7613CAF659337A3354231D4FF4A182A54904C2898C
310
98B28C4AD0CE056CCF332A80986E571EE9DBC305BB5FEB7E509220A58D25CF042D712A806AC0AD0C657FDEF80D2D9CEAA2EE4D1C76F60BFE74219A06527D6F82DF6412526107381E55E353090704D085B52408A8913C4ED159D79BDA71BB4BC506F4831350EB6F975CD22D69BF7AC49B91A2C0A9DDA3D5CA36AD20FC478E37
310
E61844E2352865EBCB61A275A65283CAAA9DD27703B4102F5AF51EF5F573B75CBB5AD38BC845F7A49F82A0966A49C2E3EA5EA0ECD326CD965F1DB402C6FA8B51A4658C5C5E2EC9E214602E55810345408596591009A82E7E7FFACA19EEA299B14A0081A705CB3296EBC14CDF658DCD336EA6D1136881AAEB87B81AB9EE53D5
310
F5EB8BC8362082DA24122F98680A4E7930C01A0079749CEA14382A0783E5EBA5A10F8C098456A03D6A4AEB6BB881E2513747552A5DB22C7EDAF83BD5528081A365F7FF06504B0304140006080000CC70623B000000000000000000000000350000006662782F41393633353835312D344632462D344230382D423046372D37
310
39314545314133324237412F76657274696365732E62696E504B0304140006080800CC70623BF270F1330600000004000000360000006662782F41393633353835312D344632462D344230382D423046372D3739314545314133324237412F747269616E676C65732E62696E636660600000504B0304140006080000CC7062
310
3B000000000000000000000000370000006662782F41393633353835312D344632462D344230382D423046372D3739314545314133324237412F617474726962757465732E62696E504B0304140006080800CC70623B08DA0BD19000000041010000360000006662782F41393633353835312D344632462D344230382D4230
310
46372D3739314545314133324237412F6469726563746F72792E786D6C858F410AC3201045AF22B36F53E9A60B35CBEEBAE80D244E44489C6234F4F835464A48035D0DF398FF9F8AF63D0E6CC63039F212F8F9020C7D47C6792B21C5FE7403D62A1188E2E60C98D7234A5830286103A55745067B9D86B8A3CF9C7F90C11DE6
310
07FB144396D7B6A82D282E9A152AD114D5EF2CB866EEE831B8EEA07A7BB5A8D7D61A2BAAEB7FD5F70921FF497D00504B0304140006080800CC70623BEDD1DC58FD000000A00100003B0000006662782F41393633353835312D344632462D344230382D423046372D3739314545314133324237412F7265736F75726365732F
310
636F72652E786D6C8D504B6E833010BD0A9A6D65B00922041947112427E8052C33A156828DFCA97AFC9A40A576D7CDCCE87D344F8F9FBFE667F689CE6B6B3A6039850C8DB2A336530731DC4903D95970676DF82583CCC8193B5861107C72362E3BA4AC096842428D1D7107A5F7182053CF7474E0D507CE32973124857FE48B
310
540F3961CEF244279DE03EB81420DB9EAC1384436FA353E879B1B182C7A8C75DA3C7F453DF353A1075D537A7BA6464B8F535A99AE14A9A2BBD90E350DD183B5CFABE3AF262350B1EF4FC9351399401471025A527C218A1E53BAB5A5AB765F5469B96525EACF23FA6B88CFF34456DC2A1DCE36E360F82A5202F42F062ED2BAD
310
579969AFDD8A6F504B010214000A0000080000CC70623B3DEE336E79000000790000001B00000000000000000000000000000000006175746F6465736B2D64657369676E2D7061636B6167652E786D6C504B01021400140006080800CC70623BD486FD9CA0000000F40000001300000000000000000000000000B20000005B
310
436F6E74656E745F54797065735D2E786D6C504B01021400140006080800CC70623B853B8169EB0000007C010000080000000000000000000000000083010000636F72652E786D6C504B01021400140006080800CC70623B55019EA25F0000007C000000070000000000000000000000000094020000636E782E786D6C504B
310
01021400140006080800CC70623BDBABAAF470010000D40300000C00000000000000000000000000180300006662782F636F72652E786D6C504B01021400140006080800CC70623B9C113CC27E0000009D0000000B00000000000000000000000000B20400006662782F636E782E786D6C504B01021400140006080800CC70
310
623B7DF2F77C2A010000120200003100000000000000000000000000590500006662782F41393633353835312D344632462D344230382D423046372D3739314545314133324237412F636F72652E786D6C504B01021400140006080800CC70623BAD7543B64E010000330300003000000000000000000000000000D2060000
310
6662782F41393633353835312D344632462D344230382D423046372D3739314545314133324237412F636E782E786D6C504B01021400140006080800CC70623BE75B7789680500003C10000034000000000000000000000000006E0800006662782F41393633353835312D344632462D344230382D423046372D3739314545
310
314133324237412F6F626A656374732E786D6C504B01021400140006080000CC70623B0000000000000000000000003500000000000000000000000000280E00006662782F41393633353835312D344632462D344230382D423046372D3739314545314133324237412F76657274696365732E62696E504B01021400140006
310
080800CC70623BF270F133060000000400000036000000000000000000000000007B0E00006662782F41393633353835312D344632462D344230382D423046372D3739314545314133324237412F747269616E676C65732E62696E504B01021400140006080000CC70623B0000000000000000000000003700000000000000
310
000000000000D50E00006662782F41393633353835312D344632462D344230382D423046372D3739314545314133324237412F617474726962757465732E62696E504B01021400140006080800CC70623B08DA0BD1900000004101000036000000000000000000000000002A0F00006662782F41393633353835312D344632
310
462D344230382D423046372D3739314545314133324237412F6469726563746F72792E786D6C504B01021400140006080800CC70623BEDD1DC58FD000000A00100003B000000000000000000000000000E1000006662782F41393633353835312D344632462D344230382D423046372D3739314545314133324237412F7265
310
736F75726365732F636F72652E786D6C504B0506000000000E000E0080040000641100000000
  0
XRECORD
  5
1F8
102
{ACAD_REACTORS
330
1F7
102
}
330
1F7
100
AcDbXrecord
280
     1
 70
     1
 90
429727718
  1
30362254-06B7-45E0-A893-8CFA70E3D6BC
310
504B03040A0000080000CC70623B3DEE336E79000000790000001B0000006175746F6465736B2D64657369676E2D7061636B6167652E786D6C3C3F786D6C2076657273696F6E3D22312E302220656E636F64696E673D227574662D3822203F3E3C666F726D6174733E3C666F726D61743E687474703A2F2F736368656D612E
310
6175746F6465736B2E636F6D2F64657369676E2D7061636B6167652F323030393C2F666F726D61743E3C2F666F726D6174733E504B0304140006080800CC70623BD486FD9CA0000000F4000000130000005B436F6E74656E745F54797065735D2E786D6C7D8EC10E82300C865F65E91D8A1E8C310C0EEA1BF002731658846E
310
D98AC1B77784ABF1D8FE5FBFBF75BBCE937A534CCEB38643598122B6FEE978D0B0485F9C41B54DDD7D022595594E1A469170414C76A4D9A4D207E29CF43ECE46F218070CC6BECC4078ACAA135ACF422C856C0E68EA1BF5669944DDD7BCDE7B1F8E415D77AECB980613C2E4AC91FC167A2B244592486606FC29C8FD7F045B9A
310
EF7053A7E60B504B0304140006080800CC70623B1EC5D7A3EB0000007C01000008000000636F72652E786D6C8D90416EC3201045AF82665B6103C6756C6122AB4D4ED00B204C5C94182C03558F5F9C3852BBEB6A467FFE9B197D71FC9E6FE8CBACC17AD7032D0820E3B41FAD9B7A48F1820F808E52ACDEC75F36404ECDA687
310
4D0629A6D5A76597B477D1B89855E747B38B2A041301E95B6E7A08FAD3CCAA50296647B8168BD2573599823EBB0CA76447F43862C7BCCF5EAC59410E4DDD9C7973C2755553CCCFA4C603E3040F1565ED3B1FDE4E432BCA0D9622DAF9795FAF464533826484B498524CD807E51D79ED187F21878E10516EF63F505AC67F42C9
310
BA58B1FDDD071640D2FCC87D2045B96591CB3DA85CB7DCE40F504B0304140006080800CC70623B55019EA25F0000007C00000007000000636E782E786D6C4DCB3B0E80201045D1AD90E915ED2CF8AC45050C11660C8261F98AB1B07AC9C97D42D718D865D3E909258CFD00CCE24AC6E326A164D74DC0B4128928FF32603847
310
2BA13128B1252AC747C6BAB984FC68F0B87FE8960A5C09FE86CFB69FBA01504B0304140006080800CC70623B8C9102E971010000D40300000C0000006662782F636F72652E786D6CC5535B6E833010BC8AE5DF0A6C08340F1947A84D4ED00B38C6A128602363A31CBFCB234A53A551FA553EC09AD9F5CE8C31DB9E9B1AF5CA
310
7695D1198E428A91D2D214952E33ECDD315861B4E5CC1AE3BE9561A445A3323CC098B3D21ADFCE9034DA29ED00D5A6503328BA4E398C640D8B0C77F253352214DE4145770A5B214FA2546114020D759C75CE8200340D19DE981F0F6746269C33EFAB6266AB02A655C74A59CCF365BADC27CB5D902ED22848F6340DF238A141
310
BE88E2F57B92BFEDF23523433367AE6A2EEAA455C2A902F398D2751045018D3FA264435F3771F242571B4A1919CA6F9A7C5B3CD9E42BED16F12C776AEB308F40C848FC700B1139D4891EF410CEC810227CC6846F8386402064270EF5C5C709A05E49676C024C61FC95EA45ED154CA5211D1FF4FB8291A913A68E9B83EBBB33
310
E2A7673CDE118E5AE8124C0807CB8377834E366998436B950D7A7746DAD846D4CFD978E0F04FD455FC5D49D2D4C6FE9722321F10997F0F32DC47FE05504B0304140006080800CC70623BFFEA85907E0000009D0000000B0000006662782F636E782E786D6C4DCCD10A83201886E15B91FFDC95D95A811AB6F23E625948A6C3
310
E9D8E5AF46073BFAE0E1E365ED67B3E8ADC3CB78C7815C7240DA3DFC64DCC221C519D7805AC182F7F1EF06C88D9BE6703008B6049F9E274D7A1E938DBB5AE3D6131B2589BA0D3D965551E0B2EA732C9B9A624AAEB41E3A557677029960D9AFB4EF11165F504B0304140006080800CC70623B4FEEA4082C0100001202000031
310
0000006662782F39464131463745442D413632322D343644302D413938332D3331353338454246344243312F636F72652E786D6C8D515B6EC32010BC0AE2AB55850DD871ED0813254D72825EC00192A2C460F1A872FC42ED48ED5F7E00CDCECCCEB26C731F6FE05B39AFADE921293004CA082BB5B9F43086336A21D870E6AC
310
0D7F68109861543DCC30E4ECE26C9C164858139409093556AA051CBC570102714B8F1E7AF1A5C6A11862480C7F2DA6415C878B2A4891CA89C7990F2E050073937C42DE1DB7E4F87ED8A36D4329AA9B3D46DBAEAD504556557BD81DEBDD0761E52CE42C462D17B996298E3E6BE59E35C962CE821E1FF18553435012728A7187
310
0841987E927A8D9B35ADDF70BBC6989599FE4F1427F9A4286A132ABAC49D651EF234CD5CE04CDA78BA3DC2A8FB645D00B9DF8B57E215725C60BCA2A463E54C4CE327C7A65E1C7DB02E7DEFCBF594B864C5CA6CDBD49C957943E9FA5D5FBAF336F90F504B0304140006080800CC70623BAD7543B64E01000033030000300000
310
006662782F39464131463745442D413632322D343644302D413938332D3331353338454246344243312F636E782E786D6CD593CD6EC32010845F0571AD6CE3D48AD20813A9873E410FBD12D82434182C7EAAE6EDBB2424CD25871E7B41D6EC30B3FA84F9E67BB2E40B4234DE8DB46F1925E094D7C6ED479AD3AE5951B2113C
310
789FEE6C943839C1488B4C05DF079FE72A69D8C96C13AAD6B8631503449F83828872B949AC57D26200B826A308D316B4064D6E46FCDA41C05550DC9E483A00797BFD207EFB092A45DE9514C1BBD22178396BD39D891265658C238DEA00936C654E5E433CB65A26D9F6EDB5EBC14EBF49A45CB856E66048291F6939A9A81BB5
310
C8917738143CA680F4AA299D66A042CEB3354A2684DC9D8D178FE0D9B8B41CAAD720F880EE7EF93C0C18769E099ECC04D5A102C8049A8A05632F4DDF376CF1DE0F6BB65C2F8627B65A33C6BB62177CEBBDAD973006829F89F22E814B54F4BC2BE347F8AA8F681390B50FA73F804400B5F542E796F19FF974E7F78DB802FE05
310
E207504B0304140006080800CC70623B16AB87BA640500003C100000340000006662782F39464131463745442D413632322D343644302D413938332D3331353338454246344243312F6F626A656374732E786D6CAD575B6FA33818FD2B887DE6924B3BED8A326A92B68A663B534DD4D13E548A0C38942D60649B369D5FBFC7
310
600890A493BDE42160637FD7F31D7FF63E6FB3D478A55C242CBF3247B66B1A340F5994E4F19559CA8D75611A9F7D8F33263BCB4C232719BD32D5B4E97B316765A1A722BA21652A07B3B7B33F0D11D29C9A46981221AE4C113ED38CD8A4942CA2E2C58E882476BCD9DA23BB5ED8171B73523C0F841684D35CC252CCE79062D4
310
468DFA43D7747CCF51DF7D4FFDEB5593E3AB9CCA9FBEFE241792E4E19EB28198C968BAB8199F5D5A67D3E9C49A9E8F47D6EC76B6B0469F26EEFC7C3EBFBCBEB98462213924694B38DD98FE1D62C393D073EA4FADC5DAF04326852CCF6958F90F0F2B9BB5C48816348F90C7840A68EB78EDF68723159BCEE7891A6B95DDE9D3
310
BCEAEEE8086A6C6F9E5D4B59F0175C10A7A0820BAA5055C7473B5AE3CFDD452D602CD5DF12616444529E90D448938013FE6EFA58AA96F85E4F8C42275708571E98FE6827AF6B2B4AE3D7D83D64E5A64C53054DD3AF90BD06FEA9149565C94FCA0F6B834DC85599E4F2423B24DF0B6AFA979E534DFA9E7A4CC6FA631D486393
310
921829879BF5D781A373557BCB85E97FB90DB62B558F8795179C15944B051F40AB495CF35451D26A4727654E6D8033BD98EF82F21D91FF8AF2DD9982BCF1643BDD4EB516C9492E368C67C88DED563FC36D5EACF66DFF057C3658BDBFA69DF9578B3DA735B64F18C7F20770A9D45CFCF7FCF563D6456A277DBEF78A02637CA2
310
43B90A490AEAB94F72244481D24819A6C0E59B606BFA4B3025981DBB48EAB701D97BF19C577CC77F2D1B6C55A9EF3C732474C0B727303F625995056C3B02963D9EAC146BE78EC5FCEC7FA999EBC5EACBAAE41B12D27B4D2C0BBA49F244E2ECDC81B76B502F113D8F5EE8FB1BE3111CDD4FC2AA9B844CAB1288B68AB90A7CDC
310
1C166AB0D3DC5310625FCC14E779BFD0709F8890A629C9292B1B2DED31A4B0DA928CEE135085754027E3018A397D4D5427D15BD1330B677DC8934285AC3DF45A9EB68FF8F2B8FC0A509AFEECFD0FF2DE25CC6047F7214B195F07EFEB9A094D800F7BFAE8FED187B78EA8A3A400F115961BCAD1215E47C966530AF0EE8128FE
310
58CEBB996A8964FFA529A046635D9353B0336A8F700DDF46271A024E70B0B37C9DE01847591E54DED53D54202AB947E4076556AC49C6CA5C9E1226B7F1A7B1BE15DEED62C41B91E1B3E9AFAAA735036547343A925075041DF0A9979E893B391F8FCFA6967B3EFB644DCF6E5CEBFAE272625DCC6FAF3FB93793C5F90CE1EF57
310
407342756B10D1C489E8953CD1617E5CEECAD6F4EF8914CE5D5D504E5C3F1F9736DA62CFC11E00BCDDB8CC8A9466349744C1F75EBDA4DF09BA8A9E8C7A7E9991989E20E5DBDD6A6003664ED8F7A04A8DBE0DF6EAD9B9AA858342E47399053949D2C146EDB85DE4B176BB0965FBAC19BD19AA918E27FA50C1D22402E144464C
310
59462568E704B6E71915404CB72B8FF4EDE184DDAF753F284990D2C6926782963815403548A70C657FDEF80D2D9CEAA2AE4C1C76F60BFE74219A06527D6582DF6412526107381E55E353090704D085B52408D0933C4ED159D79BDA71BB4BC506F4831350EB6F979CD22D69BF7AC49B91A2C0A9DDA3D5CA36AD20FC478E37E6
310
1844E2352865EBCB6EA275A652E3836BE04EFB400BF1A2556F515F1FBB35B2AB35BD889C744FFA1004B5544B121E57F70215746DD2F5E2C1412B602CBF19455AC6C8E5E9922C4E01E65215385004546899059180EAFCF7A707CE7017CD8CDB0410789AB32C63B91E5CEBBBACB17AC6CD347A022D5075FD106377347AAABA7E
310
7D11590744509B44E205134DC1290F06580320F78E537D3D73540E06CB970B431F185308AD40BBD794D6D77003C5A36E8EAA54BA64597CD8F83BD552A080A365F7FF06504B0304140006080000CC70623B000000000000000000000000350000006662782F39464131463745442D413632322D343644302D413938332D3331
310
353338454246344243312F76657274696365732E62696E504B0304140006080800CC70623BF270F1330600000004000000360000006662782F39464131463745442D413632322D343644302D413938332D3331353338454246344243312F747269616E676C65732E62696E636660600000504B0304140006080000CC70623B
310
000000000000000000000000370000006662782F39464131463745442D413632322D343644302D413938332D3331353338454246344243312F617474726962757465732E62696E504B0304140006080800CC70623B08DA0BD19000000041010000360000006662782F39464131463745442D413632322D343644302D413938
310
332D3331353338454246344243312F6469726563746F72792E786D6C858F410AC3201045AF22B36F53E9A60B35CBEEBAE80D244E44489C6234F4F835464A48035D0DF398FF9F8AF63D0E6CC63039F212F8F9020C7D47C6792B21C5FE7403D62A1188E2E60C98D7234A5830286103A55745067B9D86B8A3CF9C7F90C11DE607
310
FB144396D7B6A82D282E9A152AD114D5EF2CB866EEE831B8EEA07A7BB5A8D7D61A2BAAEB7FD5F70921FF497D00504B0304140006080800CC70623B0D6EF93BFE000000A00100003B0000006662782F39464131463745442D413632322D343644302D413938332D3331353338454246344243312F7265736F75726365732F63
310
6F72652E786D6C8D50596E833010BD0A9ADFCA60B334011947A8694ED00B586642AC041B79A97AFC9A40A5F6AF3F33A3B7689E1E3F7DCD8FEC139DD7D6F4C0720A191A65476DA61E62B892236427C19DB5E1970C322367EC618541F0C9D9B8EC90B226A009093576C41D94DE63804C3DD2D18357379C652E63480A7FCF17A9
310
EE72C29CE5894E3AC17D702940B63D59270887DE46A7D0F36263058F518FBB468FE9A7BE6A7420864373B8D4873369AA8691FA421B3294352543C5CAF65C0F6FEF43CB8BD52C78D0F34F46E550061C419494B6843142CB0F5677F4B52BEB177AEC28E5C52AFF638ACBF84F53D42654E51E77B379102C05791282176B5F693D
310
CB4C7BED567C03504B010214000A0000080000CC70623B3DEE336E79000000790000001B00000000000000000000000000000000006175746F6465736B2D64657369676E2D7061636B6167652E786D6C504B01021400140006080800CC70623BD486FD9CA0000000F40000001300000000000000000000000000B20000005B
310
436F6E74656E745F54797065735D2E786D6C504B01021400140006080800CC70623B1EC5D7A3EB0000007C010000080000000000000000000000000083010000636F72652E786D6C504B01021400140006080800CC70623B55019EA25F0000007C000000070000000000000000000000000094020000636E782E786D6C504B
310
01021400140006080800CC70623B8C9102E971010000D40300000C00000000000000000000000000180300006662782F636F72652E786D6C504B01021400140006080800CC70623BFFEA85907E0000009D0000000B00000000000000000000000000B30400006662782F636E782E786D6C504B01021400140006080800CC70
310
623B4FEEA4082C0100001202000031000000000000000000000000005A0500006662782F39464131463745442D413632322D343644302D413938332D3331353338454246344243312F636F72652E786D6C504B01021400140006080800CC70623BAD7543B64E010000330300003000000000000000000000000000D5060000
310
6662782F39464131463745442D413632322D343644302D413938332D3331353338454246344243312F636E782E786D6C504B01021400140006080800CC70623B16AB87BA640500003C1000003400000000000000000000000000710800006662782F39464131463745442D413632322D343644302D413938332D3331353338
310
454246344243312F6F626A656374732E786D6C504B01021400140006080000CC70623B0000000000000000000000003500000000000000000000000000270E00006662782F39464131463745442D413632322D343644302D413938332D3331353338454246344243312F76657274696365732E62696E504B01021400140006
310
080800CC70623BF270F133060000000400000036000000000000000000000000007A0E00006662782F39464131463745442D413632322D343644302D413938332D3331353338454246344243312F747269616E676C65732E62696E504B01021400140006080000CC70623B0000000000000000000000003700000000000000
310
000000000000D40E00006662782F39464131463745442D413632322D343644302D413938332D3331353338454246344243312F617474726962757465732E62696E504B01021400140006080800CC70623B08DA0BD190000000410100003600000000000000000000000000290F00006662782F39464131463745442D413632
310
322D343644302D413938332D3331353338454246344243312F6469726563746F72792E786D6C504B01021400140006080800CC70623B0D6EF93BFE000000A00100003B000000000000000000000000000D1000006662782F39464131463745442D413632322D343644302D413938332D3331353338454246344243312F7265
310
736F75726365732F636F72652E786D6C504B0506000000000E000E0080040000641100000000
  0
XRECORD
  5
175
102
{ACAD_REACTORS
330
173
102
}
330
173
100
AcDbXrecord
280
     1
270
     1
271
     1
  0
XRECORD
  5
174
102
{ACAD_REACTORS
330
173
102
}
330
173
100
AcDbXrecord
280
     1
270
     1
271
     1
  0
XRECORD
  5
1FB
102
{ACAD_REACTORS
330
173
102
}
330
173
100
AcDbXrecord
280
     1
 70
     0
 90
1673772943
  1
ECE7A1D2-D628-4531-984C-D00F80459256
310
504B03040A0000080000CC70623B3DEE336E79000000790000001B0000006175746F6465736B2D64657369676E2D7061636B6167652E786D6C3C3F786D6C2076657273696F6E3D22312E302220656E636F64696E673D227574662D3822203F3E3C666F726D6174733E3C666F726D61743E687474703A2F2F736368656D612E
310
6175746F6465736B2E636F6D2F64657369676E2D7061636B6167652F323030393C2F666F726D61743E3C2F666F726D6174733E504B0304140006080800CC70623BD486FD9CA0000000F4000000130000005B436F6E74656E745F54797065735D2E786D6C7D8EC10E82300C865F65E91D8A1E8C310C0EEA1BF002731658846E
310
D98AC1B77784ABF1D8FE5FBFBF75BBCE937A534CCEB38643598122B6FEE978D0B0485F9C41B54DDD7D022595594E1A469170414C76A4D9A4D207E29CF43ECE46F218070CC6BECC4078ACAA135ACF422C856C0E68EA1BF5669944DDD7BCDE7B1F8E415D77AECB980613C2E4AC91FC167A2B244592486606FC29C8FD7F045B9A
310
EF7053A7E60B504B0304140006080800CC70623BD9DDAED0EC0000007C01000008000000636F72652E786D6C8D90416EC3201045AF82665B61836D9CD8C2444DD39CA01740405C94182C03558F5F9C3852BBEB6A467FFE9B197D7EF89E6EE8CB2CC17A37002D0820E394D7D68D03A478C17B4007C117EFE32F1B20272733C0
310
2A83E0E3E2D3BC49CABB685CCCAAF3DA6CA20CC14440EA969B0182FA34932C648AD911AEC52CD5558EA6A0CF2EC329598D1E47ACCEFBECC59A050463A7EA5833865FEBDD0E37353BE3EE8DBDE3F6786A48D375FBF6CC78B9C282473B3DEFABC5C86834888A900E538A49F5419B9EB47DD5BC907D4F082F57FB1F28CDFA9F50
310
B22ED6D5F6EE030B20687EE43E10BC5CB3C8E51E54AE6B6EE207504B0304140006080800CC70623B55019EA25F0000007C00000007000000636E782E786D6C4DCB3B0E80201045D1AD90E915ED2CF8AC45050C11660C8261F98AB1B07AC9C97D42D718D865D3E909258CFD00CCE24AC6E326A164D74DC0B4128928FF326038
310
472BA13128B1252AC747C6BAB984FC68F0B87FE8960A5C09FE86CFB69FBA01504B0304140006080800CC70623BA24EB22D72010000D40300000C0000006662782F636F72652E786D6CC5535B6E833010BC8AE5DF0A6C5E49888CA3A6694ED00B38E05014B091B1518EDFE511A5A9D228FD2A1F60CDEC7A67C6986DCE4D8D7A
310
69BA4AAB0C073EC548AA5C17952A33ECECD15B61B4E1CC686DBF9561A44423333CC098B3D268D7CE50AE9595CA02AA74216750749DB418E5352C32DCE59FB211BE70162ABA93DF8AFC244AE9073ED050C759670D0840D390E18DF9F1706664C23973AE2A66B62A605A75ACA4C13C4976E1364A12EF355A2EBD384AF65EFA96
310
BC7B8BED2EA6719AAE16FB8491A199335B351775B991C2CA02F390D2D40B028F861F41BCA68B7518BFD0D59A524686F29B26D7164F36B94AD9289CE54E6D1DE6010819891F6E21228B3AD1831EC219194284CF98F06DD01008846CC5A1BEF83801D4CBDC6A1303536877A57A513B0953A94FC707FDBE6064EA84A9E3E6E0FA
310
EE8CF0E9198F7784A316AA0413C2C2F2E0ECA0934D1AE6D05A69BCDE9E91D2A611F573361E38FC1375157F5752AE6B6DFE4B11990F88CCBF0719EE23FF02504B0304140006080800CC70623B408A7D3B7C0000009D0000000B0000006662782F636E782E786D6C4DCCD10A83201886E15B91FFDC552A92A0064DBC8F581632
310
D3703A76F9ABD1C18E3E78F878E5F0D9027ABBFCF2292AE86E2D20171F69F6715550CB827B40839639A5F2770314A7CD293819B45C73AAFB45B35BA61ACAA1C1C7E7855C58C15BC331339661262CC762340413D68D77DA5B42298546CBE6573AF60CEB2F504B0304140006080800CC70623B449FB9BD290100001202000031
310
0000006662782F36394639363044362D344446342D343946362D394244322D3234314243333846323333332F636F72652E786D6C8D515B6EC32010BC0AE22B55850D98B871848994463E412FE002495162B07854397EA176A4F62F3F2C9A9D991D587EB84F37F0AD7D30CEF6905418026DA553C65E7A98E219ED203808EE9D
310
8B7F6810D871D23D2C3014FCE25D9A57483A1BB58D19B54EE9151C43D0110279CB971E06F9A5A7B11A53CC8C70ADE6515EC78BAE4895DB992778883E0700CB907242D17643D7E2538BD869608875438BBAE38922CAC8F1BDD90DB4691A5E2F42C153326A951B95E398B3D1FE599322163C9AE9115F7A3D46ADA0A018778810
310
84E907617BDCEE297BC5BB3DC6BC2EF47FA234AB2745C9D8D8D035EE220B50105E2F0DC1954B9FB747187D9F9D8FA0CCDB042D5FA0C015C65B42DF78BD10F3F3B363CB56C7109DCFDFBBB97E662ED92EB62D13BC2E1BCAE5777DB9966D8A1F504B0304140006080800CC70623BAD7543B64E01000033030000300000006662
310
782F36394639363044362D344446342D343946362D394244322D3234314243333846323333332F636E782E786D6CD593CD6EC32010845F0571AD6CE3D48AD20813A9873E410FBD12D82434182C7EAAE6EDBB2424CD25871E7B41D6EC30B3FA84F9E67BB2E40B4234DE8DB46F1925E094D7C6ED479AD3AE5951B2113C789FEE
310
6C943839C1488B4C05DF079FE72A69D8C96C13AAD6B8631503449F83828872B949AC57D26200B826A308D316B4064D6E46FCDA41C05550DC9E483A00797BFD207EFB092A45DE9514C1BBD22178396BD39D891265658C238DEA00936C654E5E433CB65A26D9F6EDB5EBC14EBF49A45CB856E66048291F6939A9A81BB5C89177
310
38143CA680F4AA299D66A042CEB3354A2684DC9D8D178FE0D9B8B41CAAD720F880EE7EF93C0C18769E099ECC04D5A102C8049A8A05632F4DDF376CF1DE0F6BB65C2F8627B65A33C6BB62177CEBBDAD973006829F89F22E814B54F4BC2BE347F8AA8F681390B50FA73F804400B5F542E796F19FF974E7F78DB802FE05E20750
310
4B0304140006080800CC70623B8D05915C650500003B100000340000006662782F36394639363044362D344446342D343946362D394244322D3234314243333846323333332F6F626A656374732E786D6CAD575B6FA33814FE2B887D06429276DA1565D4266D158D3A339A6846FB502932E050B66023DB74D2FDF5FB190C01
310
9276B2973C046C8ECFF53B17071F77456EBD502133CEAE6CDF9DD81665314F32965ED995DA3A17B6F5310C04E7AA47665B8C14F4CAD6DB7618A48257A5D94AE89654B91AEDDEDDFC61C998326A5B714EA4BCB265FC440BE2924AF184CA6737218AB8E976E7FA6E4338649B0A523E8D98964450A6A029F619B8588D52FE7039
310
B1BD30F0F4F730D0FF866AF6369557DB33949F31A9088B0F848DD8CCFCF9F2767A76E99CCDE733677E3EF59D9BBB9BA5E37F984D16E78BC5E5F5ED25044B25C0C96822E8D60EEFE11B91C581D77CEA34368A1F5329E68CD1B8B61F16D63A1B8E092D294B10C78C4A48EB593D192E7DED9BDEE7995E1B91FDEDD3ACEA9FE831
310
6A756F9F7D4D79F4274C90A7A04248AA51D5F8C718DAE06FB2F75AC4796EBE65D22A88A22223B995679120E2D50E41AA49C260C046A35368846B0BECD0DFF3EBEB8AD4F835768F69B9ADF25C43D30E6B646F807FAA64AD59F61715C7A54127C4AACA98BA3006A9D792DAE165E0D59B61A01FB3A9F9D838D2DAE62445C86166
310
F37564E842E7DE6A69879FEEA2DD5AE7E371E1A5E025154AC307D06A03D73EB5978C58FFA4C8E9033066E0F3BD53BEC1F39F91BE7B55103791EDE6BBB991A2046172CB4581D8B893FA674DDA17A77B3B7C413D1B511FD2743BFF8A38F03A658705E3ADF8015C3A3417FF3D7E439FF591DA0B5F18BC20C1B8981957AE6392A3
310
F43C640C01D1A0B4728E2DD4F26DB4B3C3152A252A3B4E913CEC1C72F012782FF88EFF8637AA552DBEF76408E8A8DE9E50F9E1CB3A2DA0DB1B6039A893B56063DC5B3E3FFB5F72E67AB9FEB4AEC496C4F4C1149625DD662C53E89D7BF0F6151A046260D1337DFDC94502430F83B0EE07A130A224BCAD7DAE1D9FB6CD422FF6
310
920702629C4BB9AE79C12F243C6432A6794E18E5552BA56B431AAB5D91317302B2B071E86C3A42B1A02F999E24061403B5D0EB639195DA655DD3EBEAB4FB862DDF579F014AD0E73C22F99E28DA57FB98E75C6CA2D74D53086D600F4786E0FE3144B771A8A7B900F03594DB8A633CBC49B2EDB69228BB479CF863B5E807AAAB
310
23872F6DFEB4129B949CA33823F58830E86D65621E10047D9DB34D862E8EAC3C2ABC2F7B2C40D67CDFE01F5545B92105AF983AC54D93D69E56FB8E797F88913F898A9FEC705D3F9D1B54EC8426FB500D40A03BD0119B06E1B95DDC7EB8F6975367793EBD70E66733DFB9BC982F9CE564727731999F5D4ECFCE3B8D6A4DC2A0
310
6D50FD148437D110834A64C6CDDF57FBACB5C307A2A477DFE4939736CFEF2B175371E0E10CF0DD1D5C15654E0BCA14D1E87DD02FF93782A162C0A3D95F1524A52770F972BF1EE9809D13CE7DD599467F8ECE9ADD85CE85A34CD45355448C64F9E8A031DC2D596ACC6E5DD93D9B82DE2EF5CAF81363A8E47996A0DE24564A79
310
4115AACE09C55E14540231FDA13C319787134EBF34E3A022514E5B4D9E0826E25C02D5805B15ABE1BEF51B26383D445DD9E875EE33FE4C22DA16427D65A3BCA92CA6D28DD01DF5DC53330704308475351050232CCD31583787BA75774AFB06E5070DD0C8EF484E19968C5D83BA5B90B244D31E54D55A372320FE4786B7EA58
310
44E135AA5467CB7EA333A61683CC6A8C3257034C10CF46F40EF9F5BE59BE5BD30C3C72D235E95D10345C1D45445A5F0BB47E46A5EBE5570F9380B5FA629579952296A773720405982B9DE04011506178964401AA8BDF1FBF0A8EAB6861DD6580C0E38217056766716DAEB2D6FA0917D3E4116581EADB879C4E7CFFB11EFACD
310
3D641311495D92C8676CB409A72D18610D803CE8A626049E8EC1887CB5B44CC39883690DDA8399B4B9855B481E7D71D4A9D22F96E5BB73BF5793020C02137BF837504B0304140006080000CC70623B000000000000000000000000350000006662782F36394639363044362D344446342D343946362D394244322D32343142
310
43333846323333332F76657274696365732E62696E504B0304140006080800CC70623BF270F1330600000004000000360000006662782F36394639363044362D344446342D343946362D394244322D3234314243333846323333332F747269616E676C65732E62696E636660600000504B0304140006080000CC70623B0000
310
00000000000000000000370000006662782F36394639363044362D344446342D343946362D394244322D3234314243333846323333332F617474726962757465732E62696E504B0304140006080800CC70623B08DA0BD19000000041010000360000006662782F36394639363044362D344446342D343946362D394244322D
310
3234314243333846323333332F6469726563746F72792E786D6C858F410AC3201045AF22B36F53E9A60B35CBEEBAE80D244E44489C6234F4F835464A48035D0DF398FF9F8AF63D0E6CC63039F212F8F9020C7D47C6792B21C5FE7403D62A1188E2E60C98D7234A5830286103A55745067B9D86B8A3CF9C7F90C11DE607FB14
310
4396D7B6A82D282E9A152AD114D5EF2CB866EEE831B8EEA07A7BB5A8D7D61A2BAAEB7FD5F70921FF497D00504B0304140006080800CC70623BCA768048FE000000A00100003B0000006662782F36394639363044362D344446342D343946362D394244322D3234314243333846323333332F7265736F75726365732F636F72
310
652E786D6C8D50596E833010BD0A9ADFCA60D600328E9AA639412F609909B1126CE4A5EAF16B0295DABFFECC8CDEA2797AECF8353F924FB44E193D409E5248504B332A3D0D10FC95B4901C39B3C6F85F3248B49871801506CE266BC2B243D2688FDA47549B11775038871E12F988C7004EDE7016A9083E2ADC3D5D84BC8B09
310
D33C8D74D471E6BC8D0192EDC93A815B742658898E651BCB59086ADC356A8C3FD555A1055ED7E7E254D615792D0F075295F585746FF53B694EE78A565DD736979A65AB9933AFE69F8CD2A2F038022F28ED489E135A7CE4554F9BBEA85E68DB53CAB255FEC71496F19FA6A0B42F8B3DEE6673C0F318E4497096AD7DC5F52C33
310
EEB55BFE0D504B010214000A0000080000CC70623B3DEE336E79000000790000001B00000000000000000000000000000000006175746F6465736B2D64657369676E2D7061636B6167652E786D6C504B01021400140006080800CC70623BD486FD9CA0000000F40000001300000000000000000000000000B20000005B436F
310
6E74656E745F54797065735D2E786D6C504B01021400140006080800CC70623BD9DDAED0EC0000007C010000080000000000000000000000000083010000636F72652E786D6C504B01021400140006080800CC70623B55019EA25F0000007C000000070000000000000000000000000095020000636E782E786D6C504B0102
310
1400140006080800CC70623BA24EB22D72010000D40300000C00000000000000000000000000190300006662782F636F72652E786D6C504B01021400140006080800CC70623B408A7D3B7C0000009D0000000B00000000000000000000000000B50400006662782F636E782E786D6C504B01021400140006080800CC70623B
310
449FB9BD290100001202000031000000000000000000000000005A0500006662782F36394639363044362D344446342D343946362D394244322D3234314243333846323333332F636F72652E786D6C504B01021400140006080800CC70623BAD7543B64E010000330300003000000000000000000000000000D20600006662
310
782F36394639363044362D344446342D343946362D394244322D3234314243333846323333332F636E782E786D6C504B01021400140006080800CC70623B8D05915C650500003B10000034000000000000000000000000006E0800006662782F36394639363044362D344446342D343946362D394244322D32343142433338
310
46323333332F6F626A656374732E786D6C504B01021400140006080000CC70623B0000000000000000000000003500000000000000000000000000250E00006662782F36394639363044362D344446342D343946362D394244322D3234314243333846323333332F76657274696365732E62696E504B010214001400060808
310
00CC70623BF270F13306000000040000003600000000000000000000000000780E00006662782F36394639363044362D344446342D343946362D394244322D3234314243333846323333332F747269616E676C65732E62696E504B01021400140006080000CC70623B00000000000000000000000037000000000000000000
310
00000000D20E00006662782F36394639363044362D344446342D343946362D394244322D3234314243333846323333332F617474726962757465732E62696E504B01021400140006080800CC70623B08DA0BD190000000410100003600000000000000000000000000270F00006662782F36394639363044362D344446342D
310
343946362D394244322D3234314243333846323333332F6469726563746F72792E786D6C504B01021400140006080800CC70623BCA768048FE000000A00100003B000000000000000000000000000B1000006662782F36394639363044362D344446342D343946362D394244322D3234314243333846323333332F7265736F
310
75726365732F636F72652E786D6C504B0506000000000E000E0080040000621100000000
  0
XRECORD
  5
176
102
{ACAD_REACTORS
330
173
102
}
330
173
100
AcDbXrecord
280
     1
270
     1
271
     1
  0
XRECORD
  5
177
102
{ACAD_REACTORS
330
173
102
}
330
173
100
AcDbXrecord
280
     1
270
     1
271
     1
  0
XRECORD
  5
A3E
102
{ACAD_REACTORS
330
36D
102
}
330
36D
100
AcDbXrecord
280
     1
102
DISPLAYNAME
  1
Imperial24
102
FLAGS
 90
        0
  0
XRECORD
  5
A3B
102
{ACAD_REACTORS
330
234
102
}
330
234
100
AcDbXrecord
280
     1
102
DISPLAYNAME
  1
Metric50
102
FLAGS
 90
        0
  0
CELLSTYLEMAP
  5
A3A
102
{ACAD_REACTORS
330
162
102
}
330
162
100
AcDbCellStyleMap
 90
        3
300
CELLSTYLE
  1
TABLEFORMAT_BEGIN
 90
        5
170
     1
 91
        0
 92
    32768
 62
   257
 93
        1
300
CONTENTFORMAT
  1
CONTENTFORMAT_BEGIN
 90
        0
 91
        0
 92
      512
 93
        0
300

 40
0.0
140
1.0
 94
        5
 62
     0
340
11
144
6.0
309
CONTENTFORMAT_END
171
     1
301
MARGIN
  1
CELLMARGIN_BEGIN
 40
1.5
 40
1.5
 40
1.5
 40
1.5
 40
0.18
 40
0.18
309
CELLMARGIN_END
 94
        6
 95
        1
302
GRIDFORMAT
  1
GRIDFORMAT_BEGIN
 90
        0
 91
        1
 62
     0
 92
       -2
340
14
 93
        0
 40
1.125
309
GRIDFORMAT_END
 95
        2
302
GRIDFORMAT
  1
GRIDFORMAT_BEGIN
 90
        0
 91
        1
 62
     0
 92
       -2
340
14
 93
        0
 40
1.125
309
GRIDFORMAT_END
 95
        4
302
GRIDFORMAT
  1
GRIDFORMAT_BEGIN
 90
        0
 91
        1
 62
     0
 92
       -2
340
14
 93
        0
 40
1.125
309
GRIDFORMAT_END
 95
        8
302
GRIDFORMAT
  1
GRIDFORMAT_BEGIN
 90
        0
 91
        1
 62
     0
 92
       -2
340
14
 93
        0
 40
1.125
309
GRIDFORMAT_END
 95
       16
302
GRIDFORMAT
  1
GRIDFORMAT_BEGIN
 90
        0
 91
        1
 62
     0
 92
       -2
340
14
 93
        0
 40
1.125
309
GRIDFORMAT_END
 95
       32
302
GRIDFORMAT
  1
GRIDFORMAT_BEGIN
 90
        0
 91
        1
 62
     0
 92
       -2
340
14
 93
        0
 40
1.125
309
GRIDFORMAT_END
309
TABLEFORMAT_END
  1
CELLSTYLE_BEGIN
 90
        1
 91
        1
300
_TITLE
309
CELLSTYLE_END
300
CELLSTYLE
  1
TABLEFORMAT_BEGIN
 90
        5
170
     1
 91
        0
 92
        0
 62
   257
 93
        1
300
CONTENTFORMAT
  1
CONTENTFORMAT_BEGIN
 90
        0
 91
        0
 92
      512
 93
        0
300

 40
0.0
140
1.0
 94
        5
 62
     0
340
11
144
4.5
309
CONTENTFORMAT_END
171
     1
301
MARGIN
  1
CELLMARGIN_BEGIN
 40
1.5
 40
1.5
 40
1.5
 40
1.5
 40
0.18
 40
0.18
309
CELLMARGIN_END
 94
        6
 95
        1
302
GRIDFORMAT
  1
GRIDFORMAT_BEGIN
 90
        0
 91
        1
 62
     0
 92
       -2
340
14
 93
        0
 40
1.125
309
GRIDFORMAT_END
 95
        2
302
GRIDFORMAT
  1
GRIDFORMAT_BEGIN
 90
        0
 91
        1
 62
     0
 92
       -2
340
14
 93
        0
 40
1.125
309
GRIDFORMAT_END
 95
        4
302
GRIDFORMAT
  1
GRIDFORMAT_BEGIN
 90
        0
 91
        1
 62
     0
 92
       -2
340
14
 93
        0
 40
1.125
309
GRIDFORMAT_END
 95
        8
302
GRIDFORMAT
  1
GRIDFORMAT_BEGIN
 90
        0
 91
        1
 62
     0
 92
       -2
340
14
 93
        0
 40
1.125
309
GRIDFORMAT_END
 95
       16
302
GRIDFORMAT
  1
GRIDFORMAT_BEGIN
 90
        0
 91
        1
 62
     0
 92
       -2
340
14
 93
        0
 40
1.125
309
GRIDFORMAT_END
 95
       32
302
GRIDFORMAT
  1
GRIDFORMAT_BEGIN
 90
        0
 91
        1
 62
     0
 92
       -2
340
14
 93
        0
 40
1.125
309
GRIDFORMAT_END
309
TABLEFORMAT_END
  1
CELLSTYLE_BEGIN
 90
        2
 91
        1
300
_HEADER
309
CELLSTYLE_END
300
CELLSTYLE
  1
TABLEFORMAT_BEGIN
 90
        5
170
     1
 91
        0
 92
        0
 62
   257
 93
        1
300
CONTENTFORMAT
  1
CONTENTFORMAT_BEGIN
 90
        0
 91
        0
 92
      512
 93
        0
300

 40
0.0
140
1.0
 94
        2
 62
     0
340
11
144
4.5
309
CONTENTFORMAT_END
171
     1
301
MARGIN
  1
CELLMARGIN_BEGIN
 40
1.5
 40
1.5
 40
1.5
 40
1.5
 40
0.18
 40
0.18
309
CELLMARGIN_END
 94
        6
 95
        1
302
GRIDFORMAT
  1
GRIDFORMAT_BEGIN
 90
        0
 91
        1
 62
     0
 92
       -2
340
14
 93
        0
 40
1.125
309
GRIDFORMAT_END
 95
        2
302
GRIDFORMAT
  1
GRIDFORMAT_BEGIN
 90
        0
 91
        1
 62
     0
 92
       -2
340
14
 93
        0
 40
1.125
309
GRIDFORMAT_END
 95
        4
302
GRIDFORMAT
  1
GRIDFORMAT_BEGIN
 90
        0
 91
        1
 62
     0
 92
       -2
340
14
 93
        0
 40
1.125
309
GRIDFORMAT_END
 95
        8
302
GRIDFORMAT
  1
GRIDFORMAT_BEGIN
 90
        0
 91
        1
 62
     0
 92
       -2
340
14
 93
        0
 40
1.125
309
GRIDFORMAT_END
 95
       16
302
GRIDFORMAT
  1
GRIDFORMAT_BEGIN
 90
        0
 91
        1
 62
     0
 92
       -2
340
14
 93
        0
 40
1.125
309
GRIDFORMAT_END
 95
       32
302
GRIDFORMAT
  1
GRIDFORMAT_BEGIN
 90
        0
 91
        1
 62
     0
 92
       -2
340
14
 93
        0
 40
1.125
309
GRIDFORMAT_END
309
TABLEFORMAT_END
  1
CELLSTYLE_BEGIN
 90
        3
 91
        2
300
_DATA
309
CELLSTYLE_END
  0
ENDSEC
  0
SECTION
  2
ACDSDATA
 70
     2
 71
     8
  0
ACDSSCHEMA
 90
        0
  1
AcDb_Thumbnail_Schema
  2
AcDbDs::ID
280
    10
 91
        8
  2
Thumbnail_Data
280
    15
 91
        0
101
ACDSRECORD
 95
        0
 90
        1
  2
AcDbDs::TreatedAsObjectData
280
     1
291
     1
101
ACDSRECORD
 95
        0
 90
        2
  2
AcDbDs::Legacy
280
     1
291
     1
101
ACDSRECORD
  1
AcDbDs::ID
 90
        3
  2
AcDs:Indexable
280
     1
291
     1
101
ACDSRECORD
  1
AcDbDs::ID
 90
        4
  2
AcDbDs::HandleAttribute
280
     7
282
     1
  0
ACDSSCHEMA
 90
        1
  1
AcDbDs::TreatedAsObjectDataSchema
  2
AcDbDs::TreatedAsObjectData
280
     1
 91
        0
  0
ACDSSCHEMA
 90
        2
  1
AcDbDs::LegacySchema
  2
AcDbDs::Legacy
280
     1
 91
        0
  0
ACDSSCHEMA
 90
        3
  1
AcDbDs::IndexedPropertySchema
  2
AcDs:Indexable
280
     1
 91
        0
  0
ACDSSCHEMA
 90
        4
  1
AcDbDs::HandleAttributeSchema
  2
AcDbDs::HandleAttribute
280
     7
 91
        1
284
     1
  0
ACDSRECORD
 90
        0
  2
AcDbDs::ID
280
    10
320
22
  2
Thumbnail_Data
280
    15
 94
     1364
310
89504E470D0A1A0A0000000D494844520000010000000084080300000048FA052E00000300504C5445212830000000C8C8C80000000000000000000000000000000000000000000000000000330000660000990000CC0000FF0033000033330033660033990033CC0033FF0066000066330066660066990066CC0066FF0099
310
000099330099660099990099CC0099FF00CC0000CC3300CC6600CC9900CCCC00CCFF00FF0000FF3300FF6600FF9900FFCC00FFFF3300003300333300663300993300CC3300FF3333003333333333663333993333CC3333FF3366003366333366663366993366CC3366FF3399003399333399663399993399CC3399FF33CC00
310
33CC3333CC6633CC9933CCCC33CCFF33FF0033FF3333FF6633FF9933FFCC33FFFF6600006600336600666600996600CC6600FF6633006633336633666633996633CC6633FF6666006666336666666666996666CC6666FF6699006699336699666699996699CC6699FF66CC0066CC3366CC6666CC9966CCCC66CCFF66FF0066
310
FF3366FF6666FF9966FFCC66FFFF9900009900339900669900999900CC9900FF9933009933339933669933999933CC9933FF9966009966339966669966999966CC9966FF9999009999339999669999999999CC9999FF99CC0099CC3399CC6699CC9999CCCC99CCFF99FF0099FF3399FF6699FF9999FFCC99FFFFCC0000CC00
310
33CC0066CC0099CC00CCCC00FFCC3300CC3333CC3366CC3399CC33CCCC33FFCC6600CC6633CC6666CC6699CC66CCCC66FFCC9900CC9933CC9966CC9999CC99CCCC99FFCCCC00CCCC33CCCC66CCCC99CCCCCCCCCCFFCCFF00CCFF33CCFF66CCFF99CCFFCCCCFFFFFF0000FF0033FF0066FF0099FF00CCFF00FFFF3300FF3333
310
FF3366FF3399FF33CCFF33FFFF6600FF6633FF6666FF6699FF66CCFF66FFFF9900FF9933FF9966FF9999FF99CCFF99FFFFCC00FFCC33FFCC66FFCC99FFCCCCFFCCFFFFFF00FFFF33FFFF66FFFF99FFFFCCFFFFFF0000000D0D0D1A1A1A2828283535354343435050505D5D5D6B6B6B787878868686939393A1A1A1AEAEAEBB
310
BBBBC9C9C9D6D6D6E4E4E4F1F1F1FFFFFF000000000000000000000000000000000000000000000000000000000000B21171F60000020B4944415478DAEDDD6D7283201080618FE321F7009EAA27E935F85F1335227E62A4B0ECBB9DC98C1F31E1C94A9058681A82200882202E84A88DA70052E2360A0E2E6142C46C96C383
310
AD3EA6E36337F2CD3B2B0440A20E1657C284006E3FC4B9DB5BD36D7E1C4059C50D0000000000404200771E64000000E40410F3009214A0FD3D89B67680B3E7B495D701000000000000000000000000F05A7845FF683703DA214C019CC6B46767BD43A41280BB3FB5775D260049DC1F50F6C75FCC2990AFFC6500642C7F1100
310
39CB5F02405735C0CF69642D3E3F8C0000000000000000009601CAB81C06805300000000000000000000000000000040318088EDCBE107FF15FFBFE2E1F103AC6740FFA7AF0EA0470800000000000000000000000000B008C0FD010050070000000000000000000000000000000000C077001A6F9020030000401340CC0C0A
310
57D6AA03D8BEA96BFB5EAFED596416CB0A3360E7A5A77199FCD1BAC41BC8691EB36A2E6EBFB63A80C50055C1DA3A0052CCB1A42B033EA38FAC59365B39C1491FECEB1403F81273B2876FA8399E55483DC0AA0EB006301298AC0356003B15E65E35FAAE1BB46740F8357890ECDE5A192F02FB27E89B6061E75B2006E093016F
310
0051D70E985AF1A3C38D6B0119B60C0FDA00DCB37D2EB534850100000000003002101963ABC75FD2DF27787F6EE9C5C581A8CC80E8A2079D6441FB5935C0B5FD0F00DA0B007FF719D40796A48C0D0000000049454E44AE426082AE426082
  0
ENDSEC
  0
EOF
