  0
SECTION
  2
HEADER
  9
$ACADVER
  1
AC1021
  9
$ACADMAINTVER
 70
    50
  9
$DWGCODEPAGE
  3
ANSI_1250
  9
$LASTSAVEDBY
  1
zpoupe
  9
$INSBASE
 10
0.0
 20
0.0
 30
0.0
  9
$EXTMIN
 10
1613.802361136478
 20
346.2539472793254
 30
0.0
  9
$EXTMAX
 10
2197.213883573666
 20
826.657985318857
 30
0.0
  9
$LIMMIN
 10
0.0
 20
0.0
  9
$LIMMAX
 10
420.0
 20
297.0
  9
$ORTHOMODE
 70
     1
  9
$REGENMODE
 70
     1
  9
$FILLMODE
 70
     1
  9
$QTEXTMODE
 70
     0
  9
$MIRRTEXT
 70
     1
  9
$LTSCALE
 40
7.0
  9
$ATTMODE
 70
     1
  9
$TEXTSIZE
 40
3.5
  9
$TRACEWID
 40
0.05
  9
$TEXTSTYLE
  7
STANDARD
  9
$CLAYER
  8
GULLY
  9
$CELTYPE
  6
BYLAYER
  9
$CECOLOR
 62
   256
  9
$CELTSCALE
 40
1.0
  9
$DISPSILH
 70
     0
  9
$DIMSCALE
 40
1.0
  9
$DIMASZ
 40
0.12
  9
$DIMEXO
 40
0.05
  9
$DIMDLI
 40
0.5
  9
$DIMRND
 40
0.0
  9
$DIMDLE
 40
0.0
  9
$DIMEXE
 40
0.1
  9
$DIMTP
 40
0.1
  9
$DIMTM
 40
0.1
  9
$DIMTXT
 40
0.12
  9
$DIMCEN
 40
0.0
  9
$DIMTSZ
 40
0.0
  9
$DIMTOL
 70
     0
  9
$DIMLIM
 70
     0
  9
$DIMTIH
 70
     1
  9
$DIMTOH
 70
     1
  9
$DIMSE1
 70
     0
  9
$DIMSE2
 70
     0
  9
$DIMTAD
 70
     0
  9
$DIMZIN
 70
     7
  9
$DIMBLK
  1

  9
$DIMASO
 70
     1
  9
$DIMSHO
 70
     1
  9
$DIMPOST
  1

  9
$DIMAPOST
  1
mm
  9
$DIMALT
 70
     0
  9
$DIMALTD
 70
     2
  9
$DIMALTF
 40
25.4
  9
$DIMLFAC
 40
1.0
  9
$DIMTOFL
 70
     0
  9
$DIMTVP
 40
0.0
  9
$DIMTIX
 70
     0
  9
$DIMSOXD
 70
     0
  9
$DIMSAH
 70
     0
  9
$DIMBLK1
  1

  9
$DIMBLK2
  1

  9
$DIMSTYLE
  2
AM_ANSI
  9
$DIMCLRD
 70
   256
  9
$DIMCLRE
 70
   256
  9
$DIMCLRT
 70
     2
  9
$DIMTFAC
 40
0.71
  9
$DIMGAP
 40
0.06
  9
$DIMJUST
 70
     0
  9
$DIMSD1
 70
     0
  9
$DIMSD2
 70
     0
  9
$DIMTOLJ
 70
     1
  9
$DIMTZIN
 70
     7
  9
$DIMALTZ
 70
     0
  9
$DIMALTTZ
 70
     0
  9
$DIMUPT
 70
     0
  9
$DIMDEC
 70
     4
  9
$DIMTDEC
 70
     4
  9
$DIMALTU
 70
     2
  9
$DIMALTTD
 70
     4
  9
$DIMTXSTY
  7
STANDARD
  9
$DIMAUNIT
 70
     0
  9
$DIMADEC
 70
     0
  9
$DIMALTRND
 40
0.0
  9
$DIMAZIN
 70
     2
  9
$DIMDSEP
 70
    46
  9
$DIMATFIT
 70
     3
  9
$DIMFRAC
 70
     0
  9
$DIMLDRBLK
  1

  9
$DIMLUNIT
 70
     2
  9
$DIMLWD
 70
    -1
  9
$DIMLWE
 70
    -1
  9
$DIMTMOVE
 70
     0
  9
$DIMFXL
 40
1.0
  9
$DIMFXLON
 70
     0
  9
$DIMJOGANG
 40
0.7853981633974483
  9
$DIMTFILL
 70
     0
  9
$DIMTFILLCLR
 70
     0
  9
$DIMARCSYM
 70
     1
  9
$DIMLTYPE
  6
BYBLOCK
  9
$DIMLTEX1
  6
BYBLOCK
  9
$DIMLTEX2
  6
BYBLOCK
  9
$LUNITS
 70
     2
  9
$LUPREC
 70
     1
  9
$SKETCHINC
 40
0.1
  9
$FILLETRAD
 40
0.0
  9
$AUNITS
 70
     0
  9
$AUPREC
 70
     0
  9
$MENU
  1
ACAD
  9
$ELEVATION
 40
0.0
  9
$PELEVATION
 40
0.0
  9
$THICKNESS
 40
0.0
  9
$LIMCHECK
 70
     0
  9
$CHAMFERA
 40
0.0
  9
$CHAMFERB
 40
0.0
  9
$CHAMFERC
 40
0.0
  9
$CHAMFERD
 40
0.0
  9
$SKPOLY
 70
     0
  9
$TDCREATE
 40
2451432.464727303
  9
$TDUCREATE
 40
2451432.423060637
  9
$TDUPDATE
 40
2455951.593078333
  9
$TDUUPDATE
 40
2455951.551411667
  9
$TDINDWG
 40
0.1921184954
  9
$TDUSRTIMER
 40
0.1921101736
  9
$USRTIMER
 70
     1
  9
$ANGBASE
 50
0.0
  9
$ANGDIR
 70
     0
  9
$PDMODE
 70
     0
  9
$PDSIZE
 40
0.0
  9
$PLINEWID
 40
0.0
  9
$SPLFRAME
 70
     0
  9
$SPLINETYPE
 70
     6
  9
$SPLINESEGS
 70
     8
  9
$HANDSEED
  5
4A9B
  9
$SURFTAB1
 70
     6
  9
$SURFTAB2
 70
     6
  9
$SURFTYPE
 70
     6
  9
$SURFU
 70
     6
  9
$SURFV
 70
     6
  9
$UCSBASE
  2

  9
$UCSNAME
  2

  9
$UCSORG
 10
0.0
 20
0.0
 30
0.0
  9
$UCSXDIR
 10
1.0
 20
0.0
 30
0.0
  9
$UCSYDIR
 10
0.0
 20
1.0
 30
0.0
  9
$UCSORTHOREF
  2

  9
$UCSORTHOVIEW
 70
     0
  9
$UCSORGTOP
 10
0.0
 20
0.0
 30
0.0
  9
$UCSORGBOTTOM
 10
0.0
 20
0.0
 30
0.0
  9
$UCSORGLEFT
 10
0.0
 20
0.0
 30
0.0
  9
$UCSORGRIGHT
 10
0.0
 20
0.0
 30
0.0
  9
$UCSORGFRONT
 10
0.0
 20
0.0
 30
0.0
  9
$UCSORGBACK
 10
0.0
 20
0.0
 30
0.0
  9
$PUCSBASE
  2

  9
$PUCSNAME
  2

  9
$PUCSORG
 10
0.0
 20
0.0
 30
0.0
  9
$PUCSXDIR
 10
1.0
 20
0.0
 30
0.0
  9
$PUCSYDIR
 10
0.0
 20
1.0
 30
0.0
  9
$PUCSORTHOREF
  2

  9
$PUCSORTHOVIEW
 70
     0
  9
$PUCSORGTOP
 10
0.0
 20
0.0
 30
0.0
  9
$PUCSORGBOTTOM
 10
0.0
 20
0.0
 30
0.0
  9
$PUCSORGLEFT
 10
0.0
 20
0.0
 30
0.0
  9
$PUCSORGRIGHT
 10
0.0
 20
0.0
 30
0.0
  9
$PUCSORGFRONT
 10
0.0
 20
0.0
 30
0.0
  9
$PUCSORGBACK
 10
0.0
 20
0.0
 30
0.0
  9
$USERI1
 70
     0
  9
$USERI2
 70
     0
  9
$USERI3
 70
     0
  9
$USERI4
 70
     0
  9
$USERI5
 70
     0
  9
$USERR1
 40
0.0
  9
$USERR2
 40
0.0
  9
$USERR3
 40
0.0
  9
$USERR4
 40
0.0
  9
$USERR5
 40
0.0
  9
$WORLDVIEW
 70
     1
  9
$SHADEDGE
 70
     3
  9
$SHADEDIF
 70
    70
  9
$TILEMODE
 70
     1
  9
$MAXACTVP
 70
    16
  9
$PINSBASE
 10
0.0
 20
0.0
 30
0.0
  9
$PLIMCHECK
 70
     0
  9
$PEXTMIN
 10
1.000000000000000E+20
 20
1.000000000000000E+20
 30
1.000000000000000E+20
  9
$PEXTMAX
 10
-1.000000000000000E+20
 20
-1.000000000000000E+20
 30
-1.000000000000000E+20
  9
$PLIMMIN
 10
0.0
 20
0.0
  9
$PLIMMAX
 10
417.0
 20
288.0
  9
$UNITMODE
 70
     0
  9
$VISRETAIN
 70
     0
  9
$PLINEGEN
 70
     0
  9
$PSLTSCALE
 70
     0
  9
$TREEDEPTH
 70
  3020
  9
$CMLSTYLE
  2
STANDARD
  9
$CMLJUST
 70
     0
  9
$CMLSCALE
 40
1.0
  9
$PROXYGRAPHICS
 70
     1
  9
$MEASUREMENT
 70
     0
  9
$CELWEIGHT
370
    -1
  9
$ENDCAPS
280
     0
  9
$JOINSTYLE
280
     0
  9
$LWDISPLAY
290
     0
  9
$INSUNITS
 70
     0
  9
$HYPERLINKBASE
  1

  9
$STYLESHEET
  1

  9
$XEDIT
290
     1
  9
$CEPSNTYPE
380
     0
  9
$PSTYLEMODE
290
     1
  9
$FINGERPRINTGUID
  2

  9
$VERSIONGUID
  2
{B5A39A0A-EC77-48A1-B652-4EB29AE0C1B2}
  9
$EXTNAMES
290
     1
  9
$PSVPSCALE
 40
0.0
  9
$OLESTARTUP
290
     0
  9
$SORTENTS
280
   127
  9
$INDEXCTL
280
     0
  9
$HIDETEXT
280
     0
  9
$XCLIPFRAME
290
     0
  9
$HALOGAP
280
     0
  9
$OBSCOLOR
 70
   257
  9
$OBSLTYPE
280
     0
  9
$INTERSECTIONDISPLAY
280
     0
  9
$INTERSECTIONCOLOR
 70
   257
  9
$DIMASSOC
280
     1
  9
$PROJECTNAME
  1

  9
$CAMERADISPLAY
290
     0
  9
$LENSLENGTH
 40
50.0
  9
$CAMERAHEIGHT
 40
0.0
  9
$STEPSPERSEC
 40
2.0
  9
$STEPSIZE
 40
6.0
  9
$3DDWFPREC
 40
2.0
  9
$PSOLWIDTH
 40
0.25
  9
$PSOLHEIGHT
 40
4.0
  9
$LOFTANG1
 40
1.570796326794896
  9
$LOFTANG2
 40
1.570796326794896
  9
$LOFTMAG1
 40
0.0
  9
$LOFTMAG2
 40
0.0
  9
$LOFTPARAM
 70
     7
  9
$LOFTNORMALS
280
     1
  9
$LATITUDE
 40
37.795
  9
$LONGITUDE
 40
-122.394
  9
$NORTHDIRECTION
 40
0.0
  9
$TIMEZONE
 70
 -8000
  9
$LIGHTGLYPHDISPLAY
280
     1
  9
$TILEMODELIGHTSYNCH
280
     1
  9
$CMATERIAL
347
738
  9
$SOLIDHIST
280
     1
  9
$SHOWHIST
280
     1
  9
$DWFFRAME
280
     2
  9
$DGNFRAME
280
     0
  9
$REALWORLDSCALE
290
     1
  9
$INTERFERECOLOR
 62
     1
  9
$INTERFEREOBJVS
345
75A
  9
$INTERFEREVPVS
346
757
  9
$CSHADOW
280
     0
  9
$SHADOWPLANELOCATION
 40
0.0
  0
ENDSEC
  0
SECTION
  2
CLASSES
  0
CLASS
  1
DICTIONARYVAR
  2
AcDbDictionaryVar
  3
ObjectDBX Classes
 90
        0
 91
        7
280
     0
281
     0
  0
CLASS
  1
ACDBDICTIONARYWDFLT
  2
AcDbDictionaryWithDefault
  3
ObjectDBX Classes
 90
        0
 91
        1
280
     0
281
     0
  0
CLASS
  1
TABLESTYLE
  2
AcDbTableStyle
  3
ObjectDBX Classes
 90
     4095
 91
        1
280
     0
281
     0
  0
CLASS
  1
SORTENTSTABLE
  2
AcDbSortentsTable
  3
ObjectDBX Classes
 90
        0
 91
        1
280
     0
281
     0
  0
CLASS
  1
MATERIAL
  2
AcDbMaterial
  3
ObjectDBX Classes
 90
     1153
 91
        3
280
     0
281
     0
  0
CLASS
  1
VISUALSTYLE
  2
AcDbVisualStyle
  3
ObjectDBX Classes
 90
     4095
 91
       19
280
     0
281
     0
  0
CLASS
  1
SCALE
  2
AcDbScale
  3
ObjectDBX Classes
 90
     1153
 91
       33
280
     0
281
     0
  0
CLASS
  1
MLEADERSTYLE
  2
AcDbMLeaderStyle
  3
ACDB_MLEADERSTYLE_CLASS
 90
     4095
 91
        1
280
     0
281
     0
  0
CLASS
  1
ACME_DOCUMENT
  2
AcMeDbDoc
  3
AcMeServices
 90
     1024
 91
        1
280
     0
281
     0
  0
CLASS
  1
AMGSETTINGSOBJ
  2
AmgSettingsObj
  3
"AcadM|Product Description: AutoCAD Mechanical|Company: Autodesk, Inc."
 90
     1024
 91
        2
280
     0
281
     0
  0
CLASS
  1
AMGOBJPROPCFG
  2
AmgObjPropCfg
  3
"AmgLay|Product Description: AutoCAD Mechanical|Company: Autodesk, Inc."
 90
     1025
 91
        1
280
     0
281
     0
  0
CLASS
  1
ACMESCOPE
  2
AcMeScope
  3
AcMeServices
 90
     1024
 91
        1
280
     0
281
     0
  0
CLASS
  1
ACMECOMMANDHISTORY
  2
AcMeCommandHistory
  3
AcMeServices
 90
     1024
 91
        1
280
     0
281
     0
  0
CLASS
  1
ACIMSYSVARMAN
  2
AcImSysVarManager
  3
AcMeServices
 90
     1024
 91
        5
280
     0
281
     0
  0
CLASS
  1
ACIMINTSYSVAR
  2
AcImIntSysVar
  3
AcMeServices
 90
     1024
 91
       27
280
     0
281
     0
  0
CLASS
  1
ACMEDRAWINGMAN
  2
AcMeDrawingMan
  3
AcMeServices
 90
     1024
 91
        1
280
     0
281
     0
  0
CLASS
  1
ACMEVIEW
  2
AcMeView
  3
AcMeServices
 90
     1024
 91
        1
280
     0
281
     0
  0
CLASS
  1
ACDBENTITYCACHE
  2
AcMeEntityCache
  3
AcMeServices
 90
     1024
 91
        1
280
     0
281
     0
  0
CLASS
  1
GSMANAGER
  2
AcMeGSManager
  3
AcMeServices
 90
     1024
 91
        0
280
     0
281
     0
  0
CLASS
  1
AMDTINTERNALREACTOR
  2
AmdtInternalReactor
  3
AcMeServices
 90
     1024
 91
        1
280
     0
281
     0
  0
CLASS
  1
ACMESTATEMGR
  2
AcMeStateMgr
  3
AcMeServices
 90
     1024
 91
        1
280
     0
281
     0
  0
CLASS
  1
ACGREFMASTER
  2
AcGrefMaster
  3
AcAttribServices
 90
     1024
 91
        1
280
     0
281
     0
  0
CLASS
  1
AM_DRAWING_MGR
  2
AcDmDwgMgr
  3
AcMechDwgViewMgmt
 90
     1024
 91
        1
280
     0
281
     0
  0
CLASS
  1
AM_DWG_DOCUMENT
  2
AcDmDwgDocument
  3
AcMechDwgViewMgmt
 90
     1024
 91
        1
280
     0
281
     0
  0
CLASS
  1
AM_DWG_SHEET
  2
AcDmSheet
  3
AcMechDwgViewMgmt
 90
     1024
 91
        1
280
     0
281
     0
  0
CLASS
  1
AM_VIEWDIMPARMAP
  2
AcDmViewDimParMap
  3
AcMechDwgViewMgmt
 90
     1024
 91
        1
280
     0
281
     0
  0
CLASS
  1
ACIMREALSYSVAR
  2
AcImRealSysVar
  3
AcMeServices
 90
     1024
 91
        1
280
     0
281
     0
  0
CLASS
  1
AM_DWGMGR_NAME
  2
AcDmDwgMgrName
  3
AcMechDwgViewMgmt
 90
     1024
 91
        1
280
     0
281
     0
  0
CLASS
  1
ACME_DATABASE
  2
AcMeDbDatabase
  3
AcMeServices
 90
     1024
 91
        2
280
     0
281
     0
  0
CLASS
  1
ACRFINSADJUSTERMGR
  2
AcRfInsAdjusterMgr
  3
AcMeServices
 90
     1024
 91
        1
280
     0
281
     0
  0
CLASS
  1
ACGREFACADMASTER
  2
AcGrefacadMaster
  3
AcGrefServices
 90
     1024
 91
        1
280
     0
281
     0
  0
CLASS
  1
AMDTMENUSTATEMGR
  2
AmdtMenuStateMgr
  3
McadcomServices
 90
     1024
 91
        1
280
     0
281
     0
  0
CLASS
  1
AMDTMCOMMENUSTATE
  2
AmdtMcomMenuState
  3
McadcomServices
 90
     1024
 91
        1
280
     0
281
     0
  0
CLASS
  1
AMIMASTER
  2
AmiMaster
  3
AmiServices
 90
     1024
 91
        1
280
     0
281
     0
  0
CLASS
  1
MAPIAMMOUDLE
  2
MApiAmModule
  3
MApiAmServices
 90
     1024
 91
        1
280
     0
281
     0
  0
CLASS
  1
ACIMSTRSYSVAR
  2
AcImStrSysVar
  3
AcMeServices
 90
     1024
 91
        5
280
     0
281
     0
  0
CLASS
  1
AMDTADMENUSTATE
  2
AmdtAdMenuState
  3
DesignerServices
 90
     1024
 91
        1
280
     0
281
     0
  0
CLASS
  1
ADAPPL
  2
AcAdAppl
  3
DesignerServices
 90
     1024
 91
        1
280
     0
281
     0
  0
CLASS
  1
DEPMGR
  2
AcAdDepMgr
  3
DesignerServices
 90
     1024
 91
        1
280
     0
281
     0
  0
CLASS
  1
PARAMMGR
  2
AcAdParamMgr
  3
DesignerServices
 90
     1024
 91
        1
280
     0
281
     0
  0
CLASS
  1
PARAMSCOPE
  2
AcAdParamScope
  3
DesignerServices
 90
     1024
 91
        1
280
     0
281
     0
  0
CLASS
  1
NAMEDAPPL
  2
AcAdNamedAppl
  3
DesignerServices
 90
     1024
 91
        1
280
     0
281
     0
  0
CLASS
  1
AMDTDMMENUSTATE
  2
AmdtDmMenuState
  3
AcMechDwgViewMgmt
 90
     1024
 91
        1
280
     0
281
     0
  0
CLASS
  1
AMDTAMMENUSTATE
  2
AmdtAmMenuState
  3
DesignerAssemblies
 90
     1024
 91
        1
280
     0
281
     0
  0
CLASS
  1
ACAMPROJECT
  2
AcAmProject
  3
DesignerAssemblies
 90
     1024
 91
        1
280
     0
281
     0
  0
CLASS
  1
ACAMGRCOMPDEF
  2
AcAmGrCompDef
  3
DesignerAssemblies
 90
     1024
 91
        1
280
     0
281
     0
  0
CLASS
  1
ACCMCONTEXT
  2
AcCmContext
  3
DesignerAssemblies
 90
     1024
 91
        0
280
     0
281
     0
  0
CLASS
  1
ACAMCOMPDEF
  2
AcAmCompDef
  3
DesignerAssemblies
 90
     1024
 91
        1
280
     0
281
     0
  0
CLASS
  1
ACAMCOMPDEFMGR
  2
AcAmCompDefMgr
  3
DesignerAssemblies
 90
     1024
 91
        1
280
     0
281
     0
  0
CLASS
  1
AMCONTEXTMGR
  2
AcAmContextMgr
  3
DesignerAssemblies
 90
     1024
 91
        1
280
     0
281
     0
  0
CLASS
  1
ACAMCONTEXTMODELER
  2
AcAmContextModeler
  3
DesignerAssemblies
 90
     1024
 91
        1
280
     0
281
     0
  0
CLASS
  1
ACMDATADICTIONARY
  2
AcmDataDictionary
  3
"AcmSymBB|Product Description: AutoCAD Mechanical|Company: Autodesk, Inc."
 90
     1024
 91
        1
280
     0
281
     0
  0
CLASS
  1
CATALOGSTATE
  2
AcAmCatalogState
  3
DesignerAssemblies
 90
     1024
 91
        1
280
     0
281
     0
  0
CLASS
  1
ACAMGRCOMPDEFSET
  2
AcAmGrCompDefSet
  3
DesignerAssemblies
 90
     1024
 91
        1
280
     0
281
     0
  0
CLASS
  1
AMDTBROWSERDBTAB
  2
AmdtBrowserDbTab
  3
McadcomServices
 90
     1024
 91
        1
280
     0
281
     0
  0
CLASS
  1
CBROWSERAPPOBJECT
  2
CBrowserAppObject
  3
McadcomServices
 90
     1024
 91
        2
280
     0
281
     0
  0
CLASS
  1
DM_PLACEHOLDER
  2
AcDmSelsetPlaceholder
  3
AcMechDwgViewMgmt
 90
     1024
 91
        1
280
     0
281
     0
  0
CLASS
  1
EXACXREFPANELOBJECT
  2
ExAcXREFPanelObject
  3
EXAC_ESW
 90
     1025
 91
        0
280
     0
281
     0
  0
CLASS
  1
NPOCOLLECTION
  2
AcDbImpNonPersistentObjectsCollection
  3
ObjectDBX Classes
 90
     1153
 91
        1
280
     0
281
     0
  0
CLASS
  1
ACMSTANDARDANSI
  2
AcmStandardANSI
  3
"Amdt_StdImp|Product Description: AutoCAD Mechanical|Company: Autodesk, Inc."
 90
     1024
 91
        1
280
     0
281
     0
  0
CLASS
  1
ACMSURFSTANDARDANSI
  2
AcmSurfTextStdANSI
  3
"Amdt_StdImp|Product Description: AutoCAD Mechanical|Company: Autodesk, Inc."
 90
     1024
 91
        1
280
     0
281
     0
  0
CLASS
  1
ACMFCFSTANDARDANSI
  2
AcmFCFStdANSI
  3
"Amdt_StdImp|Product Description: AutoCAD Mechanical|Company: Autodesk, Inc."
 90
     1024
 91
        1
280
     0
281
     0
  0
CLASS
  1
ACMWELDSTANDARDANSI
  2
AcmWeldingStdANSI
  3
"Amdt_StdImp|Product Description: AutoCAD Mechanical|Company: Autodesk, Inc."
 90
     1024
 91
        1
280
     0
281
     0
  0
CLASS
  1
ACMIDSTANDARDANSI
  2
AcmIdStdANSI
  3
"Amdt_StdImp|Product Description: AutoCAD Mechanical|Company: Autodesk, Inc."
 90
     1024
 91
        1
280
     0
281
     0
  0
CLASS
  1
ACMDATUMSTANDARDANSI
  2
AcmDatumStdANSI
  3
"Amdt_StdImp|Product Description: AutoCAD Mechanical|Company: Autodesk, Inc."
 90
     1024
 91
        1
280
     0
281
     0
  0
CLASS
  1
ACMBOMSTANDARDANSI
  2
AcmBOMStdANSI
  3
"Amdt_StdImp|Product Description: AutoCAD Mechanical|Company: Autodesk, Inc."
 90
     1024
 91
        1
280
     0
281
     0
  0
CLASS
  1
ACMDETAILSTANDARDANSI
  2
AmdtDetailSymStdANSI
  3
"Amdt_StdImp|Product Description: AutoCAD Mechanical|Company: Autodesk, Inc."
 90
     1024
 91
        1
280
     0
281
     0
  0
CLASS
  1
ACMSECTIONSTANDARDANSI
  2
AmdtSectionSymStdANSI
  3
"Amdt_StdImp|Product Description: AutoCAD Mechanical|Company: Autodesk, Inc."
 90
     1024
 91
        1
280
     0
281
     0
  0
CLASS
  1
ACMCENTERLINESTANDARDANSI
  2
AmdtCenterLineStdANSI
  3
"Amdt_StdImp|Product Description: AutoCAD Mechanical|Company: Autodesk, Inc."
 90
     1024
 91
        1
280
     0
281
     0
  0
CLASS
  1
ACMTHREADLINESTANDARDANSI
  2
AmdtThreadLineStdANSI
  3
"Amdt_StdImp|Product Description: AutoCAD Mechanical|Company: Autodesk, Inc."
 90
     1024
 91
        1
280
     0
281
     0
  0
CLASS
  1
ACMNOTESTANDARDANSI
  2
AmdtNoteStdANSI
  3
"Amdt_StdImp|Product Description: AutoCAD Mechanical|Company: Autodesk, Inc."
 90
     1024
 91
        1
280
     0
281
     0
  0
CLASS
  1
ACMTAPERSTANDARDANSI
  2
AcmTaperStdANSI
  3
"Amdt_StdImp|Product Description: AutoCAD Mechanical|Company: Autodesk, Inc."
 90
     1024
 91
        1
280
     0
281
     0
  0
CLASS
  1
ACMANOOTATIONVIEWSTANDARDANSI
  2
AmdtAnViewStdANSI
  3
"Amdt_StdImp|Product Description: AutoCAD Mechanical|Company: Autodesk, Inc."
 90
     1024
 91
        1
280
     0
281
     0
  0
CLASS
  1
ACAMGLAYSTD
  2
AcAmgLayStd
  3
"AmgLay|Product Description: AutoCAD Mechanical|Company: Autodesk, Inc."
 90
     1024
 91
        2
280
     0
281
     0
  0
CLASS
  1
ACAMGDIMSTD
  2
AcAmgDimStd
  3
"AmgDim|Product Description: AutoCAD Mechanical|Company: Autodesk, Inc."
 90
     1024
 91
        2
280
     0
281
     0
  0
CLASS
  1
ACAMGHOLECHARTSTDANSI
  2
AcAmgHoleChartStdANSI
  3
AmgDim|Product Description: AutoCAD Mechanical|Company: Autodesk, Inc.
 90
     1024
 91
        1
280
     0
281
     0
  0
CLASS
  1
ACAMGTITLESTD
  2
AcAmgTitleStd
  3
"AmgTitle|Product Description: AutoCAD Mechanical|Company: Autodesk, Inc."
 90
     4095
 91
        2
280
     0
281
     0
  0
CLASS
  1
AMDTNOTETEMPLATEDB
  2
AmdtNoteTemplateDB
  3
AcmSymBB|Product Description: AutoCAD Mechanical|Company: Autodesk, Inc.
 90
     1024
 91
       12
280
     0
281
     0
  0
CLASS
  1
ACAMGFILTERDAT
  2
AcAmgFilterDat
  3
"AcadM|Product Description: AutoCAD Mechanical|Company: Autodesk, Inc."
 90
     1024
 91
        0
280
     0
281
     0
  0
CLASS
  1
CELLSTYLEMAP
  2
AcDbCellStyleMap
  3
ObjectDBX Classes
 90
     1152
 91
        3
280
     0
281
     0
  0
CLASS
  1
AEC_REFEDIT_STATUS_TRACKER
  2
AecDbRefEditStatusTracker
  3
AecArchBase60|Product Desc: Autodesk Architectural Desktop 2007 |Company: Autodesk,Inc. |WEB Address: www.autodesk.com
 90
      129
 91
        1
280
     0
281
     0
  0
CLASS
  1
CAMSSTRUCTBTNSTATE
  2
StructBtnState
  3
DesignerAssemblies
 90
     1024
 91
        0
280
     0
281
     0
  0
CLASS
  1
ACMSTANDARDISO
  2
AcmStandardISO
  3
"Amdt_StdImp|Product Description: AutoCAD Mechanical|Company: Autodesk, Inc."
 90
     1024
 91
        1
280
     0
281
     0
  0
CLASS
  1
ACMSURFSTANDARDISO2002
  2
AcmSurfTextStdISO2002
  3
"Amdt_StdImp|Product Description: AutoCAD Mechanical|Company: Autodesk, Inc."
 90
     1024
 91
        1
280
     0
281
     0
  0
CLASS
  1
ACMFCFSTANDARDISO
  2
AcmFCFStdISO
  3
"Amdt_StdImp|Product Description: AutoCAD Mechanical|Company: Autodesk, Inc."
 90
     1024
 91
        1
280
     0
281
     0
  0
CLASS
  1
ACMWELDSTANDARDISO
  2
AcmWeldingStdISO
  3
"Amdt_StdImp|Product Description: AutoCAD Mechanical|Company: Autodesk, Inc."
 90
     1024
 91
        1
280
     0
281
     0
  0
CLASS
  1
ACMIDSTANDARDISO
  2
AcmIdStdISO
  3
"Amdt_StdImp|Product Description: AutoCAD Mechanical|Company: Autodesk, Inc."
 90
     1024
 91
        1
280
     0
281
     0
  0
CLASS
  1
ACMDATUMSTANDARDISO
  2
AcmDatumStdISO
  3
"Amdt_StdImp|Product Description: AutoCAD Mechanical|Company: Autodesk, Inc."
 90
     1024
 91
        1
280
     0
281
     0
  0
CLASS
  1
ACMBOMSTANDARDISO
  2
AcmBOMStdISO
  3
"Amdt_StdImp|Product Description: AutoCAD Mechanical|Company: Autodesk, Inc."
 90
     1024
 91
        1
280
     0
281
     0
  0
CLASS
  1
ACMDETAILSTANDARDISO
  2
AmdtDetailSymStdISO
  3
"Amdt_StdImp|Product Description: AutoCAD Mechanical|Company: Autodesk, Inc."
 90
     1024
 91
        1
280
     0
281
     0
  0
CLASS
  1
ACMSECTIONSTANDARDISO2001
  2
AmdtSectionSymStdISO2001
  3
"Amdt_StdImp|Product Description: AutoCAD Mechanical|Company: Autodesk, Inc."
 90
     1024
 91
        1
280
     0
281
     0
  0
CLASS
  1
ACMCENTERLINESTANDARDISO
  2
AmdtCenterLineStdISO
  3
"Amdt_StdImp|Product Description: AutoCAD Mechanical|Company: Autodesk, Inc."
 90
     1024
 91
        1
280
     0
281
     0
  0
CLASS
  1
ACMNOTESTANDARDISO
  2
AmdtNoteStdISO
  3
"Amdt_StdImp|Product Description: AutoCAD Mechanical|Company: Autodesk, Inc."
 90
     1024
 91
        1
280
     0
281
     0
  0
CLASS
  1
ACAMGHOLECHARTSTDISO
  2
AcAmgHoleChartStdISO
  3
AmgDim|Product Description: AutoCAD Mechanical|Company: Autodesk, Inc.
 90
     1024
 91
        1
280
     0
281
     0
  0
CLASS
  1
ACMTHREADLINESTANDARDISO
  2
AmdtThreadLineStdISO
  3
"Amdt_StdImp|Product Description: AutoCAD Mechanical|Company: Autodesk, Inc."
 90
     1024
 91
        1
280
     0
281
     0
  0
CLASS
  1
ACMTAPERSTANDARDISO
  2
AcmTaperStdISO
  3
"Amdt_StdImp|Product Description: AutoCAD Mechanical|Company: Autodesk, Inc."
 90
     1024
 91
        1
280
     0
281
     0
  0
CLASS
  1
ACMANOOTATIONVIEWSTANDARDISO
  2
AmdtAnViewStdISO
  3
"Amdt_StdImp|Product Description: AutoCAD Mechanical|Company: Autodesk, Inc."
 90
     1024
 91
        1
280
     0
281
     0
  0
CLASS
  1
AMDTEDGESTANDARDISO13715
  2
AmdtEdgeStdISO13715
  3
"Amdt_StdImp|Product Description: AutoCAD Mechanical|Company: Autodesk, Inc."
 90
     1024
 91
        1
280
     0
281
     0
  0
CLASS
  1
ACMDATAENTRYBLOCK
  2
AcmDataEntryBlock
  3
AcmSymBB|Product Description: AutoCAD Mechanical|Company: Autodesk, Inc.
 90
     1024
 91
        0
280
     0
281
     0
  0
CLASS
  1
DIMASSOC
  2
AcDbDimAssoc
  3
"AcDbDimAssoc|Product Desc:     AcDim ARX App For Dimension|Company:          Autodesk, Inc.|WEB Address:      www.autodesk.com"
 90
        0
 91
        0
280
     0
281
     0
  0
ENDSEC
  0
SECTION
  2
TABLES
  0
TABLE
  2
VPORT
  5
1B4
330
0
100
AcDbSymbolTable
 70
     1
  0
VPORT
  5
736
330
1B4
100
AcDbSymbolTableRecord
100
AcDbViewportTableRecord
  2
*Active
 70
     0
 10
0.0
 20
0.0
 11
1.0
 21
1.0
 12
2143.552857320919
 22
585.4116360717555
 13
0.0
 23
0.0
 14
10.0
 24
10.0
 15
20.0
 25
20.0
 16
0.0
 26
0.0
 36
1.0
 17
0.0
 27
0.0
 37
0.0
 40
154.8710702713138
 41
2.042437431991294
 42
50.0
 43
0.0
 44
0.0
 50
0.0
 51
0.0
 71
     0
 72
   100
 73
     1
 74
     1
 75
     0
 76
     0
 77
     0
 78
     0
281
     0
 65
     0
110
0.0
120
0.0
130
0.0
111
1.0
121
0.0
131
0.0
112
0.0
122
1.0
132
0.0
 79
     0
146
0.0
348
756
 60
     3
 61
     5
292
     1
282
     1
141
0.0
142
0.0
 63
   250
421
  3355443
  0
ENDTAB
  0
TABLE
  2
LTYPE
  5
1AF
330
0
100
AcDbSymbolTable
 70
    27
  0
LTYPE
  5
1B0
330
1AF
100
AcDbSymbolTableRecord
100
AcDbLinetypeTableRecord
  2
BYBLOCK
 70
     0
  3

 72
    65
 73
     0
 40
0.0
  0
LTYPE
  5
1B1
330
1AF
100
AcDbSymbolTableRecord
100
AcDbLinetypeTableRecord
  2
BYLAYER
 70
     0
  3

 72
    65
 73
     0
 40
0.0
  0
LTYPE
  5
8
330
1AF
100
AcDbSymbolTableRecord
100
AcDbLinetypeTableRecord
  2
CONTINUOUS
 70
     0
  3
Solid line
 72
    65
 73
     0
 40
0.0
  0
LTYPE
  5
77
330
1AF
100
AcDbSymbolTableRecord
100
AcDbLinetypeTableRecord
  2
AUSGEZOGEN
 70
     0
  3
Ausgezogene Linie
 72
    65
 73
     0
 40
0.0
  0
LTYPE
  5
2F
330
1AF
100
AcDbSymbolTableRecord
100
AcDbLinetypeTableRecord
  2
STRICHPUNKT
 70
     0
  3
__ . __ . __ . __ . __ . __ . __ . __ . __ . __
 72
    65
 73
     4
 40
1.0
 49
0.5
 74
     0
 49
-0.25
 74
     0
 49
0.0
 74
     0
 49
-0.25
 74
     0
  0
LTYPE
  5
794
330
1AF
100
AcDbSymbolTableRecord
100
AcDbLinetypeTableRecord
  2
Amconstr
 70
     0
  3
_______________________
 72
    65
 73
     2
 40
9999.0
 49
9999.0
 74
     0
 49
0.0
 74
     0
  0
LTYPE
  5
7C9
330
1AF
100
AcDbSymbolTableRecord
100
AcDbLinetypeTableRecord
  2
HIDDEN
 70
     0
  3
Skrytá __ __ __ __ __ __ __ __ __ __ __ __ __ __
 72
    65
 73
     2
 40
0.375
 49
0.25
 74
     0
 49
-0.125
 74
     0
  0
LTYPE
  5
7CA
330
1AF
100
AcDbSymbolTableRecord
100
AcDbLinetypeTableRecord
  2
PHANTOM2
 70
     0
  3
Sdružená (.5x) ___ _ _ ___ _ _ ___ _ _ ___ _ _
 72
    65
 73
     6
 40
1.25
 49
0.625
 74
     0
 49
-0.125
 74
     0
 49
0.125
 74
     0
 49
-0.125
 74
     0
 49
0.125
 74
     0
 49
-0.125
 74
     0
  0
LTYPE
  5
7CB
330
1AF
100
AcDbSymbolTableRecord
100
AcDbLinetypeTableRecord
  2
CENTER
 70
     0
  3
Středová ____ _ ____ _ ____ _ ____ _ ____ _ ____
 72
    65
 73
     4
 40
2.0
 49
1.25
 74
     0
 49
-0.25
 74
     0
 49
0.25
 74
     0
 49
-0.25
 74
     0
  0
LTYPE
  5
81D
330
1AF
100
AcDbSymbolTableRecord
100
AcDbLinetypeTableRecord
  2
CENTER2
 70
     0
  3
Center (.5x) ___ _ ___ _ ___ _ ___ _ ___ _ ___
 72
    65
 73
     4
 40
1.125
 49
0.75
 74
     0
 49
-0.125
 74
     0
 49
0.125
 74
     0
 49
-0.125
 74
     0
  0
LTYPE
  5
81E
330
1AF
100
AcDbSymbolTableRecord
100
AcDbLinetypeTableRecord
  2
HIDDEN2
 70
     0
  3
Hidden (.5x) _ _ _ _ _ _ _ _ _ _ _ _ _ _ _ _ _
 72
    65
 73
     2
 40
0.1875
 49
0.125
 74
     0
 49
-0.0625
 74
     0
  0
LTYPE
  5
81F
330
1AF
100
AcDbSymbolTableRecord
100
AcDbLinetypeTableRecord
  2
Amzigzag2
 70
     0
  3
/\/-/\/-/\/-/\/-/\/-/\/
 72
    65
 73
     2
 40
0.4401
 49
0.0001
 74
     4
 75
   136
340
798
 46
0.0016
 50
0.0
 44
0.0
 45
0.0
 49
-0.4400000000000003
 74
     0
  0
LTYPE
  5
821
330
1AF
100
AcDbSymbolTableRecord
100
AcDbLinetypeTableRecord
  2
ACANSTGB
 70
     0
  3
__ . . __ . .
 72
    65
 73
     6
 40
0.35433070866
 49
0.15748031496
 74
     0
 49
-0.03937007874
 74
     0
 49
0.03937007874
 74
     0
 49
-0.03937007874
 74
     0
 49
0.03937007874
 74
     0
 49
-0.03937007874
 74
     0
  0
LTYPE
  5
822
330
1AF
100
AcDbSymbolTableRecord
100
AcDbLinetypeTableRecord
  2
ACANSTGL
 70
     0
  3
_ _ _ _ _
 72
    65
 73
     2
 40
0.11811023622
 49
0.07874015748
 74
     0
 49
-0.03937007874
 74
     0
  0
LTYPE
  5
8F8
330
1AF
100
AcDbSymbolTableRecord
100
AcDbLinetypeTableRecord
  2
AM_ISO02W050
 70
     0
  3
__ __ __ __ __ __ __ __ __ __ __ __ __ __ __
 72
    65
 73
     2
 40
7.5
 49
6.0
 74
     0
 49
-1.5
 74
     0
  0
LTYPE
  5
8F9
330
1AF
100
AcDbSymbolTableRecord
100
AcDbLinetypeTableRecord
  2
AM_ISO08W050
 70
     0
  3
____ . ____ . ____ . ____ . ____ . ____ . ____
 72
    65
 73
     4
 40
18.0
 49
12.0
 74
     0
 49
-1.5
 74
     0
 49
3.0
 74
     0
 49
-1.5
 74
     0
  0
LTYPE
  5
8FA
330
1AF
100
AcDbSymbolTableRecord
100
AcDbLinetypeTableRecord
  2
AM_ISO09W050
 70
     0
  3
_____ . . _____ . . _____ . . ____ .. ____
 72
    65
 73
     6
 40
22.5
 49
12.0
 74
     0
 49
-1.5
 74
     0
 49
3.0
 74
     0
 49
-1.5
 74
     0
 49
3.0
 74
     0
 49
-1.5
 74
     0
  0
LTYPE
  5
8FB
330
1AF
100
AcDbSymbolTableRecord
100
AcDbLinetypeTableRecord
  2
AM_ISO08W050x2
 70
     0
  3
__ . __ . __ . __ . __ . __
 72
    65
 73
     4
 40
9.0
 49
6.0
 74
     0
 49
-0.75
 74
     0
 49
1.5
 74
     0
 49
-0.75
 74
     0
  0
LTYPE
  5
8FC
330
1AF
100
AcDbSymbolTableRecord
100
AcDbLinetypeTableRecord
  2
AM_ISO02W050x2
 70
     0
  3
 _ _ _ _ _ _ _ _ _ _ _ _
 72
    65
 73
     2
 40
3.75
 49
3.0
 74
     0
 49
-0.75
 74
     0
  0
LTYPE
  5
8FD
330
1AF
100
AcDbSymbolTableRecord
100
AcDbLinetypeTableRecord
  2
Amzigzag
 70
     0
  3
/\/-/\/-/\/-/\/-/\/-/\/
 72
    65
 73
     2
 40
11.0001
 49
0.0001
 74
     4
 75
   136
340
798
 46
0.04
 50
0.0
 44
0.0
 45
0.0
 49
-11.0
 74
     0
  0
LTYPE
  5
91F
330
1AF
100
AcDbSymbolTableRecord
100
AcDbLinetypeTableRecord
  2
ACAD_ISO10W100
 70
     0
  3
ISO dash dot __ . __ . __ . __ . __ . __ . __ .
 72
    65
 73
     4
 40
18.0
 49
12.0
 74
     0
 49
-3.0
 74
     0
 49
0.0
 74
     0
 49
-3.0
 74
     0
  0
LTYPE
  5
C94
330
1AF
100
AcDbSymbolTableRecord
100
AcDbLinetypeTableRecord
  2
ACISOWELD
 70
     0
  3
_ _ _ _ _
 72
    65
 73
     2
 40
2.0
 49
2.0
 74
     0
 49
-1.0
 74
     0
  0
LTYPE
  5
C95
330
1AF
100
AcDbSymbolTableRecord
100
AcDbLinetypeTableRecord
  2
ACISOTGB
 70
     0
  3
__ . . __ . .
 72
    65
 73
     6
 40
9.0
 49
4.0
 74
     0
 49
-1.0
 74
     0
 49
1.0
 74
     0
 49
-1.0
 74
     0
 49
1.0
 74
     0
 49
-1.0
 74
     0
  0
LTYPE
  5
C96
330
1AF
100
AcDbSymbolTableRecord
100
AcDbLinetypeTableRecord
  2
ACISOTGL
 70
     0
  3
_ _ _ _ _
 72
    65
 73
     2
 40
3.0
 49
2.0
 74
     0
 49
-1.0
 74
     0
  0
LTYPE
  5
C97
330
1AF
100
AcDbSymbolTableRecord
100
AcDbLinetypeTableRecord
  2
GESTRICHELT
 70
     0
  3
__ __ __ __ __ __ __ __ __ __ __ __ __ __ __ __
 72
    65
 73
     2
 40
0.75
 49
0.5
 74
     0
 49
-0.25
 74
     0
  0
LTYPE
  5
1908
330
1AF
100
AcDbSymbolTableRecord
100
AcDbLinetypeTableRecord
  2
DASHDOT
 70
     0
  3
Dash dot __ . __ . __ . __ . __ . __ . __ . __
 72
    65
 73
     4
 40
25.4
 49
12.7
 74
     0
 49
-6.349999999999997
 74
     0
 49
0.0
 74
     0
 49
-6.349999999999997
 74
     0
  0
LTYPE
  5
4918
330
1AF
100
AcDbSymbolTableRecord
100
AcDbLinetypeTableRecord
  2
CHAIN
 70
     0
  3
Chain ____ _ ____ _ ____ _ ____ _ ____ _ ____
 72
    65
 73
     4
 40
0.3543
 49
0.2362
 74
     0
 49
-0.0295
 74
     0
 49
0.0591
 74
     0
 49
-0.0295
 74
     0
  0
LTYPE
  5
4919
330
1AF
100
AcDbSymbolTableRecord
100
AcDbLinetypeTableRecord
  2
DASH_DOT
 70
     0
  3
Dash dot _._._._._._._._._._._._._._._.
 72
    65
 73
     4
 40
0.182
 49
0.1181
 74
     0
 49
-0.0295
 74
     0
 49
0.0049
 74
     0
 49
-0.0295
 74
     0
  0
LTYPE
  5
491A
330
1AF
100
AcDbSymbolTableRecord
100
AcDbLinetypeTableRecord
  2
DASHED_SPACE
 70
     0
  3
Dashed Space __ __ __ __ __ __ __ __ __ __ __ _
 72
    65
 73
     2
 40
0.2067
 49
0.1654
 74
     0
 49
-0.0413
 74
     0
  0
ENDTAB
  0
TABLE
  2
LAYER
  5
1AC
102
{ACAD_XDICTIONARY
360
CA7
102
}
330
0
100
AcDbSymbolTable
 70
    29
  0
LAYER
  5
F
102
{ACAD_XDICTIONARY
360
836
102
}
330
1AC
100
AcDbSymbolTableRecord
100
AcDbLayerTableRecord
  2
0
 70
     0
 62
     7
  6
CONTINUOUS
370
    -3
390
5
347
748
  0
LAYER
  5
29
102
{ACAD_XDICTIONARY
360
838
102
}
330
1AC
100
AcDbSymbolTableRecord
100
AcDbLayerTableRecord
  2
SICHTBAR
 70
     0
 62
     7
  6
CONTINUOUS
370
    -3
390
5
347
748
  0
LAYER
  5
2E
102
{ACAD_XDICTIONARY
360
83A
102
}
330
1AC
100
AcDbSymbolTableRecord
100
AcDbLayerTableRecord
  2
MITTE
 70
     0
 62
     1
  6
STRICHPUNKT
370
    -3
390
5
347
748
  0
LAYER
  5
C1
102
{ACAD_XDICTIONARY
360
83C
102
}
330
1AC
100
AcDbSymbolTableRecord
100
AcDbLayerTableRecord
  2
TEXT50
 70
     0
 62
     7
  6
CONTINUOUS
370
    -3
390
5
347
748
  0
LAYER
  5
AE
102
{ACAD_XDICTIONARY
360
83E
102
}
330
1AC
100
AcDbSymbolTableRecord
100
AcDbLayerTableRecord
  2
TEXT35
 70
     0
 62
   143
  6
CONTINUOUS
370
    -3
390
5
347
748
  0
LAYER
  5
B1
102
{ACAD_XDICTIONARY
360
840
102
}
330
1AC
100
AcDbSymbolTableRecord
100
AcDbLayerTableRecord
  2
TEXT25
 70
     0
 62
     3
  6
CONTINUOUS
370
    -3
390
5
347
748
  0
LAYER
  5
76
102
{ACAD_XDICTIONARY
360
842
102
}
330
1AC
100
AcDbSymbolTableRecord
100
AcDbLayerTableRecord
  2
KOPF
 70
     0
 62
    22
  6
AUSGEZOGEN
370
    -3
390
5
347
748
  0
LAYER
  5
4
102
{ACAD_XDICTIONARY
360
844
102
}
330
1AC
100
AcDbSymbolTableRecord
100
AcDbLayerTableRecord
  2
SCHRAFF
 70
     0
 62
     6
  6
CONTINUOUS
370
    -3
390
5
347
748
  0
LAYER
  5
A
102
{ACAD_XDICTIONARY
360
846
102
}
330
1AC
100
AcDbSymbolTableRecord
100
AcDbLayerTableRecord
  2
BEMASS
 70
     0
 62
     3
  6
CONTINUOUS
370
    -3
390
5
347
748
  0
LAYER
  5
73
102
{ACAD_XDICTIONARY
360
848
102
}
330
1AC
100
AcDbSymbolTableRecord
100
AcDbLayerTableRecord
  2
GAIN_ZRA
 70
     0
 62
     7
  6
CONTINUOUS
370
    -3
390
5
347
748
  0
LAYER
  5
16
330
1AC
100
AcDbSymbolTableRecord
100
AcDbLayerTableRecord
  2
DEFPOINTS
 70
     0
 62
     7
  6
CONTINUOUS
290
     0
370
    -3
390
5
347
748
  0
LAYER
  5
1C7
102
{ACAD_XDICTIONARY
360
84A
102
}
330
1AC
100
AcDbSymbolTableRecord
100
AcDbLayerTableRecord
  2
Sperrlayer
 70
     1
 62
     7
  6
CONTINUOUS
370
    50
390
5
347
748
  0
LAYER
  5
920
102
{ACAD_XDICTIONARY
360
921
102
}
330
1AC
100
AcDbSymbolTableRecord
100
AcDbLayerTableRecord
  2
GULLY
 70
     0
 62
   250
420
  1973790
430
PANTONE(R) color bridge CMYK PC$PANTONE Process Black PC
  6
CONTINUOUS
370
    15
390
5
347
748
  0
LAYER
  5
922
102
{ACAD_XDICTIONARY
360
923
102
}
330
1AC
100
AcDbSymbolTableRecord
100
AcDbLayerTableRecord
  2
KOTY_GULLY
 70
     0
 62
   250
420
  1973790
430
PANTONE(R) color bridge CMYK PC$PANTONE Process Black PC
  6
CONTINUOUS
370
     9
390
5
347
748
  0
LAYER
  5
924
330
1AC
100
AcDbSymbolTableRecord
100
AcDbLayerTableRecord
  2
Osa_GULLY
 70
     0
 62
     1
420
 16711680
  6
ACAD_ISO10W100
370
     9
390
5
347
748
1001
ACAECLAYERSTANDARD
1000

1000

  0
LAYER
  5
A1D
330
1AC
100
AcDbSymbolTableRecord
100
AcDbLayerTableRecord
  2
AM_5
 70
     0
 62
     3
  6
CONTINUOUS
370
    15
390
5
347
748
1001
ACAECLAYERSTANDARD
1000

1000

  0
LAYER
  5
C98
330
1AC
100
AcDbSymbolTableRecord
100
AcDbLayerTableRecord
  2
ACO_VISIBLE ( NOTE )
 70
     0
 62
     7
  6
CONTINUOUS
370
    15
390
5
347
748
1001
ACAECLAYERSTANDARD
1000

1000

  0
LAYER
  5
C99
330
1AC
100
AcDbSymbolTableRecord
100
AcDbLayerTableRecord
  2
ACO_MITTE
 70
     0
 62
     1
  6
STRICHPUNKT
370
     9
390
5
347
748
1001
ACAECLAYERSTANDARD
1000

1000

  0
LAYER
  5
C9A
330
1AC
100
AcDbSymbolTableRecord
100
AcDbLayerTableRecord
  2
ACO_DIMENSION
 70
     0
 62
     3
  6
AUSGEZOGEN
370
     9
390
5
347
748
1001
ACAECLAYERSTANDARD
1000

1000

  0
LAYER
  5
C9B
330
1AC
100
AcDbSymbolTableRecord
100
AcDbLayerTableRecord
  2
ACO_HIDDEN
 70
     0
 62
    81
  6
GESTRICHELT
370
     9
390
5
347
748
1001
ACAECLAYERSTANDARD
1000

1000

  0
LAYER
  5
1544
330
1AC
100
AcDbSymbolTableRecord
100
AcDbLayerTableRecord
  2
ACO_HATCH
 70
     0
 62
     6
  6
AUSGEZOGEN
370
     9
390
5
347
748
1001
ACAECLAYERSTANDARD
1000

1000

  0
LAYER
  5
1545
330
1AC
100
AcDbSymbolTableRecord
100
AcDbLayerTableRecord
  2
ACO_ONLY FOR TRANSPORT
 70
     0
 62
     7
  6
CONTINUOUS
370
     9
390
5
347
748
1001
ACAECLAYERSTANDARD
1000

1000

  0
LAYER
  5
1909
102
{ACAD_XDICTIONARY
360
190A
102
}
330
1AC
100
AcDbSymbolTableRecord
100
AcDbLayerTableRecord
  2
P-0005
 70
     0
 62
     7
  6
CONTINUOUS
370
     9
390
5
347
748
  0
LAYER
  5
491B
330
1AC
100
AcDbSymbolTableRecord
100
AcDbLayerTableRecord
  2
Kóta (ISO)
 70
     0
 62
     5
420
      255
  6
CONTINUOUS
370
     9
390
5
347
748
  0
LAYER
  5
491C
330
1AC
100
AcDbSymbolTableRecord
100
AcDbLayerTableRecord
  2
Neviditelná tenká (ISO)
 70
     0
 62
   142
420
    32960
  6
DASHED_SPACE
370
     9
390
5
347
748
  0
LAYER
  5
491D
330
1AC
100
AcDbSymbolTableRecord
100
AcDbLayerTableRecord
  2
Osa (ISO)
 70
     0
 62
     1
420
 16711680
  6
DASH_DOT
370
     9
390
5
347
748
  0
LAYER
  5
491E
330
1AC
100
AcDbSymbolTableRecord
100
AcDbLayerTableRecord
  2
Skrytá (ISO)
 70
     0
 62
   142
420
    32960
  6
DASHED_SPACE
370
     9
390
5
347
748
  0
LAYER
  5
491F
330
1AC
100
AcDbSymbolTableRecord
100
AcDbLayerTableRecord
  2
Viditelná (ISO)
 70
     0
 62
     7
  6
CONTINUOUS
370
    35
390
5
347
748
  0
LAYER
  5
4920
330
1AC
100
AcDbSymbolTableRecord
100
AcDbLayerTableRecord
  2
Viditelná tenká (ISO)
 70
     0
 62
     7
  6
CONTINUOUS
370
     9
390
5
347
748
  0
ENDTAB
  0
TABLE
  2
STYLE
  5
1AD
330
0
100
AcDbSymbolTable
 70
    13
  0
STYLE
  5
C
330
1AD
100
AcDbSymbolTableRecord
100
AcDbTextStyleTableRecord
  2
STANDARD
 70
     0
 40
0.0
 41
0.8
 50
0.0
 71
     0
 42
3.5
  3
SIMPLEX.SHX
  4

  0
STYLE
  5
C2
330
1AD
100
AcDbSymbolTableRecord
100
AcDbTextStyleTableRecord
  2
TEXT50
 70
     0
 40
5.0
 41
0.8
 50
0.0
 71
     0
 42
5.0
  3
isocp3.shx
  4

  0
STYLE
  5
9A
330
1AD
100
AcDbSymbolTableRecord
100
AcDbTextStyleTableRecord
  2
BEMSTIL
 70
     0
 40
3.5
 41
0.8
 50
0.0
 71
     0
 42
3.5
  3
simplex.shx
  4

  0
STYLE
  5
AF
330
1AD
100
AcDbSymbolTableRecord
100
AcDbTextStyleTableRecord
  2
TEXT35
 70
     0
 40
3.5
 41
0.8
 50
0.0
 71
     0
 42
3.5
  3
isocp3.shx
  4

  0
STYLE
  5
7F
330
1AD
100
AcDbSymbolTableRecord
100
AcDbTextStyleTableRecord
  2
TEXT25
 70
     0
 40
2.5
 41
0.8
 50
0.0
 71
     0
 42
2.5
  3
isocp3.shx
  4

  0
STYLE
  5
175
330
1AD
100
AcDbSymbolTableRecord
100
AcDbTextStyleTableRecord
  2
ROMANS8
 70
     0
 40
2.1
 41
0.7
 50
0.0
 71
     0
 42
2.1
  3
ROMANS8.SHX
  4
bigfont.shx
  0
STYLE
  5
B2
330
1AD
100
AcDbSymbolTableRecord
100
AcDbTextStyleTableRecord
  2
TEXT20
 70
     0
 40
2.0
 41
0.8
 50
0.0
 71
     0
 42
2.0
  3
isocp3.shx
  4

  0
STYLE
  5
17B
330
1AD
100
AcDbSymbolTableRecord
100
AcDbTextStyleTableRecord
  2
ITALICC8
 70
     0
 40
3.0
 41
0.8
 50
0.0
 71
     0
 42
3.0
  3
italicc8
  4

  0
STYLE
  5
798
330
1AD
100
AcDbSymbolTableRecord
100
AcDbTextStyleTableRecord
  2

 70
     1
 40
0.0
 41
1.0
 50
0.0
 71
     0
 42
3.5
  3
genltshp.shx
  4

  0
STYLE
  5
820
330
1AD
100
AcDbSymbolTableRecord
100
AcDbTextStyleTableRecord
  2
ACANSGDT
 70
     0
 40
0.0
 41
1.0
 50
0.0
 71
     0
 42
3.5
  3
amgdt.shx
  4

  0
STYLE
  5
8FF
330
1AD
100
AcDbSymbolTableRecord
100
AcDbTextStyleTableRecord
  2
ACANSTS
 70
     0
 40
1.0
 41
1.0
 50
0.0
 71
     0
 42
3.5
  3
romans.shx
  4

  0
STYLE
  5
C9C
330
1AD
100
AcDbSymbolTableRecord
100
AcDbTextStyleTableRecord
  2
ACISOGDT
 70
     0
 40
0.0
 41
1.0
 50
0.0
 71
     0
 42
2.5
  3
amgdt.shx
  4

  0
STYLE
  5
C9D
330
1AD
100
AcDbSymbolTableRecord
100
AcDbTextStyleTableRecord
  2
Text poznámky (ISO)
 70
     0
 40
0.0
 41
1.0
 50
0.0
 71
     0
 42
0.2
  3
TAHOMA.TTF
  4

1001
ACAD
1000
Tahoma
1071
      256
  0
ENDTAB
  0
TABLE
  2
VIEW
  5
1B2
330
0
100
AcDbSymbolTable
 70
     0
  0
ENDTAB
  0
TABLE
  2
UCS
  5
1B3
330
0
100
AcDbSymbolTable
 70
     0
  0
ENDTAB
  0
TABLE
  2
APPID
  5
1B6
330
0
100
AcDbSymbolTable
 70
    35
  0
APPID
  5
1B7
330
1B6
100
AcDbSymbolTableRecord
100
AcDbRegAppTableRecord
  2
ACAD
 70
     0
  0
APPID
  5
267
330
1B6
100
AcDbSymbolTableRecord
100
AcDbRegAppTableRecord
  2
DCO15
 70
     0
  0
APPID
  5
286
330
1B6
100
AcDbSymbolTableRecord
100
AcDbRegAppTableRecord
  2
ACAD_EXEMPT_FROM_CAD_STANDARDS
 70
     0
  0
APPID
  5
785
330
1B6
100
AcDbSymbolTableRecord
100
AcDbRegAppTableRecord
  2
ACAD_MLEADERVER
 70
     0
  0
APPID
  5
79C
330
1B6
100
AcDbSymbolTableRecord
100
AcDbRegAppTableRecord
  2
MCAD_NO_VIS
 70
     0
  0
APPID
  5
79D
330
1B6
100
AcDbSymbolTableRecord
100
AcDbRegAppTableRecord
  2
ACAD_TEMP_GRAPHIC
 70
     0
  0
APPID
  5
7CD
330
1B6
100
AcDbSymbolTableRecord
100
AcDbRegAppTableRecord
  2
AD_DRAW
 70
     0
  0
APPID
  5
7D0
330
1B6
100
AcDbSymbolTableRecord
100
AcDbRegAppTableRecord
  2
ACATTRIBSERVICES
 70
     0
  0
APPID
  5
7F1
330
1B6
100
AcDbSymbolTableRecord
100
AcDbRegAppTableRecord
  2
DESIGNERASSEMBLIES
 70
     0
  0
APPID
  5
7F7
330
1B6
100
AcDbSymbolTableRecord
100
AcDbRegAppTableRecord
  2
ACADM_DIM_EDIT
 70
     0
  0
APPID
  5
7F8
330
1B6
100
AcDbSymbolTableRecord
100
AcDbRegAppTableRecord
  2
AMDT_DM_ADJ
 70
     0
  0
APPID
  5
829
330
1B6
100
AcDbSymbolTableRecord
100
AcDbRegAppTableRecord
  2
GENIUS_GENSCREG_15
 70
     0
  0
APPID
  5
82A
330
1B6
100
AcDbSymbolTableRecord
100
AcDbRegAppTableRecord
  2
GENIUS_GENODEF_13
 70
     0
  0
APPID
  5
82B
330
1B6
100
AcDbSymbolTableRecord
100
AcDbRegAppTableRecord
  2
GENIUS_GENOBJ-N-SDF_13
 70
     0
  0
APPID
  5
926
330
1B6
100
AcDbSymbolTableRecord
100
AcDbRegAppTableRecord
  2
ACAD_DSTYLE_DIMINSPECT
 70
     0
  0
APPID
  5
927
330
1B6
100
AcDbSymbolTableRecord
100
AcDbRegAppTableRecord
  2
ACAECLAYERSTANDARD
 70
     0
  0
APPID
  5
BF8
330
1B6
100
AcDbSymbolTableRecord
100
AcDbRegAppTableRecord
  2
ACAD_DSTYLE_DIMARC_LENGTH_SYMBOL
 70
     0
  0
APPID
  5
BF9
330
1B6
100
AcDbSymbolTableRecord
100
AcDbRegAppTableRecord
  2
ACAD_DSTYLE_DIM_LINETYPE
 70
     0
  0
APPID
  5
BFA
330
1B6
100
AcDbSymbolTableRecord
100
AcDbRegAppTableRecord
  2
ACAD_DSTYLE_DIM_EXT1_LINETYPE
 70
     0
  0
APPID
  5
BFB
330
1B6
100
AcDbSymbolTableRecord
100
AcDbRegAppTableRecord
  2
ACAD_DSTYLE_DIM_EXT2_LINETYPE
 70
     0
  0
APPID
  5
CA6
330
1B6
100
AcDbSymbolTableRecord
100
AcDbRegAppTableRecord
  2
ACAD_DSTYLE_DIMJOGGED_JOGANGLE_SYMBOL
 70
     0
  0
APPID
  5
10C5
330
1B6
100
AcDbSymbolTableRecord
100
AcDbRegAppTableRecord
  2
GENIUS_GENDTOL_13
 70
     0
  0
APPID
  5
1546
330
1B6
100
AcDbSymbolTableRecord
100
AcDbRegAppTableRecord
  2
GENIUS_GENOBJ-N-CEN_13
 70
     0
  0
APPID
  5
1547
330
1B6
100
AcDbSymbolTableRecord
100
AcDbRegAppTableRecord
  2
GENIUS_GENOENT_13
 70
     0
  0
APPID
  5
1548
330
1B6
100
AcDbSymbolTableRecord
100
AcDbRegAppTableRecord
  2
GENIUS_GENOREF_13
 70
     0
  0
APPID
  5
1549
330
1B6
100
AcDbSymbolTableRecord
100
AcDbRegAppTableRecord
  2
GENIUS_GENOLIS_13
 70
     0
  0
APPID
  5
154A
330
1B6
100
AcDbSymbolTableRecord
100
AcDbRegAppTableRecord
  2
GENIUS_GENOBJ-N-FIL_13
 70
     0
  0
APPID
  5
154B
330
1B6
100
AcDbSymbolTableRecord
100
AcDbRegAppTableRecord
  2
MB--LIB
 70
     0
  0
APPID
  5
154C
330
1B6
100
AcDbSymbolTableRecord
100
AcDbRegAppTableRecord
  2
GENIUS_GENFIL_13
 70
     0
  0
APPID
  5
154D
330
1B6
100
AcDbSymbolTableRecord
100
AcDbRegAppTableRecord
  2
GENIUS_GENOBJ-N-CHA_13
 70
     0
  0
APPID
  5
154E
330
1B6
100
AcDbSymbolTableRecord
100
AcDbRegAppTableRecord
  2
GENIUS_GENOBJ-N-CRS_13
 70
     0
  0
APPID
  5
190C
330
1B6
100
AcDbSymbolTableRecord
100
AcDbRegAppTableRecord
  2
ACAD_DSTYLE_DIMJAG
 70
     0
  0
APPID
  5
190D
330
1B6
100
AcDbSymbolTableRecord
100
AcDbRegAppTableRecord
  2
ACAD_DSTYLE_DIMTALN
 70
     0
  0
APPID
  5
190E
330
1B6
100
AcDbSymbolTableRecord
100
AcDbRegAppTableRecord
  2
ACAD_DSTYLE_DIMBREAK
 70
     0
  0
APPID
  5
20CB
330
1B6
100
AcDbSymbolTableRecord
100
AcDbRegAppTableRecord
  2
ACAD_DSTYLE_DIMRADIAL_EXTENSION
 70
     0
  0
ENDTAB
  0
TABLE
  2
DIMSTYLE
  5
1B8
330
0
100
AcDbSymbolTable
 70
    18
100
AcDbDimStyleTable
 71
     3
340
925
340
810
340
B
  0
DIMSTYLE
105
B
330
1B8
100
AcDbSymbolTableRecord
100
AcDbDimStyleTableRecord
  2
STANDARD
 70
     0
 41
3.5
 42
0.0
 43
7.0
 44
2.0
 73
     0
 74
     0
 77
     1
 78
     8
140
5.0
141
3.0
146
0.875
147
2.0
174
     1
176
   256
177
   256
178
   256
271
     1
272
     1
284
     8
285
     8
286
     8
289
     0
340
C
  0
DIMSTYLE
105
810
102
{ACAD_REACTORS
330
48E9
102
}
330
1B8
100
AcDbSymbolTableRecord
100
AcDbDimStyleTableRecord
  2
AM_ANSI
 70
     0
  4
mm
 41
0.12
 42
0.05
 43
0.5
 44
0.1
 47
0.1
 48
0.1
 78
     7
 79
     2
 90
     1
140
0.12
141
0.0
146
0.71
147
0.06
176
   256
177
   256
178
     2
274
     4
284
     7
340
C
345
1B0
346
1B0
347
1B0
371
    -1
372
    -1
  0
DIMSTYLE
105
811
330
1B8
100
AcDbSymbolTableRecord
100
AcDbDimStyleTableRecord
  2
AM_ANSI$3
 70
     0
  4
mm
 41
0.12
 42
0.05
 43
0.5
 44
0.1
 47
0.1
 48
0.1
 78
     7
 79
     2
 90
     1
140
0.12
141
0.0
146
0.71
147
0.06
176
   256
177
   256
178
     2
274
     4
284
     7
288
     1
289
     0
340
C
345
1B0
346
1B0
347
1B0
371
    -1
372
    -1
  0
DIMSTYLE
105
812
330
1B8
100
AcDbSymbolTableRecord
100
AcDbDimStyleTableRecord
  2
AM_ANSI$4
 70
     0
  4
mm
 41
0.12
 42
0.05
 43
0.5
 44
0.1
 47
0.1
 48
0.1
 78
     7
 79
     2
 90
     1
140
0.12
141
0.0
146
0.71
147
0.06
176
   256
177
   256
178
     2
274
     4
284
     7
340
C
345
1B0
346
1B0
347
1B0
371
    -1
372
    -1
  0
DIMSTYLE
105
813
330
1B8
100
AcDbSymbolTableRecord
100
AcDbDimStyleTableRecord
  2
AM_ANSI$7
 70
     0
  4
mm
 41
0.12
 42
0.05
 43
0.5
 44
0.1
 47
0.1
 48
0.1
 78
     7
 79
     2
 90
     1
140
0.12
141
0.0
146
0.71
147
0.06
176
   256
177
   256
178
     2
274
     4
284
     7
340
C
345
1B0
346
1B0
347
1B0
371
    -1
372
    -1
  0
DIMSTYLE
105
814
330
1B8
100
AcDbSymbolTableRecord
100
AcDbDimStyleTableRecord
  2
AM_ANSI$SF
 70
     0
  4
mm
 41
0.12
 42
0.05
 43
0.5
 44
0.1
 47
0.1
 48
0.1
 75
     1
 76
     1
 78
     7
 79
     2
 90
     1
140
0.12
141
0.0
146
0.71
147
0.06
176
   256
177
   256
178
     2
274
     4
284
     7
340
C
345
1B0
346
1B0
347
1B0
371
    -1
372
    -1
  0
DIMSTYLE
105
819
330
1B8
100
AcDbSymbolTableRecord
100
AcDbDimStyleTableRecord
  2
AM_ANSI$SH
 70
     0
  4
mm
 41
0.12
 42
0.05
 43
0.5
 44
0.1
 47
0.1
 48
0.1
 75
     1
 76
     1
 78
     7
 79
     2
 90
     1
140
0.12
141
0.0
146
0.71
147
0.06
173
     1
176
   256
177
   256
178
     2
274
     4
284
     7
340
C
343
815
345
1B0
346
1B0
347
1B0
371
    -1
372
    -1
  0
DIMSTYLE
105
925
102
{ACAD_REACTORS
330
4A19
102
}
330
1B8
100
AcDbSymbolTableRecord
100
AcDbDimStyleTableRecord
  2
GULLY 1
 70
     0
 40
2.0
 41
1.5
 42
0.0
 43
5.999999999999999
 44
1.0
 45
1.0
 46
10.0
 47
1.0
 48
1.0
 73
     0
 74
     0
 77
     1
 78
     8
140
6.0
143
0.03937
146
1.001485756465366
147
0.762
171
     3
176
   256
177
   256
178
   256
279
     2
284
     8
285
     8
286
     8
340
C
  0
DIMSTYLE
105
A1E
330
1B8
100
AcDbSymbolTableRecord
100
AcDbDimStyleTableRecord
  2
AM_ANSI$0
 70
     0
  4
mm
 41
0.12
 42
0.05
 43
0.5
 44
0.1
 47
0.1
 48
0.1
 78
     7
 79
     2
 90
     1
140
0.12
141
0.0
146
0.71
147
0.06
176
   256
177
   256
178
     2
274
     4
284
     7
340
C
345
1B0
346
1B0
347
1B0
371
    -1
372
    -1
  0
DIMSTYLE
105
C9E
330
1B8
100
AcDbSymbolTableRecord
100
AcDbDimStyleTableRecord
  2
AM_ISO
 70
     0
  4
"
 41
3.5
 42
1.0
 43
10.0
 44
1.0
 47
0.1
 48
0.1
 73
     0
 74
     0
 77
     1
 78
     8
 79
     2
 90
     1
140
3.5
141
0.0
143
0.0393701
146
0.71
147
1.5
172
     1
176
   256
177
   256
178
   140
271
     2
272
     3
274
     4
283
     0
284
     8
340
C
345
1B0
346
1B0
347
1B0
371
    -1
372
    -1
1001
ACAD_DSTYLE_DIMJOGGED_JOGANGLE_SYMBOL
1070
   384
1040
0.7853981633974483
  0
DIMSTYLE
105
C9F
330
1B8
100
AcDbSymbolTableRecord
100
AcDbDimStyleTableRecord
  2
AM_ISO$3
 70
     0
  4
"
 41
3.5
 42
1.0
 43
10.0
 44
1.0
 47
0.1
 48
0.1
 73
     0
 77
     1
 78
     8
 79
     2
 90
     1
140
3.5
141
0.0
143
0.0393701
146
0.71
147
1.5
176
   256
177
   256
178
   140
271
     2
272
     3
274
     4
283
     0
284
     8
288
     1
289
     0
340
C
345
1B0
346
1B0
347
1B0
371
    -1
372
    -1
1001
ACAD_DSTYLE_DIMJOGGED_JOGANGLE_SYMBOL
1070
   384
1040
0.7853981633974483
  0
DIMSTYLE
105
CA0
330
1B8
100
AcDbSymbolTableRecord
100
AcDbDimStyleTableRecord
  2
AM_ISO$4
 70
     0
  4
"
 41
3.5
 42
1.0
 43
10.0
 44
1.0
 47
0.1
 48
0.1
 73
     0
 74
     0
 77
     1
 78
     8
 79
     2
 90
     1
140
3.5
141
0.0
143
0.0393701
146
0.71
147
1.5
172
     1
176
   256
177
   256
178
   140
271
     2
272
     3
274
     4
283
     0
284
     8
340
C
345
1B0
346
1B0
347
1B0
371
    -1
372
    -1
1001
ACAD_DSTYLE_DIMJOGGED_JOGANGLE_SYMBOL
1070
   384
1040
0.7853981633974483
  0
DIMSTYLE
105
CA1
330
1B8
100
AcDbSymbolTableRecord
100
AcDbDimStyleTableRecord
  2
AM_ISO$6
 70
     0
  4
"
 41
3.5
 42
1.0
 43
10.0
 44
1.0
 47
0.1
 48
0.1
 73
     0
 74
     0
 78
     8
 79
     2
 90
     1
140
3.5
141
0.0
143
0.0393701
146
0.71
147
1.5
172
     1
176
   256
177
   256
178
   140
271
     2
272
     3
274
     4
283
     0
284
     8
340
C
345
1B0
346
1B0
347
1B0
371
    -1
372
    -1
1001
ACAD_DSTYLE_DIMJOGGED_JOGANGLE_SYMBOL
1070
   384
1040
0.7853981633974483
  0
DIMSTYLE
105
CA2
330
1B8
100
AcDbSymbolTableRecord
100
AcDbDimStyleTableRecord
  2
AM_ISO$7
 70
     0
  4
"
 41
3.5
 42
1.0
 43
10.0
 44
1.0
 47
0.1
 48
0.1
 73
     0
 74
     0
 77
     1
 78
     8
 79
     2
 90
     1
140
3.5
141
0.0
143
0.0393701
146
0.71
147
1.5
172
     1
176
   256
177
   256
178
   140
271
     2
272
     3
274
     4
283
     0
284
     8
340
C
345
1B0
346
1B0
347
1B0
371
    -1
372
    -1
1001
ACAD_DSTYLE_DIMJOGGED_JOGANGLE_SYMBOL
1070
   384
1040
0.7853981633974483
  0
DIMSTYLE
105
CA3
330
1B8
100
AcDbSymbolTableRecord
100
AcDbDimStyleTableRecord
  2
AM_ISO$SF
 70
     0
  4
"
 41
3.5
 42
1.0
 43
10.0
 44
1.0
 47
0.1
 48
0.1
 73
     0
 74
     0
 75
     1
 76
     1
 77
     1
 78
     8
 79
     2
 90
     1
140
3.5
141
0.0
143
0.0393701
146
0.71
147
1.5
172
     1
176
   256
177
   256
178
   140
271
     2
272
     3
274
     4
283
     0
284
     8
340
C
345
1B0
346
1B0
347
1B0
371
    -1
372
    -1
1001
ACAD_DSTYLE_DIMJOGGED_JOGANGLE_SYMBOL
1070
   384
1040
0.7853981633974483
  0
DIMSTYLE
105
CA4
330
1B8
100
AcDbSymbolTableRecord
100
AcDbDimStyleTableRecord
  2
AM_ISO$SH
 70
     0
  4
"
 41
3.5
 42
1.0
 43
10.0
 44
1.0
 47
0.1
 48
0.1
 73
     0
 74
     0
 75
     1
 76
     1
 77
     1
 78
     8
 79
     2
 90
     1
140
3.5
141
0.0
143
0.0393701
144
2.0
146
0.71
147
1.5
172
     1
173
     1
176
   256
177
   256
178
   140
271
     2
272
     3
274
     4
283
     0
284
     8
340
C
343
815
345
1B0
346
1B0
347
1B0
371
    -1
372
    -1
1001
ACAD_DSTYLE_DIMJOGGED_JOGANGLE_SYMBOL
1070
   384
1040
0.7853981633974483
  0
DIMSTYLE
105
CA5
330
1B8
100
AcDbSymbolTableRecord
100
AcDbDimStyleTableRecord
  2
Výchozí (ISO)
 70
     0
 40
2.0
 41
2.5
 42
0.0
 43
5.999999999999999
 44
1.0
 45
0.00000001
 46
10.0
 73
     0
 74
     0
 77
     1
 78
     8
 79
     2
140
3.5
143
0.03937
146
1.001485756465366
147
0.762
171
     3
172
     1
176
   256
177
   256
178
   256
179
     2
271
     2
272
     2
274
     3
278
    44
284
     8
340
C9D
371
    -1
372
    -1
  0
DIMSTYLE
105
190B
330
1B8
100
AcDbSymbolTableRecord
100
AcDbDimStyleTableRecord
  2
Styl na KATALOG
 70
     0
  4
"
 41
1.5
 42
1.0
 43
10.0
 44
1.0
 47
0.1
 48
0.1
 73
     0
 74
     0
 77
     1
 78
     8
 79
     2
 90
     1
140
6.0
141
0.0
143
0.0393701
146
0.71
147
1.5
172
     1
176
   256
177
   256
178
     7
271
     2
272
     2
283
     0
284
     8
340
C
345
1B0
346
1B0
347
1B0
371
    -1
372
    -1
1001
ACAD_DSTYLE_DIMBREAK
1070
   391
1040
3.75
1001
ACAD_DSTYLE_DIMJAG
1070
   388
1040
1.5
1001
ACAD_DSTYLE_DIMTALN
1070
   392
1070
     0
  0
ENDTAB
  0
TABLE
  2
BLOCK_RECORD
  5
1
330
0
100
AcDbSymbolTable
 70
    62
  0
BLOCK_RECORD
  5
2
102
{ACAD_XDICTIONARY
360
6FD
102
}
330
1
100
AcDbSymbolTableRecord
100
AcDbBlockTableRecord
  2
*MODEL_SPACE
340
1A3
 70
     0
280
     1
281
     0
  0
BLOCK_RECORD
  5
1A5
330
1
100
AcDbSymbolTableRecord
100
AcDbBlockTableRecord
  2
*PAPER_SPACE
340
1AB
 70
     0
280
     1
281
     0
  0
BLOCK_RECORD
  5
74
330
1
100
AcDbSymbolTableRecord
100
AcDbBlockTableRecord
  2
RA_A3_PR
340
0
 70
     0
280
     1
281
     0
  0
BLOCK_RECORD
  5
D
330
1
100
AcDbSymbolTableRecord
100
AcDbBlockTableRecord
  2
*D1
340
0
 70
     0
280
     1
281
     0
  0
BLOCK_RECORD
  5
1C
330
1
100
AcDbSymbolTableRecord
100
AcDbBlockTableRecord
  2
*D2
340
0
 70
     0
280
     1
281
     0
  0
BLOCK_RECORD
  5
60
330
1
100
AcDbSymbolTableRecord
100
AcDbBlockTableRecord
  2
*D3
340
0
 70
     0
280
     1
281
     0
  0
BLOCK_RECORD
  5
18F
330
1
100
AcDbSymbolTableRecord
100
AcDbBlockTableRecord
  2
*D4
340
0
 70
     0
280
     1
281
     0
  0
BLOCK_RECORD
  5
1C8
330
1
100
AcDbSymbolTableRecord
100
AcDbBlockTableRecord
  2
ACO-SF
340
0
 70
     0
280
     1
281
     0
  0
BLOCK_RECORD
  5
268
330
1
100
AcDbSymbolTableRecord
100
AcDbBlockTableRecord
  2
logo_1200
340
0
 70
     0
280
     1
281
     0
  0
BLOCK_RECORD
  5
592
330
1
100
AcDbSymbolTableRecord
100
AcDbBlockTableRecord
  2
*D7
340
0
 70
     0
280
     1
281
     0
  0
BLOCK_RECORD
  5
815
330
1
100
AcDbSymbolTableRecord
100
AcDbBlockTableRecord
  2
GENAXEH
340
0
 70
     0
280
     1
281
     0
  0
BLOCK_RECORD
  5
907
330
1
100
AcDbSymbolTableRecord
100
AcDbBlockTableRecord
  2
*D9
340
0
 70
     0
280
     1
281
     0
  0
BLOCK_RECORD
  5
913
330
1
100
AcDbSymbolTableRecord
100
AcDbBlockTableRecord
  2
*D10
340
0
 70
     0
280
     1
281
     0
  0
BLOCK_RECORD
  5
938
330
1
100
AcDbSymbolTableRecord
100
AcDbBlockTableRecord
  2
*D11
340
0
 70
     0
280
     1
281
     0
  0
BLOCK_RECORD
  5
944
330
1
100
AcDbSymbolTableRecord
100
AcDbBlockTableRecord
  2
*D12
340
0
 70
     0
280
     1
281
     0
  0
BLOCK_RECORD
  5
9C6
330
1
100
AcDbSymbolTableRecord
100
AcDbBlockTableRecord
  2
*D13
340
0
 70
     0
280
     1
281
     0
  0
BLOCK_RECORD
  5
9D2
330
1
100
AcDbSymbolTableRecord
100
AcDbBlockTableRecord
  2
*D14
340
0
 70
     0
280
     1
281
     0
  0
BLOCK_RECORD
  5
9EA
330
1
100
AcDbSymbolTableRecord
100
AcDbBlockTableRecord
  2
*D15
340
0
 70
     0
280
     1
281
     0
  0
BLOCK_RECORD
  5
9F6
330
1
100
AcDbSymbolTableRecord
100
AcDbBlockTableRecord
  2
*D16
340
0
 70
     0
280
     1
281
     0
  0
BLOCK_RECORD
  5
A21
330
1
100
AcDbSymbolTableRecord
100
AcDbBlockTableRecord
  2
*D17
340
0
 70
     0
280
     1
281
     0
  0
BLOCK_RECORD
  5
C64
330
1
100
AcDbSymbolTableRecord
100
AcDbBlockTableRecord
  2
*D18
340
0
 70
     0
280
     1
281
     0
  0
BLOCK_RECORD
  5
C70
330
1
100
AcDbSymbolTableRecord
100
AcDbBlockTableRecord
  2
*D19
340
0
 70
     0
280
     1
281
     0
  0
BLOCK_RECORD
  5
C7C
330
1
100
AcDbSymbolTableRecord
100
AcDbBlockTableRecord
  2
*D20
340
0
 70
     0
280
     1
281
     0
  0
BLOCK_RECORD
  5
C88
330
1
100
AcDbSymbolTableRecord
100
AcDbBlockTableRecord
  2
*D21
340
0
 70
     0
280
     1
281
     0
  0
BLOCK_RECORD
  5
1083
330
1
100
AcDbSymbolTableRecord
100
AcDbBlockTableRecord
  2
*D22
340
0
 70
     0
280
     1
281
     0
  0
BLOCK_RECORD
  5
108F
330
1
100
AcDbSymbolTableRecord
100
AcDbBlockTableRecord
  2
*D23
340
0
 70
     0
280
     1
281
     0
  0
BLOCK_RECORD
  5
109B
330
1
100
AcDbSymbolTableRecord
100
AcDbBlockTableRecord
  2
*D24
340
0
 70
     0
280
     1
281
     0
  0
BLOCK_RECORD
  5
10A7
330
1
100
AcDbSymbolTableRecord
100
AcDbBlockTableRecord
  2
*D25
340
0
 70
     0
280
     1
281
     0
  0
BLOCK_RECORD
  5
1512
330
1
100
AcDbSymbolTableRecord
100
AcDbBlockTableRecord
  2
*D26
340
0
 70
     0
280
     1
281
     0
  0
BLOCK_RECORD
  5
151E
330
1
100
AcDbSymbolTableRecord
100
AcDbBlockTableRecord
  2
*D27
340
0
 70
     0
280
     1
281
     0
  0
BLOCK_RECORD
  5
152A
330
1
100
AcDbSymbolTableRecord
100
AcDbBlockTableRecord
  2
*D28
340
0
 70
     0
280
     1
281
     0
  0
BLOCK_RECORD
  5
1538
330
1
100
AcDbSymbolTableRecord
100
AcDbBlockTableRecord
  2
*D29
340
0
 70
     0
280
     1
281
     0
  0
BLOCK_RECORD
  5
18A0
330
1
100
AcDbSymbolTableRecord
100
AcDbBlockTableRecord
  2
*D30
340
0
 70
     0
280
     1
281
     0
  0
BLOCK_RECORD
  5
18AC
330
1
100
AcDbSymbolTableRecord
100
AcDbBlockTableRecord
  2
*D31
340
0
 70
     0
280
     1
281
     0
  0
BLOCK_RECORD
  5
18B8
330
1
100
AcDbSymbolTableRecord
100
AcDbBlockTableRecord
  2
*D32
340
0
 70
     0
280
     1
281
     0
  0
BLOCK_RECORD
  5
18C6
330
1
100
AcDbSymbolTableRecord
100
AcDbBlockTableRecord
  2
*D33
340
0
 70
     0
280
     1
281
     0
  0
BLOCK_RECORD
  5
18F0
330
1
100
AcDbSymbolTableRecord
100
AcDbBlockTableRecord
  2
*D34
340
0
 70
     0
280
     1
281
     0
  0
BLOCK_RECORD
  5
18FC
330
1
100
AcDbSymbolTableRecord
100
AcDbBlockTableRecord
  2
*D35
340
0
 70
     0
280
     1
281
     0
  0
BLOCK_RECORD
  5
1A2D
330
1
100
AcDbSymbolTableRecord
100
AcDbBlockTableRecord
  2
*D36
340
0
 70
     0
280
     1
281
     0
  0
BLOCK_RECORD
  5
1A39
330
1
100
AcDbSymbolTableRecord
100
AcDbBlockTableRecord
  2
*D37
340
0
 70
     0
280
     1
281
     0
  0
BLOCK_RECORD
  5
1A92
330
1
100
AcDbSymbolTableRecord
100
AcDbBlockTableRecord
  2
*D38
340
0
 70
     0
280
     1
281
     0
  0
BLOCK_RECORD
  5
1B22
330
1
100
AcDbSymbolTableRecord
100
AcDbBlockTableRecord
  2
*D39
340
0
 70
     0
280
     1
281
     0
  0
BLOCK_RECORD
  5
1B54
330
1
100
AcDbSymbolTableRecord
100
AcDbBlockTableRecord
  2
*D40
340
0
 70
     0
280
     1
281
     0
  0
BLOCK_RECORD
  5
1B60
330
1
100
AcDbSymbolTableRecord
100
AcDbBlockTableRecord
  2
*D41
340
0
 70
     0
280
     1
281
     0
  0
BLOCK_RECORD
  5
1B6C
330
1
100
AcDbSymbolTableRecord
100
AcDbBlockTableRecord
  2
*D42
340
0
 70
     0
280
     1
281
     0
  0
BLOCK_RECORD
  5
1B7A
330
1
100
AcDbSymbolTableRecord
100
AcDbBlockTableRecord
  2
*D43
340
0
 70
     0
280
     1
281
     0
  0
BLOCK_RECORD
  5
1F6A
330
1
100
AcDbSymbolTableRecord
100
AcDbBlockTableRecord
  2
*D44
340
0
 70
     0
280
     1
281
     0
  0
BLOCK_RECORD
  5
1F76
330
1
100
AcDbSymbolTableRecord
100
AcDbBlockTableRecord
  2
*D45
340
0
 70
     0
280
     1
281
     0
  0
BLOCK_RECORD
  5
1F82
330
1
100
AcDbSymbolTableRecord
100
AcDbBlockTableRecord
  2
*D46
340
0
 70
     0
280
     1
281
     0
  0
BLOCK_RECORD
  5
1F8E
330
1
100
AcDbSymbolTableRecord
100
AcDbBlockTableRecord
  2
*D47
340
0
 70
     0
280
     1
281
     0
  0
BLOCK_RECORD
  5
1FB8
330
1
100
AcDbSymbolTableRecord
100
AcDbBlockTableRecord
  2
*D48
340
0
 70
     0
280
     1
281
     0
  0
BLOCK_RECORD
  5
209C
330
1
100
AcDbSymbolTableRecord
100
AcDbBlockTableRecord
  2
*D49
340
0
 70
     0
280
     1
281
     0
  0
BLOCK_RECORD
  5
20A8
330
1
100
AcDbSymbolTableRecord
100
AcDbBlockTableRecord
  2
*D50
340
0
 70
     0
280
     1
281
     0
  0
BLOCK_RECORD
  5
20B5
330
1
100
AcDbSymbolTableRecord
100
AcDbBlockTableRecord
  2
*D51
340
0
 70
     0
280
     1
281
     0
  0
BLOCK_RECORD
  5
20C1
330
1
100
AcDbSymbolTableRecord
100
AcDbBlockTableRecord
  2
*D52
340
0
 70
     0
280
     1
281
     0
  0
BLOCK_RECORD
  5
45DF
330
1
100
AcDbSymbolTableRecord
100
AcDbBlockTableRecord
  2
*D53
340
0
 70
     0
280
     1
281
     0
  0
BLOCK_RECORD
  5
45EB
330
1
100
AcDbSymbolTableRecord
100
AcDbBlockTableRecord
  2
*D54
340
0
 70
     0
280
     1
281
     0
  0
BLOCK_RECORD
  5
45F8
330
1
100
AcDbSymbolTableRecord
100
AcDbBlockTableRecord
  2
*D55
340
0
 70
     0
280
     1
281
     0
  0
BLOCK_RECORD
  5
4604
330
1
100
AcDbSymbolTableRecord
100
AcDbBlockTableRecord
  2
*D56
340
0
 70
     0
280
     1
281
     0
  0
BLOCK_RECORD
  5
46BF
330
1
100
AcDbSymbolTableRecord
100
AcDbBlockTableRecord
  2
*D57
340
0
 70
     0
280
     1
281
     0
  0
BLOCK_RECORD
  5
490C
330
1
100
AcDbSymbolTableRecord
100
AcDbBlockTableRecord
  2
*D59
340
0
 70
     0
280
     1
281
     0
  0
BLOCK_RECORD
  5
4A1A
330
1
100
AcDbSymbolTableRecord
100
AcDbBlockTableRecord
  2
*D61
340
0
 70
     0
280
     1
281
     0
  0
ENDTAB
  0
ENDSEC
  0
SECTION
  2
BLOCKS
  0
BLOCK
  5
1A1
330
2
100
AcDbEntity
  8
0
100
AcDbBlockBegin
  2
*MODEL_SPACE
 70
     0
 10
0.0
 20
0.0
 30
0.0
  3
*MODEL_SPACE
  1

  0
ENDBLK
  5
1A2
330
2
100
AcDbEntity
  8
0
100
AcDbBlockEnd
  0
BLOCK
  5
1A9
330
1A5
100
AcDbEntity
 67
     1
  8
0
100
AcDbBlockBegin
  2
*PAPER_SPACE
 70
     0
 10
0.0
 20
0.0
 30
0.0
  3
*PAPER_SPACE
  1

  0
ENDBLK
  5
1AA
330
1A5
100
AcDbEntity
 67
     1
  8
0
100
AcDbBlockEnd
  0
BLOCK
  5
AA
330
74
100
AcDbEntity
  8
0
100
AcDbBlockBegin
  2
RA_A3_PR
 70
     0
 10
0.0
 20
0.0
 30
0.0
  3
RA_A3_PR
  1

  0
LWPOLYLINE
  5
75
330
74
100
AcDbEntity
  8
KOPF
100
AcDbPolyline
 90
        4
 70
     1
 43
0.7
 10
414.0
 20
291.0
 10
414.0
 20
6.0
 10
21.0
 20
6.0
 10
21.0
 20
291.0
  0
LINE
  5
78
330
74
100
AcDbEntity
  8
KOPF
100
AcDbLine
 10
0.0
 20
297.0
 30
0.0
 11
420.0
 21
297.0
 31
0.0
  0
LINE
  5
79
330
74
100
AcDbEntity
  8
KOPF
100
AcDbLine
 10
420.0
 20
0.0
 30
0.0
 11
0.0
 21
0.0
 31
0.0
  0
LINE
  5
7A
330
74
100
AcDbEntity
  8
KOPF
100
AcDbLine
 10
0.0
 20
0.0
 30
0.0
 11
0.0
 21
297.0
 31
0.0
  0
LINE
  5
7B
330
74
100
AcDbEntity
  8
KOPF
100
AcDbLine
 10
21.0
 20
6.0
 30
0.0
 11
18.0
 21
6.0
 31
0.0
  0
LINE
  5
7C
330
74
100
AcDbEntity
  8
KOPF
100
AcDbLine
 10
21.0
 20
6.000000000000056
 30
0.0
 11
19.0
 21
6.000000000000056
 31
0.0
  0
LINE
  5
7D
330
74
100
AcDbEntity
  8
KOPF
100
AcDbLine
 10
21.0
 20
6.000000000000056
 30
0.0
 11
21.0
 21
3.000000000000055
 31
0.0
  0
TEXT
  5
7E
330
74
100
AcDbEntity
  8
KOPF
100
AcDbText
 10
17.47344808643044
 20
41.89443100952639
 30
0.0
 40
2.5
  1
A
 41
0.8
  7
TEXT25
100
AcDbText
  0
LINE
  5
80
330
74
100
AcDbEntity
  8
KOPF
100
AcDbLine
 10
21.0
 20
79.0
 30
0.0
 11
18.0
 21
79.0
 31
0.0
  0
TEXT
  5
81
330
74
100
AcDbEntity
  8
KOPF
100
AcDbText
 10
17.47344808643044
 20
114.8944310095264
 30
0.0
 40
2.5
  1
B
 41
0.8
  7
TEXT25
100
AcDbText
  0
TEXT
  5
82
330
74
100
AcDbEntity
  8
KOPF
100
AcDbText
 10
54.66443874747984
 20
2.709844013406931
 30
0.0
 40
2.5
  1
1
 41
0.8
  7
TEXT25
100
AcDbText
  0
LINE
  5
83
330
74
100
AcDbEntity
  8
KOPF
100
AcDbLine
 10
91.0
 20
6.000000000000056
 30
0.0
 11
91.0
 21
3.000000000000055
 31
0.0
  0
TEXT
  5
84
330
74
100
AcDbEntity
  8
KOPF
100
AcDbText
 10
124.6644387474798
 20
2.709844013406931
 30
0.0
 40
2.5
  1
2
 41
0.8
  7
TEXT25
100
AcDbText
  0
LINE
  5
85
330
74
100
AcDbEntity
  8
KOPF
100
AcDbLine
 10
161.0
 20
6.000000000000056
 30
0.0
 11
161.0
 21
3.000000000000055
 31
0.0
  0
TEXT
  5
86
330
74
100
AcDbEntity
  8
KOPF
100
AcDbText
 10
194.6644387474798
 20
2.709844013406931
 30
0.0
 40
2.5
  1
3
 41
0.8
  7
TEXT25
100
AcDbText
  0
LINE
  5
87
330
74
100
AcDbEntity
  8
KOPF
100
AcDbLine
 10
0.0
 20
151.5
 30
0.0
 11
9.123329060608622
 21
151.5
 31
0.0
  0
LINE
  5
88
330
74
100
AcDbEntity
  8
KOPF
100
AcDbLine
 10
21.0
 20
152.0
 30
0.0
 11
18.0
 21
152.0
 31
0.0
  0
TEXT
  5
89
330
74
100
AcDbEntity
  8
KOPF
100
AcDbText
 10
17.47344808643044
 20
187.8944310095264
 30
0.0
 40
2.5
  1
C
 41
0.8
  7
TEXT25
100
AcDbText
  0
LINE
  5
8A
330
74
100
AcDbEntity
  8
KOPF
100
AcDbLine
 10
21.0
 20
225.0
 30
0.0
 11
18.0
 21
225.0
 31
0.0
  0
TEXT
  5
8B
330
74
100
AcDbEntity
  8
KOPF
100
AcDbText
 10
17.47344808643044
 20
260.8944310095264
 30
0.0
 40
2.5
  1
D
 41
0.8
  7
TEXT25
100
AcDbText
  0
LINE
  5
8C
330
74
100
AcDbEntity
  8
KOPF
100
AcDbLine
 10
21.0
 20
291.0
 30
0.0
 11
21.0
 21
294.0
 31
0.0
  0
LINE
  5
8D
330
74
100
AcDbEntity
  8
KOPF
100
AcDbLine
 10
21.0
 20
291.0
 30
0.0
 11
19.0
 21
291.0
 31
0.0
  0
TEXT
  5
8E
330
74
100
AcDbEntity
  8
KOPF
100
AcDbText
 10
54.66443874747984
 20
292.3535859362725
 30
0.0
 40
2.5
  1
1
 41
0.8
  7
TEXT25
100
AcDbText
  0
LINE
  5
8F
330
74
100
AcDbEntity
  8
KOPF
100
AcDbLine
 10
91.0
 20
291.0
 30
0.0
 11
91.0
 21
294.0
 31
0.0
  0
TEXT
  5
90
330
74
100
AcDbEntity
  8
KOPF
100
AcDbText
 10
124.6644387474798
 20
292.3535859362725
 30
0.0
 40
2.5
  1
2
 41
0.8
  7
TEXT25
100
AcDbText
  0
LINE
  5
91
330
74
100
AcDbEntity
  8
KOPF
100
AcDbLine
 10
161.0
 20
291.0
 30
0.0
 11
161.0
 21
294.0
 31
0.0
  0
TEXT
  5
92
330
74
100
AcDbEntity
  8
KOPF
100
AcDbText
 10
194.6644387474798
 20
292.3535859362725
 30
0.0
 40
2.5
  1
3
 41
0.8
  7
TEXT25
100
AcDbText
  0
LINE
  5
93
330
74
100
AcDbEntity
  8
KOPF
100
AcDbLine
 10
420.0
 20
297.0
 30
0.0
 11
420.0
 21
0.0
 31
0.0
  0
LINE
  5
94
330
74
100
AcDbEntity
  8
KOPF
100
AcDbLine
 10
231.0
 20
6.000000000000056
 30
0.0
 11
231.0
 21
3.000000000000055
 31
0.0
  0
TEXT
  5
95
330
74
100
AcDbEntity
  8
KOPF
100
AcDbText
 10
264.6644387474798
 20
2.709844013406931
 30
0.0
 40
2.5
  1
4
 41
0.8
  7
TEXT25
100
AcDbText
  0
LINE
  5
96
330
74
100
AcDbEntity
  8
KOPF
100
AcDbLine
 10
413.9999999999998
 20
6.0
 30
0.0
 11
416.9999999999998
 21
6.0
 31
0.0
  0
LINE
  5
97
330
74
100
AcDbEntity
  8
KOPF
100
AcDbLine
 10
413.9999999999998
 20
6.000000000000056
 30
0.0
 11
415.9999999999998
 21
6.000000000000056
 31
0.0
  0
LINE
  5
98
330
74
100
AcDbEntity
  8
KOPF
100
AcDbLine
 10
413.9999999999998
 20
6.000000000000056
 30
0.0
 11
413.9999999999998
 21
3.000000000000055
 31
0.0
  0
TEXT
  5
99
330
74
100
AcDbEntity
  8
KOPF
100
AcDbText
 10
405.4839301100292
 20
1.146414063727603
 30
0.0
 40
3.5
  1
A3
 41
0.8
  7
BEMSTIL
100
AcDbText
  0
TEXT
  5
9B
330
74
100
AcDbEntity
  8
KOPF
100
AcDbText
 10
415.6306257995391
 20
41.89443100952639
 30
0.0
 40
2.5
  1
A
 41
0.8
  7
TEXT25
100
AcDbText
  0
LINE
  5
9C
330
74
100
AcDbEntity
  8
KOPF
100
AcDbLine
 10
413.9999999999998
 20
79.0
 30
0.0
 11
416.9999999999998
 21
79.0
 31
0.0
  0
TEXT
  5
9D
330
74
100
AcDbEntity
  8
KOPF
100
AcDbText
 10
415.8972924662059
 20
114.8944310095264
 30
0.0
 40
2.5
  1
B
 41
0.8
  7
TEXT25
100
AcDbText
  0
LINE
  5
9E
330
74
100
AcDbEntity
  8
KOPF
100
AcDbLine
 10
231.0
 20
291.0
 30
0.0
 11
231.0
 21
294.0
 31
0.0
  0
TEXT
  5
9F
330
74
100
AcDbEntity
  8
KOPF
100
AcDbText
 10
264.6644387474798
 20
292.3535859362725
 30
0.0
 40
2.5
  1
4
 41
0.8
  7
TEXT25
100
AcDbText
  0
LINE
  5
A0
330
74
100
AcDbEntity
  8
KOPF
100
AcDbLine
 10
301.0
 20
291.0
 30
0.0
 11
301.0
 21
294.0
 31
0.0
  0
TEXT
  5
A1
330
74
100
AcDbEntity
  8
KOPF
100
AcDbText
 10
334.6644387474798
 20
292.3535859362725
 30
0.0
 40
2.5
  1
5
 41
0.8
  7
TEXT25
100
AcDbText
  0
LINE
  5
A2
330
74
100
AcDbEntity
  8
KOPF
100
AcDbLine
 10
371.0
 20
291.0
 30
0.0
 11
371.0
 21
294.0
 31
0.0
  0
TEXT
  5
A3
330
74
100
AcDbEntity
  8
KOPF
100
AcDbText
 10
396.6125957292462
 20
292.3535859362725
 30
0.0
 40
2.5
  1
6
 41
0.8
  7
TEXT25
100
AcDbText
  0
LINE
  5
A4
330
74
100
AcDbEntity
  8
KOPF
100
AcDbLine
 10
413.9999999999998
 20
152.0
 30
0.0
 11
416.9999999999998
 21
152.0
 31
0.0
  0
TEXT
  5
A5
330
74
100
AcDbEntity
  8
KOPF
100
AcDbText
 10
415.7639591328726
 20
187.8944310095264
 30
0.0
 40
2.5
  1
C
 41
0.8
  7
TEXT25
100
AcDbText
  0
LINE
  5
A6
330
74
100
AcDbEntity
  8
KOPF
100
AcDbLine
 10
413.9999999999998
 20
225.0
 30
0.0
 11
416.9999999999998
 21
225.0
 31
0.0
  0
TEXT
  5
A7
330
74
100
AcDbEntity
  8
KOPF
100
AcDbText
 10
415.8972924662059
 20
260.8944310095264
 30
0.0
 40
2.5
  1
D
 41
0.8
  7
TEXT25
100
AcDbText
  0
LINE
  5
A8
330
74
100
AcDbEntity
  8
KOPF
100
AcDbLine
 10
413.9999999999998
 20
291.0
 30
0.0
 11
415.9999999999998
 21
291.0
 31
0.0
  0
LINE
  5
A9
330
74
100
AcDbEntity
  8
KOPF
100
AcDbLine
 10
413.9999999999998
 20
291.0
 30
0.0
 11
413.9999999999998
 21
294.0
 31
0.0
  0
ENDBLK
  5
AB
330
74
100
AcDbEntity
  8
0
100
AcDbBlockEnd
  0
BLOCK
  5
19
330
D
100
AcDbEntity
  8
0
100
AcDbBlockBegin
  2
*D1
 70
     1
 10
0.0
 20
0.0
 30
0.0
  3
*D1
  1

  0
LINE
  5
E
330
D
100
AcDbEntity
  8
0
  6
ByBlock
100
AcDbLine
 10
554.8674686520162
 20
-2.276382897591529
 30
0.0
 11
554.8674686520162
 21
-42.02946085243643
 31
0.0
  0
LINE
  5
10
330
D
100
AcDbEntity
  8
0
  6
ByBlock
100
AcDbLine
 10
751.7366287614097
 20
69.42718286379585
 30
0.0
 11
751.7366287614097
 21
-42.02946085243643
 31
0.0
  0
LINE
  5
11
330
D
100
AcDbEntity
  8
0
  6
ByBlock
100
AcDbLine
 10
558.367468652016
 20
-40.02946085243642
 30
0.0
 11
748.2366287614097
 21
-40.02946085243642
 31
0.0
  0
SOLID
  5
12
330
D
100
AcDbEntity
  8
0
  6
ByBlock
100
AcDbTrace
 10
558.367468652016
 20
-39.44612751910311
 30
0.0
 11
558.367468652016
 21
-40.61279418576978
 31
0.0
 12
554.8674686520162
 22
-40.02946085243642
 32
0.0
 13
554.8674686520162
 23
-40.02946085243642
 33
0.0
  0
SOLID
  5
13
330
D
100
AcDbEntity
  8
0
  6
ByBlock
100
AcDbTrace
 10
748.2366287614097
 20
-39.44612751910311
 30
0.0
 11
748.2366287614097
 21
-40.61279418576978
 31
0.0
 12
751.7366287614097
 22
-40.02946085243642
 32
0.0
 13
751.7366287614097
 23
-40.02946085243642
 33
0.0
  0
MTEXT
  5
14
330
D
100
AcDbEntity
  8
0
  6
ByBlock
100
AcDbMText
 10
653.302048706713
 20
-35.52946085243644
 30
0.0
 40
5.0
 41
0.0
 46
0.0
 71
     5
 72
     1
  1
\A1;200
 73
     1
 44
1.0
  0
POINT
  5
15
330
D
100
AcDbEntity
  8
DEFPOINTS
  6
ByBlock
 62
     0
100
AcDbPoint
 10
554.8674686520162
 20
-2.276382897591529
 30
0.0
  0
POINT
  5
17
330
D
100
AcDbEntity
  8
DEFPOINTS
  6
ByBlock
 62
     0
100
AcDbPoint
 10
751.7366287614097
 20
69.42718286379585
 30
0.0
  0
POINT
  5
18
330
D
100
AcDbEntity
  8
DEFPOINTS
  6
ByBlock
 62
     0
100
AcDbPoint
 10
751.7366287614097
 20
-40.02946085243642
 30
0.0
  0
ENDBLK
  5
1A
330
D
100
AcDbEntity
  8
0
100
AcDbBlockEnd
  0
BLOCK
  5
26
330
1C
100
AcDbEntity
  8
0
100
AcDbBlockBegin
  2
*D2
 70
     1
 10
0.0
 20
0.0
 30
0.0
  3
*D2
  1

  0
LINE
  5
1D
330
1C
100
AcDbEntity
  8
0
  6
ByBlock
100
AcDbLine
 10
679.8674686520183
 20
-9.27638289759176
 30
0.0
 11
802.2533166234664
 21
-9.276382897591775
 31
0.0
  0
LINE
  5
1E
330
1C
100
AcDbEntity
  8
0
  6
ByBlock
100
AcDbLine
 10
749.9021769289024
 20
34.42375670068208
 30
0.0
 11
802.2533166234664
 21
34.42375670068207
 31
0.0
  0
LINE
  5
1F
330
1C
100
AcDbEntity
  8
0
  6
ByBlock
100
AcDbLine
 10
800.2533166234664
 20
-5.776382897591772
 30
0.0
 11
800.2533166234664
 21
30.92375670068208
 31
0.0
  0
SOLID
  5
20
330
1C
100
AcDbEntity
  8
0
  6
ByBlock
100
AcDbTrace
 10
799.669983290133
 20
-5.776382897591775
 30
0.0
 11
800.8366499567998
 21
-5.776382897591775
 31
0.0
 12
800.2533166234664
 22
-9.276382897591775
 32
0.0
 13
800.2533166234664
 23
-9.276382897591775
 33
0.0
  0
SOLID
  5
21
330
1C
100
AcDbEntity
  8
0
  6
ByBlock
100
AcDbTrace
 10
799.669983290133
 20
30.92375670068208
 30
0.0
 11
800.8366499567998
 21
30.92375670068208
 31
0.0
 12
800.2533166234664
 22
34.42375670068207
 32
0.0
 13
800.2533166234664
 23
34.42375670068207
 33
0.0
  0
MTEXT
  5
22
330
1C
100
AcDbEntity
  8
0
  6
ByBlock
100
AcDbMText
 10
795.7533166234664
 20
12.57368690154516
 30
0.0
 40
5.0
 41
0.0
 46
0.0
 71
     5
 72
     1
  1
\A1;44
 11
0.0000000000000001
 21
1.0
 31
0.0
 73
     1
 44
1.0
  0
POINT
  5
23
330
1C
100
AcDbEntity
  8
DEFPOINTS
  6
ByBlock
 62
     0
100
AcDbPoint
 10
679.8674686520183
 20
-9.27638289759176
 30
0.0
  0
POINT
  5
24
330
1C
100
AcDbEntity
  8
DEFPOINTS
  6
ByBlock
 62
     0
100
AcDbPoint
 10
749.9021769289024
 20
34.42375670068208
 30
0.0
  0
POINT
  5
25
330
1C
100
AcDbEntity
  8
DEFPOINTS
  6
ByBlock
 62
     0
100
AcDbPoint
 10
800.2533166234664
 20
34.42375670068207
 30
0.0
  0
ENDBLK
  5
27
330
1C
100
AcDbEntity
  8
0
100
AcDbBlockEnd
  0
BLOCK
  5
6A
330
60
100
AcDbEntity
  8
0
100
AcDbBlockBegin
  2
*D3
 70
     1
 10
0.0
 20
0.0
 30
0.0
  3
*D3
  1

  0
LINE
  5
61
330
60
100
AcDbEntity
  8
0
  6
ByBlock
100
AcDbLine
 10
737.9505898582422
 20
-2.552883736888424
 30
0.0
 11
787.9214320801041
 21
-5.173368969699222
 31
0.0
  0
LINE
  5
62
330
60
100
AcDbEntity
  8
0
  6
ByBlock
100
AcDbLine
 10
741.8835727149256
 20
72.44638102973744
 30
0.0
 11
791.8544149367875
 21
69.82589579692663
 31
0.0
  0
LINE
  5
63
330
60
100
AcDbEntity
  8
0
  6
ByBlock
100
AcDbLine
 10
786.1074655560094
 20
-1.573434880099313
 30
0.0
 11
789.6738701102878
 21
66.43543502298654
 31
0.0
  0
SOLID
  5
64
330
60
100
AcDbEntity
  8
0
  6
ByBlock
100
AcDbTrace
 10
785.5249326507146
 20
-1.54288668823226
 30
0.0
 11
786.6899984613042
 21
-1.603983071966375
 31
0.0
 12
785.924176404807
 22
-5.068632311869308
 32
0.0
 13
785.924176404807
 23
-5.068632311869308
 33
0.0
  0
SOLID
  5
65
330
60
100
AcDbEntity
  8
0
  6
ByBlock
100
AcDbTrace
 10
789.0913372049931
 20
66.46598321485363
 30
0.0
 11
790.256403015583
 21
66.40488683111951
 31
0.0
 12
789.8571592614903
 22
69.93063245475656
 32
0.0
 13
789.8571592614903
 23
69.93063245475656
 33
0.0
  0
MTEXT
  5
66
330
60
100
AcDbEntity
  8
0
  6
ByBlock
100
AcDbMText
 10
783.1778830403433
 20
28.49125077607098
 30
0.0
 40
5.0
 41
0.0
 46
0.0
 71
     5
 72
     1
  1
\A1;∅75
 11
0.0523683289149565
 21
0.9986278376485682
 31
0.0
 73
     1
 44
1.0
  0
POINT
  5
67
330
60
100
AcDbEntity
  8
DEFPOINTS
  6
ByBlock
 62
     0
100
AcDbPoint
 10
737.9505898582422
 20
-2.552883736888424
 30
0.0
  0
POINT
  5
68
330
60
100
AcDbEntity
  8
DEFPOINTS
  6
ByBlock
 62
     0
100
AcDbPoint
 10
741.8835727149256
 20
72.44638102973744
 30
0.0
  0
POINT
  5
69
330
60
100
AcDbEntity
  8
DEFPOINTS
  6
ByBlock
 62
     0
100
AcDbPoint
 10
789.8571592614903
 20
69.93063245475656
 30
0.0
  0
ENDBLK
  5
6B
330
60
100
AcDbEntity
  8
0
100
AcDbBlockEnd
  0
BLOCK
  5
199
330
18F
100
AcDbEntity
  8
0
100
AcDbBlockBegin
  2
*D4
 70
     1
 10
0.0
 20
0.0
 30
0.0
  3
*D4
  1

  0
LINE
  5
190
330
18F
100
AcDbEntity
  8
BEMASS
370
    -2
100
AcDbLine
 10
129.2243530924577
 20
149.1252845507329
 30
0.0
 11
129.2243530924577
 21
124.2555906288201
 31
0.0
  0
LINE
  5
191
330
18F
100
AcDbEntity
  8
BEMASS
370
    -2
100
AcDbLine
 10
263.2243530924586
 20
148.808148812195
 30
0.0
 11
263.2243530924586
 21
124.2555906288201
 31
0.0
  0
LINE
  5
192
330
18F
100
AcDbEntity
  8
BEMASS
370
    -2
100
AcDbLine
 10
132.7243530924577
 20
126.2555906288201
 30
0.0
 11
259.7243530924586
 21
126.2555906288201
 31
0.0
  0
SOLID
  5
193
330
18F
100
AcDbEntity
  8
BEMASS
100
AcDbTrace
 10
132.7243530924577
 20
126.8389239621534
 30
0.0
 11
132.7243530924577
 21
125.6722572954867
 31
0.0
 12
129.2243530924577
 22
126.2555906288201
 32
0.0
 13
129.2243530924577
 23
126.2555906288201
 33
0.0
  0
SOLID
  5
194
330
18F
100
AcDbEntity
  8
BEMASS
100
AcDbTrace
 10
259.7243530924586
 20
126.8389239621534
 30
0.0
 11
259.7243530924586
 21
125.6722572954867
 31
0.0
 12
263.2243530924586
 22
126.2555906288201
 32
0.0
 13
263.2243530924586
 23
126.2555906288201
 33
0.0
  0
MTEXT
  5
195
330
18F
100
AcDbEntity
  8
BEMASS
100
AcDbMText
 10
196.224353092458
 20
130.75559062882
 30
0.0
 40
5.0
 41
0.0
 46
0.0
 71
     5
 72
     1
  1
\A1;135-2
 73
     1
 44
1.0
  0
POINT
  5
196
330
18F
100
AcDbEntity
  8
DEFPOINTS
 62
     0
100
AcDbPoint
 10
129.2243530924577
 20
149.1252845507329
 30
0.0
  0
POINT
  5
197
330
18F
100
AcDbEntity
  8
DEFPOINTS
 62
     0
100
AcDbPoint
 10
263.2243530924586
 20
148.808148812195
 30
0.0
  0
POINT
  5
198
330
18F
100
AcDbEntity
  8
DEFPOINTS
 62
     0
100
AcDbPoint
 10
263.2243530924586
 20
126.2555906288201
 30
0.0
  0
ENDBLK
  5
19A
330
18F
100
AcDbEntity
  8
0
100
AcDbBlockEnd
  0
BLOCK
  5
244
330
1C8
100
AcDbEntity
  8
0
100
AcDbBlockBegin
  2
ACO-SF
 70
     2
 10
0.0
 20
0.0
 30
0.0
  3
ACO-SF
  1

  0
LINE
  5
1C9
330
1C8
100
AcDbEntity
  8
KOPF
 62
    12
100
AcDbLine
 10
0.0
 20
5.0
 30
0.0
 11
-83.0
 21
5.0
 31
0.0
  0
LWPOLYLINE
  5
1CA
330
1C8
100
AcDbEntity
  8
KOPF
 62
    12
100
AcDbPolyline
 90
        2
 70
     0
 43
0.5
 10
-83.0
 20
10.0
 10
0.0
 20
10.0
  0
LINE
  5
1CB
330
1C8
100
AcDbEntity
  8
KOPF
100
AcDbLine
 10
-83.0
 20
10.0
 30
0.0
 11
0.0
 21
10.0
 31
0.0
  0
LINE
  5
1CC
330
1C8
100
AcDbEntity
  8
KOPF
100
AcDbLine
 10
0.0
 20
5.0
 30
0.0
 11
-83.0
 21
5.0
 31
0.0
  0
LWPOLYLINE
  5
1CD
330
1C8
100
AcDbEntity
  8
KOPF
 62
    12
100
AcDbPolyline
 90
        2
 70
     0
 43
0.5
 10
0.0
 20
68.49999999999997
 10
-182.0
 20
68.49999999999997
  0
LWPOLYLINE
  5
1CE
330
1C8
100
AcDbEntity
  8
KOPF
 62
    12
100
AcDbPolyline
 90
        2
 70
     0
 43
0.5
 10
0.0
 20
46.99999999999997
 10
-182.0
 20
46.99999999999997
  0
LWPOLYLINE
  5
1CF
330
1C8
100
AcDbEntity
  8
KOPF
 62
    12
100
AcDbPolyline
 90
        2
 70
     0
 43
0.5
 10
-0.2154115848244373
 20
27.23910754630094
 10
-182.1882840408789
 20
27.23910754630094
  0
LINE
  5
1D0
330
1C8
100
AcDbEntity
  8
KOPF
 62
    12
100
AcDbLine
 10
0.0
 20
88.49999999999996
 30
0.0
 11
-182.0
 21
88.49999999999996
 31
0.0
  0
LINE
  5
1D1
330
1C8
100
AcDbEntity
  8
KOPF
 62
    12
100
AcDbLine
 10
-182.0
 20
83.49999999999997
 30
0.0
 11
0.0
 21
83.49999999999997
 31
0.0
  0
LINE
  5
1D2
330
1C8
100
AcDbEntity
  8
KOPF
 62
    12
100
AcDbLine
 10
0.0
 20
73.49999999999997
 30
0.0
 11
-182.0
 21
73.49999999999997
 31
0.0
  0
LINE
  5
1D3
330
1C8
100
AcDbEntity
  8
KOPF
 62
    12
100
AcDbLine
 10
-162.682677
 20
78.49999999999997
 30
0.0
 11
0.0
 21
78.49999999999997
 31
0.0
  0
LINE
  5
1D4
330
1C8
100
AcDbEntity
  8
KOPF
100
AcDbLine
 10
0.0
 20
68.49999999999997
 30
0.0
 11
-182.0
 21
68.49999999999997
 31
0.0
  0
LINE
  5
1D5
330
1C8
100
AcDbEntity
  8
KOPF
100
AcDbLine
 10
0.0
 20
88.49999999999996
 30
0.0
 11
-182.0
 21
88.49999999999996
 31
0.0
  0
LINE
  5
1D6
330
1C8
100
AcDbEntity
  8
KOPF
100
AcDbLine
 10
-182.0
 20
83.49999999999997
 30
0.0
 11
0.0
 21
83.49999999999997
 31
0.0
  0
LINE
  5
1D7
330
1C8
100
AcDbEntity
  8
KOPF
100
AcDbLine
 10
0.0
 20
73.49999999999997
 30
0.0
 11
-182.0
 21
73.49999999999997
 31
0.0
  0
LINE
  5
1D8
330
1C8
100
AcDbEntity
  8
KOPF
100
AcDbLine
 10
-162.682677
 20
78.49999999999997
 30
0.0
 11
0.0
 21
78.49999999999997
 31
0.0
  0
LINE
  5
1D9
330
1C8
100
AcDbEntity
  8
KOPF
 62
    12
100
AcDbLine
 10
-182.0
 20
57.74999999999997
 30
0.0
 11
-100.0
 21
57.74999999999997
 31
0.0
  0
LINE
  5
1DA
330
1C8
100
AcDbEntity
  8
KOPF
 62
    12
100
AcDbLine
 10
-182.0
 20
41.99999999999996
 30
0.0
 11
-113.4
 21
41.99999999999996
 31
0.0
  0
LINE
  5
1DB
330
1C8
100
AcDbEntity
  8
KOPF
100
AcDbLine
 10
-182.0
 20
57.74999999999997
 30
0.0
 11
-100.0
 21
57.74999999999997
 31
0.0
  0
LINE
  5
1DC
330
1C8
100
AcDbEntity
  8
KOPF
100
AcDbLine
 10
-182.0
 20
41.99999999999996
 30
0.0
 11
-113.4
 21
41.99999999999996
 31
0.0
  0
LINE
  5
1DD
330
1C8
100
AcDbEntity
  8
KOPF
 62
    12
100
AcDbLine
 10
-142.0
 20
68.49999999999997
 30
0.0
 11
-142.0
 21
46.99999999999997
 31
0.0
  0
LINE
  5
1DE
330
1C8
100
AcDbEntity
  8
KOPF
 62
    12
100
AcDbLine
 10
-142.0
 20
68.49999999999997
 30
0.0
 11
-142.0
 21
46.99999999999997
 31
0.0
  0
ATTDEF
  5
1DF
330
1C8
100
AcDbEntity
  8
TEXT35
100
AcDbText
 10
-140.2
 20
49.4
 30
0.0
 40
3.5
  1

 41
0.8
  7
TEXT35
100
AcDbAttributeDefinition
  3
Oberfläche:
  2
F63
 70
     0
280
     0
  0
LWPOLYLINE
  5
1E0
330
1C8
100
AcDbEntity
  8
KOPF
 62
    12
100
AcDbPolyline
 90
        2
 70
     0
 43
0.7
 10
-182.0
 20
88.49999999999996
 10
-182.0
 20
0.0
  0
LINE
  5
1E1
330
1C8
100
AcDbEntity
  8
KOPF
100
AcDbLine
 10
-182.0
 20
88.49999999999996
 30
0.0
 11
-182.0
 21
0.0
 31
0.0
  0
TEXT
  5
1E2
330
1C8
100
AcDbEntity
  8
KOPF
100
AcDbText
 10
-179.738589
 20
38.32439403633659
 30
0.0
 40
2.0
  1
Gezeichnet:
 41
0.8
  7
TEXT20
100
AcDbText
  0
ATTDEF
  5
1E3
330
1C8
100
AcDbEntity
  8
TEXT35
100
AcDbText
 10
-176.6
 20
3.399999999999999
 30
0.0
 40
3.5
  1

 41
0.8
  7
TEXT35
100
AcDbAttributeDefinition
  3
Z-Titel 3
  2
F13
 70
     0
280
     0
  0
ATTDEF
  5
1E4
330
1C8
100
AcDbEntity
  8
TEXT50
100
AcDbText
 10
-176.6
 20
10.63250279796295
 30
0.0
 40
5.0
  1

 41
0.8
  7
TEXT50
100
AcDbAttributeDefinition
  3
Z-Titel 2
  2
F3
 70
     0
280
     0
  0
ATTDEF
  5
1E5
330
1C8
100
AcDbEntity
  8
TEXT50
100
AcDbText
 10
-176.6
 20
18.56318324460701
 30
0.0
 40
5.0
  1

 41
0.8
  7
TEXT50
100
AcDbAttributeDefinition
  3
Z-Titel 1
  2
F2
 70
     0
280
     0
  0
TEXT
  5
1E6
330
1C8
100
AcDbEntity
  8
KOPF
100
AcDbText
 10
-179.738589
 20
28.52395361420514
 30
0.0
 40
2.0
  1
Update:
 41
0.8
  7
TEXT20
100
AcDbText
  0
TEXT
  5
1E7
330
1C8
100
AcDbEntity
  8
KOPF
100
AcDbText
 10
-179.738589
 20
33.43577642824449
 30
0.0
 40
2.0
  1
Geprüft
 41
0.8
  7
TEXT20
100
AcDbText
  0
LINE
  5
1E8
330
1C8
100
AcDbEntity
  8
KOPF
 62
    12
100
AcDbLine
 10
-163.0
 20
46.99999999999997
 30
0.0
 11
-163.0
 21
27.0
 31
0.0
  0
LINE
  5
1E9
330
1C8
100
AcDbEntity
  8
KOPF
100
AcDbLine
 10
-163.0
 20
46.99999999999997
 30
0.0
 11
-163.0
 21
27.0
 31
0.0
  0
ATTDEF
  5
1EA
330
1C8
100
AcDbEntity
  8
TEXT25
100
AcDbText
 10
-161.5009557098303
 20
28.32091209119023
 30
0.0
 40
2.0
  1

 41
0.8
  7
TEXT20
100
AcDbAttributeDefinition
  3
Update am:
  2
F53
 70
     0
280
     0
  0
ATTDEF
  5
1EB
330
1C8
100
AcDbEntity
  8
TEXT25
100
AcDbText
 10
-161.5539333606331
 20
33.12227989587696
 30
0.0
 40
2.0
  1

 41
0.8
  7
TEXT20
100
AcDbAttributeDefinition
  3
Geprüft am:
  2
F22
 70
     0
280
     0
  0
ATTDEF
  5
1EC
330
1C8
100
AcDbEntity
  8
TEXT25
100
AcDbText
 10
-161.5207141482394
 20
38.33983936444393
 30
0.0
 40
2.0
  1

 41
0.8
  7
TEXT20
100
AcDbAttributeDefinition
  3
Gezeichnet am:
  2
F9
 70
     0
280
     0
  0
TEXT
  5
1ED
330
1C8
100
AcDbEntity
  8
KOPF
100
AcDbText
 10
-155.964455
 20
43.13467299999999
 30
0.0
 40
2.0
  1
Datum
 41
0.8
  7
TEXT20
100
AcDbText
  0
LINE
  5
1EE
330
1C8
100
AcDbEntity
  8
KOPF
 62
    12
100
AcDbLine
 10
-138.4
 20
46.99999999999997
 30
0.0
 11
-138.4
 21
27.0
 31
0.0
  0
LINE
  5
1EF
330
1C8
100
AcDbEntity
  8
KOPF
100
AcDbLine
 10
-138.4
 20
46.99999999999997
 30
0.0
 11
-138.4
 21
27.0
 31
0.0
  0
TEXT
  5
1F0
330
1C8
100
AcDbEntity
  8
KOPF
100
AcDbText
 10
-130.065072
 20
43.14125800000002
 30
0.0
 40
2.0
  1
Name
 41
0.8
  7
TEXT20
100
AcDbText
  0
ATTDEF
  5
1F1
330
1C8
100
AcDbEntity
  8
TEXT25
100
AcDbText
 10
-136.2746977811447
 20
33.28471223400234
 30
0.0
 40
2.0
  1

 41
0.8
  7
TEXT20
100
AcDbAttributeDefinition
  3
Geprüft von:
  2
F21
 70
     0
280
     0
  0
ATTDEF
  5
1F2
330
1C8
100
AcDbEntity
  8
TEXT25
100
AcDbText
 10
-136.3996291720711
 20
28.23101841142455
 30
0.0
 40
2.0
  1

 41
0.8
  7
TEXT20
100
AcDbAttributeDefinition
  3
Update von:
  2
F52
 70
     0
280
     0
  0
ATTDEF
  5
1F3
330
1C8
100
AcDbEntity
  8
TEXT25
100
AcDbText
 10
-136.1922113552417
 20
38.48172579575253
 30
0.0
 40
2.0
  1

 41
0.8
  7
TEXT20
100
AcDbAttributeDefinition
  3
Gezeichnet von
  2
F8
 70
     0
280
     0
  0
TEXT
  5
1F4
330
1C8
100
AcDbEntity
  8
KOPF
100
AcDbText
 10
-174.6925639999999
 20
69.53813999999997
 30
0.0
 40
2.0
  1
Index
 41
0.8
  7
TEXT20
100
AcDbText
  0
LINE
  5
1F5
330
1C8
100
AcDbEntity
  8
KOPF
100
AcDbLine
 10
-182.0
 20
78.49999999999997
 30
0.0
 11
-162.682677
 21
78.49999999999997
 31
0.0
  0
LINE
  5
1F6
330
1C8
100
AcDbEntity
  8
KOPF
100
AcDbLine
 10
-182.0
 20
78.49999999999997
 30
0.0
 11
-162.682677
 21
78.49999999999997
 31
0.0
  0
TEXT
  5
1F7
330
1C8
100
AcDbEntity
  8
KOPF
100
AcDbText
 10
-180.0
 20
65.166273
 30
0.0
 40
2.0
  1
Werkstoff:
 41
0.8
  7
TEXT20
100
AcDbText
  0
TEXT
  5
1F8
330
1C8
100
AcDbEntity
  8
KOPF
100
AcDbText
 10
-181.0
 20
54.49999999999997
 30
0.0
 40
2.0
  1
zul. Abweich.:
 41
0.8
  7
TEXT20
100
AcDbText
  0
ATTDEF
  5
1F9
330
1C8
100
AcDbEntity
  8
TEXT35
100
AcDbText
 10
-179.7
 20
59.6
 30
0.0
 40
3.5
  1

 41
0.8
  7
TEXT35
100
AcDbAttributeDefinition
  3
Werkstoff:
  2
F61
 70
     0
280
     0
  0
ATTDEF
  5
1FA
330
1C8
100
AcDbEntity
  8
TEXT35
100
AcDbText
 10
-179.7
 20
49.7
 30
0.0
 40
3.5
  1

 41
0.8
  7
TEXT35
100
AcDbAttributeDefinition
  3
zul. Abweichung
  2
F62
 70
     0
280
     0
  0
ATTDEF
  5
1FB
330
1C8
100
AcDbEntity
  8
TEXT25
100
AcDbText
 10
-174.360415155955
 20
74.59999999999998
 30
0.0
 40
2.0
  1

 41
0.8
  7
TEXT20
100
AcDbAttributeDefinition
  3
Index vv.:
  2
F72
 70
     0
280
     0
  0
ATTDEF
  5
1FC
330
1C8
100
AcDbEntity
  8
TEXT25
100
AcDbText
 10
-174.4435409453564
 20
79.47378932523601
 30
0.0
 40
2.0
  1

 41
0.8
  7
TEXT20
100
AcDbAttributeDefinition
  3
Index v.:
  2
F68
 70
     0
280
     0
  0
ATTDEF
  5
1FD
330
1C8
100
AcDbEntity
  8
TEXT25
100
AcDbText
 10
-174.3700408782365
 20
84.63034186138365
 30
0.0
 40
2.0
  1

 41
0.8
  7
TEXT20
100
AcDbAttributeDefinition
  3
Index l.:
  2
F64
 70
     0
280
     0
  0
LINE
  5
1FE
330
1C8
100
AcDbEntity
  8
KOPF
100
AcDbLine
 10
-162.682677
 20
88.49999999999996
 30
0.0
 11
-162.682677
 21
68.49999999999997
 31
0.0
  0
LINE
  5
1FF
330
1C8
100
AcDbEntity
  8
KOPF
100
AcDbLine
 10
-162.682677
 20
88.49999999999996
 30
0.0
 11
-162.682677
 21
68.49999999999997
 31
0.0
  0
TEXT
  5
200
330
1C8
100
AcDbEntity
  8
KOPF
100
AcDbText
 10
-156.706568
 20
69.53813999999997
 30
0.0
 40
2.0
  1
Datum
 41
0.8
  7
TEXT20
100
AcDbText
  0
ATTDEF
  5
201
330
1C8
100
AcDbEntity
  8
TEXT25
100
AcDbText
 10
-160.9
 20
75.09999999999998
 30
0.0
 40
2.0
  1

 41
0.8
  7
TEXT20
100
AcDbAttributeDefinition
  3
Datum vv.:
  2
F73
 70
     0
280
     0
  0
ATTDEF
  5
202
330
1C8
100
AcDbEntity
  8
TEXT25
100
AcDbText
 10
-160.9
 20
79.40000000000002
 30
0.0
 40
2.0
  1

 41
0.8
  7
TEXT20
100
AcDbAttributeDefinition
  3
Datum v.:
  2
F69
 70
     0
280
     0
  0
ATTDEF
  5
203
330
1C8
100
AcDbEntity
  8
TEXT25
100
AcDbText
 10
-160.6
 20
84.50000000000001
 30
0.0
 40
2.0
  1

 41
0.8
  7
TEXT20
100
AcDbAttributeDefinition
  3
Datum l.:
  2
F65
 70
     0
280
     0
  0
LINE
  5
204
330
1C8
100
AcDbEntity
  8
KOPF
 62
    12
100
AcDbLine
 10
-142.0
 20
68.49999999999997
 30
0.0
 11
-142.0
 21
88.49999999999996
 31
0.0
  0
LINE
  5
205
330
1C8
100
AcDbEntity
  8
KOPF
100
AcDbLine
 10
-142.0
 20
68.49999999999997
 30
0.0
 11
-142.0
 21
88.49999999999996
 31
0.0
  0
ATTDEF
  5
206
330
1C8
100
AcDbEntity
  8
TEXT35
100
AcDbText
 10
-139.9
 20
59.29999999999999
 30
0.0
 40
3.5
  1

 41
0.8
  7
TEXT35
100
AcDbAttributeDefinition
  3
Gewicht:
  2
F60
 70
     0
280
     0
  0
TEXT
  5
207
330
1C8
100
AcDbEntity
  8
KOPF
100
AcDbText
 10
-140.387393
 20
54.54752599999996
 30
0.0
 40
2.0
  1
Oberfläche
 41
0.8
  7
TEXT20
100
AcDbText
  0
TEXT
  5
208
330
1C8
100
AcDbEntity
  8
KOPF
100
AcDbText
 10
-140.1020469999999
 20
65.166273
 30
0.0
 40
2.0
  1
Gewicht:
 41
0.8
  7
TEXT20
100
AcDbText
  0
TEXT
  5
209
330
1C8
100
AcDbEntity
  8
KOPF
100
AcDbText
 10
-140.1020469999999
 20
65.166273
 30
0.0
 40
2.0
  1
Gewicht:
 41
0.8
  7
TEXT20
100
AcDbText
  0
ATTDEF
  5
20A
330
1C8
100
AcDbEntity
  8
TEXT25
100
AcDbText
 10
-140.4
 20
74.59999999999998
 30
0.0
 40
2.0
  1

 41
0.8
  7
TEXT20
100
AcDbAttributeDefinition
  3
Bennenung vv.:
  2
F74
 70
     0
280
     0
  0
ATTDEF
  5
20B
330
1C8
100
AcDbEntity
  8
TEXT25
100
AcDbText
 10
-140.5063960262479
 20
79.64480359078786
 30
0.0
 40
2.0
  1

 41
0.8
  7
TEXT20
100
AcDbAttributeDefinition
  3
Benennung v.:
  2
F70
 70
     0
280
     0
  0
ATTDEF
  5
20C
330
1C8
100
AcDbEntity
  8
TEXT25
100
AcDbText
 10
-140.390233442385
 20
84.56120109651198
 30
0.0
 40
2.0
  1

 41
0.8
  7
TEXT20
100
AcDbAttributeDefinition
  3
Bennenung l.:
  2
F66
 70
     0
280
     0
  0
LINE
  5
20D
330
1C8
100
AcDbEntity
  8
KOPF
 62
    12
100
AcDbLine
 10
-100.0
 20
68.49999999999997
 30
0.0
 11
-100.0
 21
46.99999999999997
 31
0.0
  0
LWPOLYLINE
  5
20E
330
1C8
100
AcDbEntity
  8
KOPF
 62
    12
100
AcDbPolyline
 90
        2
 70
     0
 43
0.5
 10
-83.0
 20
46.99999999999997
 10
-83.0
 20
0.0
  0
LINE
  5
20F
330
1C8
100
AcDbEntity
  8
KOPF
100
AcDbLine
 10
-83.0
 20
46.99999999999997
 30
0.0
 11
-83.0
 21
0.0
 31
0.0
  0
TEXT
  5
210
330
1C8
100
AcDbEntity
  8
KOPF
100
AcDbText
 10
-81.0
 20
1.714285999999985
 30
0.0
 40
2.0
  1
Ersetzt durch:
 41
0.8
  7
TEXT20
100
AcDbText
  0
LINE
  5
211
330
1C8
100
AcDbEntity
  8
KOPF
 62
    12
100
AcDbLine
 10
-113.4
 20
27.0
 30
0.0
 11
-113.4
 21
46.99999999999997
 31
0.0
  0
LWPOLYLINE
  5
212
330
1C8
100
AcDbEntity
  8
KOPF
100
AcDbPolyline
 90
        2
 70
     0
 43
0.5
 10
-113.4
 20
27.0
 10
-113.4
 20
46.99999999999997
  0
LINE
  5
213
330
1C8
100
AcDbEntity
  8
KOPF
100
AcDbLine
 10
-113.4
 20
27.0
 30
0.0
 11
-113.4
 21
46.99999999999997
 31
0.0
  0
LINE
  5
214
330
1C8
100
AcDbEntity
  8
KOPF
100
AcDbLine
 10
-113.4
 20
27.0
 30
0.0
 11
-113.4
 21
46.99999999999997
 31
0.0
  0
ATTDEF
  5
215
330
1C8
100
AcDbEntity
  8
TEXT35
100
AcDbText
 10
-104.4935632823758
 20
33.13408015176805
 30
0.0
 40
3.5
  1

 41
0.8
  7
TEXT35
100
AcDbAttributeDefinition
  3
Maßstab 2:
  2
F54
 70
     0
280
     0
  0
ATTDEF
  5
216
330
1C8
100
AcDbEntity
  8
TEXT35
100
AcDbText
 10
-104.487948258847
 20
28.6
 30
0.0
 40
3.5
  1

 41
0.8
  7
TEXT35
100
AcDbAttributeDefinition
  3
Maßstab 3:
  2
F55
 70
     0
280
     0
  0
ATTDEF
  5
217
330
1C8
100
AcDbEntity
  8
TEXT50
100
AcDbText
 10
-106.6
 20
37.8
 30
0.0
 40
5.0
  1

 41
0.8
  7
TEXT50
100
AcDbAttributeDefinition
  3
Maßstab 1:
  2
F25
 70
     0
280
     0
  0
TEXT
  5
218
330
1C8
100
AcDbEntity
  8
KOPF
100
AcDbText
 10
-112.263457
 20
43.88678899999999
 30
0.0
 40
2.0
  1
Massstab:
 41
0.8
  7
TEXT20
100
AcDbText
  0
LINE
  5
219
330
1C8
100
AcDbEntity
  8
KOPF
 62
    12
100
AcDbLine
 10
-57.8081340000001
 20
27.0
 30
0.0
 11
-57.8081340000001
 21
46.99999999999997
 31
0.0
  0
LINE
  5
21A
330
1C8
100
AcDbEntity
  8
KOPF
100
AcDbLine
 10
-57.8081340000001
 20
27.0
 30
0.0
 11
-57.8081340000001
 21
46.99999999999997
 31
0.0
  0
TEXT
  5
21B
330
1C8
100
AcDbEntity
  8
KOPF
100
AcDbText
 10
-81.59296000000006
 20
23.69783599999999
 30
0.0
 40
2.0
  1
Zeichnung Nr.:
 41
0.8
  7
TEXT20
100
AcDbText
  0
TEXT
  5
21C
330
1C8
100
AcDbEntity
  8
KOPF
100
AcDbText
 10
-81.00375700000006
 20
5.924711999999997
 30
0.0
 40
2.0
  1
Ersatz für:
 41
0.8
  7
TEXT20
100
AcDbText
  0
TEXT
  5
21D
330
1C8
100
AcDbEntity
  8
KOPF
100
AcDbText
 10
-81.59296000000006
 20
23.69783599999999
 30
0.0
 40
2.0
  1
Zeichnung Nr.:
 41
0.8
  7
TEXT20
100
AcDbText
  0
ATTDEF
  5
21E
330
1C8
100
AcDbEntity
  8
TEXT50
100
AcDbText
 10
-78.29193986361122
 20
14.50587824180555
 30
0.0
 40
5.0
  1

 41
0.8
  7
TEXT50
100
AcDbAttributeDefinition
  3
Standart:
  2
F1
 70
     0
280
     0
  0
TEXT
  5
21F
330
1C8
100
AcDbEntity
  8
KOPF
100
AcDbText
 10
-81.48889200000008
 20
43.86057200000001
 30
0.0
 40
2.0
  1
Masseinheit:
 41
0.8
  7
TEXT20
100
AcDbText
  0
LINE
  5
220
330
1C8
100
AcDbEntity
  8
KOPF
 62
    12
100
AcDbLine
 10
-57.8081340000001
 20
36.213444
 30
0.0
 11
-83.0
 21
36.213444
 31
0.0
  0
LINE
  5
221
330
1C8
100
AcDbEntity
  8
KOPF
100
AcDbLine
 10
-57.8081340000001
 20
36.213444
 30
0.0
 11
-83.0
 21
36.213444
 31
0.0
  0
ATTDEF
  5
222
330
1C8
100
AcDbEntity
  8
TEXT35
100
AcDbText
 10
-79.40896486611496
 20
38.08722024605356
 30
0.0
 40
3.5
  1

 41
0.8
  7
TEXT35
100
AcDbAttributeDefinition
  3
Maßeinheit:
  2
F56
 70
     0
280
     0
  0
TEXT
  5
223
330
1C8
100
AcDbEntity
  8
KOPF
100
AcDbText
 10
-33.57569784693112
 20
42.62823225872138
 30
0.0
 40
1.54
  1
Diese Zeichnung darf weder kopiert
 41
0.8
  7
TEXT20
100
AcDbText
  0
TEXT
  5
224
330
1C8
100
AcDbEntity
  8
KOPF
100
AcDbText
 10
-33.57569784693112
 20
40.26106040199917
 30
0.0
 40
1.54
  1
noch dritten Personen, insbesondere
 41
0.8
  7
TEXT20
100
AcDbText
  0
TEXT
  5
225
330
1C8
100
AcDbEntity
  8
KOPF
100
AcDbText
 10
-33.57569784693112
 20
35.63814072439632
 30
0.0
 40
1.54
  1
mitgeteilt werden und bleibt unser
 41
0.8
  7
TEXT20
100
AcDbText
  0
TEXT
  5
226
330
1C8
100
AcDbEntity
  8
KOPF
100
AcDbText
 10
-33.57569784693112
 20
33.37532604459598
 30
0.0
 40
1.54
  1
Eigentum.
 41
0.8
  7
TEXT20
100
AcDbText
  0
TEXT
  5
227
330
1C8
100
AcDbEntity
  8
KOPF
100
AcDbText
 10
-33.57569784693112
 20
37.97994933403727
 30
0.0
 40
1.54
  1
zum Zweck anderweitiger Benutzung
 41
0.8
  7
TEXT20
100
AcDbText
  0
TEXT
  5
228
330
1C8
100
AcDbEntity
  8
KOPF
100
AcDbText
 10
-33.7904806989385
 20
30.30982488917614
 30
0.0
 40
1.54
  1
Schutzvermerk nach DIN 34 beachten
 41
0.75
  7
TEXT20
100
AcDbText
  0
LINE
  5
229
330
1C8
100
AcDbEntity
  8
KOPF
100
AcDbLine
 10
-34.94281200000012
 20
47.01203199999999
 30
0.0
 11
-34.94281200000012
 21
27.0
 31
0.0
  0
LINE
  5
22A
330
1C8
100
AcDbEntity
  8
KOPF
100
AcDbLine
 10
-34.94281200000012
 20
47.01203199999999
 30
0.0
 11
-34.94281200000012
 21
27.0
 31
0.0
  0
LINE
  5
22B
330
1C8
100
AcDbEntity
  8
MITTE
100
AcDbLine
 10
-45.85521401410288
 20
36.04852954632858
 30
0.0
 11
-35.23444858652557
 21
36.04852954632858
 31
0.0
  0
LINE
  5
22C
330
1C8
100
AcDbEntity
  8
TEXT50
100
AcDbLine
 10
-45.05865660703466
 20
32.02559619470341
 30
0.0
 11
-36.50894043783512
 21
34.06858135367652
 31
0.0
  0
LINE
  5
22D
330
1C8
100
AcDbEntity
  8
TEXT50
100
AcDbLine
 10
-36.50894043783512
 20
38.02847773898061
 30
0.0
 11
-45.05865660703466
 21
40.07146289795374
 31
0.0
  0
TEXT
  5
22E
330
1C8
100
AcDbEntity
  8
KOPF
100
AcDbText
 10
-57.12244047883302
 20
43.82431699999997
 30
0.0
 40
2.0
  1
Projektion: ISO-E
 41
0.8
  7
TEXT20
100
AcDbText
  0
LINE
  5
22F
330
1C8
100
AcDbEntity
  8
TEXT50
100
AcDbLine
 10
-45.05865660703466
 20
40.07146289795374
 30
0.0
 11
-45.05865660703466
 21
32.02559619470346
 31
0.0
  0
LINE
  5
230
330
1C8
100
AcDbEntity
  8
MITTE
100
AcDbLine
 10
-51.4945506424383
 20
40.07146289795374
 30
0.0
 11
-51.4945506424383
 21
30.76413131482123
 31
0.0
  0
CIRCLE
  5
231
330
1C8
100
AcDbEntity
  8
TEXT50
100
AcDbCircle
 10
-51.4945506424383
 20
36.04852954632858
 30
0.0
 40
4.022933351625178
  0
CIRCLE
  5
232
330
1C8
100
AcDbEntity
  8
TEXT50
100
AcDbCircle
 10
-51.4945506424383
 20
36.04852954632858
 30
0.0
 40
1.979948192651899
  0
LINE
  5
233
330
1C8
100
AcDbEntity
  8
MITTE
100
AcDbLine
 10
-56.48631039339965
 20
36.04852954632858
 30
0.0
 11
-46.50279089147699
 21
36.04852954632858
 31
0.0
  0
LINE
  5
234
330
1C8
100
AcDbEntity
  8
TEXT50
100
AcDbLine
 10
-36.50894043783512
 20
38.02847773898061
 30
0.0
 11
-36.50894043783512
 21
34.06858135367652
 31
0.0
  0
LWPOLYLINE
  5
235
330
1C8
100
AcDbEntity
  8
KOPF
 62
    12
100
AcDbPolyline
 90
        2
 70
     0
 43
0.5
 10
-12.0
 20
27.0
 10
-12.0
 20
10.0
  0
LINE
  5
236
330
1C8
100
AcDbEntity
  8
KOPF
100
AcDbLine
 10
-12.0
 20
27.0
 30
0.0
 11
-12.0
 21
10.0
 31
0.0
  0
ATTDEF
  5
237
330
1C8
100
AcDbEntity
  8
TEXT50
100
AcDbText
 10
-5.58570360403041
 20
17.00587824180555
 30
0.0
 40
5.0
  1

 41
0.8
  7
TEXT50
 72
     4
 11
-5.58570360403041
 21
17.00587824180555
 31
0.0
100
AcDbAttributeDefinition
  3
Index:
  2
F1B
 70
     0
280
     0
  0
TEXT
  5
238
330
1C8
100
AcDbEntity
  8
KOPF
100
AcDbText
 10
-8.353129999999964
 20
23.330072
 30
0.0
 40
2.0
  1
Index
 41
0.8
  7
TEXT20
100
AcDbText
  0
TEXT
  5
239
330
1C8
100
AcDbEntity
  8
KOPF
100
AcDbText
 10
-94.40535829344495
 20
70.39773773357916
 30
0.0
 40
2.0
  1
Benennung
 41
0.8
  7
TEXT20
100
AcDbText
  0
LINE
  5
23A
330
1C8
100
AcDbEntity
  8
KOPF
100
AcDbLine
 10
-15.0
 20
88.49999999999996
 30
0.0
 11
-15.0
 21
68.49999999999997
 31
0.0
  0
LINE
  5
23B
330
1C8
100
AcDbEntity
  8
KOPF
100
AcDbLine
 10
-15.0
 20
88.49999999999996
 30
0.0
 11
-15.0
 21
68.49999999999997
 31
0.0
  0
TEXT
  5
23C
330
1C8
100
AcDbEntity
  8
KOPF
100
AcDbText
 10
-11.65833600000008
 20
69.53813999999997
 30
0.0
 40
2.0
  1
Name
 41
0.8
  7
TEXT20
100
AcDbText
  0
TEXT
  5
23D
330
1C8
100
AcDbEntity
  8
KOPF
100
AcDbText
 10
-11.65833600000008
 20
69.53813999999997
 30
0.0
 40
2.0
  1
Name
 41
0.8
  7
TEXT20
100
AcDbText
  0
ATTDEF
  5
23E
330
1C8
100
AcDbEntity
  8
TEXT25
100
AcDbText
 10
-13.39999999999998
 20
74.90000000000001
 30
0.0
 40
2.0
  1

 41
0.8
  7
TEXT20
100
AcDbAttributeDefinition
  3
Name vv.:
  2
F75
 70
     0
280
     0
  0
ATTDEF
  5
23F
330
1C8
100
AcDbEntity
  8
TEXT25
100
AcDbText
 10
-13.39999999999998
 20
79.7
 30
0.0
 40
2.0
  1

 41
0.8
  7
TEXT20
100
AcDbAttributeDefinition
  3
Name v.:
  2
F71
 70
     0
280
     0
  0
ATTDEF
  5
240
330
1C8
100
AcDbEntity
  8
TEXT25
100
AcDbText
 10
-13.31006638105163
 20
84.29999999999997
 30
0.0
 40
2.0
  1

 41
0.8
  7
TEXT20
100
AcDbAttributeDefinition
  3
Name l.:
  2
F67
 70
     0
280
     0
  0
LINE
  5
241
330
1C8
100
AcDbEntity
  8
KOPF
100
AcDbLine
 10
-182.0
 20
36.99999999999997
 30
0.0
 11
-113.4
 21
36.99999999999997
 31
0.0
  0
LINE
  5
242
330
1C8
100
AcDbEntity
  8
KOPF
100
AcDbLine
 10
-182.0
 20
31.99999999999997
 30
0.0
 11
-113.4
 21
31.99999999999997
 31
0.0
  0
MTEXT
  5
243
330
1C8
100
AcDbEntity
  8
Sperrlayer
 62
     1
100
AcDbMText
 10
-166.0749851709908
 20
9.027899370527848
 30
0.0
 40
10.0
 41
771.0
 46
0.0
 71
     1
 72
     5
  1
VORABZUG - nicht FREIGEGEBEN !
  7
TEXT20
 11
0.8660254037844387
 21
0.5
 31
0.0
 73
     1
 44
1.0
  0
ENDBLK
  5
245
330
1C8
100
AcDbEntity
  8
0
100
AcDbBlockEnd
  0
BLOCK
  5
278
330
268
100
AcDbEntity
  8
0
100
AcDbBlockBegin
  2
logo_1200
 70
     0
 10
0.0
 20
0.0
 30
0.0
  3
logo_1200
  1

  0
TEXT
  5
269
330
268
100
AcDbEntity
  8
TEXT25
100
AcDbText
 10
-62.75122066833546
 20
52.38243367792946
 30
0.0
 40
2.0
  1
582 22 Pribyslav
 41
0.8
  7
TEXT25
100
AcDbText
  0
CIRCLE
  5
26A
330
268
100
AcDbEntity
  8
TEXT35
100
AcDbCircle
 10
-77.90633268923627
 20
54.91319723090533
 30
0.0
 40
2.281499999999998
  0
CIRCLE
  5
26B
330
268
100
AcDbEntity
  8
TEXT35
100
AcDbCircle
 10
-77.90633268923627
 20
54.91319723090533
 30
0.0
 40
1.579499999999999
  0
LWPOLYLINE
  5
26C
330
268
100
AcDbEntity
  8
TEXT35
100
AcDbPolyline
 90
        4
 70
     1
 43
0.0
 10
-83.00295180105614
 20
54.12344723090528
 42
-3.664441495333134
 10
-83.01773608902488
 20
55.72801804658638
 10
-82.4097147917411
 20
56.07905930624621
 42
3.685001202565794
 10
-82.39500196759946
 20
53.77244723090528
  0
LWPOLYLINE
  5
26D
330
268
100
AcDbEntity
  8
TEXT35
100
AcDbPolyline
 90
        4
 70
     1
 43
0.0
 10
-87.16522368075901
 20
64.67896593129956
 10
-87.16522368075901
 20
51.44416361029549
 10
-81.57645417190838
 20
51.44416361029549
 10
-81.57645417190838
 20
64.67896593129956
  0
LWPOLYLINE
  5
26E
330
268
100
AcDbEntity
  8
TEXT35
100
AcDbPolyline
 90
        4
 70
     1
 43
0.0
 10
-75.11194793481099
 20
64.67896593129956
 10
-75.11194793481099
 20
51.44416361029549
 10
-80.70071744366158
 20
51.44416361029549
 10
-80.70071744366158
 20
64.67896593129956
  0
TEXT
  5
26F
330
268
100
AcDbEntity
  8
TEXT25
100
AcDbText
 10
-42.07144434927065
 20
52.73160429576707
 30
0.0
 40
2.1
  1
Fax: +420 569 484 848
 41
0.7
  7
ROMANS8
100
AcDbText
  0
LWPOLYLINE
  5
270
330
268
100
AcDbEntity
  8
TEXT35
100
AcDbPolyline
 90
        7
 70
     1
 43
0.0
 10
-92.41478278366415
 20
52.600990481233
 42
-0.0323236910300514
 10
-92.37060365720656
 20
53.23414235224742
 10
-89.30008666965568
 20
53.23414235224742
 42
-0.0323236910300515
 10
-89.25590754319818
 20
52.600990481233
 10
-88.55389974564614
 20
52.600990481233
 42
0.2369604974400691
 10
-90.83534516343114
 20
57.0951423522472
 42
0.2369604974400691
 10
-93.11679058121621
 20
52.600990481233
  0
LWPOLYLINE
  5
271
330
268
100
AcDbEntity
  8
TEXT35
100
AcDbPolyline
 90
        4
 70
     1
 43
0.0
 10
-93.62972991785644
 20
64.67896593129956
 10
-93.62972991785644
 20
51.44416361029549
 10
-88.04096040900587
 20
51.44416361029549
 10
-88.04096040900587
 20
64.67896593129956
  0
LWPOLYLINE
  5
272
330
268
100
AcDbEntity
  8
TEXT25
100
AcDbPolyline
 90
        3
 70
     0
 43
0.0
 10
-57.65641467769126
 20
58.02057702122401
 10
-57.34643565818164
 20
57.67744438935746
 10
-57.06966783454433
 20
58.04271477888097
  0
TEXT
  5
273
330
268
100
AcDbEntity
  8
TEXT25
100
AcDbText
 10
-62.46488457919316
 20
56.00873140993094
 30
0.0
 40
2.0
  1
Havlickova 260
 41
0.8
  7
TEXT25
100
AcDbText
  0
TEXT
  5
274
330
268
100
AcDbEntity
  8
TEXT35
100
AcDbText
 10
-63.01986452254318
 20
61.20180074934168
 30
0.0
 40
3.0
  1
ACO Stavebni prvky k.s
 41
0.8
  7
ITALICC8
100
AcDbText
  0
LWPOLYLINE
  5
275
330
268
100
AcDbEntity
  8
TEXT35
100
AcDbPolyline
 90
        3
 70
     1
 43
0.0
 10
-90.83534516343107
 20
56.18573248981441
 42
-0.1369919174131033
 10
-89.44776560816123
 20
53.93614235224742
 10
-92.22292471870108
 20
53.93614235224742
 42
-0.136991917413112
  0
TEXT
  5
276
330
268
100
AcDbEntity
  8
TEXT25
100
AcDbText
 10
-42.12418048628376
 20
56.06021119287449
 30
0.0
 40
2.1
  1
Tel.:+420 569 491 111
 41
0.7
  7
ROMANS8
100
AcDbText
  0
LWPOLYLINE
  5
277
330
268
100
AcDbEntity
  8
TEXT25
100
AcDbPolyline
 90
        3
 70
     0
 43
0.0
 10
-54.37217074633299
 20
54.52955947101651
 10
-54.06219172682341
 20
54.18642683914997
 10
-53.78542390318611
 20
54.55169722867349
  0
ENDBLK
  5
279
330
268
100
AcDbEntity
  8
0
100
AcDbBlockEnd
  0
BLOCK
  5
59E
330
592
100
AcDbEntity
  8
0
100
AcDbBlockBegin
  2
*D7
 70
     1
 10
0.0
 20
0.0
 30
0.0
  3
*D7
  1

  0
LINE
  5
5F8
330
592
100
AcDbEntity
  8
BEMASS
370
    -2
100
AcDbLine
 10
267.1549365386871
 20
223.8081488121951
 30
0.0
 11
269.8917072044153
 21
276.0288439679191
 31
0.0
  0
LINE
  5
5F9
330
592
100
AcDbEntity
  8
BEMASS
370
    -2
100
AcDbLine
 10
263.3701865454976
 20
255.9096304601677
 30
0.0
 11
263.3701865454977
 21
276.1996159964054
 31
0.0
  0
ARC
  5
5FA
330
592
100
AcDbEntity
  8
BEMASS
370
    -2
100
AcDbCircle
 10
263.3701865454975
 20
151.5908168632735
 30
0.0
 40
122.6087991331318
100
AcDbArc
 50
88.16828426069038
 51
88.83171573930932
  0
SOLID
  5
5FB
330
592
100
AcDbEntity
  8
BEMASS
100
AcDbTrace
 10
267.3068206962863
 20
274.5532616859609
 30
0.0
 11
267.2716938784666
 21
273.7206690177765
 31
0.0
 12
269.7870352919295
 22
274.03158489841
 32
0.0
 13
269.7870352919295
 23
274.03158489841
 33
0.0
  0
SOLID
  5
5FC
330
592
100
AcDbEntity
  8
BEMASS
100
AcDbTrace
 10
265.8658086910488
 20
273.7574834170295
 30
0.0
 11
265.8743045467626
 21
274.5907734414989
 31
0.0
 12
263.3701865454977
 22
274.1996159964054
 32
0.0
 13
263.3701865454977
 23
274.1996159964054
 33
0.0
  0
MTEXT
  5
5FD
330
592
100
AcDbEntity
  8
BEMASS
100
AcDbMText
 10
266.7099722233619
 20
279.1320862831629
 30
0.0
 40
5.0
 41
0.0
 46
0.0
 71
     5
 72
     1
  1
\A1;1,5
 11
0.9996573249755574
 21
-0.0261769483078758
 31
0.0
 73
     1
 44
1.0
  0
POINT
  5
5FE
330
592
100
AcDbEntity
  8
DEFPOINTS
 62
     0
100
AcDbPoint
 10
267.6491719265422
 20
274.1249260287524
 30
0.0
  0
POINT
  5
5FF
330
592
100
AcDbEntity
  8
DEFPOINTS
 62
     0
100
AcDbPoint
 10
267.1549365386871
 20
223.8081488121951
 30
0.0
  0
POINT
  5
600
330
592
100
AcDbEntity
  8
DEFPOINTS
 62
     0
100
AcDbPoint
 10
263.3701865454976
 20
246.7894508192865
 30
0.0
  0
POINT
  5
601
330
592
100
AcDbEntity
  8
DEFPOINTS
 62
     0
100
AcDbPoint
 10
263.3701865454976
 20
255.9096304601677
 30
0.0
  0
POINT
  5
602
330
592
100
AcDbEntity
  8
DEFPOINTS
 62
     0
100
AcDbPoint
 10
263.2243530924585
 20
148.8081488121951
 30
0.0
  0
ENDBLK
  5
59F
330
592
100
AcDbEntity
  8
0
100
AcDbBlockEnd
  0
BLOCK
  5
817
330
815
100
AcDbEntity
  8
0
100
AcDbBlockBegin
  2
GENAXEH
 70
     0
 10
0.0
 20
0.0
 30
0.0
  3
GENAXEH
  1

  0
LINE
  5
816
330
815
100
AcDbEntity
  8
0
100
AcDbLine
 10
-1.0
 20
0.0
 30
0.0
 11
1.0
 21
0.0
 31
0.0
  0
ENDBLK
  5
818
330
815
100
AcDbEntity
  8
0
100
AcDbBlockEnd
  0
BLOCK
  5
908
330
907
100
AcDbEntity
  8
0
100
AcDbBlockBegin
  2
*D9
 70
     1
 10
0.0
 20
0.0
 30
0.0
  3
*D9
  1

  0
LINE
  5
909
330
907
100
AcDbEntity
  8
KOTY_GULLY
370
    -2
100
AcDbLine
 10
294.2107402958222
 20
576.3634388384761
 30
0.0
 11
143.262334417504
 21
576.3634388384762
 31
0.0
  0
LINE
  5
90A
330
907
100
AcDbEntity
  8
KOTY_GULLY
370
    -2
100
AcDbLine
 10
177.2107402958219
 20
746.4024388384761
 30
0.0
 11
143.262334417504
 21
746.4024388384761
 31
0.0
  0
LINE
  5
90B
330
907
100
AcDbEntity
  8
KOTY_GULLY
370
    -2
100
AcDbLine
 10
145.262334417504
 20
579.3634388384762
 30
0.0
 11
145.262334417504
 21
743.4024388384757
 31
0.0
  0
SOLID
  5
90C
330
907
100
AcDbEntity
  8
KOTY_GULLY
100
AcDbTrace
 10
144.762334417504
 20
579.3634388384762
 30
0.0
 11
145.762334417504
 21
579.3634388384762
 31
0.0
 12
145.262334417504
 22
576.3634388384762
 32
0.0
 13
145.262334417504
 23
576.3634388384762
 33
0.0
  0
SOLID
  5
90D
330
907
100
AcDbEntity
  8
KOTY_GULLY
100
AcDbTrace
 10
144.762334417504
 20
743.4024388384757
 30
0.0
 11
145.762334417504
 21
743.4024388384757
 31
0.0
 12
145.262334417504
 22
746.4024388384761
 32
0.0
 13
145.262334417504
 23
746.4024388384761
 33
0.0
  0
MTEXT
  5
90E
330
907
100
AcDbEntity
  8
KOTY_GULLY
100
AcDbMText
 10
137.7383344175038
 20
661.3829388384758
 30
0.0
 40
12.0
 41
0.0
 46
0.0
 71
     5
 72
     1
  1
\A1;170
 11
0.0000000000000001
 21
1.0
 31
0.0
 73
     1
 44
1.0
  0
POINT
  5
90F
330
907
100
AcDbEntity
  8
DEFPOINTS
 62
     0
100
AcDbPoint
 10
294.2107402958222
 20
576.3634388384761
 30
0.0
  0
POINT
  5
910
330
907
100
AcDbEntity
  8
DEFPOINTS
 62
     0
100
AcDbPoint
 10
177.2107402958219
 20
746.4024388384761
 30
0.0
  0
POINT
  5
911
330
907
100
AcDbEntity
  8
DEFPOINTS
 62
     0
100
AcDbPoint
 10
145.262334417504
 20
746.4024388384761
 30
0.0
  0
ENDBLK
  5
912
330
907
100
AcDbEntity
  8
0
100
AcDbBlockEnd
  0
BLOCK
  5
914
330
913
100
AcDbEntity
  8
0
100
AcDbBlockBegin
  2
*D10
 70
     1
 10
0.0
 20
0.0
 30
0.0
  3
*D10
  1

  0
LINE
  5
915
330
913
100
AcDbEntity
  8
KOTY_GULLY
370
    -2
100
AcDbLine
 10
535.2107402958223
 20
746.4024388384761
 30
0.0
 11
535.2107402958223
 21
799.009769544676
 31
0.0
  0
LINE
  5
916
330
913
100
AcDbEntity
  8
KOTY_GULLY
370
    -2
100
AcDbLine
 10
177.2107402958219
 20
746.4024388384761
 30
0.0
 11
177.2107402958219
 21
799.009769544676
 31
0.0
  0
LINE
  5
917
330
913
100
AcDbEntity
  8
KOTY_GULLY
370
    -2
100
AcDbLine
 10
532.2107402958223
 20
797.009769544676
 30
0.0
 11
180.210740295822
 21
797.009769544676
 31
0.0
  0
SOLID
  5
918
330
913
100
AcDbEntity
  8
KOTY_GULLY
100
AcDbTrace
 10
532.2107402958223
 20
797.509769544676
 30
0.0
 11
532.2107402958223
 21
796.509769544676
 31
0.0
 12
535.2107402958223
 22
797.009769544676
 32
0.0
 13
535.2107402958223
 23
797.009769544676
 33
0.0
  0
SOLID
  5
919
330
913
100
AcDbEntity
  8
KOTY_GULLY
100
AcDbTrace
 10
180.210740295822
 20
797.509769544676
 30
0.0
 11
180.210740295822
 21
796.509769544676
 31
0.0
 12
177.2107402958219
 22
797.009769544676
 32
0.0
 13
177.2107402958219
 23
797.009769544676
 33
0.0
  0
MTEXT
  5
91A
330
913
100
AcDbEntity
  8
KOTY_GULLY
100
AcDbMText
 10
356.2107402958222
 20
804.5337695446759
 30
0.0
 40
12.0
 41
0.0
 46
0.0
 71
     5
 72
     1
  1
\A1;%%c358
 73
     1
 44
1.0
  0
POINT
  5
91B
330
913
100
AcDbEntity
  8
DEFPOINTS
 62
     0
100
AcDbPoint
 10
535.2107402958223
 20
746.4024388384761
 30
0.0
  0
POINT
  5
91C
330
913
100
AcDbEntity
  8
DEFPOINTS
 62
     0
100
AcDbPoint
 10
177.2107402958219
 20
746.4024388384761
 30
0.0
  0
POINT
  5
91D
330
913
100
AcDbEntity
  8
DEFPOINTS
 62
     0
100
AcDbPoint
 10
177.2107402958219
 20
797.009769544676
 30
0.0
  0
ENDBLK
  5
91E
330
913
100
AcDbEntity
  8
0
100
AcDbBlockEnd
  0
BLOCK
  5
939
330
938
100
AcDbEntity
  8
0
100
AcDbBlockBegin
  2
*D11
 70
     1
 10
0.0
 20
0.0
 30
0.0
  3
*D11
  1

  0
LINE
  5
BDA
330
938
100
AcDbEntity
  8
KOTY_GULLY
370
    -2
100
AcDbLine
 10
136.2243530924577
 20
139.5123122687931
 30
0.0
 11
90.53738289648638
 21
139.5123122687931
 31
0.0
  0
LINE
  5
BDB
330
938
100
AcDbEntity
  8
KOTY_GULLY
370
    -2
100
AcDbLine
 10
124.2243530924602
 20
245.4206391819892
 30
0.0
 11
90.5373828964864
 21
245.4206391819892
 31
0.0
  0
LINE
  5
BDC
330
938
100
AcDbEntity
  8
KOTY_GULLY
370
    -2
100
AcDbLine
 10
92.53738289648635
 20
142.5123122687931
 30
0.0
 11
92.53738289648639
 21
242.4206391819892
 31
0.0
  0
SOLID
  5
BDD
330
938
100
AcDbEntity
  8
KOTY_GULLY
100
AcDbTrace
 10
92.03738289648638
 20
142.5123122687931
 30
0.0
 11
93.03738289648638
 21
142.5123122687931
 31
0.0
 12
92.53738289648635
 22
139.5123122687931
 32
0.0
 13
92.53738289648635
 23
139.5123122687931
 33
0.0
  0
SOLID
  5
BDE
330
938
100
AcDbEntity
  8
KOTY_GULLY
100
AcDbTrace
 10
92.03738289648638
 20
242.4206391819892
 30
0.0
 11
93.0373828964864
 21
242.4206391819892
 31
0.0
 12
92.53738289648639
 22
245.4206391819892
 32
0.0
 13
92.53738289648639
 23
245.4206391819892
 33
0.0
  0
MTEXT
  5
BDF
330
938
100
AcDbEntity
  8
KOTY_GULLY
100
AcDbMText
 10
85.01338289648636
 20
192.4664757253911
 30
0.0
 40
12.0
 41
0.0
 46
0.0
 71
     5
 72
     1
  1
\A1;106
 11
0.0000000000000001
 21
1.0
 31
0.0
 73
     1
 44
1.0
  0
POINT
  5
BE0
330
938
100
AcDbEntity
  8
DEFPOINTS
 62
     0
100
AcDbPoint
 10
136.2243530924577
 20
139.5123122687931
 30
0.0
  0
POINT
  5
BE1
330
938
100
AcDbEntity
  8
DEFPOINTS
 62
     0
100
AcDbPoint
 10
124.2243530924602
 20
245.4206391819892
 30
0.0
  0
POINT
  5
BE2
330
938
100
AcDbEntity
  8
DEFPOINTS
 62
     0
100
AcDbPoint
 10
92.53738289648639
 20
245.4206391819892
 30
0.0
  0
ENDBLK
  5
93A
330
938
100
AcDbEntity
  8
0
100
AcDbBlockEnd
  0
BLOCK
  5
945
330
944
100
AcDbEntity
  8
0
100
AcDbBlockBegin
  2
*D12
 70
     1
 10
0.0
 20
0.0
 30
0.0
  3
*D12
  1

  0
LINE
  5
BE3
330
944
100
AcDbEntity
  8
KOTY_GULLY
370
    -2
100
AcDbLine
 10
261.2243530924589
 20
241.9206391819892
 30
0.0
 11
261.2243530924589
 21
273.9531241443765
 31
0.0
  0
LINE
  5
BE4
330
944
100
AcDbEntity
  8
KOTY_GULLY
370
    -2
100
AcDbLine
 10
129.2243530924586
 20
241.9206391819802
 30
0.0
 11
129.2243530924586
 21
273.9531241443765
 31
0.0
  0
LINE
  5
BE5
330
944
100
AcDbEntity
  8
KOTY_GULLY
370
    -2
100
AcDbLine
 10
258.2243530924588
 20
271.9531241443765
 30
0.0
 11
132.2243530924586
 21
271.9531241443765
 31
0.0
  0
SOLID
  5
BE6
330
944
100
AcDbEntity
  8
KOTY_GULLY
100
AcDbTrace
 10
258.2243530924588
 20
272.4531241443765
 30
0.0
 11
258.2243530924588
 21
271.4531241443765
 31
0.0
 12
261.2243530924589
 22
271.9531241443765
 32
0.0
 13
261.2243530924589
 23
271.9531241443765
 33
0.0
  0
SOLID
  5
BE7
330
944
100
AcDbEntity
  8
KOTY_GULLY
100
AcDbTrace
 10
132.2243530924586
 20
272.4531241443765
 30
0.0
 11
132.2243530924586
 21
271.4531241443765
 31
0.0
 12
129.2243530924586
 22
271.9531241443765
 32
0.0
 13
129.2243530924586
 23
271.9531241443765
 33
0.0
  0
MTEXT
  5
BE8
330
944
100
AcDbEntity
  8
KOTY_GULLY
100
AcDbMText
 10
195.2243530924587
 20
279.4771241443765
 30
0.0
 40
12.0
 41
0.0
 46
0.0
 71
     5
 72
     1
  1
\A1;%%c132
 73
     1
 44
1.0
  0
POINT
  5
BE9
330
944
100
AcDbEntity
  8
DEFPOINTS
 62
     0
100
AcDbPoint
 10
261.2243530924589
 20
241.9206391819892
 30
0.0
  0
POINT
  5
BEA
330
944
100
AcDbEntity
  8
DEFPOINTS
 62
     0
100
AcDbPoint
 10
129.2243530924586
 20
241.9206391819802
 30
0.0
  0
POINT
  5
BEB
330
944
100
AcDbEntity
  8
DEFPOINTS
 62
     0
100
AcDbPoint
 10
129.2243530924586
 20
271.9531241443765
 30
0.0
  0
ENDBLK
  5
946
330
944
100
AcDbEntity
  8
0
100
AcDbBlockEnd
  0
BLOCK
  5
9C7
330
9C6
100
AcDbEntity
  8
0
100
AcDbBlockBegin
  2
*D13
 70
     1
 10
0.0
 20
0.0
 30
0.0
  3
*D13
  1

  0
LINE
  5
9C8
330
9C6
100
AcDbEntity
  8
KOTY_GULLY
370
    -2
100
AcDbLine
 10
294.2107402958222
 20
576.3634388384761
 30
0.0
 11
143.262334417504
 21
576.3634388384762
 31
0.0
  0
LINE
  5
9C9
330
9C6
100
AcDbEntity
  8
KOTY_GULLY
370
    -2
100
AcDbLine
 10
177.2107402958219
 20
746.4024388384761
 30
0.0
 11
143.262334417504
 21
746.4024388384761
 31
0.0
  0
LINE
  5
9CA
330
9C6
100
AcDbEntity
  8
KOTY_GULLY
370
    -2
100
AcDbLine
 10
145.262334417504
 20
579.3634388384762
 30
0.0
 11
145.262334417504
 21
743.4024388384757
 31
0.0
  0
SOLID
  5
9CB
330
9C6
100
AcDbEntity
  8
KOTY_GULLY
100
AcDbTrace
 10
144.762334417504
 20
579.3634388384762
 30
0.0
 11
145.762334417504
 21
579.3634388384762
 31
0.0
 12
145.262334417504
 22
576.3634388384762
 32
0.0
 13
145.262334417504
 23
576.3634388384762
 33
0.0
  0
SOLID
  5
9CC
330
9C6
100
AcDbEntity
  8
KOTY_GULLY
100
AcDbTrace
 10
144.762334417504
 20
743.4024388384757
 30
0.0
 11
145.762334417504
 21
743.4024388384757
 31
0.0
 12
145.262334417504
 22
746.4024388384761
 32
0.0
 13
145.262334417504
 23
746.4024388384761
 33
0.0
  0
MTEXT
  5
9CD
330
9C6
100
AcDbEntity
  8
KOTY_GULLY
100
AcDbMText
 10
137.7383344175038
 20
661.3829388384758
 30
0.0
 40
12.0
 41
0.0
 46
0.0
 71
     5
 72
     1
  1
\A1;170
 11
0.0000000000000001
 21
1.0
 31
0.0
 73
     1
 44
1.0
  0
POINT
  5
9CE
330
9C6
100
AcDbEntity
  8
DEFPOINTS
 62
     0
100
AcDbPoint
 10
294.2107402958222
 20
576.3634388384761
 30
0.0
  0
POINT
  5
9CF
330
9C6
100
AcDbEntity
  8
DEFPOINTS
 62
     0
100
AcDbPoint
 10
177.2107402958219
 20
746.4024388384761
 30
0.0
  0
POINT
  5
9D0
330
9C6
100
AcDbEntity
  8
DEFPOINTS
 62
     0
100
AcDbPoint
 10
145.262334417504
 20
746.4024388384761
 30
0.0
  0
ENDBLK
  5
9D1
330
9C6
100
AcDbEntity
  8
0
100
AcDbBlockEnd
  0
BLOCK
  5
9D3
330
9D2
100
AcDbEntity
  8
0
100
AcDbBlockBegin
  2
*D14
 70
     1
 10
0.0
 20
0.0
 30
0.0
  3
*D14
  1

  0
LINE
  5
9D4
330
9D2
100
AcDbEntity
  8
KOTY_GULLY
370
    -2
100
AcDbLine
 10
535.2107402958223
 20
746.4024388384761
 30
0.0
 11
535.2107402958223
 21
799.009769544676
 31
0.0
  0
LINE
  5
9D5
330
9D2
100
AcDbEntity
  8
KOTY_GULLY
370
    -2
100
AcDbLine
 10
177.2107402958219
 20
746.4024388384761
 30
0.0
 11
177.2107402958219
 21
799.009769544676
 31
0.0
  0
LINE
  5
9D6
330
9D2
100
AcDbEntity
  8
KOTY_GULLY
370
    -2
100
AcDbLine
 10
532.2107402958223
 20
797.009769544676
 30
0.0
 11
180.210740295822
 21
797.009769544676
 31
0.0
  0
SOLID
  5
9D7
330
9D2
100
AcDbEntity
  8
KOTY_GULLY
100
AcDbTrace
 10
532.2107402958223
 20
797.509769544676
 30
0.0
 11
532.2107402958223
 21
796.509769544676
 31
0.0
 12
535.2107402958223
 22
797.009769544676
 32
0.0
 13
535.2107402958223
 23
797.009769544676
 33
0.0
  0
SOLID
  5
9D8
330
9D2
100
AcDbEntity
  8
KOTY_GULLY
100
AcDbTrace
 10
180.210740295822
 20
797.509769544676
 30
0.0
 11
180.210740295822
 21
796.509769544676
 31
0.0
 12
177.2107402958219
 22
797.009769544676
 32
0.0
 13
177.2107402958219
 23
797.009769544676
 33
0.0
  0
MTEXT
  5
9D9
330
9D2
100
AcDbEntity
  8
KOTY_GULLY
100
AcDbMText
 10
356.2107402958222
 20
804.5337695446759
 30
0.0
 40
12.0
 41
0.0
 46
0.0
 71
     5
 72
     1
  1
\A1;%%c358
 73
     1
 44
1.0
  0
POINT
  5
9DA
330
9D2
100
AcDbEntity
  8
DEFPOINTS
 62
     0
100
AcDbPoint
 10
535.2107402958223
 20
746.4024388384761
 30
0.0
  0
POINT
  5
9DB
330
9D2
100
AcDbEntity
  8
DEFPOINTS
 62
     0
100
AcDbPoint
 10
177.2107402958219
 20
746.4024388384761
 30
0.0
  0
POINT
  5
9DC
330
9D2
100
AcDbEntity
  8
DEFPOINTS
 62
     0
100
AcDbPoint
 10
177.2107402958219
 20
797.009769544676
 30
0.0
  0
ENDBLK
  5
9DD
330
9D2
100
AcDbEntity
  8
0
100
AcDbBlockEnd
  0
BLOCK
  5
9EB
330
9EA
100
AcDbEntity
  8
0
100
AcDbBlockBegin
  2
*D15
 70
     1
 10
0.0
 20
0.0
 30
0.0
  3
*D15
  1

  0
LINE
  5
BC8
330
9EA
100
AcDbEntity
  8
KOTY_GULLY
370
    -2
100
AcDbLine
 10
372.9575507900408
 20
146.2305778338721
 30
0.0
 11
391.2741338368394
 21
146.2305778338721
 31
0.0
  0
LINE
  5
BC9
330
9EA
100
AcDbEntity
  8
KOTY_GULLY
370
    -2
100
AcDbLine
 10
266.2243530924602
 20
245.4206391819892
 30
0.0
 11
391.2741338368394
 21
245.4206391819892
 31
0.0
  0
LINE
  5
BCA
330
9EA
100
AcDbEntity
  8
KOTY_GULLY
370
    -2
100
AcDbLine
 10
389.2741338368394
 20
149.2305778338721
 30
0.0
 11
389.2741338368394
 21
242.4206391819892
 31
0.0
  0
SOLID
  5
BCB
330
9EA
100
AcDbEntity
  8
KOTY_GULLY
100
AcDbTrace
 10
388.7741338368394
 20
149.2305778338721
 30
0.0
 11
389.7741338368394
 21
149.2305778338721
 31
0.0
 12
389.2741338368394
 22
146.2305778338721
 32
0.0
 13
389.2741338368394
 23
146.2305778338721
 33
0.0
  0
SOLID
  5
BCC
330
9EA
100
AcDbEntity
  8
KOTY_GULLY
100
AcDbTrace
 10
388.7741338368394
 20
242.4206391819892
 30
0.0
 11
389.7741338368394
 21
242.4206391819892
 31
0.0
 12
389.2741338368394
 22
245.4206391819892
 32
0.0
 13
389.2741338368394
 23
245.4206391819892
 33
0.0
  0
MTEXT
  5
BCD
330
9EA
100
AcDbEntity
  8
KOTY_GULLY
100
AcDbMText
 10
381.7501338368393
 20
195.8256085079306
 30
0.0
 40
12.0
 41
0.0
 46
0.0
 71
     5
 72
     1
  1
\A1;99
 11
0.0000000000000001
 21
1.0
 31
0.0
 73
     1
 44
1.0
  0
POINT
  5
BCE
330
9EA
100
AcDbEntity
  8
DEFPOINTS
 62
     0
100
AcDbPoint
 10
372.9575507900408
 20
146.2305778338721
 30
0.0
  0
POINT
  5
BCF
330
9EA
100
AcDbEntity
  8
DEFPOINTS
 62
     0
100
AcDbPoint
 10
266.2243530924602
 20
245.4206391819892
 30
0.0
  0
POINT
  5
BD0
330
9EA
100
AcDbEntity
  8
DEFPOINTS
 62
     0
100
AcDbPoint
 10
389.2741338368394
 20
245.4206391819892
 30
0.0
  0
ENDBLK
  5
9EC
330
9EA
100
AcDbEntity
  8
0
100
AcDbBlockEnd
  0
BLOCK
  5
9F7
330
9F6
100
AcDbEntity
  8
0
100
AcDbBlockBegin
  2
*D16
 70
     1
 10
0.0
 20
0.0
 30
0.0
  3
*D16
  1

  0
LINE
  5
BD1
330
9F6
100
AcDbEntity
  8
KOTY_GULLY
370
    -2
100
AcDbLine
 10
324.2590613693441
 20
183.2124518670671
 30
0.0
 11
324.2590613693441
 21
102.8328699239067
 31
0.0
  0
LINE
  5
BD2
330
9F6
100
AcDbEntity
  8
KOTY_GULLY
370
    -2
100
AcDbLine
 10
195.2243530924599
 20
138.5522138733502
 30
0.0
 11
195.2243530924599
 21
102.8328699239067
 31
0.0
  0
LINE
  5
BD3
330
9F6
100
AcDbEntity
  8
KOTY_GULLY
370
    -2
100
AcDbLine
 10
321.2590613693441
 20
104.8328699239067
 30
0.0
 11
198.2243530924599
 21
104.8328699239067
 31
0.0
  0
SOLID
  5
BD4
330
9F6
100
AcDbEntity
  8
KOTY_GULLY
100
AcDbTrace
 10
321.2590613693441
 20
105.3328699239067
 30
0.0
 11
321.2590613693441
 21
104.3328699239067
 31
0.0
 12
324.2590613693441
 22
104.8328699239067
 32
0.0
 13
324.2590613693441
 23
104.8328699239067
 33
0.0
  0
SOLID
  5
BD5
330
9F6
100
AcDbEntity
  8
KOTY_GULLY
100
AcDbTrace
 10
198.2243530924599
 20
105.3328699239067
 30
0.0
 11
198.2243530924599
 21
104.3328699239067
 31
0.0
 12
195.2243530924599
 22
104.8328699239067
 32
0.0
 13
195.2243530924599
 23
104.8328699239067
 33
0.0
  0
MTEXT
  5
BD6
330
9F6
100
AcDbEntity
  8
KOTY_GULLY
100
AcDbMText
 10
259.741707230902
 20
112.3568699239067
 30
0.0
 40
12.0
 41
0.0
 46
0.0
 71
     5
 72
     1
  1
\A1;%%c129
 73
     1
 44
1.0
  0
POINT
  5
BD7
330
9F6
100
AcDbEntity
  8
DEFPOINTS
 62
     0
100
AcDbPoint
 10
324.2590613693441
 20
183.2124518670671
 30
0.0
  0
POINT
  5
BD8
330
9F6
100
AcDbEntity
  8
DEFPOINTS
 62
     0
100
AcDbPoint
 10
195.2243530924599
 20
138.5522138733502
 30
0.0
  0
POINT
  5
BD9
330
9F6
100
AcDbEntity
  8
DEFPOINTS
 62
     0
100
AcDbPoint
 10
195.2243530924599
 20
104.8328699239067
 30
0.0
  0
ENDBLK
  5
9F8
330
9F6
100
AcDbEntity
  8
0
100
AcDbBlockEnd
  0
BLOCK
  5
A22
330
A21
100
AcDbEntity
  8
0
100
AcDbBlockBegin
  2
*D17
 70
     1
 10
0.0
 20
0.0
 30
0.0
  3
*D17
  1

  0
LINE
  5
BBF
330
A21
100
AcDbEntity
  8
KOTY_GULLY
  6
ByBlock
100
AcDbLine
 10
312.4073372521593
 20
146.2305778338721
 30
0.0
 11
359.0210676572942
 21
143.7876557392412
 31
0.0
  0
LINE
  5
BC0
330
A21
100
AcDbEntity
  8
KOTY_GULLY
  6
ByBlock
100
AcDbLine
 10
316.3379206983864
 20
221.2305778338726
 30
0.0
 11
362.9516511035213
 21
218.7876557392417
 31
0.0
  0
LINE
  5
BC1
330
A21
100
AcDbEntity
  8
KOTY_GULLY
  6
ByBlock
100
AcDbLine
 10
358.9783496190721
 20
146.7940115347535
 30
0.0
 11
362.5949173278416
 21
215.8022343262266
 31
0.0
  0
SOLID
  5
BC2
330
A21
100
AcDbEntity
  8
KOTY_GULLY
100
AcDbTrace
 10
358.4790348516948
 20
146.820179512875
 30
0.0
 11
359.4776643864494
 21
146.767843556632
 31
0.0
 12
358.8213417503433
 22
143.7981229304898
 32
0.0
 13
358.8213417503433
 23
143.7981229304898
 33
0.0
  0
SOLID
  5
BC3
330
A21
100
AcDbEntity
  8
KOTY_GULLY
100
AcDbTrace
 10
362.0956025604644
 20
215.828402304348
 30
0.0
 11
363.094232095219
 21
215.7760663481051
 31
0.0
 12
362.7519251965704
 22
218.7981229304903
 32
0.0
 13
362.7519251965704
 23
218.7981229304903
 33
0.0
  0
MTEXT
  5
BC4
330
A21
100
AcDbEntity
  8
KOTY_GULLY
100
AcDbMText
 10
354.675020720759
 20
181.6184189826969
 30
0.0
 40
12.0
 41
0.0
 46
0.0
 71
     5
 72
     1
  1
\A1;%%c75
 11
0.0523359562429304
 21
0.9986295347545745
 31
0.0
 73
     1
 44
1.0
  0
POINT
  5
BC5
330
A21
100
AcDbEntity
  8
DEFPOINTS
 62
     0
100
AcDbPoint
 10
312.3074742986838
 20
146.2358114294963
 30
0.0
  0
POINT
  5
BC6
330
A21
100
AcDbEntity
  8
DEFPOINTS
 62
     0
100
AcDbPoint
 10
316.2380577449109
 20
221.2358114294969
 30
0.0
  0
POINT
  5
BC7
330
A21
100
AcDbEntity
  8
DEFPOINTS
 62
     0
100
AcDbPoint
 10
362.7519251965704
 20
218.7981229304903
 30
0.0
  0
ENDBLK
  5
A23
330
A21
100
AcDbEntity
  8
0
100
AcDbBlockEnd
  0
BLOCK
  5
C65
330
C64
100
AcDbEntity
  8
0
100
AcDbBlockBegin
  2
*D18
 70
     1
 10
0.0
 20
0.0
 30
0.0
  3
*D18
  1

  0
LINE
  5
C66
330
C64
100
AcDbEntity
  8
ACO_DIMENSION
100
AcDbLine
 10
1959.767799891888
 20
-1588.484050398616
 30
0.0
 11
2018.680082255073
 21
-1588.484050398616
 31
0.0
  0
LINE
  5
C67
330
C64
100
AcDbEntity
  8
ACO_DIMENSION
100
AcDbLine
 10
1959.767799891888
 20
-1663.484050398616
 30
0.0
 11
2018.680082255073
 21
-1663.484050398616
 31
0.0
  0
LINE
  5
C68
330
C64
100
AcDbEntity
  8
ACO_DIMENSION
100
AcDbLine
 10
2016.680082255073
 20
-1593.484050398616
 30
0.0
 11
2016.680082255073
 21
-1658.484050398616
 31
0.0
  0
SOLID
  5
C69
330
C64
100
AcDbEntity
  8
ACO_DIMENSION
100
AcDbTrace
 10
2015.846748921739
 20
-1593.484050398616
 30
0.0
 11
2017.513415588406
 21
-1593.484050398616
 31
0.0
 12
2016.680082255073
 22
-1588.484050398616
 32
0.0
 13
2016.680082255073
 23
-1588.484050398616
 33
0.0
  0
SOLID
  5
C6A
330
C64
100
AcDbEntity
  8
ACO_DIMENSION
100
AcDbTrace
 10
2015.846748921739
 20
-1658.484050398616
 30
0.0
 11
2017.513415588406
 21
-1658.484050398616
 31
0.0
 12
2016.680082255073
 22
-1663.484050398616
 32
0.0
 13
2016.680082255073
 23
-1663.484050398616
 33
0.0
  0
MTEXT
  5
C6B
330
C64
100
AcDbEntity
  8
ACO_DIMENSION
100
AcDbMText
 10
2005.677107222222
 20
-1634.390912459334
 30
0.0
 40
7.0
 41
0.0
 46
0.0
 71
     1
 72
     1
  1
\A1;{\fAIGDT|b0|i0;\H6.3000;\ln\fTahoma|b0|i0;\H6.3000;}75
  7
Text poznámky (ISO)
 11
0.0000000000000001
 21
1.0
 31
0.0
 73
     1
 44
1.0
  0
POINT
  5
C6C
330
C64
100
AcDbEntity
  8
DEFPOINTS
 62
     0
100
AcDbPoint
 10
1959.767799891888
 20
-1588.484050398616
 30
0.0
  0
POINT
  5
C6D
330
C64
100
AcDbEntity
  8
DEFPOINTS
 62
     0
100
AcDbPoint
 10
1959.767799891888
 20
-1663.484050398616
 30
0.0
  0
POINT
  5
C6E
330
C64
100
AcDbEntity
  8
DEFPOINTS
 62
     0
100
AcDbPoint
 10
2016.680082255073
 20
-1663.484050398616
 30
0.0
  0
ENDBLK
  5
C6F
330
C64
100
AcDbEntity
  8
0
100
AcDbBlockEnd
  0
BLOCK
  5
C71
330
C70
100
AcDbEntity
  8
0
100
AcDbBlockBegin
  2
*D19
 70
     1
 10
0.0
 20
0.0
 30
0.0
  3
*D19
  1

  0
LINE
  5
C72
330
C70
100
AcDbEntity
  8
ACO_DIMENSION
100
AcDbLine
 10
1750.310499364635
 20
-1931.281575419888
 30
0.0
 11
1685.056608761577
 21
-1931.281575419888
 31
0.0
  0
LINE
  5
C73
330
C70
100
AcDbEntity
  8
ACO_DIMENSION
100
AcDbLine
 10
1750.310499364635
 20
-1731.281575419888
 30
0.0
 11
1685.056608761577
 21
-1731.281575419888
 31
0.0
  0
LINE
  5
C74
330
C70
100
AcDbEntity
  8
ACO_DIMENSION
100
AcDbLine
 10
1687.056608761577
 20
-1926.281575419888
 30
0.0
 11
1687.056608761577
 21
-1736.281575419888
 31
0.0
  0
SOLID
  5
C75
330
C70
100
AcDbEntity
  8
ACO_DIMENSION
100
AcDbTrace
 10
1686.223275428243
 20
-1926.281575419888
 30
0.0
 11
1687.88994209491
 21
-1926.281575419888
 31
0.0
 12
1687.056608761577
 22
-1931.281575419888
 32
0.0
 13
1687.056608761577
 23
-1931.281575419888
 33
0.0
  0
SOLID
  5
C76
330
C70
100
AcDbEntity
  8
ACO_DIMENSION
100
AcDbTrace
 10
1686.223275428243
 20
-1736.281575419888
 30
0.0
 11
1687.88994209491
 21
-1736.281575419888
 31
0.0
 12
1687.056608761577
 22
-1731.281575419888
 32
0.0
 13
1687.056608761577
 23
-1731.281575419888
 33
0.0
  0
MTEXT
  5
C77
330
C70
100
AcDbEntity
  8
ACO_DIMENSION
100
AcDbMText
 10
1678.241137975815
 20
-1848.981373942386
 30
0.0
 40
7.0
 41
0.0
 46
0.0
 71
     1
 72
     1
  1
\A1;200{x200}
  7
Text poznámky (ISO)
 11
0.0000000000000001
 21
1.0
 31
0.0
 73
     1
 44
1.0
  0
POINT
  5
C78
330
C70
100
AcDbEntity
  8
DEFPOINTS
 62
     0
100
AcDbPoint
 10
1750.310499364635
 20
-1931.281575419888
 30
0.0
  0
POINT
  5
C79
330
C70
100
AcDbEntity
  8
DEFPOINTS
 62
     0
100
AcDbPoint
 10
1750.310499364635
 20
-1731.281575419888
 30
0.0
  0
POINT
  5
C7A
330
C70
100
AcDbEntity
  8
DEFPOINTS
 62
     0
100
AcDbPoint
 10
1687.056608761577
 20
-1731.281575419888
 30
0.0
  0
ENDBLK
  5
C7B
330
C70
100
AcDbEntity
  8
0
100
AcDbBlockEnd
  0
BLOCK
  5
C7D
330
C7C
100
AcDbEntity
  8
0
100
AcDbBlockBegin
  2
*D20
 70
     1
 10
0.0
 20
0.0
 30
0.0
  3
*D20
  1

  0
LINE
  5
C7E
330
C7C
100
AcDbEntity
  8
ACO_DIMENSION
100
AcDbLine
 10
1805.835286828515
 20
-1657.984050398616
 30
0.0
 11
1687.092502229124
 21
-1657.984050398616
 31
0.0
  0
LINE
  5
C7F
330
C7C
100
AcDbEntity
  8
ACO_DIMENSION
100
AcDbLine
 10
1750.809989107405
 20
-1519.979202198617
 30
0.0
 11
1687.092502229124
 21
-1519.979202198617
 31
0.0
  0
LINE
  5
C80
330
C7C
100
AcDbEntity
  8
ACO_DIMENSION
100
AcDbLine
 10
1689.092502229124
 20
-1652.984050398616
 30
0.0
 11
1689.092502229124
 21
-1524.979202198617
 31
0.0
  0
SOLID
  5
C81
330
C7C
100
AcDbEntity
  8
ACO_DIMENSION
100
AcDbTrace
 10
1688.259168895791
 20
-1652.984050398616
 30
0.0
 11
1689.925835562457
 21
-1652.984050398616
 31
0.0
 12
1689.092502229124
 22
-1657.984050398616
 32
0.0
 13
1689.092502229124
 23
-1657.984050398616
 33
0.0
  0
SOLID
  5
C82
330
C7C
100
AcDbEntity
  8
ACO_DIMENSION
100
AcDbTrace
 10
1688.259168895791
 20
-1524.979202198617
 30
0.0
 11
1689.925835562457
 21
-1524.979202198617
 31
0.0
 12
1689.092502229124
 22
-1519.979202198617
 32
0.0
 13
1689.092502229124
 23
-1519.979202198617
 33
0.0
  0
MTEXT
  5
C83
330
C7C
100
AcDbEntity
  8
ACO_DIMENSION
100
AcDbMText
 10
1680.248824593127
 20
-1602.324305949388
 30
0.0
 40
7.0
 41
0.0
 46
0.0
 71
     1
 72
     1
  1
\A1;138%%p1
  7
Text poznámky (ISO)
 11
0.0000000000000001
 21
1.0
 31
0.0
 73
     1
 44
1.0
  0
POINT
  5
C84
330
C7C
100
AcDbEntity
  8
DEFPOINTS
 62
     0
100
AcDbPoint
 10
1805.835286828515
 20
-1657.984050398616
 30
0.0
  0
POINT
  5
C85
330
C7C
100
AcDbEntity
  8
DEFPOINTS
 62
     0
100
AcDbPoint
 10
1750.809989107405
 20
-1519.979202198617
 30
0.0
  0
POINT
  5
C86
330
C7C
100
AcDbEntity
  8
DEFPOINTS
 62
     0
100
AcDbPoint
 10
1689.092502229124
 20
-1519.979202198617
 30
0.0
  0
ENDBLK
  5
C87
330
C7C
100
AcDbEntity
  8
0
100
AcDbBlockEnd
  0
BLOCK
  5
C89
330
C88
100
AcDbEntity
  8
0
100
AcDbBlockBegin
  2
*D21
 70
     1
 10
0.0
 20
0.0
 30
0.0
  3
*D21
  1

  0
LINE
  5
C8A
330
C88
100
AcDbEntity
  8
ACO_DIMENSION
100
AcDbLine
 10
1777.610499364705
 20
-1578.71020698314
 30
0.0
 11
1777.610499364705
 21
-1572.141797616691
 31
0.0
  0
LINE
  5
C8B
330
C88
100
AcDbEntity
  8
ACO_DIMENSION
100
AcDbLine
 10
1920.110499364705
 20
-1578.71020698314
 30
0.0
 11
1920.110499364705
 21
-1572.141797616691
 31
0.0
  0
LINE
  5
C8C
330
C88
100
AcDbEntity
  8
ACO_DIMENSION
100
AcDbLine
 10
1782.610499364705
 20
-1574.141797616691
 30
0.0
 11
1915.110499364705
 21
-1574.141797616691
 31
0.0
  0
SOLID
  5
C8D
330
C88
100
AcDbEntity
  8
ACO_DIMENSION
100
AcDbTrace
 10
1782.610499364705
 20
-1573.308464283358
 30
0.0
 11
1782.610499364705
 21
-1574.975130950024
 31
0.0
 12
1777.610499364705
 22
-1574.141797616691
 32
0.0
 13
1777.610499364705
 23
-1574.141797616691
 33
0.0
  0
SOLID
  5
C8E
330
C88
100
AcDbEntity
  8
ACO_DIMENSION
100
AcDbTrace
 10
1915.110499364705
 20
-1573.308464283358
 30
0.0
 11
1915.110499364705
 21
-1574.975130950024
 31
0.0
 12
1920.110499364705
 22
-1574.141797616691
 32
0.0
 13
1920.110499364705
 23
-1574.141797616691
 33
0.0
  0
MTEXT
  5
C8F
330
C88
100
AcDbEntity
  8
ACO_DIMENSION
100
AcDbMText
 10
1855.678576931198
 20
-1563.445870148592
 30
0.0
 40
7.0
 41
0.0
 46
0.0
 71
     1
 72
     1
  1
\A1;{Ø}142,5
  7
Text poznámky (ISO)
 73
     1
 44
1.0
  0
POINT
  5
C90
330
C88
100
AcDbEntity
  8
DEFPOINTS
 62
     0
100
AcDbPoint
 10
1777.610499364705
 20
-1578.71020698314
 30
0.0
  0
POINT
  5
C91
330
C88
100
AcDbEntity
  8
DEFPOINTS
 62
     0
100
AcDbPoint
 10
1920.110499364705
 20
-1578.71020698314
 30
0.0
  0
POINT
  5
C92
330
C88
100
AcDbEntity
  8
DEFPOINTS
 62
     0
100
AcDbPoint
 10
1920.110499364705
 20
-1574.141797616691
 30
0.0
  0
ENDBLK
  5
C93
330
C88
100
AcDbEntity
  8
0
100
AcDbBlockEnd
  0
BLOCK
  5
1084
330
1083
100
AcDbEntity
  8
0
100
AcDbBlockBegin
  2
*D22
 70
     1
 10
0.0
 20
0.0
 30
0.0
  3
*D22
  1

  0
LINE
  5
1144
330
1083
100
AcDbEntity
  8
KOTY_GULLY
  6
ByBlock
100
AcDbLine
 10
800.1796772512268
 20
115.0221142815132
 30
0.0
 11
874.411288738527
 21
115.0221142815132
 31
0.0
  0
LINE
  5
1145
330
1083
100
AcDbEntity
  8
KOTY_GULLY
  6
ByBlock
100
AcDbLine
 10
800.1796772512268
 20
40.02211428151325
 30
0.0
 11
874.411288738527
 21
40.02211428151325
 31
0.0
  0
LINE
  5
1146
330
1083
100
AcDbEntity
  8
KOTY_GULLY
  6
ByBlock
100
AcDbLine
 10
874.2112887385269
 20
112.0221142815132
 30
0.0
 11
874.2112887385269
 21
43.02211428151323
 31
0.0
  0
SOLID
  5
1147
330
1083
100
AcDbEntity
  8
KOTY_GULLY
100
AcDbTrace
 10
873.7112887385269
 20
112.0221142815132
 30
0.0
 11
874.7112887385267
 21
112.0221142815132
 31
0.0
 12
874.2112887385269
 22
115.0221142815132
 32
0.0
 13
874.2112887385269
 23
115.0221142815132
 33
0.0
  0
SOLID
  5
1148
330
1083
100
AcDbEntity
  8
KOTY_GULLY
100
AcDbTrace
 10
873.7112887385269
 20
43.02211428151323
 30
0.0
 11
874.7112887385267
 21
43.02211428151323
 31
0.0
 12
874.2112887385269
 22
40.02211428151325
 32
0.0
 13
874.2112887385269
 23
40.02211428151325
 33
0.0
  0
MTEXT
  5
1149
330
1083
100
AcDbEntity
  8
KOTY_GULLY
100
AcDbMText
 10
860.4686868988423
 20
67.02868833820559
 30
0.0
 40
12.0
 41
0.0
 46
0.0
 71
     1
 72
     1
  1
\A1;{\fAIGDT|b0|i0;\H6.3000;\ln\fTahoma|b0|i0;\H6.3000;}75
 11
0.0000000000000001
 21
1.0
 31
0.0
 73
     1
 44
1.0
  0
POINT
  5
114A
330
1083
100
AcDbEntity
  8
DEFPOINTS
 62
     0
100
AcDbPoint
 10
800.079677251227
 20
115.0221142815132
 30
0.0
  0
POINT
  5
114B
330
1083
100
AcDbEntity
  8
DEFPOINTS
 62
     0
100
AcDbPoint
 10
800.079677251227
 20
40.02211428151325
 30
0.0
  0
POINT
  5
114C
330
1083
100
AcDbEntity
  8
DEFPOINTS
 62
     0
100
AcDbPoint
 10
874.2112887385269
 20
40.02211428151325
 30
0.0
  0
ENDBLK
  5
1085
330
1083
100
AcDbEntity
  8
0
100
AcDbBlockEnd
  0
BLOCK
  5
1090
330
108F
100
AcDbEntity
  8
0
100
AcDbBlockBegin
  2
*D23
 70
     1
 10
0.0
 20
0.0
 30
0.0
  3
*D23
  1

  0
LINE
  5
1126
330
108F
100
AcDbEntity
  8
GULLY
  6
ByBlock
100
AcDbLine
 10
590.5223767239744
 20
-227.7754107397588
 30
0.0
 11
503.1272292183313
 21
-227.7754107397588
 31
0.0
  0
LINE
  5
1127
330
108F
100
AcDbEntity
  8
GULLY
  6
ByBlock
100
AcDbLine
 10
590.5223767239744
 20
-27.77541073975886
 30
0.0
 11
503.1272292183315
 21
-27.77541073975883
 31
0.0
  0
LINE
  5
1128
330
108F
100
AcDbEntity
  8
GULLY
  6
ByBlock
100
AcDbLine
 10
503.3272292183313
 20
-224.7754107397588
 30
0.0
 11
503.3272292183315
 21
-30.77541073975883
 31
0.0
  0
SOLID
  5
1129
330
108F
100
AcDbEntity
  8
GULLY
100
AcDbTrace
 10
502.8272292183313
 20
-224.7754107397588
 30
0.0
 11
503.8272292183314
 21
-224.7754107397588
 31
0.0
 12
503.3272292183313
 22
-227.7754107397588
 32
0.0
 13
503.3272292183313
 23
-227.7754107397588
 33
0.0
  0
SOLID
  5
112A
330
108F
100
AcDbEntity
  8
GULLY
100
AcDbTrace
 10
502.8272292183315
 20
-30.77541073975883
 30
0.0
 11
503.8272292183314
 21
-30.77541073975883
 31
0.0
 12
503.3272292183315
 22
-27.77541073975883
 32
0.0
 13
503.3272292183315
 23
-27.77541073975883
 33
0.0
  0
MTEXT
  5
112B
330
108F
100
AcDbEntity
  8
GULLY
100
AcDbMText
 10
491.2072292183315
 20
-157.718267882616
 30
0.0
 40
12.0
 41
0.0
 46
0.0
 71
     1
 72
     1
  1
\A1;200{x200}
 11
0.0000000000000001
 21
1.0
 31
0.0
 73
     1
 44
1.0
  0
POINT
  5
112C
330
108F
100
AcDbEntity
  8
DEFPOINTS
 62
     0
100
AcDbPoint
 10
590.6223767239744
 20
-227.7754107397588
 30
0.0
  0
POINT
  5
112D
330
108F
100
AcDbEntity
  8
DEFPOINTS
 62
     0
100
AcDbPoint
 10
590.6223767239744
 20
-27.77541073975886
 30
0.0
  0
POINT
  5
112E
330
108F
100
AcDbEntity
  8
DEFPOINTS
 62
     0
100
AcDbPoint
 10
503.3272292183315
 20
-27.77541073975883
 30
0.0
  0
ENDBLK
  5
1091
330
108F
100
AcDbEntity
  8
0
100
AcDbBlockEnd
  0
BLOCK
  5
109C
330
109B
100
AcDbEntity
  8
0
100
AcDbBlockBegin
  2
*D24
 70
     1
 10
0.0
 20
0.0
 30
0.0
  3
*D24
  1

  0
LINE
  5
10B3
330
109B
100
AcDbEntity
  8
KOTY_GULLY
  6
ByBlock
100
AcDbLine
 10
646.0471641878542
 20
45.52211428151326
 30
0.0
 11
529.2043795884628
 21
45.5221142815133
 31
0.0
  0
LINE
  5
10B4
330
109B
100
AcDbEntity
  8
KOTY_GULLY
  6
ByBlock
100
AcDbLine
 10
591.0218664667437
 20
183.5269624815125
 30
0.0
 11
529.2043795884628
 21
183.5269624815126
 31
0.0
  0
LINE
  5
10B5
330
109B
100
AcDbEntity
  8
KOTY_GULLY
  6
ByBlock
100
AcDbLine
 10
529.4043795884631
 20
48.52211428151329
 30
0.0
 11
529.4043795884631
 21
180.5269624815126
 31
0.0
  0
SOLID
  5
10B6
330
109B
100
AcDbEntity
  8
KOTY_GULLY
100
AcDbTrace
 10
528.9043795884631
 20
48.52211428151329
 30
0.0
 11
529.9043795884631
 21
48.52211428151329
 31
0.0
 12
529.4043795884631
 22
45.5221142815133
 32
0.0
 13
529.4043795884631
 23
45.5221142815133
 33
0.0
  0
SOLID
  5
10B7
330
109B
100
AcDbEntity
  8
KOTY_GULLY
100
AcDbTrace
 10
528.9043795884631
 20
180.5269624815126
 30
0.0
 11
529.9043795884631
 21
180.5269624815126
 31
0.0
 12
529.4043795884631
 22
183.5269624815126
 32
0.0
 13
529.4043795884631
 23
183.5269624815126
 33
0.0
  0
MTEXT
  5
10B8
330
109B
100
AcDbEntity
  8
KOTY_GULLY
100
AcDbMText
 10
517.2843795884631
 20
94.38882409579909
 30
0.0
 40
12.0
 41
0.0
 46
0.0
 71
     1
 72
     1
  1
\A1;138%%p1
 11
0.0000000000000001
 21
1.0
 31
0.0
 73
     1
 44
1.0
  0
POINT
  5
10B9
330
109B
100
AcDbEntity
  8
DEFPOINTS
 62
     0
100
AcDbPoint
 10
646.1471641878542
 20
45.52211428151326
 30
0.0
  0
POINT
  5
10BA
330
109B
100
AcDbEntity
  8
DEFPOINTS
 62
     0
100
AcDbPoint
 10
591.121866466744
 20
183.5269624815125
 30
0.0
  0
POINT
  5
10BB
330
109B
100
AcDbEntity
  8
DEFPOINTS
 62
     0
100
AcDbPoint
 10
529.4043795884631
 20
183.5269624815126
 30
0.0
  0
ENDBLK
  5
109D
330
109B
100
AcDbEntity
  8
0
100
AcDbBlockEnd
  0
BLOCK
  5
10A8
330
10A7
100
AcDbEntity
  8
0
100
AcDbBlockBegin
  2
*D25
 70
     1
 10
0.0
 20
0.0
 30
0.0
  3
*D25
  1

  0
LINE
  5
10F3
330
10A7
100
AcDbEntity
  8
KOTY_GULLY
  6
ByBlock
100
AcDbLine
 10
617.9223767240435
 20
124.8959576969895
 30
0.0
 11
617.9223767240435
 21
207.8769718467592
 31
0.0
  0
LINE
  5
10F4
330
10A7
100
AcDbEntity
  8
KOTY_GULLY
  6
ByBlock
100
AcDbLine
 10
760.4223767240437
 20
124.8959576969895
 30
0.0
 11
760.4223767240437
 21
207.8769718467592
 31
0.0
  0
LINE
  5
10F5
330
10A7
100
AcDbEntity
  8
KOTY_GULLY
  6
ByBlock
100
AcDbLine
 10
620.9223767240437
 20
207.6769718467592
 30
0.0
 11
757.4223767240437
 21
207.6769718467592
 31
0.0
  0
SOLID
  5
10F6
330
10A7
100
AcDbEntity
  8
KOTY_GULLY
100
AcDbTrace
 10
620.9223767240437
 20
208.1769718467592
 30
0.0
 11
620.9223767240437
 21
207.1769718467592
 31
0.0
 12
617.9223767240435
 22
207.6769718467592
 32
0.0
 13
617.9223767240435
 23
207.6769718467592
 33
0.0
  0
SOLID
  5
10F7
330
10A7
100
AcDbEntity
  8
KOTY_GULLY
100
AcDbTrace
 10
757.4223767240437
 20
208.1769718467592
 30
0.0
 11
757.4223767240437
 21
207.1769718467592
 31
0.0
 12
760.4223767240437
 22
207.6769718467592
 32
0.0
 13
760.4223767240437
 23
207.6769718467592
 33
0.0
  0
MTEXT
  5
10F8
330
10A7
100
AcDbEntity
  8
KOTY_GULLY
100
AcDbMText
 10
674.2193529026256
 20
219.7969718467592
 30
0.0
 40
12.0
 41
0.0
 46
0.0
 71
     1
 72
     1
  1
\A1;{Ø}142
 73
     1
 44
1.0
  0
POINT
  5
10F9
330
10A7
100
AcDbEntity
  8
DEFPOINTS
 62
     0
100
AcDbPoint
 10
617.9223767240435
 20
124.7959576969895
 30
0.0
  0
POINT
  5
10FA
330
10A7
100
AcDbEntity
  8
DEFPOINTS
 62
     0
100
AcDbPoint
 10
760.4223767240437
 20
124.7959576969895
 30
0.0
  0
POINT
  5
10FB
330
10A7
100
AcDbEntity
  8
DEFPOINTS
 62
     0
100
AcDbPoint
 10
760.4223767240437
 20
207.6769718467592
 30
0.0
  0
ENDBLK
  5
10A9
330
10A7
100
AcDbEntity
  8
0
100
AcDbBlockEnd
  0
BLOCK
  5
1513
330
1512
100
AcDbEntity
  8
0
100
AcDbBlockBegin
  2
*D26
 70
     1
 10
0.0
 20
0.0
 30
0.0
  3
*D26
  1

  0
LINE
  5
1514
330
1512
100
AcDbEntity
  8
ACO_DIMENSION
100
AcDbLine
 10
2223.998290012951
 20
2383.422820503493
 30
0.0
 11
2293.57783201295
 21
2383.422820503493
 31
0.0
  0
LINE
  5
1515
330
1512
100
AcDbEntity
  8
ACO_DIMENSION
100
AcDbLine
 10
2216.498290012951
 20
2500.422820503493
 30
0.0
 11
2293.57783201295
 21
2500.422820503493
 31
0.0
  0
LINE
  5
1516
330
1512
100
AcDbEntity
  8
ACO_DIMENSION
100
AcDbLine
 10
2291.57783201295
 20
2388.422820503493
 30
0.0
 11
2291.57783201295
 21
2495.422820503494
 31
0.0
  0
SOLID
  5
1517
330
1512
100
AcDbEntity
  8
ACO_DIMENSION
100
AcDbTrace
 10
2290.744498679617
 20
2388.422820503493
 30
0.0
 11
2292.411165346284
 21
2388.422820503493
 31
0.0
 12
2291.57783201295
 22
2383.422820503493
 32
0.0
 13
2291.57783201295
 23
2383.422820503493
 33
0.0
  0
SOLID
  5
1518
330
1512
100
AcDbEntity
  8
ACO_DIMENSION
100
AcDbTrace
 10
2290.744498679617
 20
2495.422820503494
 30
0.0
 11
2292.411165346284
 21
2495.422820503494
 31
0.0
 12
2291.57783201295
 22
2500.422820503493
 32
0.0
 13
2291.57783201295
 23
2500.422820503493
 33
0.0
  0
MTEXT
  5
1519
330
1512
100
AcDbEntity
  8
ACO_DIMENSION
100
AcDbMText
 10
2286.410447190922
 20
2441.922820503494
 30
0.0
 40
7.0
 41
0.0
 46
0.0
 71
     5
 72
     1
  1
\A1;75 - 110
  7
Text poznámky (ISO)
 11
0.0000000000000001
 21
1.0
 31
0.0
 73
     1
 44
1.0
  0
POINT
  5
151A
330
1512
100
AcDbEntity
  8
DEFPOINTS
 62
     0
100
AcDbPoint
 10
2223.998290012951
 20
2383.422820503493
 30
0.0
  0
POINT
  5
151B
330
1512
100
AcDbEntity
  8
DEFPOINTS
 62
     0
100
AcDbPoint
 10
2216.498290012951
 20
2500.422820503493
 30
0.0
  0
POINT
  5
151C
330
1512
100
AcDbEntity
  8
DEFPOINTS
 62
     0
100
AcDbPoint
 10
2291.57783201295
 20
2500.422820503493
 30
0.0
  0
ENDBLK
  5
151D
330
1512
100
AcDbEntity
  8
0
100
AcDbBlockEnd
  0
BLOCK
  5
151F
330
151E
100
AcDbEntity
  8
0
100
AcDbBlockBegin
  2
*D27
 70
     1
 10
0.0
 20
0.0
 30
0.0
  3
*D27
  1

  0
LINE
  5
1520
330
151E
100
AcDbEntity
  8
ACO_DIMENSION
100
AcDbLine
 10
2098.997566012951
 20
2383.505690503493
 30
0.0
 11
2098.997566012951
 21
2331.422820503493
 31
0.0
  0
LINE
  5
1521
330
151E
100
AcDbEntity
  8
ACO_DIMENSION
100
AcDbLine
 10
2223.99828901295
 20
2383.588560503494
 30
0.0
 11
2223.99828901295
 21
2331.422820503493
 31
0.0
  0
LINE
  5
1522
330
151E
100
AcDbEntity
  8
ACO_DIMENSION
100
AcDbLine
 10
2103.997566012951
 20
2333.422820503493
 30
0.0
 11
2218.99828901295
 21
2333.422820503493
 31
0.0
  0
SOLID
  5
1523
330
151E
100
AcDbEntity
  8
ACO_DIMENSION
100
AcDbTrace
 10
2103.997566012951
 20
2334.256153836827
 30
0.0
 11
2103.997566012951
 21
2332.58948717016
 31
0.0
 12
2098.997566012951
 22
2333.422820503493
 32
0.0
 13
2098.997566012951
 23
2333.422820503493
 33
0.0
  0
SOLID
  5
1524
330
151E
100
AcDbEntity
  8
ACO_DIMENSION
100
AcDbTrace
 10
2218.99828901295
 20
2334.256153836827
 30
0.0
 11
2218.99828901295
 21
2332.58948717016
 31
0.0
 12
2223.99828901295
 22
2333.422820503493
 32
0.0
 13
2223.99828901295
 23
2333.422820503493
 33
0.0
  0
MTEXT
  5
1525
330
151E
100
AcDbEntity
  8
ACO_DIMENSION
100
AcDbMText
 10
2161.497927512951
 20
2338.935739240901
 30
0.0
 40
7.0
 41
0.0
 46
0.0
 71
     5
 72
     1
  1
\A1;%%c125
  7
Text poznámky (ISO)
 73
     1
 44
1.0
  0
POINT
  5
1526
330
151E
100
AcDbEntity
  8
DEFPOINTS
 62
     0
100
AcDbPoint
 10
2098.997566012951
 20
2383.505690503493
 30
0.0
  0
POINT
  5
1527
330
151E
100
AcDbEntity
  8
DEFPOINTS
 62
     0
100
AcDbPoint
 10
2223.99828901295
 20
2383.588560503494
 30
0.0
  0
POINT
  5
1528
330
151E
100
AcDbEntity
  8
DEFPOINTS
 62
     0
100
AcDbPoint
 10
2223.99828901295
 20
2333.422820503493
 30
0.0
  0
ENDBLK
  5
1529
330
151E
100
AcDbEntity
  8
0
100
AcDbBlockEnd
  0
BLOCK
  5
152B
330
152A
100
AcDbEntity
  8
0
100
AcDbBlockBegin
  2
*D28
 70
     1
 10
0.0
 20
0.0
 30
0.0
  3
*D28
  1

  0
LINE
  5
152C
330
152A
100
AcDbEntity
  8
ACO_DIMENSION
100
AcDbLine
 10
2125.498290012951
 20
2124.199888503494
 30
0.0
 11
2125.498290012951
 21
2064.276644046767
 31
0.0
  0
LINE
  5
152D
330
152A
100
AcDbEntity
  8
ACO_DIMENSION
100
AcDbLine
 10
2117.498290012951
 20
2124.199888503494
 30
0.0
 11
2117.498290012951
 21
2064.276644046767
 31
0.0
  0
LINE
  5
152E
330
152A
100
AcDbEntity
  8
ACO_DIMENSION
100
AcDbLine
 10
2130.498290012951
 20
2066.276644046766
 30
0.0
 11
2135.498290012951
 21
2066.276644046766
 31
0.0
  0
LINE
  5
152F
330
152A
100
AcDbEntity
  8
ACO_DIMENSION
100
AcDbLine
 10
2112.49829001295
 20
2066.276644046766
 30
0.0
 11
2099.890182558283
 21
2066.276644046766
 31
0.0
  0
LINE
  5
1530
330
152A
100
AcDbEntity
  8
ACO_DIMENSION
100
AcDbLine
 10
2125.498290012951
 20
2066.276644046766
 30
0.0
 11
2117.498290012951
 21
2066.276644046766
 31
0.0
  0
SOLID
  5
1531
330
152A
100
AcDbEntity
  8
ACO_DIMENSION
100
AcDbTrace
 10
2130.498290012951
 20
2067.109977380099
 30
0.0
 11
2130.498290012951
 21
2065.443310713432
 31
0.0
 12
2125.498290012951
 22
2066.276644046766
 32
0.0
 13
2125.498290012951
 23
2066.276644046766
 33
0.0
  0
SOLID
  5
1532
330
152A
100
AcDbEntity
  8
ACO_DIMENSION
100
AcDbTrace
 10
2112.49829001295
 20
2067.109977380099
 30
0.0
 11
2112.49829001295
 21
2065.443310713432
 31
0.0
 12
2117.498290012951
 22
2066.276644046766
 32
0.0
 13
2117.498290012951
 23
2066.276644046766
 33
0.0
  0
MTEXT
  5
1533
330
152A
100
AcDbEntity
  8
ACO_DIMENSION
100
AcDbMText
 10
2103.694236285617
 20
2071.460482864765
 30
0.0
 40
7.0
 41
0.0
 46
0.0
 71
     5
 72
     1
  1
\A1;8
  7
Text poznámky (ISO)
 73
     1
 44
1.0
  0
POINT
  5
1534
330
152A
100
AcDbEntity
  8
DEFPOINTS
 62
     0
100
AcDbPoint
 10
2125.498290012951
 20
2124.199888503494
 30
0.0
  0
POINT
  5
1535
330
152A
100
AcDbEntity
  8
DEFPOINTS
 62
     0
100
AcDbPoint
 10
2117.498290012951
 20
2124.199888503494
 30
0.0
  0
POINT
  5
1536
330
152A
100
AcDbEntity
  8
DEFPOINTS
 62
     0
100
AcDbPoint
 10
2117.498290012951
 20
2066.276644046766
 30
0.0
  0
ENDBLK
  5
1537
330
152A
100
AcDbEntity
  8
0
100
AcDbBlockEnd
  0
BLOCK
  5
1539
330
1538
100
AcDbEntity
  8
0
100
AcDbBlockBegin
  2
*D29
 70
     1
 10
0.0
 20
0.0
 30
0.0
  3
*D29
  1

  0
LINE
  5
153A
330
1538
100
AcDbEntity
  8
ACO_DIMENSION
100
AcDbLine
 10
2235.998290012951
 20
2500.422820503493
 30
0.0
 11
2235.998290012951
 21
2536.124427348128
 31
0.0
  0
LINE
  5
153B
330
1538
100
AcDbEntity
  8
ACO_DIMENSION
100
AcDbLine
 10
2086.998290012951
 20
2500.422820503493
 30
0.0
 11
2086.998290012951
 21
2536.124427348128
 31
0.0
  0
LINE
  5
153C
330
1538
100
AcDbEntity
  8
ACO_DIMENSION
100
AcDbLine
 10
2230.998290012951
 20
2534.124427348128
 30
0.0
 11
2091.998290012951
 21
2534.124427348128
 31
0.0
  0
SOLID
  5
153D
330
1538
100
AcDbEntity
  8
ACO_DIMENSION
100
AcDbTrace
 10
2230.998290012951
 20
2534.957760681462
 30
0.0
 11
2230.998290012951
 21
2533.291094014794
 31
0.0
 12
2235.998290012951
 22
2534.124427348128
 32
0.0
 13
2235.998290012951
 23
2534.124427348128
 33
0.0
  0
SOLID
  5
153E
330
1538
100
AcDbEntity
  8
ACO_DIMENSION
100
AcDbTrace
 10
2091.998290012951
 20
2534.957760681462
 30
0.0
 11
2091.998290012951
 21
2533.291094014794
 31
0.0
 12
2086.998290012951
 22
2534.124427348128
 32
0.0
 13
2086.998290012951
 23
2534.124427348128
 33
0.0
  0
MTEXT
  5
153F
330
1538
100
AcDbEntity
  8
ACO_DIMENSION
100
AcDbMText
 10
2161.206020012951
 20
2539.287111028451
 30
0.0
 40
7.0
 41
0.0
 46
0.0
 71
     5
 72
     1
  1
\A1;{\Fgeniso.shx;□}149
  7
Text poznámky (ISO)
 73
     1
 44
1.0
  0
POINT
  5
1540
330
1538
100
AcDbEntity
  8
DEFPOINTS
 62
     0
100
AcDbPoint
 10
2235.998290012951
 20
2500.422820503493
 30
0.0
  0
POINT
  5
1541
330
1538
100
AcDbEntity
  8
DEFPOINTS
 62
     0
100
AcDbPoint
 10
2086.998290012951
 20
2500.422820503493
 30
0.0
  0
POINT
  5
1542
330
1538
100
AcDbEntity
  8
DEFPOINTS
 62
     0
100
AcDbPoint
 10
2086.998290012951
 20
2534.124427348128
 30
0.0
  0
ENDBLK
  5
1543
330
1538
100
AcDbEntity
  8
0
100
AcDbBlockEnd
  0
BLOCK
  5
18A1
330
18A0
100
AcDbEntity
  8
0
100
AcDbBlockBegin
  2
*D30
 70
     1
 10
0.0
 20
0.0
 30
0.0
  3
*D30
  1

  0
LINE
  5
1A76
330
18A0
100
AcDbEntity
  8
KOTY_GULLY
  6
ByBlock
100
AcDbLine
 10
1119.627197592678
 20
174.9702842146421
 30
0.0
 11
1170.511830945276
 21
174.9702842146421
 31
0.0
  0
LINE
  5
1A77
330
18A0
100
AcDbEntity
  8
KOTY_GULLY
  6
ByBlock
100
AcDbLine
 10
1112.127197592678
 20
291.9702842146421
 30
0.0
 11
1170.511830945276
 21
291.9702842146421
 31
0.0
  0
LINE
  5
1A78
330
18A0
100
AcDbEntity
  8
KOTY_GULLY
  6
ByBlock
100
AcDbLine
 10
1170.311830945276
 20
177.9702842146421
 30
0.0
 11
1170.311830945276
 21
288.970284214642
 31
0.0
  0
SOLID
  5
1A79
330
18A0
100
AcDbEntity
  8
KOTY_GULLY
100
AcDbTrace
 10
1169.811830945276
 20
177.9702842146421
 30
0.0
 11
1170.811830945276
 21
177.9702842146421
 31
0.0
 12
1170.311830945276
 22
174.9702842146421
 32
0.0
 13
1170.311830945276
 23
174.9702842146421
 33
0.0
  0
SOLID
  5
1A7A
330
18A0
100
AcDbEntity
  8
KOTY_GULLY
100
AcDbTrace
 10
1169.811830945276
 20
288.970284214642
 30
0.0
 11
1170.811830945276
 21
288.970284214642
 31
0.0
 12
1170.311830945276
 22
291.9702842146421
 32
0.0
 13
1170.311830945276
 23
291.9702842146421
 33
0.0
  0
MTEXT
  5
1A7B
330
18A0
100
AcDbEntity
  8
KOTY_GULLY
100
AcDbMText
 10
1164.191830945277
 20
233.4702842146422
 30
0.0
 40
12.0
 41
0.0
 46
0.0
 71
     5
 72
     1
  1
\A1;75 - 110
 11
0.0000000000000001
 21
1.0
 31
0.0
 73
     1
 44
1.0
  0
POINT
  5
1A7C
330
18A0
100
AcDbEntity
  8
DEFPOINTS
 62
     0
100
AcDbPoint
 10
1119.527197592678
 20
174.9702842146421
 30
0.0
  0
POINT
  5
1A7D
330
18A0
100
AcDbEntity
  8
DEFPOINTS
 62
     0
100
AcDbPoint
 10
1112.027197592678
 20
291.9702842146421
 30
0.0
  0
POINT
  5
1A7E
330
18A0
100
AcDbEntity
  8
DEFPOINTS
 62
     0
100
AcDbPoint
 10
1170.311830945276
 20
291.9702842146421
 30
0.0
  0
ENDBLK
  5
18A2
330
18A0
100
AcDbEntity
  8
0
100
AcDbBlockEnd
  0
BLOCK
  5
18AD
330
18AC
100
AcDbEntity
  8
0
100
AcDbBlockBegin
  2
*D31
 70
     1
 10
0.0
 20
0.0
 30
0.0
  3
*D31
  1

  0
LINE
  5
1A88
330
18AC
100
AcDbEntity
  8
KOTY_GULLY
  6
ByBlock
100
AcDbLine
 10
994.526473592678
 20
174.9531542146423
 30
0.0
 11
994.526473592678
 21
142.5422371431608
 31
0.0
  0
LINE
  5
1A89
330
18AC
100
AcDbEntity
  8
KOTY_GULLY
  6
ByBlock
100
AcDbLine
 10
1119.527196592677
 20
175.0360242146425
 30
0.0
 11
1119.527196592677
 21
142.5422371431608
 31
0.0
  0
LINE
  5
1A8A
330
18AC
100
AcDbEntity
  8
KOTY_GULLY
  6
ByBlock
100
AcDbLine
 10
997.526473592678
 20
142.7422371431607
 30
0.0
 11
1116.527196592677
 21
142.7422371431607
 31
0.0
  0
SOLID
  5
1A8B
330
18AC
100
AcDbEntity
  8
KOTY_GULLY
100
AcDbTrace
 10
997.526473592678
 20
143.2422371431607
 30
0.0
 11
997.526473592678
 21
142.2422371431608
 31
0.0
 12
994.526473592678
 22
142.7422371431607
 32
0.0
 13
994.526473592678
 23
142.7422371431607
 33
0.0
  0
SOLID
  5
1A8C
330
18AC
100
AcDbEntity
  8
KOTY_GULLY
100
AcDbTrace
 10
1116.527196592677
 20
143.2422371431607
 30
0.0
 11
1116.527196592677
 21
142.2422371431608
 31
0.0
 12
1119.527196592677
 22
142.7422371431607
 32
0.0
 13
1119.527196592677
 23
142.7422371431607
 33
0.0
  0
MTEXT
  5
1A8D
330
18AC
100
AcDbEntity
  8
KOTY_GULLY
100
AcDbMText
 10
1057.026835092678
 20
148.8622371431608
 30
0.0
 40
12.0
 41
0.0
 46
0.0
 71
     5
 72
     1
  1
\A1;%%c125
 73
     1
 44
1.0
  0
POINT
  5
1A8E
330
18AC
100
AcDbEntity
  8
DEFPOINTS
 62
     0
100
AcDbPoint
 10
994.526473592678
 20
175.0531542146423
 30
0.0
  0
POINT
  5
1A8F
330
18AC
100
AcDbEntity
  8
DEFPOINTS
 62
     0
100
AcDbPoint
 10
1119.527196592677
 20
175.1360242146424
 30
0.0
  0
POINT
  5
1A90
330
18AC
100
AcDbEntity
  8
DEFPOINTS
 62
     0
100
AcDbPoint
 10
1119.527196592677
 20
142.7422371431607
 30
0.0
  0
ENDBLK
  5
18AE
330
18AC
100
AcDbEntity
  8
0
100
AcDbBlockEnd
  0
BLOCK
  5
18B9
330
18B8
100
AcDbEntity
  8
0
100
AcDbBlockBegin
  2
*D32
 70
     1
 10
0.0
 20
0.0
 30
0.0
  3
*D32
  1

  0
LINE
  5
1A63
330
18B8
100
AcDbEntity
  8
KOTY_GULLY
  6
ByBlock
100
AcDbLine
 10
1021.027197592678
 20
27.84735221464245
 30
0.0
 11
1021.027197592678
 21
56.88134942326197
 31
0.0
  0
LINE
  5
1A64
330
18B8
100
AcDbEntity
  8
KOTY_GULLY
  6
ByBlock
100
AcDbLine
 10
1013.027197592678
 20
27.84735221464245
 30
0.0
 11
1013.027197592678
 21
56.88134942326197
 31
0.0
  0
LINE
  5
1A65
330
18B8
100
AcDbEntity
  8
KOTY_GULLY
  6
ByBlock
100
AcDbLine
 10
1018.027197592678
 20
56.68134942326195
 30
0.0
 11
1016.027197592678
 21
56.68134942326195
 31
0.0
  0
LINE
  5
1A66
330
18B8
100
AcDbEntity
  8
KOTY_GULLY
  6
ByBlock
100
AcDbLine
 10
1013.027197592678
 20
56.68134942326195
 30
0.0
 11
995.9031438653443
 21
56.68134942326195
 31
0.0
  0
SOLID
  5
1A67
330
18B8
100
AcDbEntity
  8
KOTY_GULLY
100
AcDbTrace
 10
1018.027197592678
 20
57.18134942326195
 30
0.0
 11
1018.027197592678
 21
56.18134942326197
 31
0.0
 12
1021.027197592678
 22
56.68134942326195
 32
0.0
 13
1021.027197592678
 23
56.68134942326195
 33
0.0
  0
SOLID
  5
1A68
330
18B8
100
AcDbEntity
  8
KOTY_GULLY
100
AcDbTrace
 10
1016.027197592678
 20
57.18134942326195
 30
0.0
 11
1016.027197592678
 21
56.18134942326197
 31
0.0
 12
1013.027197592678
 22
56.68134942326195
 32
0.0
 13
1013.027197592678
 23
56.68134942326195
 33
0.0
  0
MTEXT
  5
1A69
330
18B8
100
AcDbEntity
  8
KOTY_GULLY
100
AcDbMText
 10
999.2231438653442
 20
62.80134942326196
 30
0.0
 40
12.0
 41
0.0
 46
0.0
 71
     5
 72
     1
  1
\A1;8
 73
     1
 44
1.0
  0
POINT
  5
1A6A
330
18B8
100
AcDbEntity
  8
DEFPOINTS
 62
     0
100
AcDbPoint
 10
1021.027197592678
 20
27.74735221464244
 30
0.0
  0
POINT
  5
1A6B
330
18B8
100
AcDbEntity
  8
DEFPOINTS
 62
     0
100
AcDbPoint
 10
1013.027197592678
 20
27.74735221464244
 30
0.0
  0
POINT
  5
1A6C
330
18B8
100
AcDbEntity
  8
DEFPOINTS
 62
     0
100
AcDbPoint
 10
1013.027197592678
 20
56.68134942326195
 30
0.0
  0
ENDBLK
  5
18BA
330
18B8
100
AcDbEntity
  8
0
100
AcDbBlockEnd
  0
BLOCK
  5
18C7
330
18C6
100
AcDbEntity
  8
0
100
AcDbBlockBegin
  2
*D33
 70
     1
 10
0.0
 20
0.0
 30
0.0
  3
*D33
  1

  0
LINE
  5
1A7F
330
18C6
100
AcDbEntity
  8
KOTY_GULLY
  6
ByBlock
100
AcDbLine
 10
1131.527197592678
 20
292.0702842146421
 30
0.0
 11
1131.527197592678
 21
325.8718910592767
 31
0.0
  0
LINE
  5
1A80
330
18C6
100
AcDbEntity
  8
KOTY_GULLY
  6
ByBlock
100
AcDbLine
 10
982.527197592678
 20
292.0702842146421
 30
0.0
 11
982.527197592678
 21
325.8718910592767
 31
0.0
  0
LINE
  5
1A81
330
18C6
100
AcDbEntity
  8
KOTY_GULLY
  6
ByBlock
100
AcDbLine
 10
1128.527197592678
 20
325.6718910592767
 30
0.0
 11
985.5271975926781
 21
325.6718910592767
 31
0.0
  0
SOLID
  5
1A82
330
18C6
100
AcDbEntity
  8
KOTY_GULLY
100
AcDbTrace
 10
1128.527197592678
 20
326.1718910592767
 30
0.0
 11
1128.527197592678
 21
325.1718910592767
 31
0.0
 12
1131.527197592678
 22
325.6718910592767
 32
0.0
 13
1131.527197592678
 23
325.6718910592767
 33
0.0
  0
SOLID
  5
1A83
330
18C6
100
AcDbEntity
  8
KOTY_GULLY
100
AcDbTrace
 10
985.5271975926781
 20
326.1718910592767
 30
0.0
 11
985.5271975926781
 21
325.1718910592767
 31
0.0
 12
982.527197592678
 22
325.6718910592767
 32
0.0
 13
982.527197592678
 23
325.6718910592767
 33
0.0
  0
MTEXT
  5
1A84
330
18C6
100
AcDbEntity
  8
KOTY_GULLY
100
AcDbMText
 10
1056.734927592678
 20
331.7918910592768
 30
0.0
 40
12.0
 41
0.0
 46
0.0
 71
     5
 72
     1
  1
\A1;{\Fgeniso.shx;□}149
 73
     1
 44
1.0
  0
POINT
  5
1A85
330
18C6
100
AcDbEntity
  8
DEFPOINTS
 62
     0
100
AcDbPoint
 10
1131.527197592678
 20
291.9702842146421
 30
0.0
  0
POINT
  5
1A86
330
18C6
100
AcDbEntity
  8
DEFPOINTS
 62
     0
100
AcDbPoint
 10
982.527197592678
 20
291.9702842146421
 30
0.0
  0
POINT
  5
1A87
330
18C6
100
AcDbEntity
  8
DEFPOINTS
 62
     0
100
AcDbPoint
 10
982.527197592678
 20
325.6718910592767
 30
0.0
  0
ENDBLK
  5
18C8
330
18C6
100
AcDbEntity
  8
0
100
AcDbBlockEnd
  0
BLOCK
  5
18F1
330
18F0
100
AcDbEntity
  8
0
100
AcDbBlockBegin
  2
*D34
 70
     1
 10
0.0
 20
0.0
 30
0.0
  3
*D34
  1

  0
LINE
  5
18F2
330
18F0
100
AcDbEntity
  8
P-0005
  6
ByBlock
100
AcDbLine
 10
6690.114314491579
 20
-658.8630628963437
 30
0.0
 11
6690.114314491579
 21
-673.8908230304872
 31
0.0
  0
LINE
  5
18F3
330
18F0
100
AcDbEntity
  8
P-0005
  6
ByBlock
100
AcDbLine
 10
6637.114314491579
 20
-658.8630628963451
 30
0.0
 11
6637.114314491579
 21
-673.8908230304872
 31
0.0
  0
LINE
  5
18F4
330
18F0
100
AcDbEntity
  8
P-0005
  6
ByBlock
100
AcDbLine
 10
6688.614314491579
 20
-672.8908230304872
 30
0.0
 11
6638.614314491579
 21
-672.8908230304872
 31
0.0
  0
SOLID
  5
18F5
330
18F0
100
AcDbEntity
  8
P-0005
100
AcDbTrace
 10
6688.614314491579
 20
-672.6408230304872
 30
0.0
 11
6688.614314491579
 21
-673.1408230304872
 31
0.0
 12
6690.114314491579
 22
-672.8908230304872
 32
0.0
 13
6690.114314491579
 23
-672.8908230304872
 33
0.0
  0
SOLID
  5
18F6
330
18F0
100
AcDbEntity
  8
P-0005
100
AcDbTrace
 10
6638.614314491579
 20
-672.6408230304872
 30
0.0
 11
6638.614314491579
 21
-673.1408230304872
 31
0.0
 12
6637.114314491579
 22
-672.8908230304872
 32
0.0
 13
6637.114314491579
 23
-672.8908230304872
 33
0.0
  0
MTEXT
  5
18F7
330
18F0
100
AcDbEntity
  8
P-0005
 62
     7
100
AcDbMText
 10
6663.614314491579
 20
-668.3908230304872
 30
0.0
 40
6.0
 41
0.0
 46
0.0
 71
     5
 72
     1
  1
D
 73
     1
 44
1.0
  0
POINT
  5
18F8
330
18F0
100
AcDbEntity
  8
DEFPOINTS
 62
     0
100
AcDbPoint
 10
6690.114314491579
 20
-657.8630628963438
 30
0.0
  0
POINT
  5
18F9
330
18F0
100
AcDbEntity
  8
DEFPOINTS
 62
     0
100
AcDbPoint
 10
6637.114314491579
 20
-657.8630628963451
 30
0.0
  0
POINT
  5
18FA
330
18F0
100
AcDbEntity
  8
DEFPOINTS
 62
     0
100
AcDbPoint
 10
6637.114314491579
 20
-672.8908230304872
 30
0.0
  0
ENDBLK
  5
18FB
330
18F0
100
AcDbEntity
  8
0
100
AcDbBlockEnd
  0
BLOCK
  5
18FD
330
18FC
100
AcDbEntity
  8
0
100
AcDbBlockBegin
  2
*D35
 70
     1
 10
0.0
 20
0.0
 30
0.0
  3
*D35
  1

  0
LINE
  5
18FE
330
18FC
100
AcDbEntity
  8
P-0005
  6
ByBlock
100
AcDbLine
 10
6639.001652187875
 20
-581.4976684391723
 30
0.0
 11
6620.940032232732
 21
-581.4976684391723
 31
0.0
  0
LINE
  5
18FF
330
18FC
100
AcDbEntity
  8
P-0005
  6
ByBlock
100
AcDbLine
 10
6639.001652187876
 20
-636.2284573535175
 30
0.0
 11
6620.940032232732
 21
-636.2284573535175
 31
0.0
  0
LINE
  5
1900
330
18FC
100
AcDbEntity
  8
P-0005
  6
ByBlock
100
AcDbLine
 10
6621.940032232733
 20
-582.9976684391723
 30
0.0
 11
6621.940032232733
 21
-634.7284573535175
 31
0.0
  0
SOLID
  5
1901
330
18FC
100
AcDbEntity
  8
P-0005
100
AcDbTrace
 10
6621.690032232733
 20
-582.9976684391723
 30
0.0
 11
6622.190032232733
 21
-582.9976684391723
 31
0.0
 12
6621.940032232733
 22
-581.4976684391723
 32
0.0
 13
6621.940032232733
 23
-581.4976684391723
 33
0.0
  0
SOLID
  5
1902
330
18FC
100
AcDbEntity
  8
P-0005
100
AcDbTrace
 10
6621.690032232733
 20
-634.7284573535175
 30
0.0
 11
6622.190032232733
 21
-634.7284573535175
 31
0.0
 12
6621.940032232733
 22
-636.2284573535175
 32
0.0
 13
6621.940032232733
 23
-636.2284573535175
 33
0.0
  0
MTEXT
  5
1903
330
18FC
100
AcDbEntity
  8
P-0005
 62
     7
100
AcDbMText
 10
6617.377574207212
 20
-608.8630628963437
 30
0.0
 40
6.0
 41
0.0
 46
0.0
 71
     5
 72
     1
  1
a
 11
0.0000000000000001
 21
1.0
 31
0.0
 73
     1
 44
1.0
  0
POINT
  5
1904
330
18FC
100
AcDbEntity
  8
DEFPOINTS
 62
     0
100
AcDbPoint
 10
6640.001652187875
 20
-581.4976684391723
 30
0.0
  0
POINT
  5
1905
330
18FC
100
AcDbEntity
  8
DEFPOINTS
 62
     0
100
AcDbPoint
 10
6640.001652187876
 20
-636.2284573535175
 30
0.0
  0
POINT
  5
1906
330
18FC
100
AcDbEntity
  8
DEFPOINTS
 62
     0
100
AcDbPoint
 10
6621.940032232733
 20
-636.2284573535175
 30
0.0
  0
ENDBLK
  5
1907
330
18FC
100
AcDbEntity
  8
0
100
AcDbBlockEnd
  0
BLOCK
  5
1A2E
330
1A2D
100
AcDbEntity
  8
0
100
AcDbBlockBegin
  2
*D36
 70
     1
 10
0.0
 20
0.0
 30
0.0
  3
*D36
  1

  0
LINE
  5
1A30
330
1A2D
100
AcDbEntity
  8
P-0005
  6
ByBlock
100
AcDbLine
 10
1432.25668834081
 20
68.6192554613292
 30
0.0
 11
1432.25668834081
 21
53.5914953271857
 31
0.0
  0
LINE
  5
1A31
330
1A2D
100
AcDbEntity
  8
P-0005
  6
ByBlock
100
AcDbLine
 10
1379.25668834081
 20
68.61925546132785
 30
0.0
 11
1379.25668834081
 21
53.5914953271857
 31
0.0
  0
LINE
  5
1A32
330
1A2D
100
AcDbEntity
  8
P-0005
  6
ByBlock
100
AcDbLine
 10
1430.75668834081
 20
54.59149532718573
 30
0.0
 11
1380.75668834081
 21
54.59149532718573
 31
0.0
  0
SOLID
  5
1A33
330
1A2D
100
AcDbEntity
  8
P-0005
100
AcDbTrace
 10
1430.75668834081
 20
54.8414953271857
 30
0.0
 11
1430.75668834081
 21
54.34149532718572
 31
0.0
 12
1432.25668834081
 22
54.59149532718573
 32
0.0
 13
1432.25668834081
 23
54.59149532718573
 33
0.0
  0
SOLID
  5
1A34
330
1A2D
100
AcDbEntity
  8
P-0005
100
AcDbTrace
 10
1380.75668834081
 20
54.8414953271857
 30
0.0
 11
1380.75668834081
 21
54.34149532718572
 31
0.0
 12
1379.25668834081
 22
54.59149532718573
 32
0.0
 13
1379.25668834081
 23
54.59149532718573
 33
0.0
  0
MTEXT
  5
1A35
330
1A2D
100
AcDbEntity
  8
P-0005
 62
     7
100
AcDbMText
 10
1405.75668834081
 20
59.09149532718572
 30
0.0
 40
6.0
 41
0.0
 46
0.0
 71
     5
 72
     1
  1
D
 73
     1
 44
1.0
  0
POINT
  5
1A36
330
1A2D
100
AcDbEntity
  8
DEFPOINTS
 62
     0
100
AcDbPoint
 10
1432.25668834081
 20
69.61925546132921
 30
0.0
  0
POINT
  5
1A37
330
1A2D
100
AcDbEntity
  8
DEFPOINTS
 62
     0
100
AcDbPoint
 10
1379.25668834081
 20
69.61925546132786
 30
0.0
  0
POINT
  5
1A38
330
1A2D
100
AcDbEntity
  8
DEFPOINTS
 62
     0
100
AcDbPoint
 10
1379.25668834081
 20
54.59149532718573
 30
0.0
  0
ENDBLK
  5
1A2F
330
1A2D
100
AcDbEntity
  8
0
100
AcDbBlockEnd
  0
BLOCK
  5
1A3A
330
1A39
100
AcDbEntity
  8
0
100
AcDbBlockBegin
  2
*D37
 70
     1
 10
0.0
 20
0.0
 30
0.0
  3
*D37
  1

  0
LINE
  5
1A3C
330
1A39
100
AcDbEntity
  8
P-0005
  6
ByBlock
100
AcDbLine
 10
1381.144026037106
 20
145.9846499185006
 30
0.0
 11
1363.082406081963
 21
145.9846499185006
 31
0.0
  0
LINE
  5
1A3D
330
1A39
100
AcDbEntity
  8
P-0005
  6
ByBlock
100
AcDbLine
 10
1381.144026037107
 20
91.25386100415541
 30
0.0
 11
1363.082406081963
 21
91.25386100415541
 31
0.0
  0
LINE
  5
1A3E
330
1A39
100
AcDbEntity
  8
P-0005
  6
ByBlock
100
AcDbLine
 10
1364.082406081964
 20
144.4846499185006
 30
0.0
 11
1364.082406081964
 21
92.75386100415541
 31
0.0
  0
SOLID
  5
1A3F
330
1A39
100
AcDbEntity
  8
P-0005
100
AcDbTrace
 10
1363.832406081963
 20
144.4846499185006
 30
0.0
 11
1364.332406081963
 21
144.4846499185006
 31
0.0
 12
1364.082406081964
 22
145.9846499185006
 32
0.0
 13
1364.082406081964
 23
145.9846499185006
 33
0.0
  0
SOLID
  5
1A40
330
1A39
100
AcDbEntity
  8
P-0005
100
AcDbTrace
 10
1363.832406081963
 20
92.75386100415541
 30
0.0
 11
1364.332406081963
 21
92.75386100415541
 31
0.0
 12
1364.082406081964
 22
91.25386100415541
 32
0.0
 13
1364.082406081964
 23
91.25386100415541
 33
0.0
  0
MTEXT
  5
1A41
330
1A39
100
AcDbEntity
  8
P-0005
 62
     7
100
AcDbMText
 10
1359.582406081964
 20
118.6192554613282
 30
0.0
 40
6.0
 41
0.0
 46
0.0
 71
     5
 72
     1
  1
a
 11
0.0000000000000001
 21
1.0
 31
0.0
 73
     1
 44
1.0
  0
POINT
  5
1A42
330
1A39
100
AcDbEntity
  8
DEFPOINTS
 62
     0
100
AcDbPoint
 10
1382.144026037106
 20
145.9846499185006
 30
0.0
  0
POINT
  5
1A43
330
1A39
100
AcDbEntity
  8
DEFPOINTS
 62
     0
100
AcDbPoint
 10
1382.144026037107
 20
91.25386100415541
 30
0.0
  0
POINT
  5
1A44
330
1A39
100
AcDbEntity
  8
DEFPOINTS
 62
     0
100
AcDbPoint
 10
1364.082406081964
 20
91.25386100415541
 30
0.0
  0
ENDBLK
  5
1A3B
330
1A39
100
AcDbEntity
  8
0
100
AcDbBlockEnd
  0
BLOCK
  5
1A93
330
1A92
100
AcDbEntity
  8
0
100
AcDbBlockBegin
  2
*D38
 70
     1
 10
0.0
 20
0.0
 30
0.0
  3
*D38
  1

  0
LINE
  5
1A95
330
1A92
100
AcDbEntity
  8
GULLY
  6
ByBlock
100
AcDbLine
 10
994.5271975926781
 20
174.9202842146421
 30
0.0
 11
994.5271975926781
 21
129.5977312581775
 31
0.0
  0
LINE
  5
1A96
330
1A92
100
AcDbEntity
  8
GULLY
  6
ByBlock
100
AcDbLine
 10
1119.527196592677
 20
175.0860242146424
 30
0.0
 11
1119.527196592677
 21
129.5977312581775
 31
0.0
  0
LINE
  5
1A97
330
1A92
100
AcDbEntity
  8
GULLY
  6
ByBlock
100
AcDbLine
 10
994.647197592678
 20
129.6977312581775
 30
0.0
 11
1056.647197092678
 21
129.6977312581775
 31
0.0
  0
LINE
  5
1A98
330
1A92
100
AcDbEntity
  8
GULLY
  6
ByBlock
100
AcDbLine
 10
1119.407196592677
 20
129.6977312581775
 30
0.0
 11
1057.407197092678
 21
129.6977312581775
 31
0.0
  0
SOLID
  5
1A99
330
1A92
100
AcDbEntity
  8
GULLY
100
AcDbTrace
 10
994.647197592678
 20
129.7177312581775
 30
0.0
 11
994.647197592678
 21
129.6777312581775
 31
0.0
 12
994.5271975926781
 22
129.6977312581775
 32
0.0
 13
994.5271975926781
 23
129.6977312581775
 33
0.0
  0
SOLID
  5
1A9A
330
1A92
100
AcDbEntity
  8
GULLY
100
AcDbTrace
 10
1119.407196592677
 20
129.7177312581775
 30
0.0
 11
1119.407196592677
 21
129.6777312581775
 31
0.0
 12
1119.527196592677
 22
129.6977312581775
 32
0.0
 13
1119.527196592677
 23
129.6977312581775
 33
0.0
  0
MTEXT
  5
1A9B
330
1A92
100
AcDbEntity
  8
GULLY
 62
   140
100
AcDbMText
 10
1057.027197092678
 20
129.6977312581775
 30
0.0
 40
0.12
 41
0.0
 46
0.0
 71
     5
 72
     1
  1
\A1;125.0000
 73
     1
 44
1.0
  0
POINT
  5
1A9C
330
1A92
100
AcDbEntity
  8
DEFPOINTS
 62
     0
100
AcDbPoint
 10
994.5271975926781
 20
174.9702842146421
 30
0.0
  0
POINT
  5
1A9D
330
1A92
100
AcDbEntity
  8
DEFPOINTS
 62
     0
100
AcDbPoint
 10
1119.527196592677
 20
175.1360242146424
 30
0.0
  0
POINT
  5
1A9E
330
1A92
100
AcDbEntity
  8
DEFPOINTS
 62
     0
100
AcDbPoint
 10
1119.527196592677
 20
129.6977312581775
 30
0.0
  0
ENDBLK
  5
1A94
330
1A92
100
AcDbEntity
  8
0
100
AcDbBlockEnd
  0
BLOCK
  5
1B23
330
1B22
100
AcDbEntity
  8
0
100
AcDbBlockBegin
  2
*D39
 70
     1
 10
0.0
 20
0.0
 30
0.0
  3
*D39
  1

  0
LINE
  5
1B42
330
1B22
100
AcDbEntity
  8
KOTY_GULLY
  6
ByBlock
100
AcDbLine
 10
1021.027197592678
 20
291.8702842146423
 30
0.0
 11
1021.027197592678
 21
305.3117843418319
 31
0.0
  0
LINE
  5
1B43
330
1B22
100
AcDbEntity
  8
KOTY_GULLY
  6
ByBlock
100
AcDbLine
 10
1013.027197592678
 20
291.8702842146423
 30
0.0
 11
1013.027197592678
 21
305.3117843418319
 31
0.0
  0
LINE
  5
1B44
330
1B22
100
AcDbEntity
  8
KOTY_GULLY
  6
ByBlock
100
AcDbLine
 10
1018.027197592678
 20
305.1117843418319
 30
0.0
 11
1016.027197592678
 21
305.1117843418319
 31
0.0
  0
LINE
  5
1B45
330
1B22
100
AcDbEntity
  8
KOTY_GULLY
  6
ByBlock
100
AcDbLine
 10
1013.027197592678
 20
305.1117843418319
 30
0.0
 11
1003.387197592678
 21
305.1117843418319
 31
0.0
  0
SOLID
  5
1B46
330
1B22
100
AcDbEntity
  8
KOTY_GULLY
100
AcDbTrace
 10
1018.027197592678
 20
305.611784341832
 30
0.0
 11
1018.027197592678
 21
304.6117843418319
 31
0.0
 12
1021.027197592678
 22
305.1117843418319
 32
0.0
 13
1021.027197592678
 23
305.1117843418319
 33
0.0
  0
SOLID
  5
1B47
330
1B22
100
AcDbEntity
  8
KOTY_GULLY
100
AcDbTrace
 10
1016.027197592678
 20
305.611784341832
 30
0.0
 11
1016.027197592678
 21
304.6117843418319
 31
0.0
 12
1013.027197592678
 22
305.1117843418319
 32
0.0
 13
1013.027197592678
 23
305.1117843418319
 33
0.0
  0
MTEXT
  5
1B48
330
1B22
100
AcDbEntity
  8
KOTY_GULLY
100
AcDbMText
 10
1006.707197592678
 20
311.231784341832
 30
0.0
 40
12.0
 41
0.0
 46
0.0
 71
     5
 72
     1
  1
\A1;8
 73
     1
 44
1.0
  0
POINT
  5
1B49
330
1B22
100
AcDbEntity
  8
DEFPOINTS
 62
     0
100
AcDbPoint
 10
1021.027197592678
 20
291.7702842146423
 30
0.0
  0
POINT
  5
1B4A
330
1B22
100
AcDbEntity
  8
DEFPOINTS
 62
     0
100
AcDbPoint
 10
1013.027197592678
 20
291.7702842146423
 30
0.0
  0
POINT
  5
1B4B
330
1B22
100
AcDbEntity
  8
DEFPOINTS
 62
     0
100
AcDbPoint
 10
1013.027197592678
 20
305.1117843418319
 30
0.0
  0
ENDBLK
  5
1B24
330
1B22
100
AcDbEntity
  8
0
100
AcDbBlockEnd
  0
BLOCK
  5
1B55
330
1B54
100
AcDbEntity
  8
0
100
AcDbBlockBegin
  2
*D40
 70
     1
 10
0.0
 20
0.0
 30
0.0
  3
*D40
  1

  0
LINE
  5
1B56
330
1B54
100
AcDbEntity
  8
ACO_DIMENSION
100
AcDbLine
 10
2687.779462396512
 20
2375.420479771449
 30
0.0
 11
2754.837399396512
 21
2375.420479771449
 31
0.0
  0
LINE
  5
1B57
330
1B54
100
AcDbEntity
  8
ACO_DIMENSION
100
AcDbLine
 10
2699.100462396514
 20
2500.420479771449
 30
0.0
 11
2754.837399396512
 21
2500.420479771449
 31
0.0
  0
LINE
  5
1B58
330
1B54
100
AcDbEntity
  8
ACO_DIMENSION
100
AcDbLine
 10
2752.837399396512
 20
2380.42047977145
 30
0.0
 11
2752.837399396512
 21
2495.420479771449
 31
0.0
  0
SOLID
  5
1B59
330
1B54
100
AcDbEntity
  8
ACO_DIMENSION
100
AcDbTrace
 10
2752.004066063178
 20
2380.42047977145
 30
0.0
 11
2753.670732729845
 21
2380.42047977145
 31
0.0
 12
2752.837399396512
 22
2375.420479771449
 32
0.0
 13
2752.837399396512
 23
2375.420479771449
 33
0.0
  0
SOLID
  5
1B5A
330
1B54
100
AcDbEntity
  8
ACO_DIMENSION
100
AcDbTrace
 10
2752.004066063178
 20
2495.420479771449
 30
0.0
 11
2753.670732729845
 21
2495.420479771449
 31
0.0
 12
2752.837399396512
 22
2500.420479771449
 32
0.0
 13
2752.837399396512
 23
2500.420479771449
 33
0.0
  0
MTEXT
  5
1B5B
330
1B54
100
AcDbEntity
  8
ACO_DIMENSION
100
AcDbMText
 10
2747.653560578513
 20
2437.92047977145
 30
0.0
 40
7.0
 41
0.0
 46
0.0
 71
     5
 72
     1
  1
\A1;85 - 120
  7
Text poznámky (ISO)
 11
0.0000000000000001
 21
1.0
 31
0.0
 73
     1
 44
1.0
  0
POINT
  5
1B5C
330
1B54
100
AcDbEntity
  8
DEFPOINTS
 62
     0
100
AcDbPoint
 10
2687.779462396512
 20
2375.420479771449
 30
0.0
  0
POINT
  5
1B5D
330
1B54
100
AcDbEntity
  8
DEFPOINTS
 62
     0
100
AcDbPoint
 10
2699.100462396514
 20
2500.420479771449
 30
0.0
  0
POINT
  5
1B5E
330
1B54
100
AcDbEntity
  8
DEFPOINTS
 62
     0
100
AcDbPoint
 10
2752.837399396512
 20
2500.420479771449
 30
0.0
  0
ENDBLK
  5
1B5F
330
1B54
100
AcDbEntity
  8
0
100
AcDbBlockEnd
  0
BLOCK
  5
1B61
330
1B60
100
AcDbEntity
  8
0
100
AcDbBlockBegin
  2
*D41
 70
     1
 10
0.0
 20
0.0
 30
0.0
  3
*D41
  1

  0
LINE
  5
1B62
330
1B60
100
AcDbEntity
  8
ACO_DIMENSION
100
AcDbLine
 10
2562.778737396512
 20
2375.503349771449
 30
0.0
 11
2562.778737396512
 21
2323.420479771449
 31
0.0
  0
LINE
  5
1B63
330
1B60
100
AcDbEntity
  8
ACO_DIMENSION
100
AcDbLine
 10
2687.779460396512
 20
2375.58621977145
 30
0.0
 11
2687.779460396512
 21
2323.420479771449
 31
0.0
  0
LINE
  5
1B64
330
1B60
100
AcDbEntity
  8
ACO_DIMENSION
100
AcDbLine
 10
2567.778737396512
 20
2325.420479771449
 30
0.0
 11
2682.779460396512
 21
2325.420479771449
 31
0.0
  0
SOLID
  5
1B65
330
1B60
100
AcDbEntity
  8
ACO_DIMENSION
100
AcDbTrace
 10
2567.778737396512
 20
2326.253813104782
 30
0.0
 11
2567.778737396512
 21
2324.587146438116
 31
0.0
 12
2562.778737396512
 22
2325.420479771449
 32
0.0
 13
2562.778737396512
 23
2325.420479771449
 33
0.0
  0
SOLID
  5
1B66
330
1B60
100
AcDbEntity
  8
ACO_DIMENSION
100
AcDbTrace
 10
2682.779460396512
 20
2326.253813104782
 30
0.0
 11
2682.779460396512
 21
2324.587146438116
 31
0.0
 12
2687.779460396512
 22
2325.420479771449
 32
0.0
 13
2687.779460396512
 23
2325.420479771449
 33
0.0
  0
MTEXT
  5
1B67
330
1B60
100
AcDbEntity
  8
ACO_DIMENSION
100
AcDbMText
 10
2625.279098896512
 20
2330.933398508857
 30
0.0
 40
7.0
 41
0.0
 46
0.0
 71
     5
 72
     1
  1
\A1;%%c125
  7
Text poznámky (ISO)
 73
     1
 44
1.0
  0
POINT
  5
1B68
330
1B60
100
AcDbEntity
  8
DEFPOINTS
 62
     0
100
AcDbPoint
 10
2562.778737396512
 20
2375.503349771449
 30
0.0
  0
POINT
  5
1B69
330
1B60
100
AcDbEntity
  8
DEFPOINTS
 62
     0
100
AcDbPoint
 10
2687.779460396512
 20
2375.58621977145
 30
0.0
  0
POINT
  5
1B6A
330
1B60
100
AcDbEntity
  8
DEFPOINTS
 62
     0
100
AcDbPoint
 10
2687.779460396512
 20
2325.420479771449
 30
0.0
  0
ENDBLK
  5
1B6B
330
1B60
100
AcDbEntity
  8
0
100
AcDbBlockEnd
  0
BLOCK
  5
1B6D
330
1B6C
100
AcDbEntity
  8
0
100
AcDbBlockBegin
  2
*D42
 70
     1
 10
0.0
 20
0.0
 30
0.0
  3
*D42
  1

  0
LINE
  5
1B6E
330
1B6C
100
AcDbEntity
  8
ACO_DIMENSION
100
AcDbLine
 10
2589.279462396512
 20
2123.978708771449
 30
0.0
 11
2589.279462396512
 21
2063.418557314722
 31
0.0
  0
LINE
  5
1B6F
330
1B6C
100
AcDbEntity
  8
ACO_DIMENSION
100
AcDbLine
 10
2581.279462396512
 20
2123.978708771449
 30
0.0
 11
2581.279462396512
 21
2063.418557314722
 31
0.0
  0
LINE
  5
1B70
330
1B6C
100
AcDbEntity
  8
ACO_DIMENSION
100
AcDbLine
 10
2594.279462396511
 20
2065.418557314722
 30
0.0
 11
2599.279462396511
 21
2065.418557314722
 31
0.0
  0
LINE
  5
1B71
330
1B6C
100
AcDbEntity
  8
ACO_DIMENSION
100
AcDbLine
 10
2576.279462396513
 20
2065.418557314722
 30
0.0
 11
2559.958289426831
 21
2065.418557314722
 31
0.0
  0
LINE
  5
1B72
330
1B6C
100
AcDbEntity
  8
ACO_DIMENSION
100
AcDbLine
 10
2589.279462396512
 20
2065.418557314722
 30
0.0
 11
2581.279462396512
 21
2065.418557314722
 31
0.0
  0
SOLID
  5
1B73
330
1B6C
100
AcDbEntity
  8
ACO_DIMENSION
100
AcDbTrace
 10
2594.279462396511
 20
2066.251890648055
 30
0.0
 11
2594.279462396511
 21
2064.585223981388
 31
0.0
 12
2589.279462396512
 22
2065.418557314722
 32
0.0
 13
2589.279462396512
 23
2065.418557314722
 33
0.0
  0
SOLID
  5
1B74
330
1B6C
100
AcDbEntity
  8
ACO_DIMENSION
100
AcDbTrace
 10
2576.279462396513
 20
2066.251890648055
 30
0.0
 11
2576.279462396513
 21
2064.585223981388
 31
0.0
 12
2581.279462396512
 22
2065.418557314722
 32
0.0
 13
2581.279462396512
 23
2065.418557314722
 33
0.0
  0
MTEXT
  5
1B75
330
1B6C
100
AcDbEntity
  8
ACO_DIMENSION
100
AcDbMText
 10
2563.762343154165
 20
2070.60239613272
 30
0.0
 40
7.0
 41
0.0
 46
0.0
 71
     5
 72
     1
  1
\A1;8
  7
Text poznámky (ISO)
 73
     1
 44
1.0
  0
POINT
  5
1B76
330
1B6C
100
AcDbEntity
  8
DEFPOINTS
 62
     0
100
AcDbPoint
 10
2589.279462396512
 20
2123.978708771449
 30
0.0
  0
POINT
  5
1B77
330
1B6C
100
AcDbEntity
  8
DEFPOINTS
 62
     0
100
AcDbPoint
 10
2581.279462396512
 20
2123.978708771449
 30
0.0
  0
POINT
  5
1B78
330
1B6C
100
AcDbEntity
  8
DEFPOINTS
 62
     0
100
AcDbPoint
 10
2581.279462396512
 20
2065.418557314722
 30
0.0
  0
ENDBLK
  5
1B79
330
1B6C
100
AcDbEntity
  8
0
100
AcDbBlockEnd
  0
BLOCK
  5
1B7B
330
1B7A
100
AcDbEntity
  8
0
100
AcDbBlockBegin
  2
*D43
 70
     1
 10
0.0
 20
0.0
 30
0.0
  3
*D43
  1

  0
LINE
  5
1B7C
330
1B7A
100
AcDbEntity
  8
ACO_DIMENSION
100
AcDbLine
 10
2551.279462396511
 20
2500.420479771449
 30
0.0
 11
2551.279462396511
 21
2535.999192934234
 31
0.0
  0
LINE
  5
1B7D
330
1B7A
100
AcDbEntity
  8
ACO_DIMENSION
100
AcDbLine
 10
2699.279462396511
 20
2500.420479771449
 30
0.0
 11
2699.279462396511
 21
2535.999192934234
 31
0.0
  0
LINE
  5
1B7E
330
1B7A
100
AcDbEntity
  8
ACO_DIMENSION
100
AcDbLine
 10
2556.279462396513
 20
2533.999192934234
 30
0.0
 11
2694.279462396512
 21
2533.999192934234
 31
0.0
  0
SOLID
  5
1B7F
330
1B7A
100
AcDbEntity
  8
ACO_DIMENSION
100
AcDbTrace
 10
2556.279462396513
 20
2534.832526267568
 30
0.0
 11
2556.279462396513
 21
2533.165859600901
 31
0.0
 12
2551.279462396511
 22
2533.999192934234
 32
0.0
 13
2551.279462396511
 23
2533.999192934234
 33
0.0
  0
SOLID
  5
1B80
330
1B7A
100
AcDbEntity
  8
ACO_DIMENSION
100
AcDbTrace
 10
2694.279462396512
 20
2534.832526267568
 30
0.0
 11
2694.279462396512
 21
2533.165859600901
 31
0.0
 12
2699.279462396511
 22
2533.999192934234
 32
0.0
 13
2699.279462396511
 23
2533.999192934234
 33
0.0
  0
MTEXT
  5
1B81
330
1B7A
100
AcDbEntity
  8
ACO_DIMENSION
100
AcDbMText
 10
2625.279462396512
 20
2539.183031752233
 30
0.0
 40
7.0
 41
0.0
 46
0.0
 71
     5
 72
     1
  1
\A1;{\Fgeniso.shx;□}148
  7
Text poznámky (ISO)
 73
     1
 44
1.0
  0
POINT
  5
1B82
330
1B7A
100
AcDbEntity
  8
DEFPOINTS
 62
     0
100
AcDbPoint
 10
2551.279462396511
 20
2500.420479771449
 30
0.0
  0
POINT
  5
1B83
330
1B7A
100
AcDbEntity
  8
DEFPOINTS
 62
     0
100
AcDbPoint
 10
2699.279462396511
 20
2500.420479771449
 30
0.0
  0
POINT
  5
1B84
330
1B7A
100
AcDbEntity
  8
DEFPOINTS
 62
     0
100
AcDbPoint
 10
2699.279462396511
 20
2533.999192934234
 30
0.0
  0
ENDBLK
  5
1B85
330
1B7A
100
AcDbEntity
  8
0
100
AcDbBlockEnd
  0
BLOCK
  5
1F6B
330
1F6A
100
AcDbEntity
  8
0
100
AcDbBlockBegin
  2
*D44
 70
     1
 10
0.0
 20
0.0
 30
0.0
  3
*D44
  1

  0
LINE
  5
1FAE
330
1F6A
100
AcDbEntity
  8
KOTY_GULLY
  6
ByBlock
100
AcDbLine
 10
1292.123340732572
 20
526.8227473715211
 30
0.0
 11
1292.123340732572
 21
560.501460534306
 31
0.0
  0
LINE
  5
1FAF
330
1F6A
100
AcDbEntity
  8
KOTY_GULLY
  6
ByBlock
100
AcDbLine
 10
1440.123340732572
 20
526.8227473715211
 30
0.0
 11
1440.123340732572
 21
560.501460534306
 31
0.0
  0
LINE
  5
1FB0
330
1F6A
100
AcDbEntity
  8
KOTY_GULLY
  6
ByBlock
100
AcDbLine
 10
1295.123340732572
 20
560.301460534306
 30
0.0
 11
1437.123340732572
 21
560.301460534306
 31
0.0
  0
SOLID
  5
1FB1
330
1F6A
100
AcDbEntity
  8
KOTY_GULLY
100
AcDbTrace
 10
1295.123340732572
 20
560.8014605343059
 30
0.0
 11
1295.123340732572
 21
559.801460534306
 31
0.0
 12
1292.123340732572
 22
560.301460534306
 32
0.0
 13
1292.123340732572
 23
560.301460534306
 33
0.0
  0
SOLID
  5
1FB2
330
1F6A
100
AcDbEntity
  8
KOTY_GULLY
100
AcDbTrace
 10
1437.123340732572
 20
560.8014605343059
 30
0.0
 11
1437.123340732572
 21
559.801460534306
 31
0.0
 12
1440.123340732572
 22
560.301460534306
 32
0.0
 13
1440.123340732572
 23
560.301460534306
 33
0.0
  0
MTEXT
  5
1FB3
330
1F6A
100
AcDbEntity
  8
KOTY_GULLY
100
AcDbMText
 10
1366.123340732572
 20
566.421460534306
 30
0.0
 40
12.0
 41
0.0
 46
0.0
 71
     5
 72
     1
  1
\A1;{\Fgeniso.shx;□}148
 73
     1
 44
1.0
  0
POINT
  5
1FB4
330
1F6A
100
AcDbEntity
  8
DEFPOINTS
 62
     0
100
AcDbPoint
 10
1292.123340732572
 20
526.7227473715211
 30
0.0
  0
POINT
  5
1FB5
330
1F6A
100
AcDbEntity
  8
DEFPOINTS
 62
     0
100
AcDbPoint
 10
1440.123340732572
 20
526.7227473715211
 30
0.0
  0
POINT
  5
1FB6
330
1F6A
100
AcDbEntity
  8
DEFPOINTS
 62
     0
100
AcDbPoint
 10
1440.123340732572
 20
560.301460534306
 30
0.0
  0
ENDBLK
  5
1F6C
330
1F6A
100
AcDbEntity
  8
0
100
AcDbBlockEnd
  0
BLOCK
  5
1F77
330
1F76
100
AcDbEntity
  8
0
100
AcDbBlockBegin
  2
*D45
 70
     1
 10
0.0
 20
0.0
 30
0.0
  3
*D45
  1

  0
LINE
  5
1FA5
330
1F76
100
AcDbEntity
  8
KOTY_GULLY
  6
ByBlock
100
AcDbLine
 10
1428.723340732572
 20
401.7227473715212
 30
0.0
 11
1493.881277732572
 21
401.7227473715212
 31
0.0
  0
LINE
  5
1FA6
330
1F76
100
AcDbEntity
  8
KOTY_GULLY
  6
ByBlock
100
AcDbLine
 10
1440.044340732572
 20
526.7227473715211
 30
0.0
 11
1493.881277732572
 21
526.7227473715211
 31
0.0
  0
LINE
  5
1FA7
330
1F76
100
AcDbEntity
  8
KOTY_GULLY
  6
ByBlock
100
AcDbLine
 10
1493.681277732572
 20
404.7227473715211
 30
0.0
 11
1493.681277732572
 21
523.722747371521
 31
0.0
  0
SOLID
  5
1FA8
330
1F76
100
AcDbEntity
  8
KOTY_GULLY
100
AcDbTrace
 10
1493.181277732572
 20
404.7227473715211
 30
0.0
 11
1494.181277732572
 21
404.7227473715211
 31
0.0
 12
1493.681277732572
 22
401.7227473715212
 32
0.0
 13
1493.681277732572
 23
401.7227473715212
 33
0.0
  0
SOLID
  5
1FA9
330
1F76
100
AcDbEntity
  8
KOTY_GULLY
100
AcDbTrace
 10
1493.181277732572
 20
523.722747371521
 30
0.0
 11
1494.181277732572
 21
523.722747371521
 31
0.0
 12
1493.681277732572
 22
526.7227473715211
 32
0.0
 13
1493.681277732572
 23
526.7227473715211
 33
0.0
  0
MTEXT
  5
1FAA
330
1F76
100
AcDbEntity
  8
KOTY_GULLY
100
AcDbMText
 10
1487.561277732572
 20
464.2227473715212
 30
0.0
 40
12.0
 41
0.0
 46
0.0
 71
     5
 72
     1
  1
\A1;85 - 120
 11
0.0000000000000001
 21
1.0
 31
0.0
 73
     1
 44
1.0
  0
POINT
  5
1FAB
330
1F76
100
AcDbEntity
  8
DEFPOINTS
 62
     0
100
AcDbPoint
 10
1428.623340732572
 20
401.7227473715212
 30
0.0
  0
POINT
  5
1FAC
330
1F76
100
AcDbEntity
  8
DEFPOINTS
 62
     0
100
AcDbPoint
 10
1439.944340732572
 20
526.7227473715211
 30
0.0
  0
POINT
  5
1FAD
330
1F76
100
AcDbEntity
  8
DEFPOINTS
 62
     0
100
AcDbPoint
 10
1493.681277732572
 20
526.7227473715211
 30
0.0
  0
ENDBLK
  5
1F78
330
1F76
100
AcDbEntity
  8
0
100
AcDbBlockEnd
  0
BLOCK
  5
1F83
330
1F82
100
AcDbEntity
  8
0
100
AcDbBlockBegin
  2
*D46
 70
     1
 10
0.0
 20
0.0
 30
0.0
  3
*D46
  1

  0
LINE
  5
1F9C
330
1F82
100
AcDbEntity
  8
KOTY_GULLY
  6
ByBlock
100
AcDbLine
 10
1303.622615732572
 20
401.7056173715213
 30
0.0
 11
1303.622615732572
 21
351.5227473715211
 31
0.0
  0
LINE
  5
1F9D
330
1F82
100
AcDbEntity
  8
KOTY_GULLY
  6
ByBlock
100
AcDbLine
 10
1428.623338732572
 20
401.7884873715214
 30
0.0
 11
1428.623338732572
 21
351.5227473715211
 31
0.0
  0
LINE
  5
1F9E
330
1F82
100
AcDbEntity
  8
KOTY_GULLY
  6
ByBlock
100
AcDbLine
 10
1306.622615732572
 20
351.7227473715212
 30
0.0
 11
1425.623338732572
 21
351.7227473715212
 31
0.0
  0
SOLID
  5
1F9F
330
1F82
100
AcDbEntity
  8
KOTY_GULLY
100
AcDbTrace
 10
1306.622615732572
 20
352.2227473715212
 30
0.0
 11
1306.622615732572
 21
351.2227473715212
 31
0.0
 12
1303.622615732572
 22
351.7227473715212
 32
0.0
 13
1303.622615732572
 23
351.7227473715212
 33
0.0
  0
SOLID
  5
1FA0
330
1F82
100
AcDbEntity
  8
KOTY_GULLY
100
AcDbTrace
 10
1425.623338732572
 20
352.2227473715212
 30
0.0
 11
1425.623338732572
 21
351.2227473715212
 31
0.0
 12
1428.623338732572
 22
351.7227473715212
 32
0.0
 13
1428.623338732572
 23
351.7227473715212
 33
0.0
  0
MTEXT
  5
1FA1
330
1F82
100
AcDbEntity
  8
KOTY_GULLY
100
AcDbMText
 10
1366.122977232572
 20
357.8427473715212
 30
0.0
 40
12.0
 41
0.0
 46
0.0
 71
     5
 72
     1
  1
\A1;%%c125
 73
     1
 44
1.0
  0
POINT
  5
1FA2
330
1F82
100
AcDbEntity
  8
DEFPOINTS
 62
     0
100
AcDbPoint
 10
1303.622615732572
 20
401.8056173715213
 30
0.0
  0
POINT
  5
1FA3
330
1F82
100
AcDbEntity
  8
DEFPOINTS
 62
     0
100
AcDbPoint
 10
1428.623338732572
 20
401.8884873715212
 30
0.0
  0
POINT
  5
1FA4
330
1F82
100
AcDbEntity
  8
DEFPOINTS
 62
     0
100
AcDbPoint
 10
1428.623338732572
 20
351.7227473715212
 30
0.0
  0
ENDBLK
  5
1F84
330
1F82
100
AcDbEntity
  8
0
100
AcDbBlockEnd
  0
BLOCK
  5
1F8F
330
1F8E
100
AcDbEntity
  8
0
100
AcDbBlockBegin
  2
*D47
 70
     1
 10
0.0
 20
0.0
 30
0.0
  3
*D47
  1

  0
LINE
  5
1F91
330
1F8E
100
AcDbEntity
  8
ACO_DIMENSION
100
AcDbLine
 10
1330.123340732572
 20
150.2809763715213
 30
0.0
 11
1330.123340732572
 21
89.72082491479341
 31
0.0
  0
LINE
  5
1F92
330
1F8E
100
AcDbEntity
  8
ACO_DIMENSION
100
AcDbLine
 10
1322.123340732572
 20
150.2809763715213
 30
0.0
 11
1322.123340732572
 21
89.72082491479341
 31
0.0
  0
LINE
  5
1F93
330
1F8E
100
AcDbEntity
  8
ACO_DIMENSION
100
AcDbLine
 10
1335.123340732572
 20
91.72082491479342
 30
0.0
 11
1340.123340732572
 21
91.72082491479342
 31
0.0
  0
LINE
  5
1F94
330
1F8E
100
AcDbEntity
  8
ACO_DIMENSION
100
AcDbLine
 10
1317.123340732572
 20
91.72082491479342
 30
0.0
 11
1300.802167762892
 21
91.72082491479342
 31
0.0
  0
LINE
  5
1F95
330
1F8E
100
AcDbEntity
  8
ACO_DIMENSION
100
AcDbLine
 10
1330.123340732572
 20
91.72082491479342
 30
0.0
 11
1322.123340732572
 21
91.72082491479342
 31
0.0
  0
SOLID
  5
1F96
330
1F8E
100
AcDbEntity
  8
ACO_DIMENSION
100
AcDbTrace
 10
1335.123340732572
 20
92.55415824812674
 30
0.0
 11
1335.123340732572
 21
90.88749158146006
 31
0.0
 12
1330.123340732572
 22
91.72082491479342
 32
0.0
 13
1330.123340732572
 23
91.72082491479342
 33
0.0
  0
SOLID
  5
1F97
330
1F8E
100
AcDbEntity
  8
ACO_DIMENSION
100
AcDbTrace
 10
1317.123340732572
 20
92.55415824812674
 30
0.0
 11
1317.123340732572
 21
90.88749158146006
 31
0.0
 12
1322.123340732572
 22
91.72082491479342
 32
0.0
 13
1322.123340732572
 23
91.72082491479342
 33
0.0
  0
MTEXT
  5
1F98
330
1F8E
100
AcDbEntity
  8
ACO_DIMENSION
100
AcDbMText
 10
1304.606221490226
 20
96.90466373279207
 30
0.0
 40
7.0
 41
0.0
 46
0.0
 71
     5
 72
     1
  1
\A1;8
  7
Text poznámky (ISO)
 73
     1
 44
1.0
  0
POINT
  5
1F99
330
1F8E
100
AcDbEntity
  8
DEFPOINTS
 62
     0
100
AcDbPoint
 10
1330.123340732572
 20
150.2809763715213
 30
0.0
  0
POINT
  5
1F9A
330
1F8E
100
AcDbEntity
  8
DEFPOINTS
 62
     0
100
AcDbPoint
 10
1322.123340732572
 20
150.2809763715213
 30
0.0
  0
POINT
  5
1F9B
330
1F8E
100
AcDbEntity
  8
DEFPOINTS
 62
     0
100
AcDbPoint
 10
1322.123340732572
 20
91.72082491479342
 30
0.0
  0
ENDBLK
  5
1F90
330
1F8E
100
AcDbEntity
  8
0
100
AcDbBlockEnd
  0
BLOCK
  5
1FB9
330
1FB8
100
AcDbEntity
  8
0
100
AcDbBlockBegin
  2
*D48
 70
     1
 10
0.0
 20
0.0
 30
0.0
  3
*D48
  1

  0
LINE
  5
1FD8
330
1FB8
100
AcDbEntity
  8
KOTY_GULLY
  6
ByBlock
100
AcDbLine
 10
1322.173340732572
 20
526.6227473715213
 30
0.0
 11
1322.173340732572
 21
539.7222046047495
 31
0.0
  0
LINE
  5
1FD9
330
1FB8
100
AcDbEntity
  8
KOTY_GULLY
  6
ByBlock
100
AcDbLine
 10
1330.173340732572
 20
526.6227473715213
 30
0.0
 11
1330.173340732572
 21
539.7222046047495
 31
0.0
  0
LINE
  5
1FDA
330
1FB8
100
AcDbEntity
  8
KOTY_GULLY
  6
ByBlock
100
AcDbLine
 10
1327.173340732572
 20
539.5222046047496
 30
0.0
 11
1325.173340732572
 21
539.5222046047496
 31
0.0
  0
LINE
  5
1FDB
330
1FB8
100
AcDbEntity
  8
KOTY_GULLY
  6
ByBlock
100
AcDbLine
 10
1322.173340732572
 20
539.5222046047496
 30
0.0
 11
1309.667653632996
 21
539.5222046047496
 31
0.0
  0
SOLID
  5
1FDC
330
1FB8
100
AcDbEntity
  8
KOTY_GULLY
100
AcDbTrace
 10
1327.173340732572
 20
540.0222046047495
 30
0.0
 11
1327.173340732572
 21
539.0222046047496
 31
0.0
 12
1330.173340732572
 22
539.5222046047496
 32
0.0
 13
1330.173340732572
 23
539.5222046047496
 33
0.0
  0
SOLID
  5
1FDD
330
1FB8
100
AcDbEntity
  8
KOTY_GULLY
100
AcDbTrace
 10
1325.173340732572
 20
540.0222046047495
 30
0.0
 11
1325.173340732572
 21
539.0222046047496
 31
0.0
 12
1322.173340732572
 22
539.5222046047496
 32
0.0
 13
1322.173340732572
 23
539.5222046047496
 33
0.0
  0
MTEXT
  5
1FDE
330
1FB8
100
AcDbEntity
  8
KOTY_GULLY
100
AcDbMText
 10
1312.987653632997
 20
545.6422046047496
 30
0.0
 40
12.0
 41
0.0
 46
0.0
 71
     5
 72
     1
  1
\A1;8
 73
     1
 44
1.0
  0
POINT
  5
1FDF
330
1FB8
100
AcDbEntity
  8
DEFPOINTS
 62
     0
100
AcDbPoint
 10
1322.173340732572
 20
526.5227473715213
 30
0.0
  0
POINT
  5
1FE0
330
1FB8
100
AcDbEntity
  8
DEFPOINTS
 62
     0
100
AcDbPoint
 10
1330.173340732572
 20
526.5227473715213
 30
0.0
  0
POINT
  5
1FE1
330
1FB8
100
AcDbEntity
  8
DEFPOINTS
 62
     0
100
AcDbPoint
 10
1330.173340732572
 20
539.5222046047496
 30
0.0
  0
ENDBLK
  5
1FBA
330
1FB8
100
AcDbEntity
  8
0
100
AcDbBlockEnd
  0
BLOCK
  5
209D
330
209C
100
AcDbEntity
  8
0
100
AcDbBlockBegin
  2
*D49
 70
     1
 10
0.0
 20
0.0
 30
0.0
  3
*D49
  1

  0
LINE
  5
209E
330
209C
100
AcDbEntity
  8
ACO_DIMENSION
100
AcDbLine
 10
5328.347214655938
 20
4490.241874582505
 30
0.0
 11
5328.347214655938
 21
4461.080962406438
 31
0.0
  0
LINE
  5
209F
330
209C
100
AcDbEntity
  8
ACO_DIMENSION
100
AcDbLine
 10
5403.347214655938
 20
4490.241874582505
 30
0.0
 11
5403.347214655938
 21
4461.080962406438
 31
0.0
  0
LINE
  5
20A0
330
209C
100
AcDbEntity
  8
ACO_DIMENSION
100
AcDbLine
 10
5333.347214655938
 20
4463.080962406439
 30
0.0
 11
5398.347214655938
 21
4463.080962406439
 31
0.0
  0
SOLID
  5
20A1
330
209C
100
AcDbEntity
  8
ACO_DIMENSION
100
AcDbTrace
 10
5333.347214655938
 20
4463.914295739772
 30
0.0
 11
5333.347214655938
 21
4462.247629073107
 31
0.0
 12
5328.347214655938
 22
4463.080962406439
 32
0.0
 13
5328.347214655938
 23
4463.080962406439
 33
0.0
  0
SOLID
  5
20A2
330
209C
100
AcDbEntity
  8
ACO_DIMENSION
100
AcDbTrace
 10
5398.347214655938
 20
4463.914295739772
 30
0.0
 11
5398.347214655938
 21
4462.247629073107
 31
0.0
 12
5403.347214655938
 22
4463.080962406439
 32
0.0
 13
5403.347214655938
 23
4463.080962406439
 33
0.0
  0
MTEXT
  5
20A3
330
209C
100
AcDbEntity
  8
ACO_DIMENSION
100
AcDbMText
 10
5356.495214618872
 20
4476.716986059527
 30
0.0
 40
7.0
 41
0.0
 46
0.0
 71
     1
 72
     1
  1
\A1;{\fAIGDT|b0|i0;\H8.0500;\ln\fTahoma|b0|i0;\H8.0500;}75
  7
Text poznámky (ISO)
 73
     1
 44
1.0
  0
POINT
  5
20A4
330
209C
100
AcDbEntity
  8
DEFPOINTS
 62
     0
100
AcDbPoint
 10
5328.347214655938
 20
4490.241874582505
 30
0.0
  0
POINT
  5
20A5
330
209C
100
AcDbEntity
  8
DEFPOINTS
 62
     0
100
AcDbPoint
 10
5403.347214655938
 20
4490.241874582505
 30
0.0
  0
POINT
  5
20A6
330
209C
100
AcDbEntity
  8
DEFPOINTS
 62
     0
100
AcDbPoint
 10
5403.347214655938
 20
4463.080962406439
 30
0.0
  0
ENDBLK
  5
20A7
330
209C
100
AcDbEntity
  8
0
100
AcDbBlockEnd
  0
BLOCK
  5
20A9
330
20A8
100
AcDbEntity
  8
0
100
AcDbBlockBegin
  2
*D50
 70
     1
 10
0.0
 20
0.0
 30
0.0
  3
*D50
  1

  0
LINE
  5
20AA
330
20A8
100
AcDbEntity
  8
ACO_DIMENSION
100
AcDbLine
 10
5437.097214655938
 20
4597.453338499003
 30
0.0
 11
5437.097214655938
 21
4605.231233675538
 31
0.0
  0
LINE
  5
20AB
330
20A8
100
AcDbEntity
  8
ACO_DIMENSION
100
AcDbLine
 10
5294.597214655937
 20
4597.453338499003
 30
0.0
 11
5294.597214655937
 21
4605.231233675538
 31
0.0
  0
LINE
  5
20AC
330
20A8
100
AcDbEntity
  8
ACO_DIMENSION
100
AcDbLine
 10
5442.097214655937
 20
4603.231233675542
 30
0.0
 11
5447.097214655938
 21
4603.231233675542
 31
0.0
  0
LINE
  5
20AD
330
20A8
100
AcDbEntity
  8
ACO_DIMENSION
100
AcDbLine
 10
5289.597214655938
 20
4603.231233675542
 30
0.0
 11
5248.191061353804
 21
4603.231233675542
 31
0.0
  0
SOLID
  5
20AE
330
20A8
100
AcDbEntity
  8
ACO_DIMENSION
100
AcDbTrace
 10
5442.097214655937
 20
4604.064567008875
 30
0.0
 11
5442.097214655937
 21
4602.397900342209
 31
0.0
 12
5437.097214655938
 22
4603.231233675542
 32
0.0
 13
5437.097214655938
 23
4603.231233675542
 33
0.0
  0
SOLID
  5
20AF
330
20A8
100
AcDbEntity
  8
ACO_DIMENSION
100
AcDbTrace
 10
5289.597214655938
 20
4604.064567008875
 30
0.0
 11
5289.597214655938
 21
4602.397900342209
 31
0.0
 12
5294.597214655937
 22
4603.231233675542
 32
0.0
 13
5294.597214655937
 23
4603.231233675542
 33
0.0
  0
MTEXT
  5
20B0
330
20A8
100
AcDbEntity
  8
ACO_DIMENSION
100
AcDbMText
 10
5249.715061353803
 20
4613.92716114364
 30
0.0
 40
7.0
 41
0.0
 46
0.0
 71
     1
 72
     1
  1
\A1;{Ø}142,5
  7
Text poznámky (ISO)
 73
     1
 44
1.0
  0
POINT
  5
20B1
330
20A8
100
AcDbEntity
  8
DEFPOINTS
 62
     0
100
AcDbPoint
 10
5437.097214655938
 20
4597.453338499003
 30
0.0
  0
POINT
  5
20B2
330
20A8
100
AcDbEntity
  8
DEFPOINTS
 62
     0
100
AcDbPoint
 10
5294.597214655937
 20
4597.453338499003
 30
0.0
  0
POINT
  5
20B3
330
20A8
100
AcDbEntity
  8
DEFPOINTS
 62
     0
100
AcDbPoint
 10
5294.597214655937
 20
4603.231233675542
 30
0.0
  0
ENDBLK
  5
20B4
330
20A8
100
AcDbEntity
  8
0
100
AcDbBlockEnd
  0
BLOCK
  5
20B6
330
20B5
100
AcDbEntity
  8
0
100
AcDbBlockBegin
  2
*D51
 70
     1
 10
0.0
 20
0.0
 30
0.0
  3
*D51
  1

  0
LINE
  5
20B7
330
20B5
100
AcDbEntity
  8
ACO_DIMENSION
100
AcDbLine
 10
5283.641759135147
 20
4685.026381446383
 30
0.0
 11
5228.096409058503
 21
4685.026381446383
 31
0.0
  0
LINE
  5
20B8
330
20B5
100
AcDbEntity
  8
ACO_DIMENSION
100
AcDbLine
 10
5325.363333987265
 20
4571.477899254218
 30
0.0
 11
5228.096409058503
 21
4571.477899254218
 31
0.0
  0
LINE
  5
20B9
330
20B5
100
AcDbEntity
  8
ACO_DIMENSION
100
AcDbLine
 10
5230.096409058504
 20
4680.026381446383
 30
0.0
 11
5230.096409058504
 21
4576.477899254219
 31
0.0
  0
SOLID
  5
20BA
330
20B5
100
AcDbEntity
  8
ACO_DIMENSION
100
AcDbTrace
 10
5229.26307572517
 20
4680.026381446383
 30
0.0
 11
5230.929742391836
 21
4680.026381446383
 31
0.0
 12
5230.096409058504
 22
4685.026381446383
 32
0.0
 13
5230.096409058504
 23
4685.026381446383
 33
0.0
  0
SOLID
  5
20BB
330
20B5
100
AcDbEntity
  8
ACO_DIMENSION
100
AcDbTrace
 10
5229.26307572517
 20
4576.477899254219
 30
0.0
 11
5230.929742391836
 21
4576.477899254219
 31
0.0
 12
5230.096409058504
 22
4571.477899254218
 32
0.0
 13
5230.096409058504
 23
4571.477899254218
 33
0.0
  0
MTEXT
  5
20BC
330
20B5
100
AcDbEntity
  8
ACO_DIMENSION
100
AcDbMText
 10
5219.687251234459
 20
4608.446230343584
 30
0.0
 40
7.0
 41
0.0
 46
0.0
 71
     1
 72
     1
  1
\A1;113,55%%p1
  7
Text poznámky (ISO)
 11
0.0000000000000001
 21
1.0
 31
0.0
 73
     1
 44
1.0
  0
POINT
  5
20BD
330
20B5
100
AcDbEntity
  8
DEFPOINTS
 62
     0
100
AcDbPoint
 10
5283.641759135147
 20
4685.026381446383
 30
0.0
  0
POINT
  5
20BE
330
20B5
100
AcDbEntity
  8
DEFPOINTS
 62
     0
100
AcDbPoint
 10
5325.363333987265
 20
4571.477899254218
 30
0.0
  0
POINT
  5
20BF
330
20B5
100
AcDbEntity
  8
DEFPOINTS
 62
     0
100
AcDbPoint
 10
5230.096409058504
 20
4571.477899254218
 30
0.0
  0
ENDBLK
  5
20C0
330
20B5
100
AcDbEntity
  8
0
100
AcDbBlockEnd
  0
BLOCK
  5
20C2
330
20C1
100
AcDbEntity
  8
0
100
AcDbBlockBegin
  2
*D52
 70
     1
 10
0.0
 20
0.0
 30
0.0
  3
*D52
  1

  0
LINE
  5
20C3
330
20C1
100
AcDbEntity
  8
ACO_DIMENSION
100
AcDbLine
 10
5244.543037344978
 20
4407.639744356639
 30
0.0
 11
5209.875766709816
 21
4444.516031333139
 31
0.0
  0
SOLID
  5
20C4
330
20C1
100
AcDbEntity
  8
ACO_DIMENSION
100
AcDbTrace
 10
5245.150197809739
 20
4408.210533822624
 30
0.0
 11
5243.935876880219
 21
4407.068954890656
 31
0.0
 12
5247.967774140882
 22
4403.996781568085
 32
0.0
 13
5247.967774140882
 23
4403.996781568085
 33
0.0
  0
MTEXT
  5
20C5
330
20C1
100
AcDbEntity
  8
ACO_DIMENSION
100
AcDbMText
 10
5218.503661407845
 20
4450.535381438057
 30
0.0
 40
7.0
 41
0.0
 46
0.0
 71
     1
 72
     1
  1
\A1;R172,1
  7
Text poznámky (ISO)
 11
0.6849473591803977
 21
-0.7285925577109607
 31
0.0
 73
     1
 44
1.0
  0
LINE
  5
20C6
330
20C1
100
AcDbEntity
  8
ACO_DIMENSION
100
AcDbLine
 10
5365.667214655829
 20
4278.606002386026
 30
0.0
 11
5366.027214655829
 21
4278.606002386026
 31
0.0
  0
LINE
  5
20C7
330
20C1
100
AcDbEntity
  8
ACO_DIMENSION
100
AcDbLine
 10
5365.847214655829
 20
4278.426002386026
 30
0.0
 11
5365.847214655829
 21
4278.786002386026
 31
0.0
  0
POINT
  5
20C8
330
20C1
100
AcDbEntity
  8
DEFPOINTS
 62
     0
100
AcDbPoint
 10
5247.967774140882
 20
4403.996781568085
 30
0.0
  0
POINT
  5
20C9
330
20C1
100
AcDbEntity
  8
DEFPOINTS
 62
     0
100
AcDbPoint
 10
5365.847214655829
 20
4278.606002386026
 30
0.0
  0
ENDBLK
  5
20CA
330
20C1
100
AcDbEntity
  8
0
100
AcDbBlockEnd
  0
BLOCK
  5
45E0
330
45DF
100
AcDbEntity
  8
0
100
AcDbBlockBegin
  2
*D53
 70
     1
 10
0.0
 20
0.0
 30
0.0
  3
*D53
  1

  0
LINE
  5
467C
330
45DF
100
AcDbEntity
  8
KOTY_GULLY
  6
ByBlock
100
AcDbLine
 10
1748.40236113648
 20
596.2012214340155
 30
0.0
 11
1748.40236113648
 21
527.1689759199273
 31
0.0
  0
LINE
  5
467D
330
45DF
100
AcDbEntity
  8
KOTY_GULLY
  6
ByBlock
100
AcDbLine
 10
1823.40236113648
 20
596.2012214340147
 30
0.0
 11
1823.40236113648
 21
527.1689759199273
 31
0.0
  0
LINE
  5
467E
330
45DF
100
AcDbEntity
  8
KOTY_GULLY
  6
ByBlock
100
AcDbLine
 10
1751.402361136479
 20
527.3689759199274
 30
0.0
 11
1820.402361136479
 21
527.3689759199274
 31
0.0
  0
SOLID
  5
467F
330
45DF
100
AcDbEntity
  8
KOTY_GULLY
100
AcDbTrace
 10
1751.402361136479
 20
527.8689759199274
 30
0.0
 11
1751.402361136479
 21
526.8689759199274
 31
0.0
 12
1748.40236113648
 22
527.3689759199274
 32
0.0
 13
1748.40236113648
 23
527.3689759199274
 33
0.0
  0
SOLID
  5
4680
330
45DF
100
AcDbEntity
  8
KOTY_GULLY
100
AcDbTrace
 10
1820.402361136479
 20
527.8689759199274
 30
0.0
 11
1820.402361136479
 21
526.8689759199274
 31
0.0
 12
1823.40236113648
 22
527.3689759199274
 32
0.0
 13
1823.40236113648
 23
527.3689759199274
 33
0.0
  0
MTEXT
  5
4681
330
45DF
100
AcDbEntity
  8
KOTY_GULLY
100
AcDbMText
 10
1774.652824812094
 20
541.5623004928578
 30
0.0
 40
12.0
 41
0.0
 46
0.0
 71
     1
 72
     1
  1
\A1;{\fAIGDT|b0|i0;\H8.0500;\ln\fTahoma|b0|i0;\H8.0500;}75
 73
     1
 44
1.0
  0
POINT
  5
4682
330
45DF
100
AcDbEntity
  8
DEFPOINTS
 62
     0
100
AcDbPoint
 10
1748.40236113648
 20
596.3012214340157
 30
0.0
  0
POINT
  5
4683
330
45DF
100
AcDbEntity
  8
DEFPOINTS
 62
     0
100
AcDbPoint
 10
1823.40236113648
 20
596.3012214340145
 30
0.0
  0
POINT
  5
4684
330
45DF
100
AcDbEntity
  8
DEFPOINTS
 62
     0
100
AcDbPoint
 10
1823.40236113648
 20
527.3689759199274
 30
0.0
  0
ENDBLK
  5
45E1
330
45DF
100
AcDbEntity
  8
0
100
AcDbBlockEnd
  0
BLOCK
  5
45EC
330
45EB
100
AcDbEntity
  8
0
100
AcDbBlockBegin
  2
*D54
 70
     1
 10
0.0
 20
0.0
 30
0.0
  3
*D54
  1

  0
LINE
  5
4902
330
45EB
100
AcDbEntity
  8
KOTY_GULLY
  6
ByBlock
100
AcDbLine
 10
1857.152361136479
 20
673.1766173730137
 30
0.0
 11
1857.152361136479
 21
497.9061424392353
 31
0.0
  0
LINE
  5
4903
330
45EB
100
AcDbEntity
  8
KOTY_GULLY
  6
ByBlock
100
AcDbLine
 10
1714.652361136479
 20
670.06754903856
 30
0.0
 11
1714.652361136479
 21
497.9061424392353
 31
0.0
  0
LINE
  5
4904
330
45EB
100
AcDbEntity
  8
KOTY_GULLY
  6
ByBlock
100
AcDbLine
 10
1854.152361136479
 20
498.1061424392353
 30
0.0
 11
1717.652361136479
 21
498.1061424392353
 31
0.0
  0
SOLID
  5
4905
330
45EB
100
AcDbEntity
  8
KOTY_GULLY
100
AcDbTrace
 10
1854.152361136479
 20
498.6061424392353
 30
0.0
 11
1854.152361136479
 21
497.6061424392353
 31
0.0
 12
1857.152361136479
 22
498.1061424392353
 32
0.0
 13
1857.152361136479
 23
498.1061424392353
 33
0.0
  0
SOLID
  5
4906
330
45EB
100
AcDbEntity
  8
KOTY_GULLY
100
AcDbTrace
 10
1717.652361136479
 20
498.6061424392353
 30
0.0
 11
1717.652361136479
 21
497.6061424392353
 31
0.0
 12
1714.652361136479
 22
498.1061424392353
 32
0.0
 13
1714.652361136479
 23
498.1061424392353
 33
0.0
  0
MTEXT
  5
4907
330
45EB
100
AcDbEntity
  8
KOTY_GULLY
100
AcDbMText
 10
1785.90236113648
 20
505.3689995820924
 30
0.0
 40
12.0
 41
0.0
 46
0.0
 71
     5
 72
     1
  1
\A1;{Ø}142,5
 73
     1
 44
1.0
  0
POINT
  5
4908
330
45EB
100
AcDbEntity
  8
DEFPOINTS
 62
     0
100
AcDbPoint
 10
1857.152361136479
 20
673.2766173730137
 30
0.0
  0
POINT
  5
4909
330
45EB
100
AcDbEntity
  8
DEFPOINTS
 62
     0
100
AcDbPoint
 10
1714.652361136479
 20
670.1675490385601
 30
0.0
  0
POINT
  5
490A
330
45EB
100
AcDbEntity
  8
DEFPOINTS
 62
     0
100
AcDbPoint
 10
1714.652361136479
 20
498.1061424392353
 30
0.0
  0
ENDBLK
  5
45ED
330
45EB
100
AcDbEntity
  8
0
100
AcDbBlockEnd
  0
BLOCK
  5
45F9
330
45F8
100
AcDbEntity
  8
0
100
AcDbBlockBegin
  2
*D55
 70
     1
 10
0.0
 20
0.0
 30
0.0
  3
*D55
  1

  0
LINE
  5
4854
330
45F8
100
AcDbEntity
  8
KOTY_GULLY
  6
ByBlock
100
AcDbLine
 10
1703.59690561569
 20
760.8496603203932
 30
0.0
 11
1649.951555539044
 21
760.8496603203932
 31
0.0
  0
LINE
  5
4855
330
45F8
100
AcDbEntity
  8
KOTY_GULLY
  6
ByBlock
100
AcDbLine
 10
1745.318480467806
 20
647.3011781282289
 30
0.0
 11
1649.951555539044
 21
647.3011781282289
 31
0.0
  0
LINE
  5
4856
330
45F8
100
AcDbEntity
  8
KOTY_GULLY
  6
ByBlock
100
AcDbLine
 10
1650.151555539044
 20
757.8496603203932
 30
0.0
 11
1650.151555539044
 21
650.3011781282289
 31
0.0
  0
SOLID
  5
4857
330
45F8
100
AcDbEntity
  8
KOTY_GULLY
100
AcDbTrace
 10
1649.651555539044
 20
757.8496603203932
 30
0.0
 11
1650.651555539044
 21
757.8496603203932
 31
0.0
 12
1650.151555539044
 22
760.8496603203932
 32
0.0
 13
1650.151555539044
 23
760.8496603203932
 33
0.0
  0
SOLID
  5
4858
330
45F8
100
AcDbEntity
  8
KOTY_GULLY
100
AcDbTrace
 10
1649.651555539044
 20
650.3011781282289
 30
0.0
 11
1650.651555539044
 21
650.3011781282289
 31
0.0
 12
1650.151555539044
 22
647.3011781282289
 32
0.0
 13
1650.151555539044
 23
647.3011781282289
 33
0.0
  0
MTEXT
  5
4859
330
45F8
100
AcDbEntity
  8
KOTY_GULLY
100
AcDbMText
 10
1644.031555539044
 20
704.0754192243116
 30
0.0
 40
12.0
 41
0.0
 46
0.0
 71
     5
 72
     1
  1
\A1;114%%p1
 11
0.0000000000000001
 21
1.0
 31
0.0
 73
     1
 44
1.0
  0
POINT
  5
485A
330
45F8
100
AcDbEntity
  8
DEFPOINTS
 62
     0
100
AcDbPoint
 10
1703.69690561569
 20
760.8496603203932
 30
0.0
  0
POINT
  5
485B
330
45F8
100
AcDbEntity
  8
DEFPOINTS
 62
     0
100
AcDbPoint
 10
1745.418480467806
 20
647.3011781282289
 30
0.0
  0
POINT
  5
485C
330
45F8
100
AcDbEntity
  8
DEFPOINTS
 62
     0
100
AcDbPoint
 10
1650.151555539044
 20
647.3011781282289
 30
0.0
  0
ENDBLK
  5
45FA
330
45F8
100
AcDbEntity
  8
0
100
AcDbBlockEnd
  0
BLOCK
  5
4605
330
4604
100
AcDbEntity
  8
0
100
AcDbBlockBegin
  2
*D56
 70
     1
 10
0.0
 20
0.0
 30
0.0
  3
*D56
  1

  0
LINE
  5
462A
330
4604
100
AcDbEntity
  8
ACO_DIMENSION
100
AcDbLine
 10
1664.59818382552
 20
483.4630232306499
 30
0.0
 11
1629.930913190358
 21
520.3393102071479
 31
0.0
  0
SOLID
  5
462B
330
4604
100
AcDbEntity
  8
ACO_DIMENSION
100
AcDbTrace
 10
1665.205344290279
 20
484.0338126966335
 30
0.0
 11
1663.991023360761
 21
482.8922337646663
 31
0.0
 12
1668.022920621422
 22
479.8200604420951
 32
0.0
 13
1668.022920621422
 23
479.8200604420951
 33
0.0
  0
MTEXT
  5
462C
330
4604
100
AcDbEntity
  8
ACO_DIMENSION
100
AcDbMText
 10
1638.558807888386
 20
526.358660312067
 30
0.0
 40
7.0
 41
0.0
 46
0.0
 71
     1
 72
     1
  1
\A1;R172,1
  7
Text poznámky (ISO)
 11
0.6849473591803964
 21
-0.7285925577109618
 31
0.0
 73
     1
 44
1.0
  0
LINE
  5
462D
330
4604
100
AcDbEntity
  8
ACO_DIMENSION
100
AcDbLine
 10
1785.722361136371
 20
354.4292812600366
 30
0.0
 11
1786.082361136371
 21
354.4292812600366
 31
0.0
  0
LINE
  5
462E
330
4604
100
AcDbEntity
  8
ACO_DIMENSION
100
AcDbLine
 10
1785.902361136371
 20
354.2492812600364
 30
0.0
 11
1785.902361136371
 21
354.6092812600367
 31
0.0
  0
POINT
  5
462F
330
4604
100
AcDbEntity
  8
DEFPOINTS
 62
     0
100
AcDbPoint
 10
1668.022920621422
 20
479.8200604420951
 30
0.0
  0
POINT
  5
4630
330
4604
100
AcDbEntity
  8
DEFPOINTS
 62
     0
100
AcDbPoint
 10
1785.90236113637
 20
354.4292812600364
 30
0.0
  0
ENDBLK
  5
4606
330
4604
100
AcDbEntity
  8
0
100
AcDbBlockEnd
  0
BLOCK
  5
46C0
330
46BF
100
AcDbEntity
  8
0
100
AcDbBlockBegin
  2
*D57
 70
     1
 10
0.0
 20
0.0
 30
0.0
  3
*D57
  1

  0
LINE
  5
46E7
330
46BF
100
AcDbEntity
  8
KOTY_GULLY
  6
ByBlock
100
AcDbLine
 10
1613.802361136478
 20
760.9496603203933
 30
0.0
 11
1613.802361136478
 21
812.4522710331426
 31
0.0
  0
LINE
  5
46E8
330
46BF
100
AcDbEntity
  8
KOTY_GULLY
  6
ByBlock
100
AcDbLine
 10
1958.002361136479
 20
760.9496603203933
 30
0.0
 11
1958.002361136479
 21
812.4522710331426
 31
0.0
  0
LINE
  5
46E9
330
46BF
100
AcDbEntity
  8
KOTY_GULLY
  6
ByBlock
100
AcDbLine
 10
1616.802361136478
 20
812.2522710331427
 30
0.0
 11
1955.002361136479
 21
812.2522710331427
 31
0.0
  0
SOLID
  5
46EA
330
46BF
100
AcDbEntity
  8
KOTY_GULLY
100
AcDbTrace
 10
1616.802361136478
 20
812.7522710331428
 30
0.0
 11
1616.802361136478
 21
811.7522710331426
 31
0.0
 12
1613.802361136478
 22
812.2522710331427
 32
0.0
 13
1613.802361136478
 23
812.2522710331427
 33
0.0
  0
SOLID
  5
46EB
330
46BF
100
AcDbEntity
  8
KOTY_GULLY
100
AcDbTrace
 10
1955.002361136479
 20
812.7522710331428
 30
0.0
 11
1955.002361136479
 21
811.7522710331426
 31
0.0
 12
1958.002361136479
 22
812.2522710331427
 32
0.0
 13
1958.002361136479
 23
812.2522710331427
 33
0.0
  0
MTEXT
  5
46EC
330
46BF
100
AcDbEntity
  8
KOTY_GULLY
100
AcDbMText
 10
1785.902361136479
 20
819.5151281759999
 30
0.0
 40
12.0
 41
0.0
 46
0.0
 71
     5
 72
     1
  1
\A1;%%c344,2
 73
     1
 44
1.0
  0
POINT
  5
46ED
330
46BF
100
AcDbEntity
  8
DEFPOINTS
 62
     0
100
AcDbPoint
 10
1613.802361136478
 20
760.8496603203932
 30
0.0
  0
POINT
  5
46EE
330
46BF
100
AcDbEntity
  8
DEFPOINTS
 62
     0
100
AcDbPoint
 10
1958.002361136479
 20
760.8496603203932
 30
0.0
  0
POINT
  5
46EF
330
46BF
100
AcDbEntity
  8
DEFPOINTS
 62
     0
100
AcDbPoint
 10
1958.002361136479
 20
812.2522710331427
 30
0.0
  0
ENDBLK
  5
46C1
330
46BF
100
AcDbEntity
  8
0
100
AcDbBlockEnd
  0
BLOCK
  5
490D
330
490C
100
AcDbEntity
  8
0
100
AcDbBlockBegin
  2
*D59
 70
     1
 10
0.0
 20
0.0
 30
0.0
  3
*D59
  1

  0
LINE
  5
490E
330
490C
100
AcDbEntity
  8
Kóta (ISO)
100
AcDbLine
 10
37.22537829307505
 20
239.2053721515816
 30
0.0
 11
29.72049103320296
 21
239.2053721515816
 31
0.0
  0
LINE
  5
490F
330
490C
100
AcDbEntity
  8
Kóta (ISO)
100
AcDbLine
 10
37.22537829307506
 20
268.2710165560827
 30
0.0
 11
29.72049103320297
 21
268.2710165560827
 31
0.0
  0
LINE
  5
4910
330
490C
100
AcDbEntity
  8
Kóta (ISO)
100
AcDbLine
 10
30.72049103320297
 20
241.7053721515816
 30
0.0
 11
30.72049103320297
 21
265.7710165560827
 31
0.0
  0
SOLID
  5
4911
330
490C
100
AcDbEntity
  8
Kóta (ISO)
100
AcDbTrace
 10
30.3038243665363
 20
241.7053721515816
 30
0.0
 11
31.13715769986963
 21
241.7053721515816
 31
0.0
 12
30.72049103320297
 22
239.2053721515816
 32
0.0
 13
30.72049103320297
 23
239.2053721515816
 33
0.0
  0
SOLID
  5
4912
330
490C
100
AcDbEntity
  8
Kóta (ISO)
100
AcDbTrace
 10
30.3038243665363
 20
265.7710165560827
 30
0.0
 11
31.13715769986964
 21
265.7710165560827
 31
0.0
 12
30.72049103320297
 22
268.2710165560827
 32
0.0
 13
30.72049103320297
 23
268.2710165560827
 33
0.0
  0
MTEXT
  5
4913
330
490C
100
AcDbEntity
  8
Kóta (ISO)
100
AcDbMText
 10
26.31745678202764
 20
251.8382615129994
 30
0.0
 40
3.5
 41
0.0
 46
0.0
 71
     1
 72
     1
  1
\A1;29
  7
Text poznámky (ISO)
 11
0.0000000000000001
 21
1.0
 31
0.0
 73
     1
 44
1.0
  0
POINT
  5
4914
330
490C
100
AcDbEntity
  8
DEFPOINTS
 62
     0
100
AcDbPoint
 10
37.22537829307505
 20
239.2053721515816
 30
0.0
  0
POINT
  5
4915
330
490C
100
AcDbEntity
  8
DEFPOINTS
 62
     0
100
AcDbPoint
 10
37.22537829307506
 20
268.2710165560827
 30
0.0
  0
POINT
  5
4916
330
490C
100
AcDbEntity
  8
DEFPOINTS
 62
     0
100
AcDbPoint
 10
30.72049103320297
 20
268.2710165560827
 30
0.0
  0
ENDBLK
  5
4917
330
490C
100
AcDbEntity
  8
0
100
AcDbBlockEnd
  0
BLOCK
  5
4A1B
330
4A1A
100
AcDbEntity
  8
0
100
AcDbBlockBegin
  2
*D61
 70
     1
 10
0.0
 20
0.0
 30
0.0
  3
*D61
  1

  0
LINE
  5
4A41
330
4A1A
100
AcDbEntity
  8
KOTY_GULLY
  6
ByBlock
100
AcDbLine
 10
2056.613883573666
 20
582.9593195834741
 30
0.0
 11
2043.242616944683
 21
582.9593195834741
 31
0.0
  0
LINE
  5
4A42
330
4A1A
100
AcDbEntity
  8
KOTY_GULLY
  6
ByBlock
100
AcDbLine
 10
2056.613883573666
 20
612.0249639879752
 30
0.0
 11
2043.242616944683
 21
612.0249639879752
 31
0.0
  0
LINE
  5
4A43
330
4A1A
100
AcDbEntity
  8
KOTY_GULLY
  6
ByBlock
100
AcDbLine
 10
2043.442616944683
 20
585.959319583474
 30
0.0
 11
2043.442616944683
 21
609.0249639879751
 31
0.0
  0
SOLID
  5
4A44
330
4A1A
100
AcDbEntity
  8
KOTY_GULLY
100
AcDbTrace
 10
2042.942616944683
 20
585.959319583474
 30
0.0
 11
2043.942616944683
 21
585.959319583474
 31
0.0
 12
2043.442616944683
 22
582.9593195834741
 32
0.0
 13
2043.442616944683
 23
582.9593195834741
 33
0.0
  0
SOLID
  5
4A45
330
4A1A
100
AcDbEntity
  8
KOTY_GULLY
100
AcDbTrace
 10
2042.942616944683
 20
609.0249639879751
 30
0.0
 11
2043.942616944683
 21
609.0249639879751
 31
0.0
 12
2043.442616944683
 22
612.0249639879752
 32
0.0
 13
2043.442616944683
 23
612.0249639879752
 33
0.0
  0
MTEXT
  5
4A46
330
4A1A
100
AcDbEntity
  8
KOTY_GULLY
100
AcDbMText
 10
2031.322616944683
 20
590.4492846428675
 30
0.0
 40
12.0
 41
0.0
 46
0.0
 71
     1
 72
     1
  1
\A1;29
 11
0.0000000000000001
 21
1.0
 31
0.0
 73
     1
 44
1.0
  0
POINT
  5
4A47
330
4A1A
100
AcDbEntity
  8
DEFPOINTS
 62
     0
100
AcDbPoint
 10
2056.713883573666
 20
582.9593195834741
 30
0.0
  0
POINT
  5
4A48
330
4A1A
100
AcDbEntity
  8
DEFPOINTS
 62
     0
100
AcDbPoint
 10
2056.713883573666
 20
612.0249639879752
 30
0.0
  0
POINT
  5
4A49
330
4A1A
100
AcDbEntity
  8
DEFPOINTS
 62
     0
100
AcDbPoint
 10
2043.442616944683
 20
612.0249639879752
 30
0.0
  0
ENDBLK
  5
4A1C
330
4A1A
100
AcDbEntity
  8
0
100
AcDbBlockEnd
  0
ENDSEC
  0
SECTION
  2
ENTITIES
  0
SPLINE
  5
49AD
330
2
100
AcDbEntity
  8
ACO_VISIBLE ( NOTE )
100
AcDbSpline
210
0.0
220
0.0
230
1.0
 70
     8
 71
     3
 72
    10
 73
     6
 74
     0
 42
0.0000000001
 43
0.0000000001
 40
-0.8847036102558959
 40
-0.8847036102558959
 40
-0.8847036102558959
 40
-0.8847036102558959
 40
-0.4441301890711566
 40
-0.4441301890711566
 40
0.0
 40
0.0
 40
0.0
 40
0.0
 10
2174.802132342955
 20
610.9083019588344
 30
0.0
 10
2173.779887836127
 20
610.8446669117925
 30
0.0
 10
2172.754315894356
 20
610.7810290578073
 30
0.0
 10
2170.688813324968
 20
610.653244696672
 30
0.0
 10
2169.648839185992
 20
610.5890987238609
 30
0.0
 10
2168.605973516231
 20
610.5249639879751
 30
0.0
  0
LINE
  5
49AE
330
2
100
AcDbEntity
  8
ACO_VISIBLE ( NOTE )
100
AcDbLine
 10
2182.094272811518
 20
608.4728686926726
 30
0.0
 11
2182.094275417194
 21
608.4728388310029
 31
0.0
  0
ELLIPSE
  5
49AF
330
2
100
AcDbEntity
  8
ACO_VISIBLE ( NOTE )
100
AcDbEllipse
 10
2084.261133459321
 20
610.5249639879751
 30
0.0
 11
0.0000000000000178
 21
1.500000000000014
 31
0.0
210
0.0
220
0.0
230
1.0
 40
0.7071067811865526
 41
4.712388980384698
 42
6.283185307179603
  0
LINE
  5
49B0
330
2
100
AcDbEntity
  8
ACO_VISIBLE ( NOTE )
100
AcDbLine
 10
2085.3217936311
 20
610.5249639879751
 30
0.0
 11
2089.840777561372
 21
610.5249639879751
 31
0.0
  0
ELLIPSE
  5
49B1
330
2
100
AcDbEntity
  8
ACO_VISIBLE ( NOTE )
100
AcDbEllipse
 10
2088.780117389593
 20
610.5249639879751
 30
0.0
 11
0.0000000000000009
 21
1.499999999999993
 31
0.0
210
0.0
220
0.0
230
1.0
 40
0.7071067811865463
 41
4.712388980384689
 42
6.283185307179603
  0
LINE
  5
49B2
330
2
100
AcDbEntity
  8
ACO_VISIBLE ( NOTE )
100
AcDbLine
 10
2088.780117389593
 20
612.0249639879752
 30
0.0
 11
2084.261133459321
 21
612.0249639879752
 31
0.0
  0
LINE
  5
49B3
330
2
100
AcDbEntity
  8
ACO_VISIBLE ( NOTE )
100
AcDbLine
 10
2088.780117389593
 20
612.0249639879752
 30
0.0
 11
2089.073010608406
 21
612.0249639879752
 31
0.0
  0
LINE
  5
49B4
330
2
100
AcDbEntity
  8
ACO_VISIBLE ( NOTE )
100
AcDbLine
 10
2090.573010608406
 20
610.5249639879751
 30
0.0
 11
2089.840777561372
 21
610.5249639879751
 31
0.0
  0
SPLINE
  5
49B5
330
2
100
AcDbEntity
  8
ACO_VISIBLE ( NOTE )
100
AcDbSpline
210
0.0
220
0.0
230
1.0
 70
     8
 71
     3
 72
    14
 73
    10
 74
     0
 42
0.0000000001
 43
0.0000000001
 40
0.0
 40
0.0
 40
0.0
 40
0.0
 40
0.0585834059970478
 40
0.0585834059970478
 40
0.1171761254039787
 40
0.1171761254039787
 40
0.1572596083202882
 40
0.1572596083202882
 40
0.1973451547012078
 40
0.1973451547012078
 40
0.1973451547012078
 40
0.1973451547012078
 10
2078.073891291885
 20
612.0249639879751
 30
0.0
 10
2078.214119866898
 20
612.0249639879751
 30
0.0
 10
2078.353591111721
 20
611.9868330386577
 30
0.0
 10
2078.61510993279
 20
611.8385813167922
 30
0.0
 10
2078.734640640496
 20
611.7298682787064
 30
0.0
 10
2078.905196288126
 20
611.4988515967297
 30
0.0
 10
2078.96516721667
 20
611.3927221817359
 30
0.0
 10
2079.063102472651
 20
611.1615216718781
 30
0.0
 10
2079.100626419567
 20
611.0374821598611
 30
0.0
 10
2079.125634804377
 20
610.9083019588344
 30
0.0
  0
SPLINE
  5
49B6
330
2
100
AcDbEntity
  8
ACO_VISIBLE ( NOTE )
100
AcDbSpline
210
0.0
220
0.0
230
1.0
 70
     8
 71
     3
 72
    10
 73
     6
 74
     0
 42
0.0000000001
 43
0.0000000001
 40
-0.8847036102558995
 40
-0.8847036102558995
 40
-0.8847036102558995
 40
-0.8847036102558995
 40
-0.4441301890711578
 40
-0.4441301890711578
 40
0.0
 40
0.0
 40
0.0
 40
0.0
 10
2079.125634804377
 20
610.9083019588344
 30
0.0
 10
2080.147879311205
 20
610.8446669117925
 30
0.0
 10
2081.173451252976
 20
610.7810290578073
 30
0.0
 10
2083.238953822364
 20
610.653244696672
 30
0.0
 10
2084.27892796134
 20
610.5890987238609
 30
0.0
 10
2085.3217936311
 20
610.5249639879751
 30
0.0
  0
SPLINE
  5
49B7
330
2
100
AcDbEntity
  8
ACO_VISIBLE ( NOTE )
100
AcDbSpline
210
0.0
220
0.0
230
1.0
 70
    24
 71
     3
 72
    10
 73
     6
 74
     0
 42
0.0000000001
 43
0.0000000001
 40
0.0
 40
0.0
 40
0.0
 40
0.0
 40
0.4441301890711578
 40
0.4441301890711578
 40
0.8851237080916488
 40
0.8851237080916488
 40
0.8851237080916488
 40
0.8851237080916488
 10
2084.261133459321
 20
612.0249639879751
 30
0.0
 10
2083.214308564581
 20
612.0249639879751
 30
0.0
 10
2082.173291785673
 20
612.0249639879751
 30
0.0
 10
2080.110695751393
 20
612.0249639879751
 30
0.0
 10
2079.089034037805
 20
612.0249639879752
 30
0.0
 10
2078.073891291902
 20
612.0249639879752
 30
0.0
  0
SPLINE
  5
49B8
330
2
100
AcDbEntity
  8
ACO_VISIBLE ( NOTE )
100
AcDbSpline
210
0.0
220
0.0
230
1.0
 70
     8
 71
     3
 72
    14
 73
    10
 74
     0
 42
0.0000000001
 43
0.0000000001
 40
0.0
 40
0.0
 40
0.0
 40
0.0
 40
0.0585942526709372
 40
0.0585942526709372
 40
0.1171871581694403
 40
0.1171871581694403
 40
0.1572658564131408
 40
0.1572658564131408
 40
0.1973444789753544
 40
0.1973444789753544
 40
0.1973444789753544
 40
0.1973444789753544
 10
2075.519112656811
 20
610.9083019588344
 30
0.0
 10
2075.553105598988
 20
611.0971293673937
 30
0.0
 10
2075.611914059404
 20
611.2744012803782
 30
0.0
 10
2075.773061871908
 20
611.5858781126591
 30
0.0
 10
2075.873875162706
 20
611.7171088708446
 30
0.0
 10
2076.068734564463
 20
611.8843967060995
 30
0.0
 10
2076.153983486677
 20
611.9366760993571
 30
0.0
 10
2076.332309658972
 20
612.0071174130554
 30
0.0
 10
2076.424589336564
 20
612.0249639879752
 30
0.0
 10
2076.517564038071
 20
612.0249639879752
 30
0.0
  0
SPLINE
  5
49B9
330
2
100
AcDbEntity
  8
ACO_VISIBLE ( NOTE )
100
AcDbSpline
210
0.0
220
0.0
230
1.0
 70
     8
 71
     3
 72
    10
 73
     6
 74
     0
 42
0.0000000001
 43
0.0000000001
 40
1.034066399821069
 40
1.034066399821069
 40
1.034066399821069
 40
1.034066399821069
 40
1.183838431752132
 40
1.183838431752132
 40
1.251996299721976
 40
1.251996299721976
 40
1.251996299721976
 40
1.251996299721976
 10
2090.500667309863
 20
609.7828722751971
 30
0.0
 10
2090.425784598358
 20
609.8217416354278
 30
0.0
 10
2090.294211114235
 20
609.8643384043774
 30
0.0
 10
2090.032713308763
 20
609.9274531857169
 30
0.0
 10
2089.940803507157
 20
609.9474113396868
 30
0.0
 10
2089.840777561372
 20
609.9671607398102
 30
0.0
  0
SPLINE
  5
49BA
330
2
100
AcDbEntity
  8
ACO_VISIBLE ( NOTE )
100
AcDbSpline
210
0.0
220
0.0
230
1.0
 70
     8
 71
     3
 72
     8
 73
     4
 74
     0
 42
0.0000000001
 43
0.0000000001
 40
0.0000000000000001
 40
0.0000000000000001
 40
0.0000000000000001
 40
0.0000000000000001
 40
0.6415105299405539
 40
0.6415105299405539
 40
0.6415105299405539
 40
0.6415105299405539
 10
2089.840777561372
 20
609.9671607398102
 30
0.0
 10
2088.334446465064
 20
610.1530446079022
 30
0.0
 10
2086.828118811318
 20
610.338984262704
 30
0.0
 10
2085.3217936311
 20
610.5249639879751
 30
0.0
  0
SPLINE
  5
49BB
330
2
100
AcDbEntity
  8
ACO_VISIBLE ( NOTE )
100
AcDbSpline
210
0.0
220
0.0
230
1.0
 70
     8
 71
     3
 72
    16
 73
    12
 74
     0
 42
0.0000000001
 43
0.0000000001
 40
0.039208966633569
 40
0.039208966633569
 40
0.039208966633569
 40
0.039208966633569
 40
0.0590268225123834
 40
0.0590268225123834
 40
0.1181417133354493
 40
0.1181417133354493
 40
0.1771863125479141
 40
0.1771863125479141
 40
0.2075191485121184
 40
0.2075191485121184
 40
0.2378297921198167
 40
0.2378297921198167
 40
0.2378297921198167
 40
0.2378297921198167
 10
2079.125634804377
 20
610.9083019588344
 30
0.0
 10
2079.137948404697
 20
610.8446963570828
 30
0.0
 10
2079.153316358059
 20
610.7821229797451
 30
0.0
 10
2079.226472577696
 20
610.5386688956817
 30
0.0
 10
2079.306915631429
 20
610.3726550779843
 30
0.0
 10
2079.510505961434
 20
610.0922405905081
 30
0.0
 10
2079.631692775001
 20
609.9804284252927
 30
0.0
 10
2079.834717946535
 20
609.8637131740032
 30
0.0
 10
2079.906522551385
 20
609.8335567778963
 30
0.0
 10
2080.053763113723
 20
609.7931183919527
 30
0.0
 10
2080.128824267453
 20
609.7829242613957
 30
0.0
 10
2080.204223796743
 20
609.7829242613957
 30
0.0
  0
ELLIPSE
  5
49BC
330
2
100
AcDbEntity
  8
ACO_VISIBLE ( NOTE )
100
AcDbEllipse
 10
2090.901437733152
 20
609.9671607398102
 30
0.0
 11
-0.1837091245962969
 21
-1.48870781469713
 31
0.0
210
0.0
220
0.0
230
1.0
 40
0.7044301033288753
 41
4.799098907766318
 42
4.922704439103334
  0
SPLINE
  5
49BD
330
2
100
AcDbEntity
  8
ACO_VISIBLE ( NOTE )
100
AcDbSpline
210
0.0
220
0.0
230
1.0
 70
     8
 71
     3
 72
    14
 73
    10
 74
     0
 42
0.0000000001
 43
0.0000000001
 40
0.0
 40
0.0
 40
0.0
 40
0.0
 40
0.0586988238425773
 40
0.0586988238425773
 40
0.1176253600227563
 40
0.1176253600227563
 40
0.1766998827237925
 40
0.1766998827237925
 40
0.1987089660322574
 40
0.1987089660322574
 40
0.1987089660322574
 40
0.1987089660322574
 10
2074.536822645683
 20
609.7829242613957
 30
0.0
 10
2074.66705927829
 20
609.7829242613957
 30
0.0
 10
2074.796682556135
 20
609.8211545401515
 30
0.0
 10
2075.040391794765
 20
609.9697961610395
 30
0.0
 10
2075.15208295112
 20
610.0790682579559
 30
0.0
 10
2075.341767329121
 20
610.3551094329035
 30
0.0
 10
2075.417865048308
 20
610.5194096529523
 30
0.0
 10
2075.490106578193
 20
610.7679886572261
 30
0.0
 10
2075.506355421083
 20
610.8374367848073
 30
0.0
 10
2075.519112656811
 20
610.9083019588344
 30
0.0
  0
LINE
  5
49BE
330
2
100
AcDbEntity
  8
ACO_VISIBLE ( NOTE )
100
AcDbLine
 10
2065.57307521133
 20
610.5249639879751
 30
0.0
 11
2065.57307521133
 21
612.0249639879751
 31
0.0
  0
LINE
  5
49BF
330
2
100
AcDbEntity
  8
ACO_VISIBLE ( NOTE )
100
AcDbLine
 10
2065.57307521133
 20
610.5249639879751
 30
0.0
 11
2071.963883573666
 21
610.5249639879751
 31
0.0
  0
LINE
  5
49C0
330
2
100
AcDbEntity
  8
ACO_VISIBLE ( NOTE )
100
AcDbLine
 10
2071.963883573666
 20
612.0249639879752
 30
0.0
 11
2071.963883573666
 21
610.5249639879751
 31
0.0
  0
LINE
  5
49C1
330
2
100
AcDbEntity
  8
ACO_VISIBLE ( NOTE )
100
AcDbLine
 10
2071.963883573666
 20
612.0249639879752
 30
0.0
 11
2065.57307521133
 21
612.0249639879752
 31
0.0
  0
LINE
  5
49C2
330
2
100
AcDbEntity
  8
ACO_VISIBLE ( NOTE )
100
AcDbLine
 10
2071.963883573666
 20
612.0249639879752
 30
0.0
 11
2072.963883573666
 21
612.0249639879752
 31
0.0
  0
LINE
  5
49C3
330
2
100
AcDbEntity
  8
ACO_VISIBLE ( NOTE )
100
AcDbLine
 10
2074.463883573666
 20
610.5249639879751
 30
0.0
 11
2071.963883573666
 21
610.5249639879751
 31
0.0
  0
SPLINE
  5
49C4
330
2
100
AcDbEntity
  8
ACO_VISIBLE ( NOTE )
100
AcDbSpline
210
0.0
220
0.0
230
1.0
 70
     8
 71
     3
 72
    14
 73
    10
 74
     0
 42
0.0000000001
 43
0.0000000001
 40
0.0
 40
0.0
 40
0.0
 40
0.0
 40
0.0585834249078848
 40
0.0585834249078848
 40
0.1171761405037071
 40
0.1171761405037071
 40
0.1572596141496425
 40
0.1572596141496425
 40
0.1973451547764346
 40
0.1973451547764346
 40
0.1973451547764346
 40
0.1973451547764346
 10
2056.722503869537
 20
612.0249639879752
 30
0.0
 10
2056.72556296549
 20
612.0249639879752
 30
0.0
 10
2056.729435606149
 20
611.9868330140405
 30
0.0
 10
2056.738024457452
 20
611.8385812279409
 30
0.0
 10
2056.742644268622
 20
611.729868178587
 30
0.0
 10
2056.749822433952
 20
611.4988515038901
 30
0.0
 10
2056.752532482189
 20
611.3927221079954
 30
0.0
 10
2056.757106551928
 20
611.1615216363495
 30
0.0
 10
2056.758947393069
 20
611.0374821413175
 30
0.0
 10
2056.760187096917
 20
610.9083019588344
 30
0.0
  0
SPLINE
  5
49C5
330
2
100
AcDbEntity
  8
ACO_VISIBLE ( NOTE )
100
AcDbSpline
210
0.0
220
0.0
230
1.0
 70
     8
 71
     3
 72
    10
 73
     6
 74
     0
 42
0.0000000001
 43
0.0000000001
 40
-0.8847036102559007
 40
-0.8847036102559007
 40
-0.8847036102559007
 40
-0.8847036102559007
 40
-0.4441301890711583
 40
-0.4441301890711583
 40
0.0
 40
0.0
 40
0.0
 40
0.0
 10
2056.760187096917
 20
610.9083019588344
 30
0.0
 10
2058.222813103949
 20
610.8446669117925
 30
0.0
 10
2059.685649078436
 20
610.7810290578073
 30
0.0
 10
2062.623367565452
 20
610.653244696672
 30
0.0
 10
2064.098240437421
 20
610.5890987238609
 30
0.0
 10
2065.57307521133
 20
610.5249639879751
 30
0.0
  0
SPLINE
  5
49C6
330
2
100
AcDbEntity
  8
ACO_VISIBLE ( NOTE )
100
AcDbSpline
210
0.0
220
0.0
230
1.0
 70
    24
 71
     3
 72
    10
 73
     6
 74
     0
 42
0.0000000001
 43
0.0000000001
 40
0.0
 40
0.0
 40
0.0
 40
0.0
 40
0.4441301890711583
 40
0.4441301890711583
 40
0.8851237080916487
 40
0.8851237080916487
 40
0.8851237080916487
 40
0.8851237080916487
 10
2065.57307521133
 20
612.0249639879752
 30
0.0
 10
2064.092641247759
 20
612.0249639879752
 30
0.0
 10
2062.612166520144
 20
612.0249639879752
 30
0.0
 10
2059.66188593546
 20
612.0249639879752
 30
0.0
 10
2058.192090014173
 20
612.0249639879752
 30
0.0
 10
2056.722503869563
 20
612.0249639879752
 30
0.0
  0
SPLINE
  5
49C7
330
2
100
AcDbEntity
  8
ACO_VISIBLE ( NOTE )
100
AcDbSpline
210
0.0
220
0.0
230
1.0
 70
     8
 71
     3
 72
    10
 73
     6
 74
     0
 42
0.0000000001
 43
0.0000000001
 40
1.034066398469877
 40
1.034066398469877
 40
1.034066398469877
 40
1.034066398469877
 40
1.183838431752203
 40
1.183838431752203
 40
1.251996299721976
 40
1.251996299721976
 40
1.251996299721976
 40
1.251996299721976
 10
2073.258630935018
 20
609.7828722741451
 30
0.0
 10
2072.990793641197
 20
609.8217416346592
 30
0.0
 10
2072.693912631526
 20
609.8643384039863
 30
0.0
 10
2072.247413744876
 20
609.927453185717
 30
0.0
 10
2072.105341622784
 20
609.9474113396868
 30
0.0
 10
2071.963883573666
 20
609.9671607398102
 30
0.0
  0
SPLINE
  5
49C8
330
2
100
AcDbEntity
  8
ACO_VISIBLE ( NOTE )
100
AcDbSpline
210
0.0
220
0.0
230
1.0
 70
     8
 71
     3
 72
     8
 73
     4
 74
     0
 42
0.0000000001
 43
0.0000000001
 40
0.0000000000000015
 40
0.0000000000000015
 40
0.0000000000000015
 40
0.0000000000000015
 40
0.6415105297651415
 40
0.6415105297651415
 40
0.6415105297651415
 40
0.6415105297651415
 10
2071.963883573666
 20
609.9671607398102
 30
0.0
 10
2069.833609708425
 20
610.1530446078515
 30
0.0
 10
2067.703340710981
 20
610.3389842626654
 30
0.0
 10
2065.57307521133
 20
610.5249639879751
 30
0.0
  0
SPLINE
  5
49C9
330
2
100
AcDbEntity
  8
ACO_VISIBLE ( NOTE )
100
AcDbSpline
210
0.0
220
0.0
230
1.0
 70
     8
 71
     3
 72
    16
 73
    12
 74
     0
 42
0.0000000001
 43
0.0000000001
 40
0.0392089652299016
 40
0.0392089652299016
 40
0.0392089652299016
 40
0.0392089652299016
 40
0.0590264732809353
 40
0.0590264732809353
 40
0.1181414271987447
 40
0.1181414271987447
 40
0.1771864196943467
 40
0.1771864196943467
 40
0.2075190388635283
 40
0.2075190388635283
 40
0.2378297930551946
 40
0.2378297930551946
 40
0.2378297930551946
 40
0.2378297930551946
 10
2056.760187096917
 20
610.9083019588344
 30
0.0
 10
2056.760797490317
 20
610.8446974689107
 30
0.0
 10
2056.761564788105
 20
610.7821251661605
 30
0.0
 10
2056.765277453439
 20
610.5386717322432
 30
0.0
 10
2056.769461979152
 20
610.3726575059336
 30
0.0
 10
2056.781020485467
 20
610.0922414168576
 30
0.0
 10
2056.788302113808
 20
609.9804283961262
 30
0.0
 10
2056.801641178918
 20
609.8637131072091
 30
0.0
 10
2056.806536903297
 20
609.8335569264658
 30
0.0
 10
2056.81698825919
 20
609.7931184663089
 30
0.0
 10
2056.822517294533
 20
609.7829242613957
 30
0.0
 10
2056.828280759571
 20
609.7829242613957
 30
0.0
  0
LINE
  5
49CA
330
2
100
AcDbEntity
  8
ACO_VISIBLE ( NOTE )
100
AcDbLine
 10
2071.963883573666
 20
609.9671607398102
 30
0.0
 11
2071.947807429654
 21
609.782924260317
 31
0.0
  0
SPLINE
  5
49CB
330
2
100
AcDbEntity
  8
ACO_VISIBLE ( NOTE )
100
AcDbSpline
210
0.0
220
0.0
230
1.0
 70
     8
 71
     3
 72
    14
 73
    10
 74
     0
 42
0.0000000001
 43
0.0000000001
 40
0.0
 40
0.0
 40
0.0
 40
0.0
 40
0.0585942526709369
 40
0.0585942526709369
 40
0.1171871581694395
 40
0.1171871581694395
 40
0.1572658564131455
 40
0.1572658564131455
 40
0.1973444789753669
 40
0.1973444789753669
 40
0.1973444789753669
 40
0.1973444789753669
 10
2178.408654490521
 20
610.9083019588344
 30
0.0
 10
2178.374661548344
 20
611.0971293673937
 30
0.0
 10
2178.315853087928
 20
611.2744012803782
 30
0.0
 10
2178.154705275423
 20
611.5858781126591
 30
0.0
 10
2178.053891984625
 20
611.7171088708446
 30
0.0
 10
2177.859032582869
 20
611.8843967060995
 30
0.0
 10
2177.773783660654
 20
611.9366760993571
 30
0.0
 10
2177.595457488359
 20
612.0071174130554
 30
0.0
 10
2177.503177810768
 20
612.0249639879752
 30
0.0
 10
2177.410203109261
 20
612.0249639879752
 30
0.0
  0
SPLINE
  5
49CC
330
2
100
AcDbEntity
  8
ACO_VISIBLE ( NOTE )
100
AcDbSpline
210
0.0
220
0.0
230
1.0
 70
    24
 71
     3
 72
     8
 73
     4
 74
     0
 42
0.0000000001
 43
0.0000000001
 40
0.0031366700506666
 40
0.0031366700506666
 40
0.0031366700506666
 40
0.0031366700506666
 40
0.0128156428177251
 40
0.0128156428177251
 40
0.0128156428177251
 40
0.0128156428177251
 10
2177.410203109243
 20
612.0249639879752
 30
0.0
 10
2177.386868630493
 20
612.0249639879752
 30
0.0
 10
2177.363537149145
 20
612.0249639879752
 30
0.0
 10
2177.340208660908
 20
612.0249639879752
 30
0.0
  0
SPLINE
  5
49CD
330
2
100
AcDbEntity
  8
ACO_VISIBLE ( NOTE )
100
AcDbSpline
210
0.0
220
0.0
230
1.0
 70
    24
 71
     3
 72
     8
 73
     4
 74
     0
 42
0.0000000001
 43
0.0000000001
 40
-0.0130246939080937
 40
-0.0130246939080937
 40
-0.0130246939080937
 40
-0.0130246939080937
 40
-0.0035567678864154
 40
-0.0035567678864154
 40
-0.0035567678864154
 40
-0.0035567678864154
 10
2178.341208794928
 20
610.904199402129
 30
0.0
 10
2178.363689295039
 20
610.9055669222917
 30
0.0
 10
2178.386171193007
 20
610.9069344412112
 30
0.0
 10
2178.408654490521
 20
610.9083019588344
 30
0.0
  0
SPLINE
  5
49CE
330
2
100
AcDbEntity
  8
ACO_VISIBLE ( NOTE )
100
AcDbSpline
210
0.0
220
0.0
230
1.0
 70
     8
 71
     3
 72
    14
 73
    10
 74
     0
 42
0.0000000001
 43
0.0000000001
 40
0.0
 40
0.0
 40
0.0
 40
0.0
 40
0.0586988238425764
 40
0.0586988238425764
 40
0.1176253600227532
 40
0.1176253600227532
 40
0.176699882723788
 40
0.176699882723788
 40
0.1987089660322402
 40
0.1987089660322402
 40
0.1987089660322402
 40
0.1987089660322402
 10
2179.390944501649
 20
609.7829242613957
 30
0.0
 10
2179.260707869042
 20
609.7829242613957
 30
0.0
 10
2179.131084591197
 20
609.8211545401515
 30
0.0
 10
2178.887375352567
 20
609.9697961610395
 30
0.0
 10
2178.775684196212
 20
610.0790682579559
 30
0.0
 10
2178.58599981821
 20
610.3551094329035
 30
0.0
 10
2178.509902099024
 20
610.5194096529523
 30
0.0
 10
2178.437660569138
 20
610.7679886572261
 30
0.0
 10
2178.421411726249
 20
610.8374367848073
 30
0.0
 10
2178.408654490521
 20
610.9083019588344
 30
0.0
  0
LINE
  5
49CF
330
2
100
AcDbEntity
  8
ACO_VISIBLE ( NOTE )
100
AcDbLine
 10
2188.41947463306
 20
609.7829242613974
 30
0.0
 11
2188.354691936002
 21
610.5249639879751
 31
0.0
  0
SPLINE
  5
49D0
330
2
100
AcDbEntity
  8
ACO_VISIBLE ( NOTE )
100
AcDbSpline
210
0.0
220
0.0
230
1.0
 70
     8
 71
     3
 72
    10
 73
     6
 74
     0
 42
0.0000000001
 43
0.0000000001
 40
1.035395159349648
 40
1.035395159349648
 40
1.035395159349648
 40
1.035395159349648
 40
1.257679266836088
 40
1.257679266836088
 40
1.676905689114785
 40
1.676905689114785
 40
1.676905689114785
 40
1.676905689114785
 10
2188.354691936002
 20
610.5249639879751
 30
0.0
 10
2187.616552586259
 20
610.4605218076328
 30
0.0
 10
2186.878412811466
 20
610.3960844966323
 30
0.0
 10
2184.748144716264
 20
610.2101345085111
 30
0.0
 10
2183.35601519047
 20
610.0886356421579
 30
0.0
 10
2181.963883573666
 20
609.9671607398102
 30
0.0
  0
LINE
  5
49D1
330
2
100
AcDbEntity
  8
ACO_VISIBLE ( NOTE )
100
AcDbLine
 10
2181.963883573666
 20
609.9671607398102
 30
0.0
 11
2181.979959717584
 21
609.7829242613957
 31
0.0
  0
SPLINE
  5
49D2
330
2
100
AcDbEntity
  8
ACO_VISIBLE ( NOTE )
100
AcDbSpline
210
0.0
220
0.0
230
1.0
 70
     8
 71
     3
 72
    12
 73
     8
 74
     0
 42
0.0000000001
 43
0.0000000001
 40
0.0
 40
0.0
 40
0.0
 40
0.0
 40
0.0779908649121242
 40
0.0779908649121242
 40
0.202776248771523
 40
0.202776248771523
 40
0.2171473346186414
 40
0.2171473346186414
 40
0.2171473346186414
 40
0.2171473346186414
 10
2181.963883573666
 20
609.9671607398102
 30
0.0
 10
2181.802017659603
 20
609.9445621339119
 30
0.0
 10
2181.638628024486
 20
609.9215889879064
 30
0.0
 10
2181.221799962533
 20
609.862558950484
 30
0.0
 10
2180.975807192484
 20
609.8272982426776
 30
0.0
 10
2180.721273545287
 20
609.7904410413696
 30
0.0
 10
2180.695237575441
 20
609.7866661620127
 30
0.0
 10
2180.669474409091
 20
609.7829263244814
 30
0.0
  0
SPLINE
  5
49D3
330
2
100
AcDbEntity
  8
ACO_VISIBLE ( NOTE )
100
AcDbSpline
210
0.0
220
0.0
230
1.0
 70
     8
 71
     3
 72
    14
 73
    10
 74
     0
 42
0.0000000001
 43
0.0000000001
 40
0.0
 40
0.0
 40
0.0
 40
0.0
 40
0.0588050678034923
 40
0.0588050678034923
 40
0.117862986345217
 40
0.117862986345217
 40
0.1584953351836576
 40
0.1584953351836576
 40
0.1990402311693083
 40
0.1990402311693083
 40
0.1990402311693083
 40
0.1990402311693083
 10
2197.104907112899
 20
609.7829242613957
 30
0.0
 10
2197.115821093853
 20
609.7829242613957
 30
0.0
 10
2197.125783985923
 20
609.8211825819691
 30
0.0
 10
2197.143077881127
 20
609.9699007502343
 30
0.0
 10
2197.150249037692
 20
610.0792692906428
 30
0.0
 10
2197.159874291546
 20
610.3122037555512
 30
0.0
 10
2197.163066179102
 20
610.4196672510885
 30
0.0
 10
2197.16810955694
 20
610.6536161034076
 30
0.0
 10
2197.16994459115
 20
610.7790352045074
 30
0.0
 10
2197.17115419181
 20
610.9096738238255
 30
0.0
  0
SPLINE
  5
49D4
330
2
100
AcDbEntity
  8
ACO_VISIBLE ( NOTE )
100
AcDbSpline
210
0.0
220
0.0
230
1.0
 70
     8
 71
     3
 72
    10
 73
     6
 74
     0
 42
0.0000000001
 43
0.0000000001
 40
-8.87101419201908
 40
-8.87101419201908
 40
-8.87101419201908
 40
-8.87101419201908
 40
-8.50565777846676
 40
-8.50565777846676
 40
-7.985971151937448
 40
-7.985971151937448
 40
-7.985971151937448
 40
-7.985971151937448
 10
2197.17115419181
 20
610.9096738238255
 30
0.0
 10
2195.958204901845
 20
610.8567639504123
 30
0.0
 10
2194.745087975512
 20
610.8038402347237
 30
0.0
 10
2191.806234784053
 20
610.675611249158
 30
0.0
 10
2190.08041651773
 20
610.6002949229507
 30
0.0
 10
2188.354691936002
 20
610.5249639879751
 30
0.0
  0
LINE
  5
49D5
330
2
100
AcDbEntity
  8
ACO_VISIBLE ( NOTE )
100
AcDbLine
 10
2181.963883573666
 20
610.5249639879751
 30
0.0
 11
2179.463883573666
 21
610.5249639879751
 31
0.0
  0
LINE
  5
49D6
330
2
100
AcDbEntity
  8
ACO_VISIBLE ( NOTE )
100
AcDbLine
 10
2181.963883573666
 20
610.5249639879751
 30
0.0
 11
2188.354691936002
 21
610.5249639879751
 31
0.0
  0
SPLINE
  5
49D7
330
2
100
AcDbEntity
  8
ACO_VISIBLE ( NOTE )
100
AcDbSpline
210
0.0
220
0.0
230
1.0
 70
     8
 71
     3
 72
    14
 73
    10
 74
     0
 42
0.0000000001
 43
0.0000000001
 40
0.9417636219303222
 40
0.9417636219303222
 40
0.9417636219303222
 40
0.9417636219303222
 40
0.9606285801548956
 40
0.9606285801548956
 40
1.017133791421893
 40
1.017133791421893
 40
1.073651335939255
 40
1.073651335939255
 40
1.130168880456617
 40
1.130168880456617
 40
1.130168880456617
 40
1.130168880456617
 10
2197.17115419181
 20
610.9096738238251
 30
0.0
 10
2197.171748522887
 20
610.9738624390224
 30
0.0
 10
2197.172490100621
 20
611.037294598982
 30
0.0
 10
2197.175959162593
 20
611.2837569088064
 30
0.0
 10
2197.179745133984
 20
611.4524093691247
 30
0.0
 10
2197.187560919935
 20
611.7187624766859
 30
0.0
 10
2197.192104789997
 20
611.8342118331363
 30
0.0
 10
2197.200387976865
 20
611.9873128999416
 30
0.0
 10
2197.20408404133
 20
612.0249639879752
 30
0.0
 10
2197.206765775352
 20
612.0249639879751
 30
0.0
  0
LINE
  5
49D8
330
2
100
AcDbEntity
  8
ACO_VISIBLE ( NOTE )
100
AcDbLine
 10
2197.206765775352
 20
612.0249639879752
 30
0.0
 11
2181.963883573666
 21
612.0249639879752
 31
0.0
  0
LINE
  5
49D9
330
2
100
AcDbEntity
  8
ACO_VISIBLE ( NOTE )
100
AcDbLine
 10
2181.963883573666
 20
612.0249639879752
 30
0.0
 11
2181.963883573666
 21
610.5249639879751
 31
0.0
  0
LINE
  5
49DA
330
2
100
AcDbEntity
  8
ACO_VISIBLE ( NOTE )
100
AcDbLine
 10
2180.963883573666
 20
612.0249639879752
 30
0.0
 11
2181.963883573666
 21
612.0249639879752
 31
0.0
  0
SPLINE
  5
49DB
330
2
100
AcDbEntity
  8
ACO_VISIBLE ( NOTE )
100
AcDbSpline
210
0.0
220
0.0
230
1.0
 70
     8
 71
     3
 72
    14
 73
    10
 74
     0
 42
0.0000000001
 43
0.0000000001
 40
0.0
 40
0.0
 40
0.0
 40
0.0
 40
0.0585834249078848
 40
0.0585834249078848
 40
0.1171761405037069
 40
0.1171761405037069
 40
0.1572596141496422
 40
0.1572596141496422
 40
0.1973451547764342
 40
0.1973451547764342
 40
0.1973451547764342
 40
0.1973451547764342
 10
2128.064373128583
 20
612.0249639879752
 30
0.0
 10
2128.259627249263
 20
612.0249639879752
 30
0.0
 10
2128.452996797319
 20
611.9868330140405
 30
0.0
 10
2128.814251439164
 20
611.8385812279409
 30
0.0
 10
2128.978673552528
 20
611.729868178587
 30
0.0
 10
2129.212697441853
 20
611.4988515038901
 30
0.0
 10
2129.294799066824
 20
611.3927221079954
 30
0.0
 10
2129.428726329297
 20
611.1615216363495
 30
0.0
 10
2129.479952352662
 20
611.0374821413175
 30
0.0
 10
2129.514079840709
 20
610.9083019588344
 30
0.0
  0
SPLINE
  5
49DC
330
2
100
AcDbEntity
  8
ACO_VISIBLE ( NOTE )
100
AcDbSpline
210
0.0
220
0.0
230
1.0
 70
     8
 71
     3
 72
    14
 73
    10
 74
     0
 42
0.0000000001
 43
0.0000000001
 40
0.0
 40
0.0
 40
0.0
 40
0.0
 40
0.0585942472904198
 40
0.0585942472904198
 40
0.1171871552978812
 40
0.1171871552978812
 40
0.1572658553776269
 40
0.1572658553776269
 40
0.1973444789610578
 40
0.1973444789610578
 40
0.1973444789610578
 40
0.1973444789610578
 10
2124.413687306623
 20
610.9083019588344
 30
0.0
 10
2124.463572702454
 20
611.0971293500544
 30
0.0
 10
2124.549840906469
 20
611.274401247988
 30
0.0
 10
2124.785443498412
 20
611.5858780810129
 30
0.0
 10
2124.932526475699
 20
611.7171088489332
 30
0.0
 10
2125.215610231949
 20
611.884396696925
 30
0.0
 10
2125.339161414565
 20
611.9366760941895
 30
0.0
 10
2125.596840908146
 20
612.0071174121459
 30
0.0
 10
2125.729815116953
 20
612.0249639879752
 30
0.0
 10
2125.863394018749
 20
612.0249639879752
 30
0.0
  0
SPLINE
  5
49DD
330
2
100
AcDbEntity
  8
ACO_VISIBLE ( NOTE )
100
AcDbSpline
210
0.0
220
0.0
230
1.0
 70
     8
 71
     3
 72
    16
 73
    12
 74
     0
 42
0.0000000001
 43
0.0000000001
 40
0.0392089652299011
 40
0.0392089652299011
 40
0.0392089652299011
 40
0.0392089652299011
 40
0.0590264732809339
 40
0.0590264732809339
 40
0.1181414271987402
 40
0.1181414271987402
 40
0.17718641969434
 40
0.17718641969434
 40
0.2075190388635205
 40
0.2075190388635205
 40
0.2378297930551874
 40
0.2378297930551874
 40
0.2378297930551874
 40
0.2378297930551874
 10
2129.514079840709
 20
610.9083019588344
 30
0.0
 10
2129.530883203484
 20
610.8446974689107
 30
0.0
 10
2129.551849018688
 20
610.7821251661605
 30
0.0
 10
2129.6515939193
 20
610.5386717322432
 30
0.0
 10
2129.761172813744
 20
610.3726575059336
 30
0.0
 10
2130.037535070425
 20
610.0922414168576
 30
0.0
 10
2130.201638568669
 20
609.9804283961262
 30
0.0
 10
2130.475421110773
 20
609.8637131072091
 30
0.0
 10
2130.572071702503
 20
609.8335569264658
 30
0.0
 10
2130.769849547843
 20
609.7931184663089
 30
0.0
 10
2130.870473398509
 20
609.7829242613957
 30
0.0
 10
2130.971341359285
 20
609.7829242613957
 30
0.0
  0
SPLINE
  5
49DE
330
2
100
AcDbEntity
  8
ACO_VISIBLE ( NOTE )
100
AcDbSpline
210
0.0
220
0.0
230
1.0
 70
     8
 71
     3
 72
    14
 73
    10
 74
     0
 42
0.0000000001
 43
0.0000000001
 40
0.0
 40
0.0
 40
0.0
 40
0.0
 40
0.0586982580865791
 40
0.0586982580865791
 40
0.1176243228898065
 40
0.1176243228898065
 40
0.1766986401933618
 40
0.1766986401933618
 40
0.1987089568426599
 40
0.1987089568426599
 40
0.1987089568426599
 40
0.1987089568426599
 10
2122.956425788046
 20
609.7829242613957
 30
0.0
 10
2123.15176802838
 20
609.7829242613957
 30
0.0
 10
2123.345291413289
 20
609.821153803315
 30
0.0
 10
2123.707701889952
 20
609.969792764461
 30
0.0
 10
2123.873036996463
 20
610.0790631001463
 30
0.0
 10
2124.153065039505
 20
610.3551007861936
 30
0.0
 10
2124.264978743191
 20
610.5193995876366
 30
0.0
 10
2124.371110295137
 20
610.7679808786652
 30
0.0
 10
2124.394964729272
 20
610.8374328120805
 30
0.0
 10
2124.413687306623
 20
610.9083019588344
 30
0.0
  0
ELLIPSE
  5
49DF
330
2
100
AcDbEntity
  8
ACO_VISIBLE ( NOTE )
100
AcDbEllipse
 10
2167.545313383932
 20
610.5249639928494
 30
0.0
 11
-0.1838031492641541
 21
1.488696208875424
 31
0.0
210
0.0
220
0.0
230
1.0
 40
0.70442733672964
 41
4.105986338717055
 42
4.625634560489021
  0
SPLINE
  5
49E0
330
2
100
AcDbEntity
  8
ACO_VISIBLE ( NOTE )
100
AcDbSpline
210
0.0
220
0.0
230
1.0
 70
     8
 71
     3
 72
    10
 73
     6
 74
     0
 42
0.0000000001
 43
0.0000000001
 40
1.72388749993367
 40
1.72388749993367
 40
1.72388749993367
 40
1.72388749993367
 40
1.774048526518001
 40
1.774048526518001
 40
2.365398035357335
 40
2.365398035357335
 40
2.365398035357335
 40
2.365398035357335
 10
2168.605973555711
 20
610.5249639928494
 30
0.0
 10
2168.488190894459
 20
610.510421855953
 30
0.0
 10
2168.370408217882
 20
610.495879967347
 30
0.0
 10
2166.864082627414
 20
610.3099066696886
 30
0.0
 10
2165.475537571344
 20
610.1385099678698
 30
0.0
 10
2164.08698958596
 20
609.9671607398102
 30
0.0
  0
ELLIPSE
  5
49E1
330
2
100
AcDbEntity
  8
ACO_VISIBLE ( NOTE )
100
AcDbEllipse
 10
2163.026329414179
 20
609.9671607398103
 30
0.0
 11
0.1837091245962652
 21
-1.488707814698005
 31
0.0
210
0.0
220
0.0
230
1.0
 40
0.7044301033284874
 41
1.360480868076365
 42
1.484086399413309
  0
SPLINE
  5
49E2
330
2
100
AcDbEntity
  8
ACO_VISIBLE ( NOTE )
100
AcDbSpline
210
0.0
220
0.0
230
1.0
 70
     8
 71
     3
 72
    12
 73
     8
 74
     0
 42
0.0000000001
 43
0.0000000001
 40
0.0
 40
0.0
 40
0.0
 40
0.0
 40
0.0779908800036576
 40
0.0779908800036576
 40
0.2027762880095097
 40
0.2027762880095097
 40
0.2171473336365373
 40
0.2171473336365373
 40
0.2171473336365373
 40
0.2171473336365373
 10
2164.08698958596
 20
609.9671607398102
 30
0.0
 10
2163.972533078335
 20
609.944562129539
 30
0.0
 10
2163.8682185612
 20
609.9215889789721
 30
0.0
 10
2163.631835577168
 20
609.8625589301835
 30
0.0
 10
2163.521767929711
 20
609.8272982163051
 30
0.0
 10
2163.442014821683
 20
609.7904410203822
 30
0.0
 10
2163.434304660905
 20
609.7866661516213
 30
0.0
 10
2163.427123230741
 20
609.7829263244821
 30
0.0
  0
SPLINE
  5
49E3
330
2
100
AcDbEntity
  8
ACO_VISIBLE ( NOTE )
100
AcDbSpline
210
0.0
220
0.0
230
1.0
 70
     8
 71
     3
 72
    14
 73
    10
 74
     0
 42
0.0000000001
 43
0.0000000001
 40
0.0
 40
0.0
 40
0.0
 40
0.0
 40
0.0588066518318437
 40
0.0588066518318437
 40
0.1178654761127497
 40
0.1178654761127497
 40
0.15849682422823
 40
0.15849682422823
 40
0.1990402421652572
 40
0.1990402421652572
 40
0.1990402421652572
 40
0.1990402421652572
 10
2173.795275367787
 20
609.7829242613957
 30
0.0
 10
2173.941386514373
 20
609.7829242613957
 30
0.0
 10
2174.085550241208
 20
609.8211846427682
 30
0.0
 10
2174.354652791155
 20
609.9699097250184
 30
0.0
 10
2174.476984652014
 20
610.0792821854327
 30
0.0
 10
2174.651272721982
 20
610.3122202858112
 30
0.0
 10
2174.71251361931
 20
610.4196821948254
 30
0.0
 10
2174.812202825943
 20
610.6536252246757
 30
0.0
 10
2174.850265322153
 20
610.779039965868
 30
0.0
 10
2174.875631428928
 20
610.9096738238255
 30
0.0
  0
SPLINE
  5
49E4
330
2
100
AcDbEntity
  8
ACO_VISIBLE ( NOTE )
100
AcDbSpline
210
0.0
220
0.0
230
1.0
 70
     8
 71
     3
 72
     8
 73
     4
 74
     0
 42
0.0000000001
 43
0.0000000001
 40
-14.81829953174362
 40
-14.81829953174362
 40
-14.81829953174362
 40
-14.81829953174362
 40
-13.93377006918891
 40
-13.93377006918891
 40
-13.93377006918891
 40
-13.93377006918891
 10
2174.875631428928
 20
610.9096738238255
 30
0.0
 10
2172.773376900605
 20
610.7814713525145
 30
0.0
 10
2170.682929334413
 20
610.6531805502117
 30
0.0
 10
2168.605973555711
 20
610.5249639904124
 30
0.0
  0
SPLINE
  5
49E5
330
2
100
AcDbEntity
  8
ACO_VISIBLE ( NOTE )
100
AcDbSpline
210
0.0
220
0.0
230
1.0
 70
     8
 71
     3
 72
    14
 73
    10
 74
     0
 42
0.0000000001
 43
0.0000000001
 40
0.0
 40
0.0
 40
0.0
 40
0.0
 40
0.0592338982082864
 40
0.0592338982082864
 40
0.1185751367175706
 40
0.1185751367175706
 40
0.1588020898686282
 40
0.1588020898686282
 40
0.1990578924246729
 40
0.1990578924246729
 40
0.1990578924246729
 40
0.1990578924246729
 10
2178.340210003781
 20
610.9096738238255
 30
0.0
 10
2178.374766812147
 20
610.7188394543238
 30
0.0
 10
2178.434434081794
 20
610.5397101663264
 30
0.0
 10
2178.596735809401
 20
610.2248177682549
 30
0.0
 10
2178.697907406575
 20
610.0920938523069
 30
0.0
 10
2178.890934755935
 20
609.9238187857524
 30
0.0
 10
2178.974456083155
 20
609.87146798916
 30
0.0
 10
2179.148081007685
 20
609.8008535863093
 30
0.0
 10
2179.237427588313
 20
609.7829242613957
 30
0.0
 10
2179.326878547459
 20
609.7829242613957
 30
0.0
  0
LINE
  5
49E6
330
2
100
AcDbEntity
  8
ACO_VISIBLE ( NOTE )
100
AcDbLine
 10
2164.08698958596
 20
610.5249639879751
 30
0.0
 11
2163.354756538926
 21
610.5249639879751
 31
0.0
  0
LINE
  5
49E7
330
2
100
AcDbEntity
  8
ACO_VISIBLE ( NOTE )
100
AcDbLine
 10
2164.08698958596
 20
610.5249639879751
 30
0.0
 11
2168.605973555861
 21
610.5249639904216
 31
0.0
  0
SPLINE
  5
49E8
330
2
100
AcDbEntity
  8
ACO_VISIBLE ( NOTE )
100
AcDbSpline
210
0.0
220
0.0
230
1.0
 70
     8
 71
     3
 72
    14
 73
    10
 74
     0
 42
0.0000000001
 43
0.0000000001
 40
0.9417636219303211
 40
0.9417636219303211
 40
0.9417636219303211
 40
0.9417636219303211
 40
0.9606285801548944
 40
0.9606285801548944
 40
1.017133791421892
 40
1.017133791421892
 40
1.073651335939254
 40
1.073651335939254
 40
1.130168880456616
 40
1.130168880456616
 40
1.130168880456616
 40
1.130168880456616
 10
2174.875631428928
 20
610.9096738238251
 30
0.0
 10
2174.888095389591
 20
610.9738624390224
 30
0.0
 10
2174.903766638827
 20
611.037294598982
 30
0.0
 10
2174.978405941061
 20
611.2837569088064
 30
0.0
 10
2175.062700937144
 20
611.4524093691247
 30
0.0
 10
2175.256548881971
 20
611.7187624766859
 30
0.0
 10
2175.379028993329
 20
611.8342118331363
 30
0.0
 10
2175.646219022128
 20
611.9873128999416
 30
0.0
 10
2175.790899222404
 20
612.0249639879751
 30
0.0
 10
2175.92599512738
 20
612.0249639879751
 30
0.0
  0
LINE
  5
49E9
330
2
100
AcDbEntity
  8
ACO_VISIBLE ( NOTE )
100
AcDbLine
 10
2175.92599512738
 20
612.0249639879752
 30
0.0
 11
2165.147649757739
 21
612.0249639879752
 31
0.0
  0
ELLIPSE
  5
49EA
330
2
100
AcDbEntity
  8
ACO_VISIBLE ( NOTE )
100
AcDbEllipse
 10
2165.147649757739
 20
610.5249639879751
 30
0.0
 11
0.0000000000000062
 21
1.499999999999996
 31
0.0
210
0.0
220
0.0
230
1.0
 40
0.7071067811865445
 41
0.0
 42
1.570796326794899
  0
SPLINE
  5
49EB
330
2
100
AcDbEntity
  8
ACO_VISIBLE ( NOTE )
100
AcDbSpline
210
0.0
220
0.0
230
1.0
 70
     8
 71
     3
 72
    14
 73
    10
 74
     0
 42
0.0000000001
 43
0.0000000001
 40
0.6780778573077626
 40
0.6780778573077626
 40
0.6780778573077626
 40
0.6780778573077626
 40
0.7345954018251244
 40
0.7345954018251244
 40
0.7911129463424862
 40
0.7911129463424862
 40
0.8476181576094838
 40
0.8476181576094838
 40
0.8664831158340561
 40
0.8664831158340561
 40
0.8664831158340561
 40
0.8664831158340561
 10
2177.340208689753
 20
612.0249639879751
 30
0.0
 10
2177.471512050104
 20
612.0249639879751
 30
0.0
 10
2177.610965225886
 20
611.9873128999416
 30
0.0
 10
2177.866441059476
 20
611.8342118331363
 30
0.0
 10
2177.982495168166
 20
611.7187624766859
 30
0.0
 10
2178.165289922502
 20
611.4524093691247
 30
0.0
 10
2178.244230746496
 20
611.2837569088064
 30
0.0
 10
2178.313964054241
 20
611.037294598982
 30
0.0
 10
2178.328586554187
 20
610.9738624390224
 30
0.0
 10
2178.340210003781
 20
610.9096738238251
 30
0.0
  0
LINE
  5
49EC
330
2
100
AcDbEntity
  8
ACO_VISIBLE ( NOTE )
100
AcDbLine
 10
2164.854756538926
 20
612.0249639879752
 30
0.0
 11
2165.147649757739
 21
612.0249639879752
 31
0.0
  0
ARC
  5
49ED
330
2
100
AcDbEntity
  8
ACO_VISIBLE ( NOTE )
100
AcDbCircle
 10
2089.073010608406
 20
610.5249639879751
 30
0.0
 40
1.5
100
AcDbArc
 50
0.0
 51
90.0
  0
ARC
  5
49EE
330
2
100
AcDbEntity
  8
ACO_VISIBLE ( NOTE )
100
AcDbCircle
 10
2072.963883573666
 20
610.5249639879751
 30
0.0
 40
1.5
100
AcDbArc
 50
0.0
 51
90.0
  0
ARC
  5
49EF
330
2
100
AcDbEntity
  8
ACO_VISIBLE ( NOTE )
100
AcDbCircle
 10
2180.963883573666
 20
610.5249639879751
 30
0.0
 40
1.5
100
AcDbArc
 50
90.0
 51
180.0
  0
ARC
  5
49F0
330
2
100
AcDbEntity
  8
ACO_VISIBLE ( NOTE )
100
AcDbCircle
 10
2164.854756538926
 20
610.5249639879751
 30
0.0
 40
1.5
100
AcDbArc
 50
90.0
 51
180.0
  0
LINE
  5
49F1
330
2
100
AcDbEntity
  8
ACO_VISIBLE ( NOTE )
100
AcDbLine
 10
2089.840777561372
 20
610.5249639879751
 30
0.0
 11
2089.840777561372
 21
609.9671607398102
 31
0.0
  0
LINE
  5
49F2
330
2
100
AcDbEntity
  8
ACO_VISIBLE ( NOTE )
100
AcDbLine
 10
2071.963883573666
 20
610.5249639879751
 30
0.0
 11
2071.963883573666
 21
609.9671607398102
 31
0.0
  0
LINE
  5
49F3
330
2
100
AcDbEntity
  8
ACO_VISIBLE ( NOTE )
100
AcDbLine
 10
2181.963883573666
 20
610.5249639879751
 30
0.0
 11
2181.963883573666
 21
609.9671607398102
 31
0.0
  0
LINE
  5
49F4
330
2
100
AcDbEntity
  8
ACO_VISIBLE ( NOTE )
100
AcDbLine
 10
2197.213883573666
 20
612.0249639879752
 30
0.0
 11
2197.206765775352
 21
612.0249639879752
 31
0.0
  0
LINE
  5
49F5
330
2
100
AcDbEntity
  8
ACO_VISIBLE ( NOTE )
100
AcDbLine
 10
2164.08698958596
 20
610.5249639879751
 30
0.0
 11
2164.08698958596
 21
609.9671607398102
 31
0.0
  0
LINE
  5
49F6
330
2
100
AcDbEntity
  8
ACO_VISIBLE ( NOTE )
100
AcDbLine
 10
2177.340208689753
 20
612.0249639879752
 30
0.0
 11
2175.92599512738
 21
612.0249639879752
 31
0.0
  0
LINE
  5
49F7
330
2
100
AcDbEntity
  8
ACO_VISIBLE ( NOTE )
100
AcDbLine
 10
2128.064373128583
 20
612.0249639879752
 30
0.0
 11
2125.863394018749
 21
612.0249639879752
 31
0.0
  0
LINE
  5
49F8
330
2
100
AcDbEntity
  8
ACO_VISIBLE ( NOTE )
100
AcDbLine
 10
2078.073891291884
 20
612.0249639879752
 30
0.0
 11
2076.517564038071
 21
612.0249639879752
 31
0.0
  0
LINE
  5
49F9
330
2
100
AcDbEntity
  8
ACO_VISIBLE ( NOTE )
100
AcDbLine
 10
2056.722503869537
 20
612.0249639879752
 30
0.0
 11
2056.713883573666
 21
612.0249639879752
 31
0.0
  0
LINE
  5
49FA
330
2
100
AcDbEntity
  8
ACO_VISIBLE ( NOTE )
100
AcDbLine
 10
2090.573010608406
 20
610.5249639879751
 30
0.0
 11
2090.573010608406
 21
609.7829242613957
 31
0.0
  0
LINE
  5
49FB
330
2
100
AcDbEntity
  8
ACO_VISIBLE ( NOTE )
100
AcDbLine
 10
2074.463883573666
 20
610.5249639879751
 30
0.0
 11
2074.463883573666
 21
609.7829242613957
 31
0.0
  0
LINE
  5
49FC
330
2
100
AcDbEntity
  8
ACO_VISIBLE ( NOTE )
100
AcDbLine
 10
2179.463883573666
 20
610.5249639879751
 30
0.0
 11
2179.463883573666
 21
609.7829242613957
 31
0.0
  0
LINE
  5
49FD
330
2
100
AcDbEntity
  8
ACO_VISIBLE ( NOTE )
100
AcDbLine
 10
2163.354756538926
 20
610.5249639879751
 30
0.0
 11
2163.354756538926
 21
609.7829242613957
 31
0.0
  0
LINE
  5
49FE
330
2
100
AcDbEntity
  8
ACO_VISIBLE ( NOTE )
100
AcDbLine
 10
2080.132491779545
 20
609.7829242613957
 30
0.0
 11
2080.204223809566
 21
609.7829242613957
 31
0.0
  0
LINE
  5
49FF
330
2
100
AcDbEntity
  8
ACO_VISIBLE ( NOTE )
100
AcDbLine
 10
2179.326878547459
 20
609.7829242613957
 30
0.0
 11
2197.104907112899
 21
609.7829242613957
 31
0.0
  0
LINE
  5
4A00
330
2
100
AcDbEntity
  8
ACO_VISIBLE ( NOTE )
100
AcDbLine
 10
2130.971341359443
 20
609.7829242613957
 30
0.0
 11
2173.795275367787
 21
609.7829242613957
 31
0.0
  0
LINE
  5
4A01
330
2
100
AcDbEntity
  8
ACO_VISIBLE ( NOTE )
100
AcDbLine
 10
2080.204223798202
 20
609.7829242613957
 30
0.0
 11
2122.956425788027
 21
609.7829242613957
 31
0.0
  0
LINE
  5
4A02
330
2
100
AcDbEntity
  8
ACO_VISIBLE ( NOTE )
100
AcDbLine
 10
2056.82828075958
 20
609.7829242613957
 30
0.0
 11
2074.536822645212
 21
609.7829242613957
 31
0.0
  0
LINE
  5
4A03
330
2
100
AcDbEntity
  8
ACO_VISIBLE ( NOTE )
100
AcDbLine
 10
2056.713883573666
 20
608.3531308591814
 30
0.0
 11
2197.213883573666
 21
608.3531308591814
 31
0.0
  0
LINE
  5
4A04
330
2
100
AcDbEntity
  8
ACO_VISIBLE ( NOTE )
100
AcDbLine
 10
2057.934171829662
 20
606.8162580788168
 30
0.0
 11
2195.993595317669
 21
606.8162580788168
 31
0.0
  0
LINE
  5
4A05
330
2
100
AcDbEntity
  8
ACO_VISIBLE ( NOTE )
100
AcDbLine
 10
2057.934171829663
 20
598.8336698971335
 30
0.0
 11
2195.993595317669
 21
598.8336698971335
 31
0.0
  0
LINE
  5
4A06
330
2
100
AcDbEntity
  8
ACO_VISIBLE ( NOTE )
100
AcDbLine
 10
2056.713883573666
 20
597.296797116769
 30
0.0
 11
2197.213883573666
 21
597.296797116769
 31
0.0
  0
LINE
  5
4A07
330
2
100
AcDbEntity
  8
ACO_VISIBLE ( NOTE )
100
AcDbLine
 10
2056.713883573666
 20
582.9593195834741
 30
0.0
 11
2197.213883573666
 21
582.9593195834741
 31
0.0
  0
LINE
  5
4A08
330
2
100
AcDbEntity
  8
ACO_VISIBLE ( NOTE )
100
AcDbLine
 10
2197.213883573666
 20
612.0249639879752
 30
0.0
 11
2197.213883573666
 21
608.3531308591814
 31
0.0
  0
LINE
  5
4A09
330
2
100
AcDbEntity
  8
ACO_VISIBLE ( NOTE )
100
AcDbLine
 10
2056.713883573666
 20
612.0249639879752
 30
0.0
 11
2056.713883573666
 21
608.3531308591814
 31
0.0
  0
ARC
  5
4A0A
330
2
100
AcDbEntity
  8
ACO_VISIBLE ( NOTE )
100
AcDbCircle
 10
2058.292614119956
 20
608.3537591868211
 30
0.0
 40
1.578730671326072
100
AcDbArc
 50
180.0228034607151
 51
256.8768621982491
  0
ARC
  5
4A0B
330
2
100
AcDbEntity
  8
ACO_VISIBLE ( NOTE )
100
AcDbCircle
 10
2195.635153027376
 20
608.3537591868211
 30
0.0
 40
1.578730671326072
100
AcDbArc
 50
283.1231378017509
 51
359.9771965392784
  0
ARC
  5
4A0C
330
2
100
AcDbEntity
  8
ACO_VISIBLE ( NOTE )
100
AcDbCircle
 10
2056.996317107218
 20
602.8249639879751
 30
0.0
 40
4.099999999999999
100
AcDbArc
 50
283.2231991067739
 51
76.77680089322611
  0
ARC
  5
4A0D
330
2
100
AcDbEntity
  8
ACO_VISIBLE ( NOTE )
100
AcDbCircle
 10
2196.931450040114
 20
602.8249639879751
 30
0.0
 40
4.099999999999999
100
AcDbArc
 50
103.2231991067739
 51
256.7768008932262
  0
ARC
  5
4A0E
330
2
100
AcDbEntity
  8
ACO_VISIBLE ( NOTE )
100
AcDbCircle
 10
2058.292614119956
 20
597.2961687891291
 30
0.0
 40
1.578730671326073
100
AcDbArc
 50
103.1231378017367
 51
179.9771965392653
  0
ARC
  5
4A0F
330
2
100
AcDbEntity
  8
ACO_VISIBLE ( NOTE )
100
AcDbCircle
 10
2195.635153027376
 20
597.2961687891291
 30
0.0
 40
1.578730671326073
100
AcDbArc
 50
0.0228034607346525
 51
76.87686219826328
  0
LINE
  5
4A10
330
2
100
AcDbEntity
  8
ACO_VISIBLE ( NOTE )
100
AcDbLine
 10
2197.213883573666
 20
597.296797116769
 30
0.0
 11
2197.213883573666
 21
582.9593195834741
 31
0.0
  0
LINE
  5
4A11
330
2
100
AcDbEntity
  8
ACO_VISIBLE ( NOTE )
100
AcDbLine
 10
2056.713883573666
 20
597.296797116769
 30
0.0
 11
2056.713883573666
 21
582.9593195834741
 31
0.0
  0
LINE
  5
4A12
330
2
100
AcDbEntity
  8
ACO_VISIBLE ( NOTE )
100
AcDbLine
 10
2155.562879276498
 20
610.0749639879752
 30
0.0
 11
2155.562879276498
 21
610.0249639879751
 31
0.0
  0
LINE
  5
4A13
330
2
100
AcDbEntity
  8
ACO_VISIBLE ( NOTE )
100
AcDbLine
 10
2106.562879276498
 20
610.0749639879752
 30
0.0
 11
2106.562879276498
 21
610.0249639879751
 31
0.0
  0
LINE
  5
4A14
330
2
100
AcDbEntity
  8
ACO_VISIBLE ( NOTE )
100
AcDbLine
 10
2106.562879276498
 20
610.0249639879751
 30
0.0
 11
2123.77386655823
 21
610.0249639879751
 31
0.0
  0
LINE
  5
4A15
330
2
100
AcDbEntity
  8
ACO_VISIBLE ( NOTE )
100
AcDbLine
 10
2130.153900589102
 20
610.0249639879751
 30
0.0
 11
2155.562879276498
 21
610.0249639879751
 31
0.0
  0
LINE
  5
4A16
330
2
100
AcDbEntity
  8
ACO_VISIBLE ( NOTE )
100
AcDbLine
 10
2106.562879276498
 20
610.0749639879752
 30
0.0
 11
2123.846309880386
 21
610.0749639879752
 31
0.0
  0
LINE
  5
4A17
330
2
100
AcDbEntity
  8
ACO_VISIBLE ( NOTE )
100
AcDbLine
 10
2130.081457266946
 20
610.0749639879752
 30
0.0
 11
2155.562879276498
 21
610.0749639879752
 31
0.0
  0
LINE
  5
4A18
330
2
100
AcDbEntity
  8
Osa_GULLY
100
AcDbLine
 10
2126.963883573666
 20
614.5249639879751
 30
0.0
 11
2126.963883573666
 21
580.459319583474
 31
0.0
  0
DIMENSION
  5
4A19
330
2
100
AcDbEntity
  8
KOTY_GULLY
100
AcDbDimension
  2
*D61
 10
2043.442616944683
 20
612.0249639879752
 30
0.0
 11
2043.442616944682
 21
597.9921417857247
 31
0.0
 70
   160
  1
<>
 42
29.06564440450109
 73
     0
 74
     0
 75
     0
  3
GULLY 1
100
AcDbAlignedDimension
 13
2056.713883573666
 23
582.9593195834741
 33
0.0
 14
2056.713883573666
 24
612.0249639879752
 34
0.0
 50
90.0
100
AcDbRotatedDimension
1001
ACAD
1000
DSTYLE
1002
{
1070
    42
1040
0.05
1070
    43
1040
0.5
1070
    44
1040
0.1
1070
    46
1040
0.0
1070
    47
1040
0.1
1070
    48
1040
0.1
1070
    74
1070
     1
1070
    77
1070
     3
1070
    78
1070
     7
1070
    79
1070
     2
1070
    90
1070
     1
1070
   141
1040
0.0
1070
   143
1040
25.4
1070
   146
1040
0.71
1070
   147
1040
0.06
1070
   271
1070
     0
1070
   279
1070
     0
1070
   285
1070
     0
1070
   345
1005
1B0
1070
   346
1005
1B0
1070
   347
1005
1B0
1070
   371
1070
    -1
1070
   372
1070
    -1
1002
}
  0
VIEWPORT
  5
1A6
330
1A5
100
AcDbEntity
 67
     1
  8
0
100
AcDbViewport
 10
208.5
 20
172.772378516624
 30
0.0
 40
417.0
 41
345.5447570332481
 68
     1
 69
     1
 12
208.5
 22
172.772378516624
 13
0.0
 23
0.0
 14
10.0
 24
10.0
 15
10.0
 25
10.0
 16
0.0
 26
0.0
 36
1.0
 17
0.0
 27
0.0
 37
0.0
 42
50.0
 43
0.0
 44
0.0
 45
345.5447570332481
 50
0.0
 51
0.0
 72
   100
 90
    32800
  1

281
     0
 71
     1
 74
     0
110
0.0
120
0.0
130
0.0
111
1.0
121
0.0
131
0.0
112
0.0
122
1.0
132
0.0
 79
     0
146
0.0
170
     0
 61
     5
348
756
292
     1
282
     1
141
0.0
142
0.0
 63
   250
421
  3355443
1001
GENIUS_GENODEF_13
1002
{
1000
HIER
1070
     0
1002
}
1002
{
1000
MANEDIT
1070
     0
1002
}
1002
{
1000
NOSEL
1070
     0
1002
}
1002
{
1000
BEHIND
1070
     0
1002
}
1002
{
1000
OTHER
1070
     0
1002
}
1002
{
1000
REACTOR
1002
}
1001
GENIUS_GENOBJ-N-SDF_13
1002
{
1000
OWNER
1000
GEN
1002
}
1001
GENIUS_GENSCREG_15
1000
PF
1040
1.0
1000
DF
1040
1.0
1000
MIN
1011
0.0
1021
-0.0000000000000568
1031
0.0
1000
MAX
1011
417.0
1021
345.5447570332481
1031
0.0
1000
FLAGS
1070
     4
  0
ENDSEC
  0
SECTION
  2
OBJECTS
  0
DICTIONARY
  5
7
330
0
100
AcDbDictionary
281
     1
  3
ACAD_COLOR
350
1C0
  3
ACAD_GROUP
350
1BA
  3
ACAD_LAYOUT
350
1A4
  3
ACAD_MATERIAL
350
1BF
  3
ACAD_MLEADERSTYLE
350
783
  3
ACAD_MLINESTYLE
350
1BB
  3
ACAD_PLOTSETTINGS
350
1BC
  3
ACAD_PLOTSTYLENAME
350
6
  3
ACAD_SCALELIST
350
761
  3
ACAD_TABLESTYLE
350
1C1
  3
ACAD_VISUALSTYLE
350
750
  3
ACDB_RECOMPOSE_DATA
350
4A74
  3
AcDbVariableDictionary
350
27B
  3
AcmDictionary
350
7F2
  3
AEC_PROPERTY_SET_DEFS
350
92F
  3
AMG
350
78D
  3
AMGSNAPSETTINGS
350
82F
  0
DICTIONARY
  5
CA7
330
1AC
100
AcDbDictionary
280
     1
281
     1
  3
ACAD_LAYERSTATES
360
CA8
  0
DICTIONARY
  5
836
330
F
100
AcDbDictionary
280
     1
281
     1
  3
ADSK_XREC_LAYER_RECONCILED
360
837
  0
DICTIONARY
  5
838
330
29
100
AcDbDictionary
280
     1
281
     1
  3
ADSK_XREC_LAYER_RECONCILED
360
839
  0
DICTIONARY
  5
83A
330
2E
100
AcDbDictionary
280
     1
281
     1
  3
ADSK_XREC_LAYER_RECONCILED
360
83B
  0
DICTIONARY
  5
83C
330
C1
100
AcDbDictionary
280
     1
281
     1
  3
ADSK_XREC_LAYER_RECONCILED
360
83D
  0
DICTIONARY
  5
83E
330
AE
100
AcDbDictionary
280
     1
281
     1
  3
ADSK_XREC_LAYER_RECONCILED
360
83F
  0
DICTIONARY
  5
840
330
B1
100
AcDbDictionary
280
     1
281
     1
  3
ADSK_XREC_LAYER_RECONCILED
360
841
  0
DICTIONARY
  5
842
330
76
100
AcDbDictionary
280
     1
281
     1
  3
ADSK_XREC_LAYER_RECONCILED
360
843
  0
DICTIONARY
  5
844
330
4
100
AcDbDictionary
280
     1
281
     1
  3
ADSK_XREC_LAYER_RECONCILED
360
845
  0
DICTIONARY
  5
846
330
A
100
AcDbDictionary
280
     1
281
     1
  3
ADSK_XREC_LAYER_RECONCILED
360
847
  0
DICTIONARY
  5
848
330
73
100
AcDbDictionary
280
     1
281
     1
  3
ADSK_XREC_LAYER_RECONCILED
360
849
  0
DICTIONARY
  5
84A
330
1C7
100
AcDbDictionary
280
     1
281
     1
  3
ADSK_XREC_LAYER_RECONCILED
360
84B
  0
DICTIONARY
  5
921
330
920
100
AcDbDictionary
280
     1
281
     1
  0
DICTIONARY
  5
923
330
922
100
AcDbDictionary
280
     1
281
     1
  0
DICTIONARY
  5
190A
330
1909
100
AcDbDictionary
280
     1
281
     1
  0
DICTIONARY
  5
6FD
330
2
100
AcDbDictionary
280
     1
281
     1
  3
ACAD_SORTENTS
360
6FE
  0
DICTIONARY
  5
1C0
102
{ACAD_REACTORS
330
7
102
}
330
7
100
AcDbDictionary
281
     1
  0
DICTIONARY
  5
1BA
102
{ACAD_REACTORS
330
7
102
}
330
7
100
AcDbDictionary
281
     1
  0
DICTIONARY
  5
1A4
102
{ACAD_REACTORS
330
7
102
}
330
7
100
AcDbDictionary
281
     1
  3
Layout1
350
1AB
  3
Model
350
1A3
  0
DICTIONARY
  5
1BF
102
{ACAD_REACTORS
330
7
102
}
330
7
100
AcDbDictionary
281
     1
  3
ByBlock
350
740
  3
ByLayer
350
738
  3
Global
350
748
  0
DICTIONARY
  5
783
102
{ACAD_REACTORS
330
7
102
}
330
7
100
AcDbDictionary
281
     1
  3
Standard
350
784
  0
DICTIONARY
  5
1BB
102
{ACAD_REACTORS
330
7
102
}
330
7
100
AcDbDictionary
281
     1
  3
STANDARD
350
1BD
  0
DICTIONARY
  5
1BC
102
{ACAD_REACTORS
330
7
102
}
330
7
100
AcDbDictionary
281
     1
  0
ACDBDICTIONARYWDFLT
  5
6
102
{ACAD_REACTORS
330
7
102
}
330
7
100
AcDbDictionary
281
     1
  3
Normal
350
5
100
AcDbDictionaryWithDefault
340
5
  0
DICTIONARY
  5
761
102
{ACAD_REACTORS
330
7
102
}
330
7
100
AcDbDictionary
281
     1
  3
A0
350
762
  3
A1
350
763
  3
A2
350
764
  3
A3
350
765
  3
A4
350
766
  3
A5
350
767
  3
A6
350
768
  3
A7
350
769
  3
A8
350
76A
  3
A9
350
76B
  3
B0
350
76C
  3
B1
350
76D
  3
B2
350
76E
  3
B3
350
76F
  3
B4
350
770
  3
B5
350
771
  3
B6
350
772
  3
B7
350
773
  3
B8
350
774
  3
B9
350
775
  3
C0
350
776
  3
C1
350
777
  3
C2
350
778
  3
C3
350
779
  3
C4
350
77A
  3
C5
350
77B
  3
C6
350
77C
  3
C7
350
77D
  3
C8
350
77E
  3
C9
350
77F
  3
D0
350
780
  3
D1
350
781
  3
D2
350
782
  0
DICTIONARY
  5
1C1
102
{ACAD_REACTORS
330
7
102
}
330
7
100
AcDbDictionary
281
     1
  3
Standard
350
1C2
  0
DICTIONARY
  5
750
102
{ACAD_REACTORS
330
7
102
}
330
7
100
AcDbDictionary
281
     1
  3
2dWireframe
350
756
  3
3D Hidden
350
758
  3
3dWireframe
350
757
  3
Basic
350
755
  3
Brighten
350
75C
  3
ColorChange
350
760
  3
Conceptual
350
759
  3
Dim
350
75B
  3
EdgeColorOff
350
2026
  3
Facepattern
350
75F
  3
Flat
350
751
  3
FlatWithEdges
350
752
  3
Gouraud
350
753
  3
GouraudWithEdges
350
754
  3
JitterOff
350
2024
  3
Linepattern
350
75E
  3
OverhangOff
350
2025
  3
Realistic
350
75A
  3
Thicken
350
75D
  0
XRECORD
  5
4A74
102
{ACAD_REACTORS
330
7
102
}
330
7
100
AcDbXrecord
280
     1
 90
        1
330
1C2
  0
DICTIONARY
  5
27B
102
{ACAD_REACTORS
330
7
102
}
330
7
100
AcDbDictionary
281
     1
  3
CANNOSCALE
350
87E
  3
CMLEADERSTYLE
350
87C
  3
CTABLESTYLE
350
27C
  3
LAYEREVAL
350
880
  3
LAYERNOTIFY
350
881
  3
LIGHTINGUNITS
350
87F
  3
MSLTSCALE
350
87D
  0
DICTIONARY
  5
7F2
102
{ACAD_REACTORS
330
7
102
}
330
7
100
AcDbDictionary
281
     1
  3
AcmStdDictionary
350
7FF
  0
DICTIONARY
  5
92F
102
{ACAD_REACTORS
330
7
102
}
330
7
100
AcDbDictionary
281
     1
  0
DICTIONARY
  5
78D
102
{ACAD_REACTORS
330
7
102
}
330
7
100
AcDbDictionary
281
     1
  0
DICTIONARY
  5
82F
102
{ACAD_REACTORS
330
7
102
}
330
7
100
AcDbDictionary
281
     1
  0
DICTIONARY
  5
CA8
102
{ACAD_REACTORS
330
CA7
102
}
330
CA7
100
AcDbDictionary
281
     1
  0
XRECORD
  5
837
102
{ACAD_REACTORS
330
836
102
}
330
836
100
AcDbXrecord
280
     1
290
     1
  0
XRECORD
  5
839
102
{ACAD_REACTORS
330
838
102
}
330
838
100
AcDbXrecord
280
     1
290
     1
  0
XRECORD
  5
83B
102
{ACAD_REACTORS
330
83A
102
}
330
83A
100
AcDbXrecord
280
     1
290
     1
  0
XRECORD
  5
83D
102
{ACAD_REACTORS
330
83C
102
}
330
83C
100
AcDbXrecord
280
     1
290
     1
  0
XRECORD
  5
83F
102
{ACAD_REACTORS
330
83E
102
}
330
83E
100
AcDbXrecord
280
     1
290
     1
  0
XRECORD
  5
841
102
{ACAD_REACTORS
330
840
102
}
330
840
100
AcDbXrecord
280
     1
290
     1
  0
XRECORD
  5
843
102
{ACAD_REACTORS
330
842
102
}
330
842
100
AcDbXrecord
280
     1
290
     1
  0
XRECORD
  5
845
102
{ACAD_REACTORS
330
844
102
}
330
844
100
AcDbXrecord
280
     1
290
     1
  0
XRECORD
  5
847
102
{ACAD_REACTORS
330
846
102
}
330
846
100
AcDbXrecord
280
     1
290
     1
  0
XRECORD
  5
849
102
{ACAD_REACTORS
330
848
102
}
330
848
100
AcDbXrecord
280
     1
290
     1
  0
XRECORD
  5
84B
102
{ACAD_REACTORS
330
84A
102
}
330
84A
100
AcDbXrecord
280
     1
290
     1
  0
SORTENTSTABLE
  5
6FE
102
{ACAD_REACTORS
330
6FD
102
}
330
6FD
100
AcDbSortentsTable
330
2
  0
LAYOUT
  5
1AB
102
{ACAD_REACTORS
330
1A4
102
}
330
1A4
100
AcDbPlotSettings
  1

  2
\\ACO_CAD_PRV\HPLJ5000N
  4

  6

 40
0.0
 41
0.0
 42
0.0
 43
0.0
 44
0.0
 45
0.0
 46
0.0
 47
0.0
 48
0.0
 49
0.0
140
0.0
141
0.0
142
1.0
143
1.0
 70
   688
 72
     0
 73
     0
 74
     5
  7

 75
    16
147
1.0
 76
     0
 77
     2
 78
   300
148
0.0
149
0.0
100
AcDbLayout
  1
Layout1
 70
     0
 71
     1
 10
0.0
 20
0.0
 11
417.0
 21
288.0
 12
0.0
 22
0.0
 32
0.0
 14
1.000000000000000E+20
 24
1.000000000000000E+20
 34
1.000000000000000E+20
 15
-1.000000000000000E+20
 25
-1.000000000000000E+20
 35
-1.000000000000000E+20
146
0.0
 13
0.0
 23
0.0
 33
0.0
 16
1.0
 26
0.0
 36
0.0
 17
0.0
 27
1.0
 37
0.0
 76
     0
330
1A5
331
1A6
  0
LAYOUT
  5
1A3
102
{ACAD_REACTORS
330
1A4
102
}
330
1A4
100
AcDbPlotSettings
  1

  2
\\ACO_CAD_PRV\HPLJ5000N
  4

  6

 40
0.0
 41
0.0
 42
0.0
 43
0.0
 44
0.0
 45
0.0
 46
0.0
 47
0.0
 48
0.0
 49
0.0
140
0.0
141
0.0
142
1.0
143
1.0
 70
  1712
 72
     0
 73
     0
 74
     0
  7

 75
     0
147
1.0
 76
     0
 77
     2
 78
   300
148
0.0
149
0.0
100
AcDbLayout
  1
Model
 70
     1
 71
     0
 10
0.0
 20
0.0
 11
12.0
 21
9.0
 12
0.0
 22
0.0
 32
0.0
 14
0.0
 24
0.0
 34
0.0
 15
0.0
 25
0.0
 35
0.0
146
0.0
 13
0.0
 23
0.0
 33
0.0
 16
1.0
 26
0.0
 36
0.0
 17
0.0
 27
1.0
 37
0.0
 76
     0
330
2
331
736
  0
MATERIAL
  5
740
102
{ACAD_XDICTIONARY
360
741
102
}
102
{ACAD_REACTORS
330
1BF
102
}
330
1BF
100
AcDbMaterial
  1
ByBlock
 72
     0
 43
0.0208333333333333
 43
0.0
 43
0.0
 43
0.0
 43
0.0
 43
0.0208333333333333
 43
0.0
 43
0.0
 43
0.0
 43
0.0
 43
1.0
 43
0.0
 43
0.0
 43
0.0
 43
0.0
 43
1.0
 77
     0
 47
0.0208333333333333
 47
0.0
 47
0.0
 47
0.0
 47
0.0
 47
0.0208333333333333
 47
0.0
 47
0.0
 47
0.0
 47
0.0
 47
1.0
 47
0.0
 47
0.0
 47
0.0
 47
0.0
 47
1.0
171
     0
 49
0.0208333333333333
 49
0.0
 49
0.0
 49
0.0
 49
0.0
 49
0.0208333333333333
 49
0.0
 49
0.0
 49
0.0
 49
0.0
 49
1.0
 49
0.0
 49
0.0
 49
0.0
 49
0.0
 49
1.0
175
     0
142
0.0208333333333333
142
0.0
142
0.0
142
0.0
142
0.0
142
0.0208333333333333
142
0.0
142
0.0
142
0.0
142
0.0
142
1.0
142
0.0
142
0.0
142
0.0
142
0.0
142
1.0
179
     0
144
0.0208333333333333
144
0.0
144
0.0
144
0.0
144
0.0
144
0.0208333333333333
144
0.0
144
0.0
144
0.0
144
0.0
144
1.0
144
0.0
144
0.0
144
0.0
144
0.0
144
1.0
147
0.0208333333333333
147
0.0
147
0.0
147
0.0
147
0.0
147
0.0208333333333333
147
0.0
147
0.0
147
0.0
147
0.0
147
1.0
147
0.0
147
0.0
147
0.0
147
0.0
147
1.0
  0
MATERIAL
  5
738
102
{ACAD_XDICTIONARY
360
739
102
}
102
{ACAD_REACTORS
330
1BF
102
}
330
1BF
100
AcDbMaterial
  1
ByLayer
 72
     0
 43
0.0208333333333333
 43
0.0
 43
0.0
 43
0.0
 43
0.0
 43
0.0208333333333333
 43
0.0
 43
0.0
 43
0.0
 43
0.0
 43
1.0
 43
0.0
 43
0.0
 43
0.0
 43
0.0
 43
1.0
 77
     0
 47
0.0208333333333333
 47
0.0
 47
0.0
 47
0.0
 47
0.0
 47
0.0208333333333333
 47
0.0
 47
0.0
 47
0.0
 47
0.0
 47
1.0
 47
0.0
 47
0.0
 47
0.0
 47
0.0
 47
1.0
171
     0
 49
0.0208333333333333
 49
0.0
 49
0.0
 49
0.0
 49
0.0
 49
0.0208333333333333
 49
0.0
 49
0.0
 49
0.0
 49
0.0
 49
1.0
 49
0.0
 49
0.0
 49
0.0
 49
0.0
 49
1.0
175
     0
142
0.0208333333333333
142
0.0
142
0.0
142
0.0
142
0.0
142
0.0208333333333333
142
0.0
142
0.0
142
0.0
142
0.0
142
1.0
142
0.0
142
0.0
142
0.0
142
0.0
142
1.0
179
     0
144
0.0208333333333333
144
0.0
144
0.0
144
0.0
144
0.0
144
0.0208333333333333
144
0.0
144
0.0
144
0.0
144
0.0
144
1.0
144
0.0
144
0.0
144
0.0
144
0.0
144
1.0
147
0.0208333333333333
147
0.0
147
0.0
147
0.0
147
0.0
147
0.0208333333333333
147
0.0
147
0.0
147
0.0
147
0.0
147
1.0
147
0.0
147
0.0
147
0.0
147
0.0
147
1.0
  0
MATERIAL
  5
748
102
{ACAD_XDICTIONARY
360
749
102
}
102
{ACAD_REACTORS
330
1BF
102
}
330
1BF
100
AcDbMaterial
  1
Global
 72
     0
 43
0.0208333333333333
 43
0.0
 43
0.0
 43
0.0
 43
0.0
 43
0.0208333333333333
 43
0.0
 43
0.0
 43
0.0
 43
0.0
 43
1.0
 43
0.0
 43
0.0
 43
0.0
 43
0.0
 43
1.0
 77
     0
 47
0.0208333333333333
 47
0.0
 47
0.0
 47
0.0
 47
0.0
 47
0.0208333333333333
 47
0.0
 47
0.0
 47
0.0
 47
0.0
 47
1.0
 47
0.0
 47
0.0
 47
0.0
 47
0.0
 47
1.0
171
     0
 49
0.0208333333333333
 49
0.0
 49
0.0
 49
0.0
 49
0.0
 49
0.0208333333333333
 49
0.0
 49
0.0
 49
0.0
 49
0.0
 49
1.0
 49
0.0
 49
0.0
 49
0.0
 49
0.0
 49
1.0
175
     0
142
0.0208333333333333
142
0.0
142
0.0
142
0.0
142
0.0
142
0.0208333333333333
142
0.0
142
0.0
142
0.0
142
0.0
142
1.0
142
0.0
142
0.0
142
0.0
142
0.0
142
1.0
179
     0
144
0.0208333333333333
144
0.0
144
0.0
144
0.0
144
0.0
144
0.0208333333333333
144
0.0
144
0.0
144
0.0
144
0.0
144
1.0
144
0.0
144
0.0
144
0.0
144
0.0
144
1.0
147
0.0208333333333333
147
0.0
147
0.0
147
0.0
147
0.0
147
0.0208333333333333
147
0.0
147
0.0
147
0.0
147
0.0
147
1.0
147
0.0
147
0.0
147
0.0
147
0.0
147
1.0
  0
MLEADERSTYLE
  5
784
102
{ACAD_REACTORS
330
783
102
}
330
783
100
AcDbMLeaderStyle
170
     2
171
     1
172
     0
 90
        2
 40
0.0
 41
0.0
173
     1
 91
-1056964608
340
1B0
 92
       -2
290
     1
 42
0.09
291
     1
 43
0.36
  3
Standard
 44
0.18
300

342
C
174
     1
178
     6
175
     1
176
     0
 93
-1056964608
 45
0.18
292
     0
297
     0
 46
0.18
 94
-1056964608
 47
1.0
 49
1.0
140
1.0
293
     1
141
0.0
294
     1
177
     0
142
1.0
295
     0
296
     0
143
0.125
1001
ACAD_MLEADERVER
1070
     2
  0
MLINESTYLE
  5
1BD
102
{ACAD_REACTORS
330
1BB
102
}
330
1BB
100
AcDbMlineStyle
  2
STANDARD
 70
     0
  3

 62
   256
 51
90.0
 52
90.0
 71
     2
 49
0.5
 62
   256
  6
BYLAYER
 49
-0.5
 62
   256
  6
BYLAYER
  0
ACDBPLACEHOLDER
  5
5
102
{ACAD_REACTORS
330
6
102
}
330
6
  0
SCALE
  5
762
102
{ACAD_REACTORS
330
761
102
}
330
761
100
AcDbScale
 70
     0
300
1:1
140
1.0
141
1.0
290
     1
  0
SCALE
  5
763
102
{ACAD_REACTORS
330
761
102
}
330
761
100
AcDbScale
 70
     0
300
1:2
140
1.0
141
2.0
290
     0
  0
SCALE
  5
764
102
{ACAD_REACTORS
330
761
102
}
330
761
100
AcDbScale
 70
     0
300
1:4
140
1.0
141
4.0
290
     0
  0
SCALE
  5
765
102
{ACAD_REACTORS
330
761
102
}
330
761
100
AcDbScale
 70
     0
300
1:5
140
1.0
141
5.0
290
     0
  0
SCALE
  5
766
102
{ACAD_REACTORS
330
761
102
}
330
761
100
AcDbScale
 70
     0
300
1:8
140
1.0
141
8.0
290
     0
  0
SCALE
  5
767
102
{ACAD_REACTORS
330
761
102
}
330
761
100
AcDbScale
 70
     0
300
1:10
140
1.0
141
10.0
290
     0
  0
SCALE
  5
768
102
{ACAD_REACTORS
330
761
102
}
330
761
100
AcDbScale
 70
     0
300
1:16
140
1.0
141
16.0
290
     0
  0
SCALE
  5
769
102
{ACAD_REACTORS
330
761
102
}
330
761
100
AcDbScale
 70
     0
300
1:20
140
1.0
141
20.0
290
     0
  0
SCALE
  5
76A
102
{ACAD_REACTORS
330
761
102
}
330
761
100
AcDbScale
 70
     0
300
1:30
140
1.0
141
30.0
290
     0
  0
SCALE
  5
76B
102
{ACAD_REACTORS
330
761
102
}
330
761
100
AcDbScale
 70
     0
300
1:40
140
1.0
141
40.0
290
     0
  0
SCALE
  5
76C
102
{ACAD_REACTORS
330
761
102
}
330
761
100
AcDbScale
 70
     0
300
1:50
140
1.0
141
50.0
290
     0
  0
SCALE
  5
76D
102
{ACAD_REACTORS
330
761
102
}
330
761
100
AcDbScale
 70
     0
300
1:100
140
1.0
141
100.0
290
     0
  0
SCALE
  5
76E
102
{ACAD_REACTORS
330
761
102
}
330
761
100
AcDbScale
 70
     0
300
2:1
140
2.0
141
1.0
290
     0
  0
SCALE
  5
76F
102
{ACAD_REACTORS
330
761
102
}
330
761
100
AcDbScale
 70
     0
300
4:1
140
4.0
141
1.0
290
     0
  0
SCALE
  5
770
102
{ACAD_REACTORS
330
761
102
}
330
761
100
AcDbScale
 70
     0
300
8:1
140
8.0
141
1.0
290
     0
  0
SCALE
  5
771
102
{ACAD_REACTORS
330
761
102
}
330
761
100
AcDbScale
 70
     0
300
10:1
140
10.0
141
1.0
290
     0
  0
SCALE
  5
772
102
{ACAD_REACTORS
330
761
102
}
330
761
100
AcDbScale
 70
     0
300
100:1
140
100.0
141
1.0
290
     0
  0
SCALE
  5
773
102
{ACAD_REACTORS
330
761
102
}
330
761
100
AcDbScale
 70
     0
300
1/128" = 1'-0"
140
0.0078125
141
12.0
290
     0
  0
SCALE
  5
774
102
{ACAD_REACTORS
330
761
102
}
330
761
100
AcDbScale
 70
     0
300
1/64" = 1'-0"
140
0.015625
141
12.0
290
     0
  0
SCALE
  5
775
102
{ACAD_REACTORS
330
761
102
}
330
761
100
AcDbScale
 70
     0
300
1/32" = 1'-0"
140
0.03125
141
12.0
290
     0
  0
SCALE
  5
776
102
{ACAD_REACTORS
330
761
102
}
330
761
100
AcDbScale
 70
     0
300
1/16" = 1'-0"
140
0.0625
141
12.0
290
     0
  0
SCALE
  5
777
102
{ACAD_REACTORS
330
761
102
}
330
761
100
AcDbScale
 70
     0
300
3/32" = 1'-0"
140
0.09375
141
12.0
290
     0
  0
SCALE
  5
778
102
{ACAD_REACTORS
330
761
102
}
330
761
100
AcDbScale
 70
     0
300
1/8" = 1'-0"
140
0.125
141
12.0
290
     0
  0
SCALE
  5
779
102
{ACAD_REACTORS
330
761
102
}
330
761
100
AcDbScale
 70
     0
300
3/16" = 1'-0"
140
0.1875
141
12.0
290
     0
  0
SCALE
  5
77A
102
{ACAD_REACTORS
330
761
102
}
330
761
100
AcDbScale
 70
     0
300
1/4" = 1'-0"
140
0.25
141
12.0
290
     0
  0
SCALE
  5
77B
102
{ACAD_REACTORS
330
761
102
}
330
761
100
AcDbScale
 70
     0
300
3/8" = 1'-0"
140
0.375
141
12.0
290
     0
  0
SCALE
  5
77C
102
{ACAD_REACTORS
330
761
102
}
330
761
100
AcDbScale
 70
     0
300
1/2" = 1'-0"
140
0.5
141
12.0
290
     0
  0
SCALE
  5
77D
102
{ACAD_REACTORS
330
761
102
}
330
761
100
AcDbScale
 70
     0
300
3/4" = 1'-0"
140
0.75
141
12.0
290
     0
  0
SCALE
  5
77E
102
{ACAD_REACTORS
330
761
102
}
330
761
100
AcDbScale
 70
     0
300
1" = 1'-0"
140
1.0
141
12.0
290
     0
  0
SCALE
  5
77F
102
{ACAD_REACTORS
330
761
102
}
330
761
100
AcDbScale
 70
     0
300
1-1/2" = 1'-0"
140
1.5
141
12.0
290
     0
  0
SCALE
  5
780
102
{ACAD_REACTORS
330
761
102
}
330
761
100
AcDbScale
 70
     0
300
3" = 1'-0"
140
3.0
141
12.0
290
     0
  0
SCALE
  5
781
102
{ACAD_REACTORS
330
761
102
}
330
761
100
AcDbScale
 70
     0
300
6" = 1'-0"
140
6.0
141
12.0
290
     0
  0
SCALE
  5
782
102
{ACAD_REACTORS
330
761
102
}
330
761
100
AcDbScale
 70
     0
300
1'-0" = 1'-0"
140
12.0
141
12.0
290
     0
  0
TABLESTYLE
  5
1C2
102
{ACAD_XDICTIONARY
360
879
102
}
102
{ACAD_REACTORS
330
1C1
102
}
330
1C1
100
AcDbTableStyle
  3
Standard
 70
     0
 71
     0
 40
0.06
 41
0.06
280
     0
281
     0
  7
STANDARD
140
0.18
170
     2
 62
     0
 63
     7
283
     0
 90
        4
 91
        0
  1

274
    -2
284
     1
 64
     0
275
    -2
285
     1
 65
     0
276
    -2
286
     1
 66
     0
277
    -2
287
     1
 67
     0
278
    -2
288
     1
 68
     0
279
    -2
289
     1
 69
     0
  7
STANDARD
140
0.25
170
     5
 62
     0
 63
     7
283
     0
 90
        4
 91
        0
  1

274
    -2
284
     1
 64
     0
275
    -2
285
     1
 65
     0
276
    -2
286
     1
 66
     0
277
    -2
287
     1
 67
     0
278
    -2
288
     1
 68
     0
279
    -2
289
     1
 69
     0
  7
STANDARD
140
0.18
170
     5
 62
     0
 63
     7
283
     0
 90
        4
 91
        0
  1

274
    -2
284
     1
 64
     0
275
    -2
285
     1
 65
     0
276
    -2
286
     1
 66
     0
277
    -2
287
     1
 67
     0
278
    -2
288
     1
 68
     0
279
    -2
289
     1
 69
     0
  0
VISUALSTYLE
  5
756
102
{ACAD_XDICTIONARY
360
4A7F
102
}
102
{ACAD_REACTORS
330
750
102
}
330
750
100
AcDbVisualStyle
  2

 70
     4
 71
     0
 72
     2
 73
     0
 90
        0
 40
-0.6
 41
-30.0
 62
     5
 63
     7
421
 16777215
 74
     1
 91
        4
 64
     7
 65
   257
 75
     1
175
     1
 42
1.0
 92
        0
 66
   257
 43
1.0
 76
     1
 77
     6
 78
     2
 67
     7
 79
     5
170
     0
171
     0
290
     0
174
     0
 93
        1
 44
0.0
173
     0
291
     0
 45
0.0
1001
ACAD
1000
AcDbSavedByObjectVersion
1070
     0
  0
VISUALSTYLE
  5
758
102
{ACAD_XDICTIONARY
360
4A83
102
}
102
{ACAD_REACTORS
330
750
102
}
330
750
100
AcDbVisualStyle
  2

 70
     6
 71
     1
 72
     2
 73
     2
 90
        0
 40
-0.6
 41
-30.0
 62
     5
 63
     7
421
 16777215
 74
     2
 91
        2
 64
     7
 65
   257
 75
     2
175
     1
 42
40.0
 92
        0
 66
   257
 43
1.0
 76
     1
 77
     6
 78
     2
 67
     7
 79
     3
170
     0
171
     0
290
     0
174
     0
 93
        1
 44
0.0
173
     0
291
     0
 45
0.0
1001
ACAD
1000
AcDbSavedByObjectVersion
1070
     0
  0
VISUALSTYLE
  5
757
102
{ACAD_XDICTIONARY
360
4A81
102
}
102
{ACAD_REACTORS
330
750
102
}
330
750
100
AcDbVisualStyle
  2

 70
     5
 71
     0
 72
     2
 73
     0
 90
        0
 40
-0.6
 41
-30.0
 62
     5
 63
     7
421
 16777215
 74
     1
 91
        4
 64
     7
 65
   257
 75
     1
175
     1
 42
1.0
 92
        0
 66
   257
 43
1.0
 76
     1
 77
     6
 78
     2
 67
     7
 79
     5
170
     0
171
     0
290
     0
174
     0
 93
        1
 44
0.0
173
     0
291
     0
 45
0.0
1001
ACAD
1000
AcDbSavedByObjectVersion
1070
     0
  0
VISUALSTYLE
  5
755
102
{ACAD_XDICTIONARY
360
4A7D
102
}
102
{ACAD_REACTORS
330
750
102
}
330
750
100
AcDbVisualStyle
  2

 70
     7
 71
     1
 72
     0
 73
     1
 90
        0
 40
-0.6
 41
-30.0
 62
     5
 63
     7
421
 16777215
 74
     0
 91
        4
 64
     7
 65
   257
 75
     1
175
     1
 42
1.0
 92
        8
 66
     7
 43
1.0
 76
     1
 77
     6
 78
     2
 67
     7
 79
     5
170
     0
171
     0
290
     0
174
     0
 93
        1
 44
0.0
173
     0
291
     1
 45
0.0
1001
ACAD
1000
AcDbSavedByObjectVersion
1070
     0
  0
VISUALSTYLE
  5
75C
102
{ACAD_XDICTIONARY
360
4A8B
102
}
102
{ACAD_REACTORS
330
750
102
}
330
750
100
AcDbVisualStyle
  2

 70
    12
 71
     2
 72
     2
 73
     0
 90
        0
 40
-0.6
 41
-30.0
 62
     5
 63
     7
421
 16777215
 74
     1
 91
        4
 64
     7
 65
   257
 75
     1
175
     1
 42
1.0
 92
        8
 66
     7
 43
1.0
 76
     1
 77
     6
 78
     2
 67
     7
 79
     5
170
     0
171
     0
290
     0
174
     0
 93
        1
 44
50.0
173
     0
291
     1
 45
0.0
1001
ACAD
1000
AcDbSavedByObjectVersion
1070
     0
  0
VISUALSTYLE
  5
760
102
{ACAD_XDICTIONARY
360
4A93
102
}
102
{ACAD_REACTORS
330
750
102
}
330
750
100
AcDbVisualStyle
  2

 70
    16
 71
     2
 72
     2
 73
     3
 90
        0
 40
-0.6
 41
-30.0
 62
     5
 63
     8
421
  8421504
 74
     1
 91
        4
 64
     7
 65
   257
 75
     1
175
     1
 42
1.0
 92
        8
 66
     8
424
  8421504
 43
1.0
 76
     1
 77
     6
 78
     2
 67
     7
 79
     5
170
     0
171
     0
290
     0
174
     0
 93
        1
 44
0.0
173
     0
291
     1
 45
0.0
1001
ACAD
1000
AcDbSavedByObjectVersion
1070
     0
  0
VISUALSTYLE
  5
759
102
{ACAD_XDICTIONARY
360
4A85
102
}
102
{ACAD_REACTORS
330
750
102
}
330
750
100
AcDbVisualStyle
  2

 70
     9
 71
     3
 72
     2
 73
     0
 90
        0
 40
-0.6
 41
-30.0
 62
     5
 63
     7
421
 16777215
 74
     2
 91
        2
 64
     7
 65
   257
 75
     1
175
     1
 42
40.0
 92
        8
 66
     7
 43
1.0
 76
     1
 77
     6
 78
     2
 67
     7
 79
     3
170
     0
171
     0
290
     0
174
     0
 93
        1
 44
0.0
173
     0
291
     0
 45
0.0
1001
ACAD
1000
AcDbSavedByObjectVersion
1070
     0
  0
VISUALSTYLE
  5
75B
102
{ACAD_XDICTIONARY
360
4A89
102
}
102
{ACAD_REACTORS
330
750
102
}
330
750
100
AcDbVisualStyle
  2

 70
    11
 71
     2
 72
     2
 73
     0
 90
        0
 40
-0.6
 41
-30.0
 62
     5
 63
     7
421
 16777215
 74
     1
 91
        4
 64
     7
 65
   257
 75
     1
175
     1
 42
1.0
 92
        8
 66
     7
 43
1.0
 76
     1
 77
     6
 78
     2
 67
     7
 79
     5
170
     0
171
     0
290
     0
174
     0
 93
        1
 44
-50.0
173
     0
291
     1
 45
0.0
1001
ACAD
1000
AcDbSavedByObjectVersion
1070
     0
  0
VISUALSTYLE
  5
2026
102
{ACAD_XDICTIONARY
360
4A99
102
}
102
{ACAD_REACTORS
330
750
102
}
330
750
100
AcDbVisualStyle
  2

 70
    22
 71
     2
 72
     2
 73
     0
 90
        0
 40
-0.6
 41
-30.0
 62
     5
 63
     7
421
 16777215
 74
     1
 91
        4
 64
     7
 65
   257
 75
     1
175
     1
 42
1.0
 92
        8
 66
     7
 43
1.0
 76
     1
 77
     6
 78
     2
 67
     7
 79
     5
170
     0
171
     0
290
     0
174
     0
 93
        1
 44
0.0
173
     0
291
     1
 45
0.0
1001
ACAD
1000
AcDbSavedByObjectVersion
1070
     0
  0
VISUALSTYLE
  5
75F
102
{ACAD_XDICTIONARY
360
4A91
102
}
102
{ACAD_REACTORS
330
750
102
}
330
750
100
AcDbVisualStyle
  2

 70
    15
 71
     2
 72
     2
 73
     0
 90
        0
 40
-0.6
 41
-30.0
 62
     5
 63
     7
421
 16777215
 74
     1
 91
        4
 64
     7
 65
   257
 75
     1
175
     1
 42
1.0
 92
        8
 66
     7
 43
1.0
 76
     1
 77
     6
 78
     2
 67
     7
 79
     5
170
     0
171
     0
290
     0
174
     0
 93
        1
 44
0.0
173
     0
291
     1
 45
0.0
1001
ACAD
1000
AcDbSavedByObjectVersion
1070
     0
  0
VISUALSTYLE
  5
751
102
{ACAD_XDICTIONARY
360
4A75
102
}
102
{ACAD_REACTORS
330
750
102
}
330
750
100
AcDbVisualStyle
  2

 70
     0
 71
     2
 72
     1
 73
     1
 90
        2
 40
-0.6
 41
30.0
 62
     5
 63
     7
421
 16777215
 74
     0
 91
        4
 64
     7
 65
   257
 75
     1
175
     1
 42
1.0
 92
        8
 66
     7
 43
1.0
 76
     1
 77
     6
 78
     2
 67
     7
 79
     5
170
     0
171
     0
290
     0
174
     0
 93
       13
 44
0.0
173
     0
291
     1
 45
0.0
1001
ACAD
1000
AcDbSavedByObjectVersion
1070
     0
  0
VISUALSTYLE
  5
752
102
{ACAD_XDICTIONARY
360
4A77
102
}
102
{ACAD_REACTORS
330
750
102
}
330
750
100
AcDbVisualStyle
  2

 70
     1
 71
     2
 72
     1
 73
     1
 90
        2
 40
-0.6
 41
30.0
 62
     5
 63
     7
421
 16777215
 74
     1
 91
        4
 64
     7
 65
   257
 75
     1
175
     1
 42
1.0
 92
        0
 66
   257
 43
1.0
 76
     1
 77
     6
 78
     2
 67
     7
 79
     5
170
     0
171
     0
290
     0
174
     0
 93
       13
 44
0.0
173
     0
291
     1
 45
0.0
1001
ACAD
1000
AcDbSavedByObjectVersion
1070
     0
  0
VISUALSTYLE
  5
753
102
{ACAD_XDICTIONARY
360
4A79
102
}
102
{ACAD_REACTORS
330
750
102
}
330
750
100
AcDbVisualStyle
  2

 70
     2
 71
     2
 72
     2
 73
     1
 90
        2
 40
-0.6
 41
30.0
 62
     5
 63
     7
421
 16777215
 74
     0
 91
        4
 64
     7
 65
   257
 75
     1
175
     1
 42
1.0
 92
        0
 66
     7
 43
1.0
 76
     1
 77
     6
 78
     2
 67
     7
 79
     5
170
     0
171
     0
290
     0
174
     0
 93
       13
 44
0.0
173
     0
291
     1
 45
0.0
1001
ACAD
1000
AcDbSavedByObjectVersion
1070
     0
  0
VISUALSTYLE
  5
754
102
{ACAD_XDICTIONARY
360
4A7B
102
}
102
{ACAD_REACTORS
330
750
102
}
330
750
100
AcDbVisualStyle
  2

 70
     3
 71
     2
 72
     2
 73
     1
 90
        2
 40
-0.6
 41
30.0
 62
     5
 63
     7
421
 16777215
 74
     1
 91
        4
 64
     7
 65
   257
 75
     1
175
     1
 42
1.0
 92
        0
 66
   257
 43
1.0
 76
     1
 77
     6
 78
     2
 67
     7
 79
     5
170
     0
171
     0
290
     0
174
     0
 93
       13
 44
0.0
173
     0
291
     1
 45
0.0
1001
ACAD
1000
AcDbSavedByObjectVersion
1070
     0
  0
VISUALSTYLE
  5
2024
102
{ACAD_XDICTIONARY
360
4A95
102
}
102
{ACAD_REACTORS
330
750
102
}
330
750
100
AcDbVisualStyle
  2

 70
    20
 71
     2
 72
     2
 73
     0
 90
        0
 40
-0.6
 41
-30.0
 62
     5
 63
     7
421
 16777215
 74
     1
 91
        4
 64
     7
 65
   257
 75
     1
175
     1
 42
1.0
 92
       10
 66
     7
 43
1.0
 76
     1
 77
     6
 78
     2
 67
     7
 79
     5
170
     0
171
     0
290
     0
174
     0
 93
        1
 44
0.0
173
     0
291
     1
 45
0.0
1001
ACAD
1000
AcDbSavedByObjectVersion
1070
     0
  0
VISUALSTYLE
  5
75E
102
{ACAD_XDICTIONARY
360
4A8F
102
}
102
{ACAD_REACTORS
330
750
102
}
330
750
100
AcDbVisualStyle
  2

 70
    14
 71
     2
 72
     2
 73
     0
 90
        0
 40
-0.6
 41
-30.0
 62
     5
 63
     7
421
 16777215
 74
     1
 91
        4
 64
     7
 65
   257
 75
     7
175
     7
 42
1.0
 92
        8
 66
     7
 43
1.0
 76
     1
 77
     6
 78
     2
 67
     7
 79
     5
170
     0
171
     0
290
     0
174
     0
 93
        1
 44
0.0
173
     0
291
     1
 45
0.0
1001
ACAD
1000
AcDbSavedByObjectVersion
1070
     0
  0
VISUALSTYLE
  5
2025
102
{ACAD_XDICTIONARY
360
4A97
102
}
102
{ACAD_REACTORS
330
750
102
}
330
750
100
AcDbVisualStyle
  2

 70
    21
 71
     2
 72
     2
 73
     0
 90
        0
 40
-0.6
 41
-30.0
 62
     5
 63
     7
421
 16777215
 74
     1
 91
        4
 64
     7
 65
   257
 75
     1
175
     1
 42
1.0
 92
        9
 66
     7
 43
1.0
 76
     1
 77
     6
 78
     2
 67
     7
 79
     5
170
     0
171
     0
290
     0
174
     0
 93
        1
 44
0.0
173
     0
291
     1
 45
0.0
1001
ACAD
1000
AcDbSavedByObjectVersion
1070
     0
  0
VISUALSTYLE
  5
75A
102
{ACAD_XDICTIONARY
360
4A87
102
}
102
{ACAD_REACTORS
330
750
102
}
330
750
100
AcDbVisualStyle
  2

 70
     8
 71
     2
 72
     2
 73
     0
 90
        0
 40
-0.6
 41
-30.0
 62
     5
 63
     7
421
 16777215
 74
     1
 91
        0
 64
     7
 65
   257
 75
     1
175
     1
 42
1.0
 92
        8
 66
     8
424
  7895160
 43
1.0
 76
     1
 77
     6
 78
     2
 67
     7
 79
     5
170
     0
171
     0
290
     0
174
     0
 93
       13
 44
0.0
173
     0
291
     0
 45
0.0
1001
ACAD
1000
AcDbSavedByObjectVersion
1070
     0
  0
VISUALSTYLE
  5
75D
102
{ACAD_XDICTIONARY
360
4A8D
102
}
102
{ACAD_REACTORS
330
750
102
}
330
750
100
AcDbVisualStyle
  2

 70
    13
 71
     2
 72
     2
 73
     0
 90
        0
 40
-0.6
 41
-30.0
 62
     5
 63
     7
421
 16777215
 74
     1
 91
        4
 64
     7
 65
   257
 75
     1
175
     1
 42
1.0
 92
       12
 66
     7
 43
1.0
 76
     1
 77
     6
 78
     2
 67
     7
 79
     5
170
     0
171
     0
290
     0
174
     0
 93
        1
 44
0.0
173
     0
291
     1
 45
0.0
1001
ACAD
1000
AcDbSavedByObjectVersion
1070
     0
  0
DICTIONARYVAR
  5
87E
102
{ACAD_REACTORS
330
27B
102
}
330
27B
100
DictionaryVariables
280
     0
  1
1:1
  0
DICTIONARYVAR
  5
87C
102
{ACAD_REACTORS
330
27B
102
}
330
27B
100
DictionaryVariables
280
     0
  1
STANDARD
  0
DICTIONARYVAR
  5
27C
102
{ACAD_REACTORS
330
27B
102
}
330
27B
100
DictionaryVariables
280
     0
  1
STANDARD
  0
DICTIONARYVAR
  5
880
102
{ACAD_REACTORS
330
27B
102
}
330
27B
100
DictionaryVariables
280
     0
  1
1
  0
DICTIONARYVAR
  5
881
102
{ACAD_REACTORS
330
27B
102
}
330
27B
100
DictionaryVariables
280
     0
  1
15
  0
DICTIONARYVAR
  5
87F
102
{ACAD_REACTORS
330
27B
102
}
330
27B
100
DictionaryVariables
280
     0
  1
0
  0
DICTIONARYVAR
  5
87D
102
{ACAD_REACTORS
330
27B
102
}
330
27B
100
DictionaryVariables
280
     0
  1
0
  0
DICTIONARY
  5
7FF
102
{ACAD_REACTORS
330
7F2
102
}
330
7F2
100
AcDbDictionary
281
     1
  0
DICTIONARY
  5
741
330
740
100
AcDbDictionary
280
     1
281
     1
  3
ACAD_XREC_ROUNDTRIP
360
BF6
  3
BUMPTILE
360
743
  3
DIFFUSETILE
360
742
  3
OPACITYTILE
360
746
  3
REFLECTIONTILE
360
745
  3
REFRACTIONTILE
360
747
  3
SPECULARTILE
360
744
  0
DICTIONARY
  5
739
330
738
100
AcDbDictionary
280
     1
281
     1
  3
ACAD_XREC_ROUNDTRIP
360
BF5
  3
BUMPTILE
360
73B
  3
DIFFUSETILE
360
73A
  3
OPACITYTILE
360
73E
  3
REFLECTIONTILE
360
73D
  3
REFRACTIONTILE
360
73F
  3
SPECULARTILE
360
73C
  0
DICTIONARY
  5
749
330
748
100
AcDbDictionary
280
     1
281
     1
  3
ACAD_XREC_ROUNDTRIP
360
BF7
  3
BUMPTILE
360
74B
  3
DIFFUSETILE
360
74A
  3
OPACITYTILE
360
74E
  3
REFLECTIONTILE
360
74D
  3
REFRACTIONTILE
360
74F
  3
SPECULARTILE
360
74C
  0
DICTIONARY
  5
879
330
1C2
100
AcDbDictionary
280
     1
281
     1
  3
ACAD_ROUNDTRIP_2008_TABLESTYLE_CELLSTYLEMAP
360
4A73
  0
DICTIONARY
  5
4A7F
330
756
100
AcDbDictionary
280
     1
281
     1
  3
ACAD_XREC_ROUNDTRIP
360
4A80
  0
DICTIONARY
  5
4A83
330
758
100
AcDbDictionary
280
     1
281
     1
  3
ACAD_XREC_ROUNDTRIP
360
4A84
  0
DICTIONARY
  5
4A81
330
757
100
AcDbDictionary
280
     1
281
     1
  3
ACAD_XREC_ROUNDTRIP
360
4A82
  0
DICTIONARY
  5
4A7D
330
755
100
AcDbDictionary
280
     1
281
     1
  3
ACAD_XREC_ROUNDTRIP
360
4A7E
  0
DICTIONARY
  5
4A8B
330
75C
100
AcDbDictionary
280
     1
281
     1
  3
ACAD_XREC_ROUNDTRIP
360
4A8C
  0
DICTIONARY
  5
4A93
330
760
100
AcDbDictionary
280
     1
281
     1
  3
ACAD_XREC_ROUNDTRIP
360
4A94
  0
DICTIONARY
  5
4A85
330
759
100
AcDbDictionary
280
     1
281
     1
  3
ACAD_XREC_ROUNDTRIP
360
4A86
  0
DICTIONARY
  5
4A89
330
75B
100
AcDbDictionary
280
     1
281
     1
  3
ACAD_XREC_ROUNDTRIP
360
4A8A
  0
DICTIONARY
  5
4A99
330
2026
100
AcDbDictionary
280
     1
281
     1
  3
ACAD_XREC_ROUNDTRIP
360
4A9A
  0
DICTIONARY
  5
4A91
330
75F
100
AcDbDictionary
280
     1
281
     1
  3
ACAD_XREC_ROUNDTRIP
360
4A92
  0
DICTIONARY
  5
4A75
330
751
100
AcDbDictionary
280
     1
281
     1
  3
ACAD_XREC_ROUNDTRIP
360
4A76
  0
DICTIONARY
  5
4A77
330
752
100
AcDbDictionary
280
     1
281
     1
  3
ACAD_XREC_ROUNDTRIP
360
4A78
  0
DICTIONARY
  5
4A79
330
753
100
AcDbDictionary
280
     1
281
     1
  3
ACAD_XREC_ROUNDTRIP
360
4A7A
  0
DICTIONARY
  5
4A7B
330
754
100
AcDbDictionary
280
     1
281
     1
  3
ACAD_XREC_ROUNDTRIP
360
4A7C
  0
DICTIONARY
  5
4A95
330
2024
100
AcDbDictionary
280
     1
281
     1
  3
ACAD_XREC_ROUNDTRIP
360
4A96
  0
DICTIONARY
  5
4A8F
330
75E
100
AcDbDictionary
280
     1
281
     1
  3
ACAD_XREC_ROUNDTRIP
360
4A90
  0
DICTIONARY
  5
4A97
330
2025
100
AcDbDictionary
280
     1
281
     1
  3
ACAD_XREC_ROUNDTRIP
360
4A98
  0
DICTIONARY
  5
4A87
330
75A
100
AcDbDictionary
280
     1
281
     1
  3
ACAD_XREC_ROUNDTRIP
360
4A88
  0
DICTIONARY
  5
4A8D
330
75D
100
AcDbDictionary
280
     1
281
     1
  3
ACAD_XREC_ROUNDTRIP
360
4A8E
  0
XRECORD
  5
BF6
102
{ACAD_REACTORS
330
741
102
}
330
741
100
AcDbXrecord
280
     1
102
MATERIAL
148
0.0
149
0.0
149
0.0
 93
        0
 94
      127
282
     0
 72
     0
 77
     0
171
     0
175
     0
179
     0
273
     0
  0
XRECORD
  5
743
102
{ACAD_REACTORS
330
741
102
}
330
741
100
AcDbXrecord
280
     1
270
     1
271
     1
  0
XRECORD
  5
742
102
{ACAD_REACTORS
330
741
102
}
330
741
100
AcDbXrecord
280
     1
270
     1
271
     1
  0
XRECORD
  5
746
102
{ACAD_REACTORS
330
741
102
}
330
741
100
AcDbXrecord
280
     1
270
     1
271
     1
  0
XRECORD
  5
745
102
{ACAD_REACTORS
330
741
102
}
330
741
100
AcDbXrecord
280
     1
270
     1
271
     1
  0
XRECORD
  5
747
102
{ACAD_REACTORS
330
741
102
}
330
741
100
AcDbXrecord
280
     1
270
     1
271
     1
  0
XRECORD
  5
744
102
{ACAD_REACTORS
330
741
102
}
330
741
100
AcDbXrecord
280
     1
270
     1
271
     1
  0
XRECORD
  5
BF5
102
{ACAD_REACTORS
330
739
102
}
330
739
100
AcDbXrecord
280
     1
102
MATERIAL
148
0.0
149
0.0
149
0.0
 93
        0
 94
      127
282
     0
 72
     0
 77
     0
171
     0
175
     0
179
     0
273
     0
  0
XRECORD
  5
73B
102
{ACAD_REACTORS
330
739
102
}
330
739
100
AcDbXrecord
280
     1
270
     1
271
     1
  0
XRECORD
  5
73A
102
{ACAD_REACTORS
330
739
102
}
330
739
100
AcDbXrecord
280
     1
270
     1
271
     1
  0
XRECORD
  5
73E
102
{ACAD_REACTORS
330
739
102
}
330
739
100
AcDbXrecord
280
     1
270
     1
271
     1
  0
XRECORD
  5
73D
102
{ACAD_REACTORS
330
739
102
}
330
739
100
AcDbXrecord
280
     1
270
     1
271
     1
  0
XRECORD
  5
73F
102
{ACAD_REACTORS
330
739
102
}
330
739
100
AcDbXrecord
280
     1
270
     1
271
     1
  0
XRECORD
  5
73C
102
{ACAD_REACTORS
330
739
102
}
330
739
100
AcDbXrecord
280
     1
270
     1
271
     1
  0
XRECORD
  5
BF7
102
{ACAD_REACTORS
330
749
102
}
330
749
100
AcDbXrecord
280
     1
102
MATERIAL
148
0.0
149
0.0
149
0.0
 93
        0
 94
      127
282
     0
 72
     0
 77
     0
171
     0
175
     0
179
     0
273
     0
  0
XRECORD
  5
74B
102
{ACAD_REACTORS
330
749
102
}
330
749
100
AcDbXrecord
280
     1
270
     1
271
     1
  0
XRECORD
  5
74A
102
{ACAD_REACTORS
330
749
102
}
330
749
100
AcDbXrecord
280
     1
270
     1
271
     1
  0
XRECORD
  5
74E
102
{ACAD_REACTORS
330
749
102
}
330
749
100
AcDbXrecord
280
     1
270
     1
271
     1
  0
XRECORD
  5
74D
102
{ACAD_REACTORS
330
749
102
}
330
749
100
AcDbXrecord
280
     1
270
     1
271
     1
  0
XRECORD
  5
74F
102
{ACAD_REACTORS
330
749
102
}
330
749
100
AcDbXrecord
280
     1
270
     1
271
     1
  0
XRECORD
  5
74C
102
{ACAD_REACTORS
330
749
102
}
330
749
100
AcDbXrecord
280
     1
270
     1
271
     1
  0
CELLSTYLEMAP
  5
4A73
102
{ACAD_REACTORS
330
879
102
}
330
879
100
AcDbCellStyleMap
 90
        3
300
CELLSTYLE
  1
TABLEFORMAT_BEGIN
 90
        5
170
     1
 91
        0
 92
    32768
 62
   257
 93
        1
300
CONTENTFORMAT
  1
CONTENTFORMAT_BEGIN
 90
        0
 91
        0
 92
        4
 93
        0
300

 40
0.0
140
1.0
 94
        5
 62
     0
340
C
144
0.25
309
CONTENTFORMAT_END
171
     1
301
MARGIN
  1
CELLMARGIN_BEGIN
 40
0.06
 40
0.06
 40
0.06
 40
0.06
 40
0.18
 40
0.18
309
CELLMARGIN_END
 94
        6
 95
        1
302
GRIDFORMAT
  1
GRIDFORMAT_BEGIN
 90
        0
 91
        1
 62
     0
 92
       -2
340
0
 93
        0
 40
0.045
309
GRIDFORMAT_END
 95
        2
302
GRIDFORMAT
  1
GRIDFORMAT_BEGIN
 90
        0
 91
        1
 62
     0
 92
       -2
340
0
 93
        0
 40
0.045
309
GRIDFORMAT_END
 95
        4
302
GRIDFORMAT
  1
GRIDFORMAT_BEGIN
 90
        0
 91
        1
 62
     0
 92
       -2
340
0
 93
        0
 40
0.045
309
GRIDFORMAT_END
 95
        8
302
GRIDFORMAT
  1
GRIDFORMAT_BEGIN
 90
        0
 91
        1
 62
     0
 92
       -2
340
0
 93
        0
 40
0.045
309
GRIDFORMAT_END
 95
       16
302
GRIDFORMAT
  1
GRIDFORMAT_BEGIN
 90
        0
 91
        1
 62
     0
 92
       -2
340
0
 93
        0
 40
0.045
309
GRIDFORMAT_END
 95
       32
302
GRIDFORMAT
  1
GRIDFORMAT_BEGIN
 90
        0
 91
        1
 62
     0
 92
       -2
340
0
 93
        0
 40
0.045
309
GRIDFORMAT_END
309
TABLEFORMAT_END
  1
CELLSTYLE_BEGIN
 90
        1
 91
        1
300
_TITLE
309
CELLSTYLE_END
300
CELLSTYLE
  1
TABLEFORMAT_BEGIN
 90
        5
170
     1
 91
        0
 92
        0
 62
   257
 93
        1
300
CONTENTFORMAT
  1
CONTENTFORMAT_BEGIN
 90
        0
 91
        0
 92
        4
 93
        0
300

 40
0.0
140
1.0
 94
        5
 62
     0
340
C
144
0.18
309
CONTENTFORMAT_END
171
     1
301
MARGIN
  1
CELLMARGIN_BEGIN
 40
0.06
 40
0.06
 40
0.06
 40
0.06
 40
0.18
 40
0.18
309
CELLMARGIN_END
 94
        6
 95
        1
302
GRIDFORMAT
  1
GRIDFORMAT_BEGIN
 90
        0
 91
        1
 62
     0
 92
       -2
340
0
 93
        0
 40
0.045
309
GRIDFORMAT_END
 95
        2
302
GRIDFORMAT
  1
GRIDFORMAT_BEGIN
 90
        0
 91
        1
 62
     0
 92
       -2
340
0
 93
        0
 40
0.045
309
GRIDFORMAT_END
 95
        4
302
GRIDFORMAT
  1
GRIDFORMAT_BEGIN
 90
        0
 91
        1
 62
     0
 92
       -2
340
0
 93
        0
 40
0.045
309
GRIDFORMAT_END
 95
        8
302
GRIDFORMAT
  1
GRIDFORMAT_BEGIN
 90
        0
 91
        1
 62
     0
 92
       -2
340
0
 93
        0
 40
0.045
309
GRIDFORMAT_END
 95
       16
302
GRIDFORMAT
  1
GRIDFORMAT_BEGIN
 90
        0
 91
        1
 62
     0
 92
       -2
340
0
 93
        0
 40
0.045
309
GRIDFORMAT_END
 95
       32
302
GRIDFORMAT
  1
GRIDFORMAT_BEGIN
 90
        0
 91
        1
 62
     0
 92
       -2
340
0
 93
        0
 40
0.045
309
GRIDFORMAT_END
309
TABLEFORMAT_END
  1
CELLSTYLE_BEGIN
 90
        2
 91
        1
300
_HEADER
309
CELLSTYLE_END
300
CELLSTYLE
  1
TABLEFORMAT_BEGIN
 90
        5
170
     1
 91
        0
 92
        0
 62
   257
 93
        1
300
CONTENTFORMAT
  1
CONTENTFORMAT_BEGIN
 90
        0
 91
        0
 92
        4
 93
        0
300

 40
0.0
140
1.0
 94
        2
 62
     0
340
C
144
0.18
309
CONTENTFORMAT_END
171
     1
301
MARGIN
  1
CELLMARGIN_BEGIN
 40
0.06
 40
0.06
 40
0.06
 40
0.06
 40
0.18
 40
0.18
309
CELLMARGIN_END
 94
        6
 95
        1
302
GRIDFORMAT
  1
GRIDFORMAT_BEGIN
 90
        0
 91
        1
 62
     0
 92
       -2
340
0
 93
        0
 40
0.045
309
GRIDFORMAT_END
 95
        2
302
GRIDFORMAT
  1
GRIDFORMAT_BEGIN
 90
        0
 91
        1
 62
     0
 92
       -2
340
0
 93
        0
 40
0.045
309
GRIDFORMAT_END
 95
        4
302
GRIDFORMAT
  1
GRIDFORMAT_BEGIN
 90
        0
 91
        1
 62
     0
 92
       -2
340
0
 93
        0
 40
0.045
309
GRIDFORMAT_END
 95
        8
302
GRIDFORMAT
  1
GRIDFORMAT_BEGIN
 90
        0
 91
        1
 62
     0
 92
       -2
340
0
 93
        0
 40
0.045
309
GRIDFORMAT_END
 95
       16
302
GRIDFORMAT
  1
GRIDFORMAT_BEGIN
 90
        0
 91
        1
 62
     0
 92
       -2
340
0
 93
        0
 40
0.045
309
GRIDFORMAT_END
 95
       32
302
GRIDFORMAT
  1
GRIDFORMAT_BEGIN
 90
        0
 91
        1
 62
     0
 92
       -2
340
0
 93
        0
 40
0.045
309
GRIDFORMAT_END
309
TABLEFORMAT_END
  1
CELLSTYLE_BEGIN
 90
        3
 91
        2
300
_DATA
309
CELLSTYLE_END
  0
XRECORD
  5
4A80
102
{ACAD_REACTORS
330
4A7F
102
}
330
4A7F
100
AcDbXrecord
280
     1
102
RTVSPropertyOp0
 70
     1
102
RTVSPropertyOp1
 70
     1
102
RTVSPropertyOp2
 70
     1
102
RTVSPropertyOp3
 70
     1
102
RTVSPropertyOp4
 70
     1
102
RTVSPropertyOp5
 70
     1
102
RTVSPropertyOp6
 70
     1
102
RTVSPropertyOp7
 70
     1
102
RTVSPropertyOp8
 70
     1
102
RTVSPropertyOp9
 70
     1
102
RTVSPropertyOp10
 70
     1
102
RTVSPropertyOp11
 70
     1
102
RTVSPropertyOp12
 70
     1
102
RTVSPropertyOp13
 70
     1
102
RTVSPropertyOp14
 70
     1
102
RTVSPropertyOp15
 70
     1
102
RTVSPropertyOp16
 70
     1
102
RTVSPropertyOp17
 70
     1
102
RTVSPropertyOp18
 70
     1
102
RTVSPropertyOp19
 70
     1
102
RTVSPropertyOp20
 70
     1
102
RTVSPropertyOp21
 70
     1
102
RTVSPropertyOp22
 70
     1
102
RTVSPropertyOp23
 70
     1
102
RTVSPropertyOp24
 70
     1
102
RTVSPropertyOp25
 70
     1
102
RTVSPropertyOp26
 70
     1
102
RTVSPropertyOp27
 70
     1
  0
XRECORD
  5
4A84
102
{ACAD_REACTORS
330
4A83
102
}
330
4A83
100
AcDbXrecord
280
     1
102
RTVSPropertyOp0
 70
     1
102
RTVSPropertyOp1
 70
     1
102
RTVSPropertyOp2
 70
     1
102
RTVSPropertyOp3
 70
     1
102
RTVSPropertyOp4
 70
     1
102
RTVSPropertyOp5
 70
     1
102
RTVSPropertyOp6
 70
     1
102
RTVSPropertyOp7
 70
     1
102
RTVSPropertyOp8
 70
     1
102
RTVSPropertyOp9
 70
     1
102
RTVSPropertyOp10
 70
     1
102
RTVSPropertyOp11
 70
     1
102
RTVSPropertyOp12
 70
     1
102
RTVSPropertyOp13
 70
     1
102
RTVSPropertyOp14
 70
     1
102
RTVSPropertyOp15
 70
     1
102
RTVSPropertyOp16
 70
     1
102
RTVSPropertyOp17
 70
     1
102
RTVSPropertyOp18
 70
     1
102
RTVSPropertyOp19
 70
     1
102
RTVSPropertyOp20
 70
     1
102
RTVSPropertyOp21
 70
     1
102
RTVSPropertyOp22
 70
     1
102
RTVSPropertyOp23
 70
     1
102
RTVSPropertyOp24
 70
     1
102
RTVSPropertyOp25
 70
     1
102
RTVSPropertyOp26
 70
     1
102
RTVSPropertyOp27
 70
     1
  0
XRECORD
  5
4A82
102
{ACAD_REACTORS
330
4A81
102
}
330
4A81
100
AcDbXrecord
280
     1
102
RTVSPropertyOp0
 70
     1
102
RTVSPropertyOp1
 70
     1
102
RTVSPropertyOp2
 70
     1
102
RTVSPropertyOp3
 70
     1
102
RTVSPropertyOp4
 70
     1
102
RTVSPropertyOp5
 70
     1
102
RTVSPropertyOp6
 70
     1
102
RTVSPropertyOp7
 70
     1
102
RTVSPropertyOp8
 70
     1
102
RTVSPropertyOp9
 70
     1
102
RTVSPropertyOp10
 70
     1
102
RTVSPropertyOp11
 70
     1
102
RTVSPropertyOp12
 70
     1
102
RTVSPropertyOp13
 70
     1
102
RTVSPropertyOp14
 70
     1
102
RTVSPropertyOp15
 70
     1
102
RTVSPropertyOp16
 70
     1
102
RTVSPropertyOp17
 70
     1
102
RTVSPropertyOp18
 70
     1
102
RTVSPropertyOp19
 70
     1
102
RTVSPropertyOp20
 70
     1
102
RTVSPropertyOp21
 70
     1
102
RTVSPropertyOp22
 70
     1
102
RTVSPropertyOp23
 70
     1
102
RTVSPropertyOp24
 70
     1
102
RTVSPropertyOp25
 70
     1
102
RTVSPropertyOp26
 70
     1
102
RTVSPropertyOp27
 70
     1
  0
XRECORD
  5
4A7E
102
{ACAD_REACTORS
330
4A7D
102
}
330
4A7D
100
AcDbXrecord
280
     1
102
RTVSPropertyOp0
 70
     1
102
RTVSPropertyOp1
 70
     1
102
RTVSPropertyOp2
 70
     1
102
RTVSPropertyOp3
 70
     1
102
RTVSPropertyOp4
 70
     1
102
RTVSPropertyOp5
 70
     1
102
RTVSPropertyOp6
 70
     1
102
RTVSPropertyOp7
 70
     1
102
RTVSPropertyOp8
 70
     1
102
RTVSPropertyOp9
 70
     1
102
RTVSPropertyOp10
 70
     1
102
RTVSPropertyOp11
 70
     1
102
RTVSPropertyOp12
 70
     1
102
RTVSPropertyOp13
 70
     1
102
RTVSPropertyOp14
 70
     1
102
RTVSPropertyOp15
 70
     1
102
RTVSPropertyOp16
 70
     1
102
RTVSPropertyOp17
 70
     1
102
RTVSPropertyOp18
 70
     1
102
RTVSPropertyOp19
 70
     1
102
RTVSPropertyOp20
 70
     1
102
RTVSPropertyOp21
 70
     1
102
RTVSPropertyOp22
 70
     1
102
RTVSPropertyOp23
 70
     1
102
RTVSPropertyOp24
 70
     1
102
RTVSPropertyOp25
 70
     1
102
RTVSPropertyOp26
 70
     1
102
RTVSPropertyOp27
 70
     1
  0
XRECORD
  5
4A8C
102
{ACAD_REACTORS
330
4A8B
102
}
330
4A8B
100
AcDbXrecord
280
     1
102
RTVSPropertyOp0
 70
     1
102
RTVSPropertyOp1
 70
     1
102
RTVSPropertyOp2
 70
     1
102
RTVSPropertyOp3
 70
     1
102
RTVSPropertyOp4
 70
     1
102
RTVSPropertyOp5
 70
     1
102
RTVSPropertyOp6
 70
     1
102
RTVSPropertyOp7
 70
     1
102
RTVSPropertyOp8
 70
     1
102
RTVSPropertyOp9
 70
     1
102
RTVSPropertyOp10
 70
     1
102
RTVSPropertyOp11
 70
     1
102
RTVSPropertyOp12
 70
     1
102
RTVSPropertyOp13
 70
     1
102
RTVSPropertyOp14
 70
     1
102
RTVSPropertyOp15
 70
     1
102
RTVSPropertyOp16
 70
     1
102
RTVSPropertyOp17
 70
     1
102
RTVSPropertyOp18
 70
     1
102
RTVSPropertyOp19
 70
     1
102
RTVSPropertyOp20
 70
     1
102
RTVSPropertyOp21
 70
     1
102
RTVSPropertyOp22
 70
     1
102
RTVSPropertyOp23
 70
     1
102
RTVSPropertyOp24
 70
     1
102
RTVSPropertyOp25
 70
     1
102
RTVSPropertyOp26
 70
     1
102
RTVSPropertyOp27
 70
     1
  0
XRECORD
  5
4A94
102
{ACAD_REACTORS
330
4A93
102
}
330
4A93
100
AcDbXrecord
280
     1
102
RTVSPropertyOp0
 70
     1
102
RTVSPropertyOp1
 70
     1
102
RTVSPropertyOp2
 70
     1
102
RTVSPropertyOp3
 70
     1
102
RTVSPropertyOp4
 70
     1
102
RTVSPropertyOp5
 70
     1
102
RTVSPropertyOp6
 70
     1
102
RTVSPropertyOp7
 70
     1
102
RTVSPropertyOp8
 70
     1
102
RTVSPropertyOp9
 70
     1
102
RTVSPropertyOp10
 70
     1
102
RTVSPropertyOp11
 70
     1
102
RTVSPropertyOp12
 70
     1
102
RTVSPropertyOp13
 70
     1
102
RTVSPropertyOp14
 70
     1
102
RTVSPropertyOp15
 70
     1
102
RTVSPropertyOp16
 70
     1
102
RTVSPropertyOp17
 70
     1
102
RTVSPropertyOp18
 70
     1
102
RTVSPropertyOp19
 70
     1
102
RTVSPropertyOp20
 70
     1
102
RTVSPropertyOp21
 70
     1
102
RTVSPropertyOp22
 70
     1
102
RTVSPropertyOp23
 70
     1
102
RTVSPropertyOp24
 70
     1
102
RTVSPropertyOp25
 70
     1
102
RTVSPropertyOp26
 70
     1
102
RTVSPropertyOp27
 70
     1
  0
XRECORD
  5
4A86
102
{ACAD_REACTORS
330
4A85
102
}
330
4A85
100
AcDbXrecord
280
     1
102
RTVSPropertyOp0
 70
     1
102
RTVSPropertyOp1
 70
     1
102
RTVSPropertyOp2
 70
     1
102
RTVSPropertyOp3
 70
     1
102
RTVSPropertyOp4
 70
     1
102
RTVSPropertyOp5
 70
     1
102
RTVSPropertyOp6
 70
     1
102
RTVSPropertyOp7
 70
     1
102
RTVSPropertyOp8
 70
     1
102
RTVSPropertyOp9
 70
     1
102
RTVSPropertyOp10
 70
     1
102
RTVSPropertyOp11
 70
     1
102
RTVSPropertyOp12
 70
     1
102
RTVSPropertyOp13
 70
     1
102
RTVSPropertyOp14
 70
     1
102
RTVSPropertyOp15
 70
     1
102
RTVSPropertyOp16
 70
     1
102
RTVSPropertyOp17
 70
     1
102
RTVSPropertyOp18
 70
     1
102
RTVSPropertyOp19
 70
     1
102
RTVSPropertyOp20
 70
     1
102
RTVSPropertyOp21
 70
     1
102
RTVSPropertyOp22
 70
     1
102
RTVSPropertyOp23
 70
     1
102
RTVSPropertyOp24
 70
     1
102
RTVSPropertyOp25
 70
     1
102
RTVSPropertyOp26
 70
     1
102
RTVSPropertyOp27
 70
     1
  0
XRECORD
  5
4A8A
102
{ACAD_REACTORS
330
4A89
102
}
330
4A89
100
AcDbXrecord
280
     1
102
RTVSPropertyOp0
 70
     1
102
RTVSPropertyOp1
 70
     1
102
RTVSPropertyOp2
 70
     1
102
RTVSPropertyOp3
 70
     1
102
RTVSPropertyOp4
 70
     1
102
RTVSPropertyOp5
 70
     1
102
RTVSPropertyOp6
 70
     1
102
RTVSPropertyOp7
 70
     1
102
RTVSPropertyOp8
 70
     1
102
RTVSPropertyOp9
 70
     1
102
RTVSPropertyOp10
 70
     1
102
RTVSPropertyOp11
 70
     1
102
RTVSPropertyOp12
 70
     1
102
RTVSPropertyOp13
 70
     1
102
RTVSPropertyOp14
 70
     1
102
RTVSPropertyOp15
 70
     1
102
RTVSPropertyOp16
 70
     1
102
RTVSPropertyOp17
 70
     1
102
RTVSPropertyOp18
 70
     1
102
RTVSPropertyOp19
 70
     1
102
RTVSPropertyOp20
 70
     1
102
RTVSPropertyOp21
 70
     1
102
RTVSPropertyOp22
 70
     1
102
RTVSPropertyOp23
 70
     1
102
RTVSPropertyOp24
 70
     1
102
RTVSPropertyOp25
 70
     1
102
RTVSPropertyOp26
 70
     1
102
RTVSPropertyOp27
 70
     1
  0
XRECORD
  5
4A9A
102
{ACAD_REACTORS
330
4A99
102
}
330
4A99
100
AcDbXrecord
280
     1
102
RTVSPropertyOp0
 70
     0
102
RTVSPropertyOp1
 70
     0
102
RTVSPropertyOp2
 70
     0
102
RTVSPropertyOp3
 70
     0
102
RTVSPropertyOp4
 70
     0
102
RTVSPropertyOp5
 70
     0
102
RTVSPropertyOp6
 70
     0
102
RTVSPropertyOp7
 70
     0
102
RTVSPropertyOp8
 70
     0
102
RTVSPropertyOp9
 70
     0
102
RTVSPropertyOp10
 70
     0
102
RTVSPropertyOp11
 70
     0
102
RTVSPropertyOp12
 70
     0
102
RTVSPropertyOp13
 70
     0
102
RTVSPropertyOp14
 70
     2
102
RTVSPropertyOp15
 70
     0
102
RTVSPropertyOp16
 70
     0
102
RTVSPropertyOp17
 70
     0
102
RTVSPropertyOp18
 70
     0
102
RTVSPropertyOp19
 70
     0
102
RTVSPropertyOp20
 70
     0
102
RTVSPropertyOp21
 70
     0
102
RTVSPropertyOp22
 70
     0
102
RTVSPropertyOp23
 70
     0
102
RTVSPropertyOp24
 70
     0
102
RTVSPropertyOp25
 70
     0
102
RTVSPropertyOp26
 70
     0
102
RTVSPropertyOp27
 70
     0
  0
XRECORD
  5
4A92
102
{ACAD_REACTORS
330
4A91
102
}
330
4A91
100
AcDbXrecord
280
     1
102
RTVSPropertyOp0
 70
     1
102
RTVSPropertyOp1
 70
     1
102
RTVSPropertyOp2
 70
     1
102
RTVSPropertyOp3
 70
     1
102
RTVSPropertyOp4
 70
     1
102
RTVSPropertyOp5
 70
     1
102
RTVSPropertyOp6
 70
     1
102
RTVSPropertyOp7
 70
     1
102
RTVSPropertyOp8
 70
     1
102
RTVSPropertyOp9
 70
     1
102
RTVSPropertyOp10
 70
     1
102
RTVSPropertyOp11
 70
     1
102
RTVSPropertyOp12
 70
     1
102
RTVSPropertyOp13
 70
     1
102
RTVSPropertyOp14
 70
     1
102
RTVSPropertyOp15
 70
     1
102
RTVSPropertyOp16
 70
     1
102
RTVSPropertyOp17
 70
     1
102
RTVSPropertyOp18
 70
     1
102
RTVSPropertyOp19
 70
     1
102
RTVSPropertyOp20
 70
     1
102
RTVSPropertyOp21
 70
     1
102
RTVSPropertyOp22
 70
     1
102
RTVSPropertyOp23
 70
     1
102
RTVSPropertyOp24
 70
     1
102
RTVSPropertyOp25
 70
     1
102
RTVSPropertyOp26
 70
     1
102
RTVSPropertyOp27
 70
     1
  0
XRECORD
  5
4A76
102
{ACAD_REACTORS
330
4A75
102
}
330
4A75
100
AcDbXrecord
280
     1
102
RTVSPropertyOp0
 70
     1
102
RTVSPropertyOp1
 70
     1
102
RTVSPropertyOp2
 70
     1
102
RTVSPropertyOp3
 70
     1
102
RTVSPropertyOp4
 70
     1
102
RTVSPropertyOp5
 70
     1
102
RTVSPropertyOp6
 70
     1
102
RTVSPropertyOp7
 70
     1
102
RTVSPropertyOp8
 70
     1
102
RTVSPropertyOp9
 70
     1
102
RTVSPropertyOp10
 70
     1
102
RTVSPropertyOp11
 70
     1
102
RTVSPropertyOp12
 70
     1
102
RTVSPropertyOp13
 70
     1
102
RTVSPropertyOp14
 70
     1
102
RTVSPropertyOp15
 70
     1
102
RTVSPropertyOp16
 70
     1
102
RTVSPropertyOp17
 70
     1
102
RTVSPropertyOp18
 70
     1
102
RTVSPropertyOp19
 70
     1
102
RTVSPropertyOp20
 70
     1
102
RTVSPropertyOp21
 70
     1
102
RTVSPropertyOp22
 70
     1
102
RTVSPropertyOp23
 70
     1
102
RTVSPropertyOp24
 70
     1
102
RTVSPropertyOp25
 70
     1
102
RTVSPropertyOp26
 70
     1
102
RTVSPropertyOp27
 70
     1
  0
XRECORD
  5
4A78
102
{ACAD_REACTORS
330
4A77
102
}
330
4A77
100
AcDbXrecord
280
     1
102
RTVSPropertyOp0
 70
     1
102
RTVSPropertyOp1
 70
     1
102
RTVSPropertyOp2
 70
     1
102
RTVSPropertyOp3
 70
     1
102
RTVSPropertyOp4
 70
     1
102
RTVSPropertyOp5
 70
     1
102
RTVSPropertyOp6
 70
     1
102
RTVSPropertyOp7
 70
     1
102
RTVSPropertyOp8
 70
     1
102
RTVSPropertyOp9
 70
     1
102
RTVSPropertyOp10
 70
     1
102
RTVSPropertyOp11
 70
     1
102
RTVSPropertyOp12
 70
     1
102
RTVSPropertyOp13
 70
     1
102
RTVSPropertyOp14
 70
     1
102
RTVSPropertyOp15
 70
     1
102
RTVSPropertyOp16
 70
     1
102
RTVSPropertyOp17
 70
     1
102
RTVSPropertyOp18
 70
     1
102
RTVSPropertyOp19
 70
     1
102
RTVSPropertyOp20
 70
     1
102
RTVSPropertyOp21
 70
     1
102
RTVSPropertyOp22
 70
     1
102
RTVSPropertyOp23
 70
     1
102
RTVSPropertyOp24
 70
     1
102
RTVSPropertyOp25
 70
     1
102
RTVSPropertyOp26
 70
     1
102
RTVSPropertyOp27
 70
     1
  0
XRECORD
  5
4A7A
102
{ACAD_REACTORS
330
4A79
102
}
330
4A79
100
AcDbXrecord
280
     1
102
RTVSPropertyOp0
 70
     1
102
RTVSPropertyOp1
 70
     1
102
RTVSPropertyOp2
 70
     1
102
RTVSPropertyOp3
 70
     1
102
RTVSPropertyOp4
 70
     1
102
RTVSPropertyOp5
 70
     1
102
RTVSPropertyOp6
 70
     1
102
RTVSPropertyOp7
 70
     1
102
RTVSPropertyOp8
 70
     1
102
RTVSPropertyOp9
 70
     1
102
RTVSPropertyOp10
 70
     1
102
RTVSPropertyOp11
 70
     1
102
RTVSPropertyOp12
 70
     1
102
RTVSPropertyOp13
 70
     1
102
RTVSPropertyOp14
 70
     1
102
RTVSPropertyOp15
 70
     1
102
RTVSPropertyOp16
 70
     1
102
RTVSPropertyOp17
 70
     1
102
RTVSPropertyOp18
 70
     1
102
RTVSPropertyOp19
 70
     1
102
RTVSPropertyOp20
 70
     1
102
RTVSPropertyOp21
 70
     1
102
RTVSPropertyOp22
 70
     1
102
RTVSPropertyOp23
 70
     1
102
RTVSPropertyOp24
 70
     1
102
RTVSPropertyOp25
 70
     1
102
RTVSPropertyOp26
 70
     1
102
RTVSPropertyOp27
 70
     1
  0
XRECORD
  5
4A7C
102
{ACAD_REACTORS
330
4A7B
102
}
330
4A7B
100
AcDbXrecord
280
     1
102
RTVSPropertyOp0
 70
     1
102
RTVSPropertyOp1
 70
     1
102
RTVSPropertyOp2
 70
     1
102
RTVSPropertyOp3
 70
     1
102
RTVSPropertyOp4
 70
     1
102
RTVSPropertyOp5
 70
     1
102
RTVSPropertyOp6
 70
     1
102
RTVSPropertyOp7
 70
     1
102
RTVSPropertyOp8
 70
     1
102
RTVSPropertyOp9
 70
     1
102
RTVSPropertyOp10
 70
     1
102
RTVSPropertyOp11
 70
     1
102
RTVSPropertyOp12
 70
     1
102
RTVSPropertyOp13
 70
     1
102
RTVSPropertyOp14
 70
     1
102
RTVSPropertyOp15
 70
     1
102
RTVSPropertyOp16
 70
     1
102
RTVSPropertyOp17
 70
     1
102
RTVSPropertyOp18
 70
     1
102
RTVSPropertyOp19
 70
     1
102
RTVSPropertyOp20
 70
     1
102
RTVSPropertyOp21
 70
     1
102
RTVSPropertyOp22
 70
     1
102
RTVSPropertyOp23
 70
     1
102
RTVSPropertyOp24
 70
     1
102
RTVSPropertyOp25
 70
     1
102
RTVSPropertyOp26
 70
     1
102
RTVSPropertyOp27
 70
     1
  0
XRECORD
  5
4A96
102
{ACAD_REACTORS
330
4A95
102
}
330
4A95
100
AcDbXrecord
280
     1
102
RTVSPropertyOp0
 70
     0
102
RTVSPropertyOp1
 70
     0
102
RTVSPropertyOp2
 70
     0
102
RTVSPropertyOp3
 70
     0
102
RTVSPropertyOp4
 70
     0
102
RTVSPropertyOp5
 70
     0
102
RTVSPropertyOp6
 70
     0
102
RTVSPropertyOp7
 70
     0
102
RTVSPropertyOp8
 70
     0
102
RTVSPropertyOp9
 70
     0
102
RTVSPropertyOp10
 70
     0
102
RTVSPropertyOp11
 70
     0
102
RTVSPropertyOp12
 70
     0
102
RTVSPropertyOp13
 70
     0
102
RTVSPropertyOp14
 70
     2
102
RTVSPropertyOp15
 70
     0
102
RTVSPropertyOp16
 70
     0
102
RTVSPropertyOp17
 70
     0
102
RTVSPropertyOp18
 70
     0
102
RTVSPropertyOp19
 70
     0
102
RTVSPropertyOp20
 70
     0
102
RTVSPropertyOp21
 70
     0
102
RTVSPropertyOp22
 70
     0
102
RTVSPropertyOp23
 70
     0
102
RTVSPropertyOp24
 70
     0
102
RTVSPropertyOp25
 70
     0
102
RTVSPropertyOp26
 70
     0
102
RTVSPropertyOp27
 70
     0
  0
XRECORD
  5
4A90
102
{ACAD_REACTORS
330
4A8F
102
}
330
4A8F
100
AcDbXrecord
280
     1
102
RTVSPropertyOp0
 70
     1
102
RTVSPropertyOp1
 70
     1
102
RTVSPropertyOp2
 70
     1
102
RTVSPropertyOp3
 70
     1
102
RTVSPropertyOp4
 70
     1
102
RTVSPropertyOp5
 70
     1
102
RTVSPropertyOp6
 70
     1
102
RTVSPropertyOp7
 70
     1
102
RTVSPropertyOp8
 70
     1
102
RTVSPropertyOp9
 70
     1
102
RTVSPropertyOp10
 70
     1
102
RTVSPropertyOp11
 70
     1
102
RTVSPropertyOp12
 70
     1
102
RTVSPropertyOp13
 70
     1
102
RTVSPropertyOp14
 70
     1
102
RTVSPropertyOp15
 70
     1
102
RTVSPropertyOp16
 70
     1
102
RTVSPropertyOp17
 70
     1
102
RTVSPropertyOp18
 70
     1
102
RTVSPropertyOp19
 70
     1
102
RTVSPropertyOp20
 70
     1
102
RTVSPropertyOp21
 70
     1
102
RTVSPropertyOp22
 70
     1
102
RTVSPropertyOp23
 70
     1
102
RTVSPropertyOp24
 70
     1
102
RTVSPropertyOp25
 70
     1
102
RTVSPropertyOp26
 70
     1
102
RTVSPropertyOp27
 70
     1
  0
XRECORD
  5
4A98
102
{ACAD_REACTORS
330
4A97
102
}
330
4A97
100
AcDbXrecord
280
     1
102
RTVSPropertyOp0
 70
     0
102
RTVSPropertyOp1
 70
     0
102
RTVSPropertyOp2
 70
     0
102
RTVSPropertyOp3
 70
     0
102
RTVSPropertyOp4
 70
     0
102
RTVSPropertyOp5
 70
     0
102
RTVSPropertyOp6
 70
     0
102
RTVSPropertyOp7
 70
     0
102
RTVSPropertyOp8
 70
     0
102
RTVSPropertyOp9
 70
     0
102
RTVSPropertyOp10
 70
     0
102
RTVSPropertyOp11
 70
     0
102
RTVSPropertyOp12
 70
     0
102
RTVSPropertyOp13
 70
     0
102
RTVSPropertyOp14
 70
     2
102
RTVSPropertyOp15
 70
     0
102
RTVSPropertyOp16
 70
     0
102
RTVSPropertyOp17
 70
     0
102
RTVSPropertyOp18
 70
     0
102
RTVSPropertyOp19
 70
     0
102
RTVSPropertyOp20
 70
     0
102
RTVSPropertyOp21
 70
     0
102
RTVSPropertyOp22
 70
     0
102
RTVSPropertyOp23
 70
     0
102
RTVSPropertyOp24
 70
     0
102
RTVSPropertyOp25
 70
     0
102
RTVSPropertyOp26
 70
     0
102
RTVSPropertyOp27
 70
     0
  0
XRECORD
  5
4A88
102
{ACAD_REACTORS
330
4A87
102
}
330
4A87
100
AcDbXrecord
280
     1
102
RTVSPropertyOp0
 70
     1
102
RTVSPropertyOp1
 70
     1
102
RTVSPropertyOp2
 70
     1
102
RTVSPropertyOp3
 70
     1
102
RTVSPropertyOp4
 70
     1
102
RTVSPropertyOp5
 70
     1
102
RTVSPropertyOp6
 70
     1
102
RTVSPropertyOp7
 70
     1
102
RTVSPropertyOp8
 70
     1
102
RTVSPropertyOp9
 70
     1
102
RTVSPropertyOp10
 70
     1
102
RTVSPropertyOp11
 70
     1
102
RTVSPropertyOp12
 70
     1
102
RTVSPropertyOp13
 70
     1
102
RTVSPropertyOp14
 70
     1
102
RTVSPropertyOp15
 70
     1
102
RTVSPropertyOp16
 70
     1
102
RTVSPropertyOp17
 70
     1
102
RTVSPropertyOp18
 70
     1
102
RTVSPropertyOp19
 70
     1
102
RTVSPropertyOp20
 70
     1
102
RTVSPropertyOp21
 70
     1
102
RTVSPropertyOp22
 70
     1
102
RTVSPropertyOp23
 70
     1
102
RTVSPropertyOp24
 70
     1
102
RTVSPropertyOp25
 70
     1
102
RTVSPropertyOp26
 70
     1
102
RTVSPropertyOp27
 70
     1
  0
XRECORD
  5
4A8E
102
{ACAD_REACTORS
330
4A8D
102
}
330
4A8D
100
AcDbXrecord
280
     1
102
RTVSPropertyOp0
 70
     1
102
RTVSPropertyOp1
 70
     1
102
RTVSPropertyOp2
 70
     1
102
RTVSPropertyOp3
 70
     1
102
RTVSPropertyOp4
 70
     1
102
RTVSPropertyOp5
 70
     1
102
RTVSPropertyOp6
 70
     1
102
RTVSPropertyOp7
 70
     1
102
RTVSPropertyOp8
 70
     1
102
RTVSPropertyOp9
 70
     1
102
RTVSPropertyOp10
 70
     1
102
RTVSPropertyOp11
 70
     1
102
RTVSPropertyOp12
 70
     1
102
RTVSPropertyOp13
 70
     1
102
RTVSPropertyOp14
 70
     1
102
RTVSPropertyOp15
 70
     1
102
RTVSPropertyOp16
 70
     1
102
RTVSPropertyOp17
 70
     1
102
RTVSPropertyOp18
 70
     1
102
RTVSPropertyOp19
 70
     1
102
RTVSPropertyOp20
 70
     1
102
RTVSPropertyOp21
 70
     1
102
RTVSPropertyOp22
 70
     1
102
RTVSPropertyOp23
 70
     1
102
RTVSPropertyOp24
 70
     1
102
RTVSPropertyOp25
 70
     1
102
RTVSPropertyOp26
 70
     1
102
RTVSPropertyOp27
 70
     1
  0
ENDSEC
  0
EOF
