  0
SECTION
  2
HEADER
  9
$ACADVER
  1
AC1018
  9
$ACADMAINTVER
 70
   104
  9
$DWGCODEPAGE
  3
ANSI_1250
  9
$AUTHOR
  1
tmrtka
  9
$LASTSAVEDBY
  1
onovak
  9
$REVISIONNUMBER
  1
000
  9
$CUSTOMPROPERTYTAG
  1
Vedoucí
  9
$CUSTOMPROPERTY
  1

  9
$CUSTOMPROPERTYTAG
  1
Společnost
  9
$CUSTOMPROPERTY
  1

  9
$CUSTOMPROPERTYTAG
  1
Kategorie
  9
$CUSTOMPROPERTY
  1

  9
$CUSTOMPROPERTYTAG
  1
Číslo součásti
  9
$CUSTOMPROPERTY
  1
414726
  9
$CUSTOMPROPERTYTAG
  1
Popis
  9
$CUSTOMPROPERTY
  1

  9
$CUSTOMPROPERTYTAG
  1
Projekt
  9
$CUSTOMPROPERTY
  1

  9
$CUSTOMPROPERTYTAG
  1
Kreslil
  9
$CUSTOMPROPERTY
  1
tmrtka
  9
$CUSTOMPROPERTYTAG
  1
Schválil
  9
$CUSTOMPROPERTY
  1

  9
$CUSTOMPROPERTYTAG
  1
Zodpovídá
  9
$CUSTOMPROPERTY
  1

  9
$CUSTOMPROPERTYTAG
  1
Nákladové středisko
  9
$CUSTOMPROPERTY
  1

  9
$CUSTOMPROPERTYTAG
  1
Dodavatel
  9
$CUSTOMPROPERTY
  1

  9
$CUSTOMPROPERTYTAG
  1
Uživatelský stav
  9
$CUSTOMPROPERTY
  1

  9
$CUSTOMPROPERTYTAG
  1
Stav návrhu
  9
$CUSTOMPROPERTY
  1
Rozpracováno
  9
$CUSTOMPROPERTYTAG
  1
Zkontroloval
  9
$CUSTOMPROPERTY
  1

  9
$CUSTOMPROPERTYTAG
  1
Techn. kontr. schválil
  9
$CUSTOMPROPERTY
  1

  9
$CUSTOMPROPERTYTAG
  1
Výrobu schválil
  9
$CUSTOMPROPERTY
  1

  9
$CUSTOMPROPERTYTAG
  1
VS_First
  9
$CUSTOMPROPERTY
  1

  9
$CUSTOMPROPERTYTAG
  1
VS_All
  9
$CUSTOMPROPERTY
  1
1:1,
  9
$CUSTOMPROPERTYTAG
  1
Model_Mass_Value
  9
$CUSTOMPROPERTY
  1
,0
  9
$CUSTOMPROPERTYTAG
  1
Model_Mass_Units
  9
$CUSTOMPROPERTY
  1
kg
  9
$CUSTOMPROPERTYTAG
  1
Model_Area_Value
  9
$CUSTOMPROPERTY
  1
2694,0
  9
$CUSTOMPROPERTYTAG
  1
Model_Area_Units
  9
$CUSTOMPROPERTY
  1
mm˛
  9
$CUSTOMPROPERTYTAG
  1
Model_Volume_Value
  9
$CUSTOMPROPERTY
  1
5471,0
  9
$CUSTOMPROPERTYTAG
  1
Model_Volume_Units
  9
$CUSTOMPROPERTY
  1
mmł
  9
$CUSTOMPROPERTYTAG
  1
Model_CogX_Value
  9
$CUSTOMPROPERTY
  1
,0
  9
$CUSTOMPROPERTYTAG
  1
Model_CogY_Value
  9
$CUSTOMPROPERTY
  1
,0
  9
$CUSTOMPROPERTYTAG
  1
Model_CogZ_Value
  9
$CUSTOMPROPERTY
  1
,0
  9
$CUSTOMPROPERTYTAG
  1
Model_Cog_Units
  9
$CUSTOMPROPERTY
  1
mm
  9
$CUSTOMPROPERTYTAG
  1
Model_Ixx_Value
  9
$CUSTOMPROPERTY
  1
,0
  9
$CUSTOMPROPERTYTAG
  1
Model_Iyy_Value
  9
$CUSTOMPROPERTY
  1
,0
  9
$CUSTOMPROPERTYTAG
  1
Model_Izz_Value
  9
$CUSTOMPROPERTY
  1
,0
  9
$CUSTOMPROPERTYTAG
  1
Model_Ixy_Value
  9
$CUSTOMPROPERTY
  1
,0
  9
$CUSTOMPROPERTYTAG
  1
Model_Iyz_Value
  9
$CUSTOMPROPERTY
  1
,0
  9
$CUSTOMPROPERTYTAG
  1
Model_Ixz_Value
  9
$CUSTOMPROPERTY
  1
,0
  9
$CUSTOMPROPERTYTAG
  1
Model_MassMom_Units
  9
$CUSTOMPROPERTY
  1
kg mm˛
  9
$CUSTOMPROPERTYTAG
  1
FirstViewScale
  9
$CUSTOMPROPERTY
  1

  9
$CUSTOMPROPERTYTAG
  1
AllViewScales
  9
$CUSTOMPROPERTY
  1

  9
$CUSTOMPROPERTYTAG
  1
SaveDate
  9
$CUSTOMPROPERTY
  1
09/12/2007
  9
$CUSTOMPROPERTYTAG
  1
SaveTime
  9
$CUSTOMPROPERTY
  1
10:32
  9
$CUSTOMPROPERTYTAG
  1
PaperSize
  9
$CUSTOMPROPERTY
  1
A3
  9
$CUSTOMPROPERTYTAG
  1
DateSaved
  9
$CUSTOMPROPERTY
  1
12.09.2007
  9
$CUSTOMPROPERTYTAG
  1
TimeSaved
  9
$CUSTOMPROPERTY
  1
10:32 dop.
  9
$INSBASE
 10
0.0
 20
0.0
 30
0.0
  9
$EXTMIN
 10
-42.69084074614124
 20
-30.69834960666094
 30
-0.0000000000112498
  9
$EXTMAX
 10
321.6859311810615
 20
358.3160202360118
 30
0.0000000000002956
  9
$LIMMIN
 10
0.0
 20
0.0
  9
$LIMMAX
 10
630.0
 20
445.5
  9
$ORTHOMODE
 70
     0
  9
$REGENMODE
 70
     1
  9
$FILLMODE
 70
     1
  9
$QTEXTMODE
 70
     0
  9
$MIRRTEXT
 70
     0
  9
$LTSCALE
 40
1.5
  9
$ATTMODE
 70
     1
  9
$TEXTSIZE
 40
0.2
  9
$TRACEWID
 40
0.05
  9
$TEXTSTYLE
  7
Standard
  9
$CLAYER
  8
0
  9
$CELTYPE
  6
ByLayer
  9
$CECOLOR
 62
   256
  9
$CELTSCALE
 40
1.0
  9
$DISPSILH
 70
     0
  9
$DIMSCALE
 40
1.0
  9
$DIMASZ
 40
1.799999999999999
  9
$DIMEXO
 40
0.0625
  9
$DIMDLI
 40
0.38
  9
$DIMRND
 40
0.0
  9
$DIMDLE
 40
0.0
  9
$DIMEXE
 40
0.18
  9
$DIMTP
 40
0.0
  9
$DIMTM
 40
0.0
  9
$DIMTXT
 40
0.3499999940395355
  9
$DIMCEN
 40
0.09
  9
$DIMTSZ
 40
0.0
  9
$DIMTOL
 70
     0
  9
$DIMLIM
 70
     0
  9
$DIMTIH
 70
     1
  9
$DIMTOH
 70
     1
  9
$DIMSE1
 70
     0
  9
$DIMSE2
 70
     0
  9
$DIMTAD
 70
     0
  9
$DIMZIN
 70
     0
  9
$DIMBLK
  1

  9
$DIMASO
 70
     1
  9
$DIMSHO
 70
     1
  9
$DIMPOST
  1

  9
$DIMAPOST
  1

  9
$DIMALT
 70
     0
  9
$DIMALTD
 70
     2
  9
$DIMALTF
 40
25.4
  9
$DIMLFAC
 40
1.0
  9
$DIMTOFL
 70
     0
  9
$DIMTVP
 40
0.0
  9
$DIMTIX
 70
     0
  9
$DIMSOXD
 70
     0
  9
$DIMSAH
 70
     0
  9
$DIMBLK1
  1

  9
$DIMBLK2
  1

  9
$DIMSTYLE
  2
Standard
  9
$DIMCLRD
 70
     0
  9
$DIMCLRE
 70
     0
  9
$DIMCLRT
 70
     0
  9
$DIMTFAC
 40
1.0
  9
$DIMGAP
 40
0.09
  9
$DIMJUST
 70
     0
  9
$DIMSD1
 70
     0
  9
$DIMSD2
 70
     0
  9
$DIMTOLJ
 70
     1
  9
$DIMTZIN
 70
     0
  9
$DIMALTZ
 70
     0
  9
$DIMALTTZ
 70
     0
  9
$DIMUPT
 70
     0
  9
$DIMDEC
 70
     4
  9
$DIMTDEC
 70
     4
  9
$DIMALTU
 70
     2
  9
$DIMALTTD
 70
     2
  9
$DIMTXSTY
  7
Standard
  9
$DIMAUNIT
 70
     0
  9
$DIMADEC
 70
     0
  9
$DIMALTRND
 40
0.0
  9
$DIMAZIN
 70
     0
  9
$DIMDSEP
 70
    46
  9
$DIMATFIT
 70
     3
  9
$DIMFRAC
 70
     0
  9
$DIMLDRBLK
  1

  9
$DIMLUNIT
 70
     2
  9
$DIMLWD
 70
    -2
  9
$DIMLWE
 70
    -2
  9
$DIMTMOVE
 70
     0
  9
$LUNITS
 70
     2
  9
$LUPREC
 70
     2
  9
$SKETCHINC
 40
0.1
  9
$FILLETRAD
 40
0.0
  9
$AUNITS
 70
     0
  9
$AUPREC
 70
     0
  9
$MENU
  1
.
  9
$ELEVATION
 40
0.0
  9
$PELEVATION
 40
0.0
  9
$THICKNESS
 40
0.0
  9
$LIMCHECK
 70
     0
  9
$CHAMFERA
 40
0.0
  9
$CHAMFERB
 40
0.0
  9
$CHAMFERC
 40
0.0
  9
$CHAMFERD
 40
0.0
  9
$SKPOLY
 70
     0
  9
$TDCREATE
 40
2456105.456620336
  9
$TDUCREATE
 40
2456105.373287002
  9
$TDUPDATE
 40
2456112.482376331
  9
$TDUUPDATE
 40
2456112.399042998
  9
$TDINDWG
 40
0.0016770949
  9
$TDUSRTIMER
 40
0.0016770949
  9
$USRTIMER
 70
     1
  9
$ANGBASE
 50
0.0
  9
$ANGDIR
 70
     0
  9
$PDMODE
 70
     0
  9
$PDSIZE
 40
0.0
  9
$PLINEWID
 40
0.0
  9
$SPLFRAME
 70
     0
  9
$SPLINETYPE
 70
     6
  9
$SPLINESEGS
 70
     8
  9
$HANDSEED
  5
1051
  9
$SURFTAB1
 70
     6
  9
$SURFTAB2
 70
     6
  9
$SURFTYPE
 70
     6
  9
$SURFU
 70
     6
  9
$SURFV
 70
     6
  9
$UCSBASE
  2

  9
$UCSNAME
  2

  9
$UCSORG
 10
0.0
 20
0.0
 30
0.0
  9
$UCSXDIR
 10
1.0
 20
0.0
 30
0.0
  9
$UCSYDIR
 10
0.0
 20
1.0
 30
0.0
  9
$UCSORTHOREF
  2

  9
$UCSORTHOVIEW
 70
     0
  9
$UCSORGTOP
 10
0.0
 20
0.0
 30
0.0
  9
$UCSORGBOTTOM
 10
0.0
 20
0.0
 30
0.0
  9
$UCSORGLEFT
 10
0.0
 20
0.0
 30
0.0
  9
$UCSORGRIGHT
 10
0.0
 20
0.0
 30
0.0
  9
$UCSORGFRONT
 10
0.0
 20
0.0
 30
0.0
  9
$UCSORGBACK
 10
0.0
 20
0.0
 30
0.0
  9
$PUCSBASE
  2

  9
$PUCSNAME
  2

  9
$PUCSORG
 10
0.0
 20
0.0
 30
0.0
  9
$PUCSXDIR
 10
1.0
 20
0.0
 30
0.0
  9
$PUCSYDIR
 10
0.0
 20
1.0
 30
0.0
  9
$PUCSORTHOREF
  2

  9
$PUCSORTHOVIEW
 70
     0
  9
$PUCSORGTOP
 10
0.0
 20
0.0
 30
0.0
  9
$PUCSORGBOTTOM
 10
0.0
 20
0.0
 30
0.0
  9
$PUCSORGLEFT
 10
0.0
 20
0.0
 30
0.0
  9
$PUCSORGRIGHT
 10
0.0
 20
0.0
 30
0.0
  9
$PUCSORGFRONT
 10
0.0
 20
0.0
 30
0.0
  9
$PUCSORGBACK
 10
0.0
 20
0.0
 30
0.0
  9
$USERI1
 70
     0
  9
$USERI2
 70
     0
  9
$USERI3
 70
     0
  9
$USERI4
 70
     0
  9
$USERI5
 70
     0
  9
$USERR1
 40
0.0
  9
$USERR2
 40
0.0
  9
$USERR3
 40
0.0
  9
$USERR4
 40
0.0
  9
$USERR5
 40
0.0
  9
$WORLDVIEW
 70
     1
  9
$SHADEDGE
 70
     3
  9
$SHADEDIF
 70
    70
  9
$TILEMODE
 70
     1
  9
$MAXACTVP
 70
    64
  9
$PINSBASE
 10
0.0
 20
0.0
 30
0.0
  9
$PLIMCHECK
 70
     0
  9
$PEXTMIN
 10
0.0
 20
0.0
 30
0.0
  9
$PEXTMAX
 10
630.0
 20
445.5
 30
0.0
  9
$PLIMMIN
 10
0.0
 20
0.0
  9
$PLIMMAX
 10
630.0
 20
445.5
  9
$UNITMODE
 70
     0
  9
$VISRETAIN
 70
     1
  9
$PLINEGEN
 70
     0
  9
$PSLTSCALE
 70
     1
  9
$TREEDEPTH
 70
  3020
  9
$CMLSTYLE
  2
Standard
  9
$CMLJUST
 70
     0
  9
$CMLSCALE
 40
1.0
  9
$PROXYGRAPHICS
 70
     1
  9
$MEASUREMENT
 70
     1
  9
$CELWEIGHT
370
    -1
  9
$ENDCAPS
280
     0
  9
$JOINSTYLE
280
     0
  9
$LWDISPLAY
290
     0
  9
$INSUNITS
 70
     4
  9
$HYPERLINKBASE
  1

  9
$STYLESHEET
  1

  9
$XEDIT
290
     1
  9
$CEPSNTYPE
380
     0
  9
$PSTYLEMODE
290
     1
  9
$FINGERPRINTGUID
  2
{992F96A4-2CF0-4364-934A-AE4355447350}
  9
$VERSIONGUID
  2
{AB409D18-B947-4014-96A5-40A369D1DF0D}
  9
$EXTNAMES
290
     1
  9
$PSVPSCALE
 40
0.0
  9
$OLESTARTUP
290
     0
  9
$SORTENTS
280
   127
  9
$INDEXCTL
280
     0
  9
$HIDETEXT
280
     1
  9
$XCLIPFRAME
290
     0
  9
$HALOGAP
280
     0
  9
$OBSCOLOR
 70
   257
  9
$OBSLTYPE
280
     0
  9
$INTERSECTIONDISPLAY
280
     0
  9
$INTERSECTIONCOLOR
 70
   257
  9
$DIMASSOC
280
     1
  9
$PROJECTNAME
  1

  0
ENDSEC
  0
SECTION
  2
CLASSES
  0
CLASS
  1
ACDBDICTIONARYWDFLT
  2
AcDbDictionaryWithDefault
  3
ObjectDBX Classes
 90
        0
 91
        1
280
     0
281
     0
  0
CLASS
  1
MATERIAL
  2
AcDbMaterial
  3
ObjectDBX Classes
 90
     1153
 91
        3
280
     0
281
     0
  0
CLASS
  1
VISUALSTYLE
  2
AcDbVisualStyle
  3
ObjectDBX Classes
 90
     4095
 91
       26
280
     0
281
     0
  0
CLASS
  1
SCALE
  2
AcDbScale
  3
ObjectDBX Classes
 90
     1153
 91
       17
280
     0
281
     0
  0
CLASS
  1
TABLESTYLE
  2
AcDbTableStyle
  3
ObjectDBX Classes
 90
     4095
 91
        1
280
     0
281
     0
  0
CLASS
  1
MLEADERSTYLE
  2
AcDbMLeaderStyle
  3
ACDB_MLEADERSTYLE_CLASS
 90
     4095
 91
        1
280
     0
281
     0
  0
CLASS
  1
DICTIONARYVAR
  2
AcDbDictionaryVar
  3
ObjectDBX Classes
 90
        0
 91
       10
280
     0
281
     0
  0
CLASS
  1
ACME_DOCUMENT
  2
AcMeDbDoc
  3
AcMeServices
 90
     1024
 91
        1
280
     0
281
     0
  0
CLASS
  1
AMGSETTINGSOBJ
  2
AmgSettingsObj
  3
"AcadM|Product Description: AutoCAD Mechanical|Company: Autodesk, Inc."
 90
     1024
 91
        2
280
     0
281
     0
  0
CLASS
  1
ACMESCOPE
  2
AcMeScope
  3
AcMeServices
 90
     1024
 91
        1
280
     0
281
     0
  0
CLASS
  1
ACMECOMMANDHISTORY
  2
AcMeCommandHistory
  3
AcMeServices
 90
     1024
 91
        1
280
     0
281
     0
  0
CLASS
  1
ACIMSYSVARMAN
  2
AcImSysVarManager
  3
AcMeServices
 90
     1024
 91
        5
280
     0
281
     0
  0
CLASS
  1
ACIMINTSYSVAR
  2
AcImIntSysVar
  3
AcMeServices
 90
     1024
 91
       27
280
     0
281
     0
  0
CLASS
  1
ACMEDRAWINGMAN
  2
AcMeDrawingMan
  3
AcMeServices
 90
     1024
 91
        1
280
     0
281
     0
  0
CLASS
  1
ACMEVIEW
  2
AcMeView
  3
AcMeServices
 90
     1024
 91
        1
280
     0
281
     0
  0
CLASS
  1
ACDBENTITYCACHE
  2
AcMeEntityCache
  3
AcMeServices
 90
     1024
 91
        1
280
     0
281
     0
  0
CLASS
  1
ACMESTATEMGR
  2
AcMeStateMgr
  3
AcMeServices
 90
     1024
 91
        1
280
     0
281
     0
  0
CLASS
  1
ACGREFMASTER
  2
AcGrefMaster
  3
AcAttribServices
 90
     1024
 91
        1
280
     0
281
     0
  0
CLASS
  1
AM_DRAWING_MGR
  2
AcDmDwgMgr
  3
AcMechDwgViewMgmt
 90
     1024
 91
        1
280
     0
281
     0
  0
CLASS
  1
AM_DWG_DOCUMENT
  2
AcDmDwgDocument
  3
AcMechDwgViewMgmt
 90
     1024
 91
        1
280
     0
281
     0
  0
CLASS
  1
AM_DWG_SHEET
  2
AcDmSheet
  3
AcMechDwgViewMgmt
 90
     1024
 91
        2
280
     0
281
     0
  0
CLASS
  1
AM_VIEWDIMPARMAP
  2
AcDmViewDimParMap
  3
AcMechDwgViewMgmt
 90
     1024
 91
        2
280
     0
281
     0
  0
CLASS
  1
AMDTINTERNALREACTOR
  2
AmdtInternalReactor
  3
AcMeServices
 90
     1024
 91
        1
280
     0
281
     0
  0
CLASS
  1
ACIMREALSYSVAR
  2
AcImRealSysVar
  3
AcMeServices
 90
     1024
 91
        1
280
     0
281
     0
  0
CLASS
  1
AM_DWGMGR_NAME
  2
AcDmDwgMgrName
  3
AcMechDwgViewMgmt
 90
     1024
 91
        1
280
     0
281
     0
  0
CLASS
  1
ACME_DATABASE
  2
AcMeDbDatabase
  3
AcMeServices
 90
     1024
 91
        1
280
     0
281
     0
  0
CLASS
  1
ACRFINSADJUSTERMGR
  2
AcRfInsAdjusterMgr
  3
AcMeServices
 90
     1024
 91
        1
280
     0
281
     0
  0
CLASS
  1
ACGREFACADMASTER
  2
AcGrefacadMaster
  3
AcGrefServices
 90
     1024
 91
        1
280
     0
281
     0
  0
CLASS
  1
AMDTMENUSTATEMGR
  2
AmdtMenuStateMgr
  3
McadcomServices
 90
     1024
 91
        1
280
     0
281
     0
  0
CLASS
  1
AMDTMCOMMENUSTATE
  2
AmdtMcomMenuState
  3
McadcomServices
 90
     1024
 91
        1
280
     0
281
     0
  0
CLASS
  1
AMIMASTER
  2
AmiMaster
  3
AmiServices
 90
     1024
 91
        1
280
     0
281
     0
  0
CLASS
  1
MAPIAMMOUDLE
  2
MApiAmModule
  3
MApiAmServices
 90
     1024
 91
        1
280
     0
281
     0
  0
CLASS
  1
ACIMSTRSYSVAR
  2
AcImStrSysVar
  3
AcMeServices
 90
     1024
 91
        5
280
     0
281
     0
  0
CLASS
  1
AMDTADMENUSTATE
  2
AmdtAdMenuState
  3
DesignerServices
 90
     1024
 91
        1
280
     0
281
     0
  0
CLASS
  1
ADAPPL
  2
AcAdAppl
  3
DesignerServices
 90
     1024
 91
        1
280
     0
281
     0
  0
CLASS
  1
DEPMGR
  2
AcAdDepMgr
  3
DesignerServices
 90
     1024
 91
        1
280
     0
281
     0
  0
CLASS
  1
PARAMMGR
  2
AcAdParamMgr
  3
DesignerServices
 90
     1024
 91
        1
280
     0
281
     0
  0
CLASS
  1
PARAMSCOPE
  2
AcAdParamScope
  3
DesignerServices
 90
     1024
 91
        1
280
     0
281
     0
  0
CLASS
  1
NAMEDAPPL
  2
AcAdNamedAppl
  3
DesignerServices
 90
     1024
 91
        1
280
     0
281
     0
  0
CLASS
  1
AMDTDMMENUSTATE
  2
AmdtDmMenuState
  3
AcMechDwgViewMgmt
 90
     1024
 91
        1
280
     0
281
     0
  0
CLASS
  1
AMDTAMMENUSTATE
  2
AmdtAmMenuState
  3
DesignerAssemblies
 90
     1024
 91
        1
280
     0
281
     0
  0
CLASS
  1
ACAMPROJECT
  2
AcAmProject
  3
DesignerAssemblies
 90
     1024
 91
        1
280
     0
281
     0
  0
CLASS
  1
ACAMGRCOMPDEF
  2
AcAmGrCompDef
  3
DesignerAssemblies
 90
     1024
 91
        1
280
     0
281
     0
  0
CLASS
  1
ACAMCOMPDEF
  2
AcAmCompDef
  3
DesignerAssemblies
 90
     1024
 91
        1
280
     0
281
     0
  0
CLASS
  1
ACAMCOMPDEFMGR
  2
AcAmCompDefMgr
  3
DesignerAssemblies
 90
     1024
 91
        1
280
     0
281
     0
  0
CLASS
  1
AMCONTEXTMGR
  2
AcAmContextMgr
  3
DesignerAssemblies
 90
     1024
 91
        1
280
     0
281
     0
  0
CLASS
  1
ACAMCONTEXTMODELER
  2
AcAmContextModeler
  3
DesignerAssemblies
 90
     1024
 91
        1
280
     0
281
     0
  0
CLASS
  1
ACMDATADICTIONARY
  2
AcmDataDictionary
  3
"AcmSymBB|Product Description: AutoCAD Mechanical|Company: Autodesk, Inc."
 90
     1024
 91
        1
280
     0
281
     0
  0
CLASS
  1
CATALOGSTATE
  2
AcAmCatalogState
  3
DesignerAssemblies
 90
     1024
 91
        1
280
     0
281
     0
  0
CLASS
  1
ACAMGRCOMPDEFSET
  2
AcAmGrCompDefSet
  3
DesignerAssemblies
 90
     1024
 91
        1
280
     0
281
     0
  0
CLASS
  1
AMDTBROWSERDBTAB
  2
AmdtBrowserDbTab
  3
McadcomServices
 90
     1024
 91
        1
280
     0
281
     0
  0
CLASS
  1
CBROWSERAPPOBJECT
  2
CBrowserAppObject
  3
McadcomServices
 90
     1024
 91
        2
280
     0
281
     0
  0
CLASS
  1
DM_PLACEHOLDER
  2
AcDmSelsetPlaceholder
  3
AcMechDwgViewMgmt
 90
     1024
 91
        1
280
     0
281
     0
  0
CLASS
  1
ACMSTANDARDISO
  2
AcmStandardISO
  3
"Amdt_StdImp|Product Description: AutoCAD Mechanical|Company: Autodesk, Inc."
 90
     1024
 91
        1
280
     0
281
     0
  0
CLASS
  1
AMDTEDGESTANDARDISO13715
  2
AmdtEdgeStdISO13715
  3
"Amdt_StdImp|Product Description: AutoCAD Mechanical|Company: Autodesk, Inc."
 90
     1024
 91
        1
280
     0
281
     0
  0
CLASS
  1
ACMSURFSTANDARDISO2002
  2
AcmSurfTextStdISO2002
  3
"Amdt_StdImp|Product Description: AutoCAD Mechanical|Company: Autodesk, Inc."
 90
     1024
 91
        1
280
     0
281
     0
  0
CLASS
  1
ACMFCFSTANDARDISO
  2
AcmFCFStdISO
  3
"Amdt_StdImp|Product Description: AutoCAD Mechanical|Company: Autodesk, Inc."
 90
     1024
 91
        1
280
     0
281
     0
  0
CLASS
  1
ACMWELDSTANDARDISO
  2
AcmWeldingStdISO
  3
"Amdt_StdImp|Product Description: AutoCAD Mechanical|Company: Autodesk, Inc."
 90
     1024
 91
        1
280
     0
281
     0
  0
CLASS
  1
ACMIDSTANDARDISO
  2
AcmIdStdISO
  3
"Amdt_StdImp|Product Description: AutoCAD Mechanical|Company: Autodesk, Inc."
 90
     1024
 91
        1
280
     0
281
     0
  0
CLASS
  1
ACMDATUMSTANDARDISO
  2
AcmDatumStdISO
  3
"Amdt_StdImp|Product Description: AutoCAD Mechanical|Company: Autodesk, Inc."
 90
     1024
 91
        1
280
     0
281
     0
  0
CLASS
  1
ACMBOMSTANDARDISO
  2
AcmBOMStdISO
  3
"Amdt_StdImp|Product Description: AutoCAD Mechanical|Company: Autodesk, Inc."
 90
     1024
 91
        1
280
     0
281
     0
  0
CLASS
  1
ACMDETAILSTANDARDISO
  2
AmdtDetailSymStdISO
  3
"Amdt_StdImp|Product Description: AutoCAD Mechanical|Company: Autodesk, Inc."
 90
     1024
 91
        1
280
     0
281
     0
  0
CLASS
  1
ACMSECTIONSTANDARDISO2001
  2
AmdtSectionSymStdISO2001
  3
"Amdt_StdImp|Product Description: AutoCAD Mechanical|Company: Autodesk, Inc."
 90
     1024
 91
        1
280
     0
281
     0
  0
CLASS
  1
ACMCENTERLINESTANDARDISO
  2
AmdtCenterLineStdISO
  3
"Amdt_StdImp|Product Description: AutoCAD Mechanical|Company: Autodesk, Inc."
 90
     1024
 91
        1
280
     0
281
     0
  0
CLASS
  1
ACMTHREADLINESTANDARDISO
  2
AmdtThreadLineStdISO
  3
"Amdt_StdImp|Product Description: AutoCAD Mechanical|Company: Autodesk, Inc."
 90
     1024
 91
        1
280
     0
281
     0
  0
CLASS
  1
ACMNOTESTANDARDISO
  2
AmdtNoteStdISO
  3
"Amdt_StdImp|Product Description: AutoCAD Mechanical|Company: Autodesk, Inc."
 90
     1024
 91
        1
280
     0
281
     0
  0
CLASS
  1
ACMTAPERSTANDARDISO
  2
AcmTaperStdISO
  3
"Amdt_StdImp|Product Description: AutoCAD Mechanical|Company: Autodesk, Inc."
 90
     1024
 91
        1
280
     0
281
     0
  0
CLASS
  1
ACMANOOTATIONVIEWSTANDARDISO
  2
AmdtAnViewStdISO
  3
"Amdt_StdImp|Product Description: AutoCAD Mechanical|Company: Autodesk, Inc."
 90
     1024
 91
        1
280
     0
281
     0
  0
CLASS
  1
ACAMGLAYSTD
  2
AcAmgLayStd
  3
"AmgLay|Product Description: AutoCAD Mechanical|Company: Autodesk, Inc."
 90
     1024
 91
        1
280
     0
281
     0
  0
CLASS
  1
ACAMGDIMSTD
  2
AcAmgDimStd
  3
"AmgDim|Product Description: AutoCAD Mechanical|Company: Autodesk, Inc."
 90
     1024
 91
        1
280
     0
281
     0
  0
CLASS
  1
AMGOBJPROPCFG
  2
AmgObjPropCfg
  3
"AmgLay|Product Description: AutoCAD Mechanical|Company: Autodesk, Inc."
 90
     1025
 91
        1
280
     0
281
     0
  0
CLASS
  1
ACAMGHOLECHARTSTDISO
  2
AcAmgHoleChartStdISO
  3
AmgDim|Product Description: AutoCAD Mechanical|Company: Autodesk, Inc.
 90
     1024
 91
        1
280
     0
281
     0
  0
CLASS
  1
ACAMGTITLESTD
  2
AcAmgTitleStd
  3
"AmgTitle|Product Description: AutoCAD Mechanical|Company: Autodesk, Inc."
 90
     4095
 91
        1
280
     0
281
     0
  0
CLASS
  1
AMDTNOTETEMPLATEDB
  2
AmdtNoteTemplateDB
  3
AcmSymBB|Product Description: AutoCAD Mechanical|Company: Autodesk, Inc.
 90
     1024
 91
        6
280
     0
281
     0
  0
CLASS
  1
ACAMGFILTERDAT
  2
AcAmgFilterDat
  3
"AcadM|Product Description: AutoCAD Mechanical|Company: Autodesk, Inc."
 90
     1024
 91
        0
280
     0
281
     0
  0
CLASS
  1
AEC_REFEDIT_STATUS_TRACKER
  2
AecDbRefEditStatusTracker
  3
AecArchBase60|Product Desc: Autodesk Architectural Desktop 2007 |Company: Autodesk,Inc. |WEB Address: www.autodesk.com
 90
      129
 91
        0
280
     0
281
     0
  0
CLASS
  1
NPOCOLLECTION
  2
AcDbImpNonPersistentObjectsCollection
  3
ObjectDBX Classes
 90
     1153
 91
        0
280
     0
281
     0
  0
CLASS
  1
CELLSTYLEMAP
  2
AcDbCellStyleMap
  3
ObjectDBX Classes
 90
     1152
 91
        2
280
     0
281
     0
  0
ENDSEC
  0
SECTION
  2
TABLES
  0
TABLE
  2
VPORT
  5
8
330
0
100
AcDbSymbolTable
 70
     1
  0
VPORT
  5
57
330
8
100
AcDbSymbolTableRecord
100
AcDbViewportTableRecord
  2
*Active
 70
     0
 10
0.0
 20
0.0
 11
1.0
 21
1.0
 12
139.4975452174601
 22
163.8088353146754
 13
0.0
 23
0.0
 14
1.0
 24
1.0
 15
0.0
 25
0.0
 16
0.0
 26
0.0
 36
1.0
 17
0.0
 27
0.0
 37
0.0
 40
391.5107187400589
 41
1.576017130620984
 42
50.0
 43
0.0
 44
0.0
 50
0.0
 51
0.0
 71
     0
 72
   100
 73
     1
 74
     1
 75
     0
 76
     0
 77
     0
 78
     0
281
     0
 65
     0
110
0.0
120
0.0
130
0.0
111
1.0
121
0.0
131
0.0
112
0.0
122
1.0
132
0.0
 79
     0
146
0.0
  0
ENDTAB
  0
TABLE
  2
LTYPE
  5
5
330
0
100
AcDbSymbolTable
 70
    15
  0
LTYPE
  5
5B
330
5
100
AcDbSymbolTableRecord
100
AcDbLinetypeTableRecord
  2
ByBlock
 70
     0
  3

 72
    65
 73
     0
 40
0.0
  0
LTYPE
  5
5C
330
5
100
AcDbSymbolTableRecord
100
AcDbLinetypeTableRecord
  2
ByLayer
 70
     0
  3

 72
    65
 73
     0
 40
0.0
  0
LTYPE
  5
5D
330
5
100
AcDbSymbolTableRecord
100
AcDbLinetypeTableRecord
  2
Continuous
 70
     0
  3
Solid line
 72
    65
 73
     0
 40
0.0
  0
LTYPE
  5
B4B
330
5
100
AcDbSymbolTableRecord
100
AcDbLinetypeTableRecord
  2
HIDDEN
 70
     0
  3
Skrytá __ __ __ __ __ __ __ __ __ __ __ __ __ __
 72
    65
 73
     2
 40
9.525
 49
6.349999999999997
 74
     0
 49
-3.174999999999998
 74
     0
  0
LTYPE
  5
B4C
330
5
100
AcDbSymbolTableRecord
100
AcDbLinetypeTableRecord
  2
PHANTOM2
 70
     0
  3
Sdružená (.5x) ___ _ _ ___ _ _ ___ _ _ ___ _ _
 72
    65
 73
     6
 40
31.75
 49
15.875
 74
     0
 49
-3.174999999999998
 74
     0
 49
3.174999999999998
 74
     0
 49
-3.174999999999998
 74
     0
 49
3.174999999999998
 74
     0
 49
-3.174999999999998
 74
     0
  0
LTYPE
  5
B4D
330
5
100
AcDbSymbolTableRecord
100
AcDbLinetypeTableRecord
  2
CENTER
 70
     0
  3
Středová ____ _ ____ _ ____ _ ____ _ ____ _ ____
 72
    65
 73
     4
 40
50.8
 49
31.75
 74
     0
 49
-6.349999999999997
 74
     0
 49
6.349999999999997
 74
     0
 49
-6.349999999999997
 74
     0
  0
LTYPE
  5
B93
330
5
100
AcDbSymbolTableRecord
100
AcDbLinetypeTableRecord
  2
AM_ISO02W050
 70
     0
  3
__ __ __ __ __ __ __ __ __ __ __ __ __ __ __
 72
    65
 73
     2
 40
7.5
 49
6.0
 74
     0
 49
-1.5
 74
     0
  0
LTYPE
  5
B94
330
5
100
AcDbSymbolTableRecord
100
AcDbLinetypeTableRecord
  2
AM_ISO08W050
 70
     0
  3
____ . ____ . ____ . ____ . ____ . ____ . ____
 72
    65
 73
     4
 40
18.0
 49
12.0
 74
     0
 49
-1.5
 74
     0
 49
3.0
 74
     0
 49
-1.5
 74
     0
  0
LTYPE
  5
B95
330
5
100
AcDbSymbolTableRecord
100
AcDbLinetypeTableRecord
  2
AM_ISO09W050
 70
     0
  3
_____ . . _____ . . _____ . . ____ .. ____
 72
    65
 73
     6
 40
22.5
 49
12.0
 74
     0
 49
-1.5
 74
     0
 49
3.0
 74
     0
 49
-1.5
 74
     0
 49
3.0
 74
     0
 49
-1.5
 74
     0
  0
LTYPE
  5
B96
330
5
100
AcDbSymbolTableRecord
100
AcDbLinetypeTableRecord
  2
Amconstr
 70
     0
  3
_______________________
 72
    65
 73
     2
 40
9999.0
 49
9999.0
 74
     0
 49
0.0
 74
     0
  0
LTYPE
  5
B97
330
5
100
AcDbSymbolTableRecord
100
AcDbLinetypeTableRecord
  2
AM_ISO08W050x2
 70
     0
  3
__ . __ . __ . __ . __ . __
 72
    65
 73
     4
 40
9.0
 49
6.0
 74
     0
 49
-0.75
 74
     0
 49
1.5
 74
     0
 49
-0.75
 74
     0
  0
LTYPE
  5
B98
330
5
100
AcDbSymbolTableRecord
100
AcDbLinetypeTableRecord
  2
AM_ISO02W050x2
 70
     0
  3
 _ _ _ _ _ _ _ _ _ _ _ _
 72
    65
 73
     2
 40
3.75
 49
3.0
 74
     0
 49
-0.75
 74
     0
  0
LTYPE
  5
B9B
330
5
100
AcDbSymbolTableRecord
100
AcDbLinetypeTableRecord
  2
Amzigzag
 70
     0
  3
/\/-/\/-/\/-/\/-/\/-/\/
 72
    65
 73
     2
 40
11.0001
 49
0.0001
 74
     4
 75
   136
340
B9A
 46
0.04
 50
0.0
 44
0.0
 45
0.0
 49
-11.0
 74
     0
  0
LTYPE
  5
BAA
330
5
100
AcDbSymbolTableRecord
100
AcDbLinetypeTableRecord
  2
ACISOWELD
 70
     0
  3
_ _ _ _ _
 72
    65
 73
     2
 40
2.0
 49
2.0
 74
     0
 49
-1.0
 74
     0
  0
LTYPE
  5
BAB
330
5
100
AcDbSymbolTableRecord
100
AcDbLinetypeTableRecord
  2
ACISOTGB
 70
     0
  3
__ . . __ . .
 72
    65
 73
     6
 40
9.0
 49
4.0
 74
     0
 49
-1.0
 74
     0
 49
1.0
 74
     0
 49
-1.0
 74
     0
 49
1.0
 74
     0
 49
-1.0
 74
     0
  0
LTYPE
  5
BAC
330
5
100
AcDbSymbolTableRecord
100
AcDbLinetypeTableRecord
  2
ACISOTGL
 70
     0
  3
_ _ _ _ _
 72
    65
 73
     2
 40
3.0
 49
2.0
 74
     0
 49
-1.0
 74
     0
  0
LTYPE
  5
C0F
330
5
100
AcDbSymbolTableRecord
100
AcDbLinetypeTableRecord
  2
GEN7
 70
     0
  3
____ . ____ . ____ . ____ . ____ . ____ . ____
 72
    65
 73
     4
 40
13.75
 49
10.0
 74
     0
 49
-1.25
 74
     0
 49
1.25
 74
     0
 49
-1.25
 74
     0
  0
ENDTAB
  0
TABLE
  2
LAYER
  5
2
102
{ACAD_XDICTIONARY
360
C17
102
}
330
0
100
AcDbSymbolTable
 70
    17
  0
LAYER
  5
54
330
2
100
AcDbSymbolTableRecord
100
AcDbLayerTableRecord
  2
0
 70
     0
 62
     7
  6
Continuous
370
    -3
390
F
  0
LAYER
  5
78
330
2
100
AcDbSymbolTableRecord
100
AcDbLayerTableRecord
  2
Geometrie náčrtu (ISO)
 70
     0
 62
     7
  6
Continuous
370
     9
390
F
  0
LAYER
  5
79
330
2
100
AcDbSymbolTableRecord
100
AcDbLayerTableRecord
  2
KOPF
 70
     0
 62
     8
420
  8421504
  6
Continuous
370
     9
390
F
  0
LAYER
  5
7A
330
2
100
AcDbSymbolTableRecord
100
AcDbLayerTableRecord
  2
Kóta (ISO)
 70
     0
 62
     5
420
      255
  6
Continuous
370
     9
390
F
  0
LAYER
  5
7B
330
2
100
AcDbSymbolTableRecord
100
AcDbLayerTableRecord
  2
Nadpis (ISO)
 70
     0
 62
     7
  6
Continuous
370
    18
390
F
  0
LAYER
  5
7D
330
2
100
AcDbSymbolTableRecord
100
AcDbLayerTableRecord
  2
Osa (ISO)
 70
     0
 62
     1
420
 16711680
  6
Continuous
370
     9
390
F
  0
LAYER
  5
85
330
2
100
AcDbSymbolTableRecord
100
AcDbLayerTableRecord
  2
Rámeček (ISO)
 70
     0
 62
     7
  6
Continuous
370
    35
390
F
  0
LAYER
  5
88
330
2
100
AcDbSymbolTableRecord
100
AcDbLayerTableRecord
  2
Skrytá (ISO)
 70
     0
 62
   142
420
    32960
  6
Continuous
370
     9
390
F
  0
LAYER
  5
89
330
2
100
AcDbSymbolTableRecord
100
AcDbLayerTableRecord
  2
Středová značka (ISO)
 70
     0
 62
     1
420
 16711680
  6
Continuous
370
     9
390
F
  0
LAYER
  5
8B
330
2
100
AcDbSymbolTableRecord
100
AcDbLayerTableRecord
  2
TEXT35
 70
     0
 62
    12
420
 13369344
  6
Continuous
370
    20
390
F
  0
LAYER
  5
8C
330
2
100
AcDbSymbolTableRecord
100
AcDbLayerTableRecord
  2
TEXT50
 70
     0
 62
     7
  6
Continuous
370
    20
390
F
  0
LAYER
  5
8D
330
2
100
AcDbSymbolTableRecord
100
AcDbLayerTableRecord
  2
Viditelná (ISO)
 70
     0
 62
     7
  6
Continuous
370
    35
390
F
  0
LAYER
  5
8E
330
2
100
AcDbSymbolTableRecord
100
AcDbLayerTableRecord
  2
Viditelná tenká (ISO)
 70
     0
 62
     7
  6
Continuous
370
     9
390
F
  0
LAYER
  5
8F
330
2
100
AcDbSymbolTableRecord
100
AcDbLayerTableRecord
  2
Značka (ISO)
 70
     0
 62
     5
420
      255
  6
Continuous
370
     9
390
F
  0
LAYER
  5
570
330
2
100
AcDbSymbolTableRecord
100
AcDbLayerTableRecord
  2
Defpoints
 70
     0
 62
     7
  6
Continuous
290
     0
370
    -3
390
F
  0
LAYER
  5
C10
102
{ACAD_XDICTIONARY
360
C11
102
}
330
2
100
AcDbSymbolTableRecord
100
AcDbLayerTableRecord
  2
7
 70
     0
 62
     4
  6
GEN7
370
    -3
390
F
  0
LAYER
  5
C12
102
{ACAD_XDICTIONARY
360
C13
102
}
330
2
100
AcDbSymbolTableRecord
100
AcDbLayerTableRecord
  2
5
 70
     0
 62
     3
  6
Continuous
370
    -3
390
F
  0
ENDTAB
  0
TABLE
  2
STYLE
  5
3
330
0
100
AcDbSymbolTable
 70
    21
  0
STYLE
  5
55
330
3
100
AcDbSymbolTableRecord
100
AcDbTextStyleTableRecord
  2
Standard
 70
     0
 40
0.0
 41
1.0
 50
0.0
 71
     0
 42
0.2
  3
TAHOMA.TTF
  4

1001
ACAD
1000
Tahoma
1071
      256
  0
STYLE
  5
5A
330
3
100
AcDbSymbolTableRecord
100
AcDbTextStyleTableRecord
  2
Annotative
 70
     0
 40
0.0
 41
1.0
 50
0.0
 71
     0
 42
0.2
  3
txt
  4

1001
AcadAnnotative
1000
AnnotativeData
1002
{
1070
     1
1070
     1
1002
}
  0
STYLE
  5
90
330
3
100
AcDbSymbolTableRecord
100
AcDbTextStyleTableRecord
  2
ITALICC8_57
 70
     0
 40
0.0
 41
1.0
 50
0.0
 71
     0
 42
0.2
  3
TAHOMA.TTF
  4

1001
ACAD
1000
Tahoma
1071
      256
  0
STYLE
  5
91
330
3
100
AcDbSymbolTableRecord
100
AcDbTextStyleTableRecord
  2
kusovnik
 70
     0
 40
0.0
 41
1.0
 50
0.0
 71
     0
 42
0.2
  3
ARIAL.TTF
  4

1001
ACAD
1000
Arial
1071
      256
  0
STYLE
  5
92
330
3
100
AcDbSymbolTableRecord
100
AcDbTextStyleTableRecord
  2
ROMANS8_69
 70
     0
 40
0.0
 41
1.0
 50
0.0
 71
     0
 42
0.2
  3
TAHOMA.TTF
  4

1001
ACAD
1000
Tahoma
1071
      256
  0
STYLE
  5
93
330
3
100
AcDbSymbolTableRecord
100
AcDbTextStyleTableRecord
  2
Text popisu (ISO)
 70
     0
 40
0.0
 41
1.0
 50
0.0
 71
     0
 42
0.2
  3
TAHOMA.TTF
  4

1001
ACAD
1000
Tahoma
1071
      256
  0
STYLE
  5
94
330
3
100
AcDbSymbolTableRecord
100
AcDbTextStyleTableRecord
  2
Text poznámky (DIN)
 70
     0
 40
0.0
 41
1.0
 50
0.0
 71
     0
 42
0.2
  3
isocpeur.ttf
  4

1001
ACAD
1000
ISOCPEUR
1071
      256
  0
STYLE
  5
95
330
3
100
AcDbSymbolTableRecord
100
AcDbTextStyleTableRecord
  2
Text poznámky (ISO)
 70
     0
 40
0.0
 41
1.0
 50
0.0
 71
     0
 42
0.2
  3
TAHOMA.TTF
  4

1001
ACAD
1000
Tahoma
1071
      256
  0
STYLE
  5
96
330
3
100
AcDbSymbolTableRecord
100
AcDbTextStyleTableRecord
  2
TEXT20_41
 70
     0
 40
0.0
 41
1.0
 50
0.0
 71
     0
 42
0.2
  3
TAHOMA.TTF
  4

1001
ACAD
1000
Tahoma
1071
      256
  0
STYLE
  5
97
330
3
100
AcDbSymbolTableRecord
100
AcDbTextStyleTableRecord
  2
TEXT20_59
 70
     0
 40
0.0
 41
1.0
 50
0.0
 71
     0
 42
0.2
  3
TAHOMA.TTF
  4

1001
ACAD
1000
Tahoma
1071
      256
  0
STYLE
  5
1D7
330
3
100
AcDbSymbolTableRecord
100
AcDbTextStyleTableRecord
  2
Styl textu62
 70
     0
 40
0.0
 41
0.8000000119209289
 50
0.0
 71
     0
 42
0.2
  3
TAHOMA.TTF
  4

1001
ACAD
1000
Tahoma
1071
      256
  0
STYLE
  5
1DE
330
3
100
AcDbSymbolTableRecord
100
AcDbTextStyleTableRecord
  2
Styl textu58
 70
     0
 40
0.0
 41
0.8000000119209289
 50
0.0
 71
     0
 42
0.2
  3
TAHOMA.TTF
  4

1001
ACAD
1000
Tahoma
1071
      256
  0
STYLE
  5
1E0
330
3
100
AcDbSymbolTableRecord
100
AcDbTextStyleTableRecord
  2
Styl textu63
 70
     0
 40
0.0
 41
0.75
 50
0.0
 71
     0
 42
0.2
  3
TAHOMA.TTF
  4

1001
ACAD
1000
Tahoma
1071
      256
  0
STYLE
  5
1E4
330
3
100
AcDbSymbolTableRecord
100
AcDbTextStyleTableRecord
  2
Styl textu75
 70
     0
 40
0.0
 41
0.8000000119209289
 50
0.0
 71
     0
 42
0.2
  3
TAHOMA.TTF
  4

1001
ACAD
1000
Tahoma
1071
      256
  0
STYLE
  5
1E6
330
3
100
AcDbSymbolTableRecord
100
AcDbTextStyleTableRecord
  2
Styl textu72
 70
     0
 40
0.0
 41
0.6999999880790711
 50
0.0
 71
     0
 42
0.2
  3
TAHOMA.TTF
  4

1001
ACAD
1000
Tahoma
1071
      256
  0
STYLE
  5
1FC
330
3
100
AcDbSymbolTableRecord
100
AcDbTextStyleTableRecord
  2
Styl textu9
 70
     0
 40
0.0
 41
1.0
 50
0.0
 71
     0
 42
0.2
  3
ARIAL.TTF
  4

1001
ACAD
1000
Arial
1071
      256
  0
STYLE
  5
200
330
3
100
AcDbSymbolTableRecord
100
AcDbTextStyleTableRecord
  2
Styl textu40
 70
     0
 40
0.0
 41
1.0
 50
0.0
 71
     0
 42
0.2
  3
ARIAL.TTF
  4

1001
ACAD
1000
Arial
1071
      256
  0
STYLE
  5
204
330
3
100
AcDbSymbolTableRecord
100
AcDbTextStyleTableRecord
  2
Styl textu94
 70
     0
 40
0.0
 41
1.0
 50
0.0
 71
     0
 42
0.2
  3
TAHOMA.TTF
  4

1001
ACAD
1000
Tahoma
1071
      256
  0
STYLE
  5
B9A
330
3
100
AcDbSymbolTableRecord
100
AcDbTextStyleTableRecord
  2

 70
     1
 40
0.0
 41
1.0
 50
0.0
 71
     0
 42
0.2
  3
genltshp.shx
  4

  0
STYLE
  5
BA8
330
3
100
AcDbSymbolTableRecord
100
AcDbTextStyleTableRecord
  2
ACISOTS
 70
     0
 40
1.0
 41
1.0
 50
0.0
 71
     0
 42
0.2
  3
isocp.shx
  4

  0
STYLE
  5
BA9
330
3
100
AcDbSymbolTableRecord
100
AcDbTextStyleTableRecord
  2
ACISOGDT
 70
     0
 40
0.0
 41
1.0
 50
0.0
 71
     0
 42
0.2
  3
amgdt.shx
  4

  0
ENDTAB
  0
TABLE
  2
VIEW
  5
6
330
0
100
AcDbSymbolTable
 70
     0
  0
ENDTAB
  0
TABLE
  2
UCS
  5
7
330
0
100
AcDbSymbolTable
 70
     0
  0
ENDTAB
  0
TABLE
  2
APPID
  5
9
330
0
100
AcDbSymbolTable
 70
    21
  0
APPID
  5
56
330
9
100
AcDbSymbolTableRecord
100
AcDbRegAppTableRecord
  2
ACAD
 70
     0
  0
APPID
  5
5E
330
9
100
AcDbSymbolTableRecord
100
AcDbRegAppTableRecord
  2
AcadAnnotative
 70
     0
  0
APPID
  5
1FF
330
9
100
AcDbSymbolTableRecord
100
AcDbRegAppTableRecord
  2
AcadAnnoPO
 70
     0
  0
APPID
  5
6EC
330
9
100
AcDbSymbolTableRecord
100
AcDbRegAppTableRecord
  2
ACAD_DSTYLE_DIMRADIAL_EXTENSION
 70
     0
  0
APPID
  5
B1E
330
9
100
AcDbSymbolTableRecord
100
AcDbRegAppTableRecord
  2
MCAD_NO_VIS
 70
     0
  0
APPID
  5
B1F
330
9
100
AcDbSymbolTableRecord
100
AcDbRegAppTableRecord
  2
ACAD_TEMP_GRAPHIC
 70
     0
  0
APPID
  5
B4F
330
9
100
AcDbSymbolTableRecord
100
AcDbRegAppTableRecord
  2
AD_DRAW
 70
     0
  0
APPID
  5
B52
330
9
100
AcDbSymbolTableRecord
100
AcDbRegAppTableRecord
  2
ACATTRIBSERVICES
 70
     0
  0
APPID
  5
B72
330
9
100
AcDbSymbolTableRecord
100
AcDbRegAppTableRecord
  2
DESIGNERASSEMBLIES
 70
     0
  0
APPID
  5
B78
330
9
100
AcDbSymbolTableRecord
100
AcDbRegAppTableRecord
  2
ACADM_DIM_EDIT
 70
     0
  0
APPID
  5
B79
330
9
100
AcDbSymbolTableRecord
100
AcDbRegAppTableRecord
  2
AMDT_DM_ADJ
 70
     0
  0
APPID
  5
B90
330
9
100
AcDbSymbolTableRecord
100
AcDbRegAppTableRecord
  2
ACAD_DSTYLE_DIMJAG
 70
     0
  0
APPID
  5
B91
330
9
100
AcDbSymbolTableRecord
100
AcDbRegAppTableRecord
  2
ACAD_DSTYLE_DIMBREAK
 70
     0
  0
APPID
  5
C15
330
9
100
AcDbSymbolTableRecord
100
AcDbRegAppTableRecord
  2
ACAD_DSTYLE_DIMINSPECT
 70
     0
  0
APPID
  5
C16
330
9
100
AcDbSymbolTableRecord
100
AcDbRegAppTableRecord
  2
ACAD_DSTYLE_DIMTALN
 70
     0
  0
APPID
  5
DF2
330
9
100
AcDbSymbolTableRecord
100
AcDbRegAppTableRecord
  2
ACAD_MLEADERVER
 70
     0
  0
APPID
  5
E2B
330
9
100
AcDbSymbolTableRecord
100
AcDbRegAppTableRecord
  2
ACAD_DSTYLE_DIMARC_LENGTH_SYMBOL
 70
     0
  0
APPID
  5
E2C
330
9
100
AcDbSymbolTableRecord
100
AcDbRegAppTableRecord
  2
ACAD_DSTYLE_DIM_LINETYPE
 70
     0
  0
APPID
  5
E2D
330
9
100
AcDbSymbolTableRecord
100
AcDbRegAppTableRecord
  2
ACAD_DSTYLE_DIM_EXT1_LINETYPE
 70
     0
  0
APPID
  5
E2E
330
9
100
AcDbSymbolTableRecord
100
AcDbRegAppTableRecord
  2
ACAD_DSTYLE_DIM_EXT2_LINETYPE
 70
     0
  0
APPID
  5
EAE
330
9
100
AcDbSymbolTableRecord
100
AcDbRegAppTableRecord
  2
ACAD_EXEMPT_FROM_CAD_STANDARDS
 70
     0
  0
ENDTAB
  0
TABLE
  2
DIMSTYLE
  5
A
330
0
100
AcDbSymbolTable
 70
    24
100
AcDbDimStyleTable
 71
     2
340
58
340
B1
  0
DIMSTYLE
105
58
330
A
100
AcDbSymbolTableRecord
100
AcDbDimStyleTableRecord
  2
Standard
 70
     0
340
55
  0
DIMSTYLE
105
59
330
A
100
AcDbSymbolTableRecord
100
AcDbDimStyleTableRecord
  2
Annotative
 70
     0
340
55
1001
AcadAnnotative
1000
AnnotativeData
1002
{
1070
     1
1070
     1
1002
}
  0
DIMSTYLE
105
A7
330
A
100
AcDbSymbolTableRecord
100
AcDbDimStyleTableRecord
  2
Různé objekty (ISO)
 70
     0
 40
1.5
 41
2.5
 42
0.0
 43
5.999999999999999
 44
1.0
 45
0.00000001
 46
10.0
 73
     0
 74
     0
 77
     1
 78
     8
 79
     2
140
5.25
143
0.03937
146
0.6676571709769112
147
0.762
171
     3
172
     1
176
   256
177
   256
178
   256
179
     2
271
     2
272
     2
274
     3
278
    44
284
     8
340
93
341
98
371
    -1
372
    -1
  0
DIMSTYLE
105
A8
330
A
100
AcDbSymbolTableRecord
100
AcDbDimStyleTableRecord
  2
Různé objekty (ISO)$7
 70
     0
 40
1.5
 41
5.0
 42
0.0
 43
5.999999999999999
 44
1.0
 45
0.00000001
 46
10.0
 73
     0
 74
     0
 77
     1
 78
     8
 79
     2
140
5.25
143
0.03937
146
0.6676571709769112
147
0.762
171
     3
172
     1
176
   256
177
   256
178
   256
179
     2
271
     2
272
     2
274
     3
278
    44
284
     8
340
93
341
98
371
    25
372
    -1
  0
DIMSTYLE
105
A9
330
A
100
AcDbSymbolTableRecord
100
AcDbDimStyleTableRecord
  2
Výchozí - Metoda 1b (ISO)
 70
     0
 40
1.5
 41
2.5
 42
0.0
 43
5.999999999999999
 44
1.0
 45
0.00000001
 46
10.0
 73
     0
 77
     1
 78
     8
 79
     2
140
3.5
143
0.03937
147
0.762
171
     3
172
     1
176
   256
177
   256
178
   256
179
     2
271
     2
272
     2
274
     3
278
    44
284
     8
286
     8
340
95
371
    -1
372
    -1
  0
DIMSTYLE
105
AA
330
A
100
AcDbSymbolTableRecord
100
AcDbDimStyleTableRecord
  2
Výchozí - Metoda 1b (ISO)$7
 70
     0
 40
1.5
 41
2.5
 42
0.0
 43
5.999999999999999
 44
1.0
 45
0.00000001
 46
10.0
 73
     0
 77
     1
 78
     8
 79
     2
140
3.5
143
0.03937
147
0.762
171
     3
172
     1
176
   256
177
   256
178
   256
179
     2
271
     2
272
     2
274
     3
278
    44
284
     8
286
     8
340
95
371
    -1
372
    -1
  0
DIMSTYLE
105
AB
330
A
100
AcDbSymbolTableRecord
100
AcDbDimStyleTableRecord
  2
Výchozí - Metoda 2a (ISO)
 70
     0
 40
1.5
 41
2.5
 42
0.0
 43
5.999999999999999
 44
1.0
 45
0.00000001
 46
10.0
 77
     1
 78
     8
 79
     2
140
3.5
143
0.03937
147
0.762
171
     3
172
     1
176
   256
177
   256
178
   256
179
     2
271
     2
272
     2
274
     3
278
    44
284
     8
286
     8
340
95
371
    -1
372
    -1
  0
DIMSTYLE
105
AC
330
A
100
AcDbSymbolTableRecord
100
AcDbDimStyleTableRecord
  2
Výchozí - Metoda 2a (ISO)$7
 70
     0
 40
1.5
 41
2.5
 42
0.0
 43
5.999999999999999
 44
1.0
 45
0.00000001
 46
10.0
 77
     1
 78
     8
 79
     2
140
3.5
143
0.03937
147
0.762
171
     3
172
     1
176
   256
177
   256
178
   256
179
     2
271
     2
272
     2
274
     3
278
    44
284
     8
286
     8
340
95
371
    -1
372
    -1
  0
DIMSTYLE
105
AD
330
A
100
AcDbSymbolTableRecord
100
AcDbDimStyleTableRecord
  2
Výchozí - Metoda 2b (ISO)
 70
     0
 40
1.5
 41
2.5
 42
0.0
 43
5.999999999999999
 44
1.0
 45
0.00000001
 46
10.0
 77
     1
 78
     8
 79
     2
140
3.5
143
0.03937
147
0.762
171
     3
172
     1
176
   256
177
   256
178
   256
179
     2
271
     2
272
     2
274
     3
278
    44
284
     8
286
     8
340
95
371
    -1
372
    -1
  0
DIMSTYLE
105
AE
330
A
100
AcDbSymbolTableRecord
100
AcDbDimStyleTableRecord
  2
Výchozí - Metoda 2b (ISO)$7
 70
     0
 40
1.5
 41
2.5
 42
0.0
 43
5.999999999999999
 44
1.0
 45
0.00000001
 46
10.0
 77
     1
 78
     8
 79
     2
140
3.5
143
0.03937
147
0.762
171
     3
172
     1
176
   256
177
   256
178
   256
179
     2
271
     2
272
     2
274
     3
278
    44
284
     8
286
     8
340
95
371
    -1
372
    -1
  0
DIMSTYLE
105
AF
330
A
100
AcDbSymbolTableRecord
100
AcDbDimStyleTableRecord
  2
Výchozí - mm [palce] (ISO)
 70
     0
  4
 in
 40
1.5
 41
2.5
 42
0.0
 43
5.999999999999999
 44
3.174999999999998
 45
0.00000001
 46
10.0
 73
     0
 74
     0
 77
     1
 78
     8
 79
     2
140
3.5
143
0.03937
147
0.762
170
     1
171
     3
172
     1
176
   256
177
   256
178
   256
179
     3
271
     3
272
     2
274
     3
275
     1
278
    44
284
     8
285
     8
286
     8
340
95
371
    -1
372
    -1
  0
DIMSTYLE
105
B0
330
A
100
AcDbSymbolTableRecord
100
AcDbDimStyleTableRecord
  2
Výchozí - mm [palce] (ISO)$7
 70
     0
  4
 in
 40
1.5
 41
2.5
 42
0.0
 43
5.999999999999999
 44
3.174999999999998
 45
0.00000001
 46
10.0
 73
     0
 74
     0
 77
     1
 78
     8
 79
     2
140
3.5
143
0.03937
147
0.762
170
     1
171
     3
172
     1
176
   256
177
   256
178
   256
179
     3
271
     3
272
     2
274
     3
275
     1
278
    44
284
     8
285
     8
286
     8
340
95
371
    -1
372
    -1
  0
DIMSTYLE
105
B1
330
A
100
AcDbSymbolTableRecord
100
AcDbDimStyleTableRecord
  2
Výchozí (ISO)
 70
     0
 40
1.5
 41
2.5
 42
0.0
 43
5.999999999999999
 44
1.0
 45
0.00000001
 46
10.0
 73
     0
 74
     0
 77
     1
 78
     8
 79
     2
140
3.5
143
0.03937
146
1.001485756465366
147
0.762
171
     3
172
     1
176
   256
177
   256
178
   256
179
     2
271
     2
272
     2
274
     3
278
    44
284
     8
340
95
371
    -1
372
    -1
  0
DIMSTYLE
105
B2
330
A
100
AcDbSymbolTableRecord
100
AcDbDimStyleTableRecord
  2
Výchozí (ISO)$7
 70
     0
 40
1.5
 41
2.5
 42
0.0
 43
5.999999999999999
 44
1.0
 45
0.00000001
 46
10.0
 73
     0
 74
     0
 77
     1
 78
     8
 79
     2
140
3.5
143
0.03937
146
1.001485756465366
147
0.762
171
     3
172
     1
176
   256
177
   256
178
   256
179
     2
271
     2
272
     2
274
     3
278
    44
284
     8
340
95
371
    -1
372
    -1
  0
DIMSTYLE
105
B3
330
A
100
AcDbSymbolTableRecord
100
AcDbDimStyleTableRecord
  2
Alternativní (ISO)
 70
     0
 40
1.5
 41
2.5
340
55
342
B4
  0
DIMSTYLE
105
C5
330
A
100
AcDbSymbolTableRecord
100
AcDbDimStyleTableRecord
  2
Základny (ISO)
 70
     0
 40
1.5
 41
2.5
340
55
342
B4
  0
DIMSTYLE
105
B8F
102
{ACAD_REACTORS
330
FA1
102
}
330
A
100
AcDbSymbolTableRecord
100
AcDbDimStyleTableRecord
  2
AM_ISO
 70
     0
  4
"
 41
3.5
 42
1.0
 43
10.0
 44
1.0
 47
0.1
 48
0.1
 73
     0
 74
     0
 77
     1
 78
     8
 79
     2
140
3.5
141
0.0
143
0.0393701
146
0.71
147
1.5
172
     1
176
   256
177
   256
178
   140
271
     2
272
     3
274
     4
283
     0
284
     8
340
55
371
    -1
372
    -1
1001
ACAD_DSTYLE_DIMJAG
1070
   388
1040
1.5
1001
ACAD_DSTYLE_DIMBREAK
1070
   391
1040
3.75
1001
ACAD_DSTYLE_DIMARC_LENGTH_SYMBOL
1070
   379
1070
     1
1001
ACAD_DSTYLE_DIM_LINETYPE
1070
   380
1005
5B
1001
ACAD_DSTYLE_DIM_EXT1_LINETYPE
1070
   381
1005
5B
1001
ACAD_DSTYLE_DIM_EXT2_LINETYPE
1070
   382
1005
5B
  0
DIMSTYLE
105
B9C
330
A
100
AcDbSymbolTableRecord
100
AcDbDimStyleTableRecord
  2
AM_ISO$3
 70
     0
  4
"
 41
3.5
 42
1.0
 43
10.0
 44
1.0
 47
0.1
 48
0.1
 73
     0
 77
     1
 78
     8
 79
     2
140
3.5
141
0.0
143
0.0393701
146
0.71
147
1.5
176
   256
177
   256
178
   140
271
     2
272
     3
274
     4
283
     0
284
     8
288
     1
289
     0
340
55
371
    -1
372
    -1
1001
ACAD_DSTYLE_DIMBREAK
1070
   391
1040
3.75
1001
ACAD_DSTYLE_DIMJAG
1070
   388
1040
1.5
1001
ACAD_DSTYLE_DIMARC_LENGTH_SYMBOL
1070
   379
1070
     1
1001
ACAD_DSTYLE_DIM_LINETYPE
1070
   380
1005
5B
1001
ACAD_DSTYLE_DIM_EXT1_LINETYPE
1070
   381
1005
5B
1001
ACAD_DSTYLE_DIM_EXT2_LINETYPE
1070
   382
1005
5B
  0
DIMSTYLE
105
B9D
330
A
100
AcDbSymbolTableRecord
100
AcDbDimStyleTableRecord
  2
AM_ISO$4
 70
     0
  4
"
 41
3.5
 42
1.0
 43
10.0
 44
1.0
 47
0.1
 48
0.1
 73
     0
 77
     1
 78
     8
 79
     2
140
3.5
141
0.0
143
0.0393701
146
0.71
147
1.5
176
   256
177
   256
178
   140
271
     2
272
     3
274
     4
283
     0
284
     8
288
     1
289
     0
340
55
371
    -1
372
    -1
1001
ACAD_DSTYLE_DIMBREAK
1070
   391
1040
3.75
1001
ACAD_DSTYLE_DIMJAG
1070
   388
1040
1.5
1001
ACAD_DSTYLE_DIMARC_LENGTH_SYMBOL
1070
   379
1070
     1
1001
ACAD_DSTYLE_DIM_LINETYPE
1070
   380
1005
5B
1001
ACAD_DSTYLE_DIM_EXT1_LINETYPE
1070
   381
1005
5B
1001
ACAD_DSTYLE_DIM_EXT2_LINETYPE
1070
   382
1005
5B
  0
DIMSTYLE
105
B9E
330
A
100
AcDbSymbolTableRecord
100
AcDbDimStyleTableRecord
  2
AM_ISO$6
 70
     0
  4
"
 41
3.5
 42
1.0
 43
10.0
 44
1.0
 47
0.1
 48
0.1
 73
     0
 74
     0
 78
     8
 79
     2
140
3.5
141
0.0
143
0.0393701
146
0.71
147
1.5
172
     1
176
   256
177
   256
178
   140
271
     2
272
     3
274
     4
283
     0
284
     8
340
55
371
    -1
372
    -1
1001
ACAD_DSTYLE_DIMBREAK
1070
   391
1040
3.75
1001
ACAD_DSTYLE_DIMJAG
1070
   388
1040
1.5
1001
ACAD_DSTYLE_DIMARC_LENGTH_SYMBOL
1070
   379
1070
     1
1001
ACAD_DSTYLE_DIM_LINETYPE
1070
   380
1005
5B
1001
ACAD_DSTYLE_DIM_EXT1_LINETYPE
1070
   381
1005
5B
1001
ACAD_DSTYLE_DIM_EXT2_LINETYPE
1070
   382
1005
5B
  0
DIMSTYLE
105
B9F
330
A
100
AcDbSymbolTableRecord
100
AcDbDimStyleTableRecord
  2
AM_ISO$7
 70
     0
  4
"
 41
3.5
 42
1.0
 43
10.0
 44
1.0
 47
0.1
 48
0.1
 73
     0
 74
     0
 77
     1
 78
     8
 79
     2
140
3.5
141
0.0
143
0.0393701
146
0.71
147
1.5
172
     1
176
   256
177
   256
178
   140
271
     2
272
     3
274
     4
283
     0
284
     8
340
55
371
    -1
372
    -1
1001
ACAD_DSTYLE_DIMBREAK
1070
   391
1040
3.75
1001
ACAD_DSTYLE_DIMJAG
1070
   388
1040
1.5
1001
ACAD_DSTYLE_DIMARC_LENGTH_SYMBOL
1070
   379
1070
     1
1001
ACAD_DSTYLE_DIM_LINETYPE
1070
   380
1005
5B
1001
ACAD_DSTYLE_DIM_EXT1_LINETYPE
1070
   381
1005
5B
1001
ACAD_DSTYLE_DIM_EXT2_LINETYPE
1070
   382
1005
5B
  0
DIMSTYLE
105
BA0
330
A
100
AcDbSymbolTableRecord
100
AcDbDimStyleTableRecord
  2
AM_ISO$SF
 70
     0
  4
"
 41
3.5
 42
1.0
 43
10.0
 44
1.0
 47
0.1
 48
0.1
 73
     0
 74
     0
 75
     1
 76
     1
 77
     1
 78
     8
 79
     2
140
3.5
141
0.0
143
0.0393701
146
0.71
147
1.5
172
     1
176
   256
177
   256
178
   140
271
     2
272
     3
274
     4
283
     0
284
     8
340
55
371
    -1
372
    -1
1001
ACAD_DSTYLE_DIMBREAK
1070
   391
1040
3.75
1001
ACAD_DSTYLE_DIMJAG
1070
   388
1040
1.5
1001
ACAD_DSTYLE_DIMARC_LENGTH_SYMBOL
1070
   379
1070
     1
1001
ACAD_DSTYLE_DIM_LINETYPE
1070
   380
1005
5B
1001
ACAD_DSTYLE_DIM_EXT1_LINETYPE
1070
   381
1005
5B
1001
ACAD_DSTYLE_DIM_EXT2_LINETYPE
1070
   382
1005
5B
  0
DIMSTYLE
105
BA5
330
A
100
AcDbSymbolTableRecord
100
AcDbDimStyleTableRecord
  2
AM_ISO$SH
 70
     0
  4
"
 41
3.5
 42
1.0
 43
10.0
 44
1.0
 47
0.1
 48
0.1
 73
     0
 74
     0
 75
     1
 76
     1
 77
     1
 78
     8
 79
     2
140
3.5
141
0.0
143
0.0393701
144
2.0
146
0.71
147
1.5
172
     1
173
     1
176
   256
177
   256
178
   140
271
     2
272
     3
274
     4
283
     0
284
     8
340
55
343
BA1
371
    -1
372
    -1
1001
ACAD_DSTYLE_DIMBREAK
1070
   391
1040
3.75
1001
ACAD_DSTYLE_DIMJAG
1070
   388
1040
1.5
1001
ACAD_DSTYLE_DIMARC_LENGTH_SYMBOL
1070
   379
1070
     1
1001
ACAD_DSTYLE_DIM_LINETYPE
1070
   380
1005
5B
1001
ACAD_DSTYLE_DIM_EXT1_LINETYPE
1070
   381
1005
5B
1001
ACAD_DSTYLE_DIM_EXT2_LINETYPE
1070
   382
1005
5B
  0
DIMSTYLE
105
C14
102
{ACAD_REACTORS
330
D0F
330
D09
330
D0A
330
D0B
330
D0C
330
D0D
330
D0E
102
}
330
A
100
AcDbSymbolTableRecord
100
AcDbDimStyleTableRecord
  2
GEN-ISO
 70
     0
  3
<>
  4
"
 40
2.0
 41
2.5
 42
1.0
 43
7.0
 44
1.0
 47
0.1
 48
0.1
 73
     0
 74
     0
 77
     1
 78
     8
140
7.0
141
0.0
143
0.0393701
146
0.71
147
0.6
172
     1
176
   256
177
   256
178
     7
271
     2
272
     2
283
     0
340
55
1001
ACAD_DSTYLE_DIMJAG
1070
   388
1040
1.5
1001
ACAD_DSTYLE_DIMTALN
1070
   392
1070
     0
  0
ENDTAB
  0
TABLE
  2
BLOCK_RECORD
  5
1
330
0
100
AcDbSymbolTable
 70
    53
  0
BLOCK_RECORD
  5
6C
330
1
100
AcDbSymbolTableRecord
100
AcDbBlockTableRecord
  2
*Model_Space
340
6F
  0
BLOCK_RECORD
  5
68
330
1
100
AcDbSymbolTableRecord
100
AcDbBlockTableRecord
  2
*Paper_Space
340
6B
  0
BLOCK_RECORD
  5
70
330
1
100
AcDbSymbolTableRecord
100
AcDbBlockTableRecord
  2
*Paper_Space0
340
73
  0
BLOCK_RECORD
  5
98
330
1
100
AcDbSymbolTableRecord
100
AcDbBlockTableRecord
  2
Filled-1
340
0
  0
BLOCK_RECORD
  5
B4
330
1
100
AcDbSymbolTableRecord
100
AcDbBlockTableRecord
  2
_Closed
340
0
  0
BLOCK_RECORD
  5
BB
330
1
100
AcDbSymbolTableRecord
100
AcDbBlockTableRecord
  2
DatumFilled45
340
0
  0
BLOCK_RECORD
  5
C6
330
1
100
AcDbSymbolTableRecord
100
AcDbBlockTableRecord
  2
WIG-svarovani
340
0
  0
BLOCK_RECORD
  5
CB
330
1
100
AcDbSymbolTableRecord
100
AcDbBlockTableRecord
  2
Popis kotvy_srouby
340
0
  0
BLOCK_RECORD
  5
CF
330
1
100
AcDbSymbolTableRecord
100
AcDbBlockTableRecord
  2
Mater. provedeni Art.
340
0
  0
BLOCK_RECORD
  5
F1
330
1
100
AcDbSymbolTableRecord
100
AcDbBlockTableRecord
  2
Art. s popisy
340
0
  0
BLOCK_RECORD
  5
113
330
1
100
AcDbSymbolTableRecord
100
AcDbBlockTableRecord
  2
Tryskat
340
0
  0
BLOCK_RECORD
  5
117
330
1
100
AcDbSymbolTableRecord
100
AcDbBlockTableRecord
  2
Morit
340
0
  0
BLOCK_RECORD
  5
11B
330
1
100
AcDbSymbolTableRecord
100
AcDbBlockTableRecord
  2
zinkovat
340
0
  0
BLOCK_RECORD
  5
11F
330
1
100
AcDbSymbolTableRecord
100
AcDbBlockTableRecord
  2
Nater
340
0
  0
BLOCK_RECORD
  5
123
330
1
100
AcDbSymbolTableRecord
100
AcDbBlockTableRecord
  2
Brus
340
0
  0
BLOCK_RECORD
  5
127
330
1
100
AcDbSymbolTableRecord
100
AcDbBlockTableRecord
  2
Elektroliticky lestit
340
0
  0
BLOCK_RECORD
  5
12B
330
1
100
AcDbSymbolTableRecord
100
AcDbBlockTableRecord
  2
Mořit de.
340
0
  0
BLOCK_RECORD
  5
12F
330
1
100
AcDbSymbolTableRecord
100
AcDbBlockTableRecord
  2
Žlab bez spádu De.
340
0
  0
BLOCK_RECORD
  5
133
330
1
100
AcDbSymbolTableRecord
100
AcDbBlockTableRecord
  2
Žlab bez spádu Ang.
340
0
  0
BLOCK_RECORD
  5
137
330
1
100
AcDbSymbolTableRecord
100
AcDbBlockTableRecord
  2
Aschl Nirotec-tryskání
340
0
  0
BLOCK_RECORD
  5
13B
330
1
100
AcDbSymbolTableRecord
100
AcDbBlockTableRecord
  2
Popis šrouby_kotvy Ang.
340
0
  0
BLOCK_RECORD
  5
13F
330
1
100
AcDbSymbolTableRecord
100
AcDbBlockTableRecord
  2
Spád žlabu Ang.
340
0
  0
BLOCK_RECORD
  5
143
330
1
100
AcDbSymbolTableRecord
100
AcDbBlockTableRecord
  2
Spád žlabu De.
340
0
  0
BLOCK_RECORD
  5
147
330
1
100
AcDbSymbolTableRecord
100
AcDbBlockTableRecord
  2
Kartáč + folie
340
0
  0
BLOCK_RECORD
  5
14B
330
1
100
AcDbSymbolTableRecord
100
AcDbBlockTableRecord
  2
Komplet tryskat De.
340
0
  0
BLOCK_RECORD
  5
14F
330
1
100
AcDbSymbolTableRecord
100
AcDbBlockTableRecord
  2
Mořit Ang.
340
0
  0
BLOCK_RECORD
  5
153
330
1
100
AcDbSymbolTableRecord
100
AcDbBlockTableRecord
  2
Rámečky Default Border
340
0
  0
BLOCK_RECORD
  5
19A
330
1
100
AcDbSymbolTableRecord
100
AcDbBlockTableRecord
  2
Rohová razítka ACO-razitko
340
0
  0
BLOCK_RECORD
  5
4F8
330
1
100
AcDbSymbolTableRecord
100
AcDbBlockTableRecord
  2
KUSOVNÍK
340
0
  0
BLOCK_RECORD
  5
571
330
1
100
AcDbSymbolTableRecord
100
AcDbBlockTableRecord
  2
*D27
340
0
  0
BLOCK_RECORD
  5
654
330
1
100
AcDbSymbolTableRecord
100
AcDbBlockTableRecord
  2
*D28
340
0
  0
BLOCK_RECORD
  5
6FC
330
1
100
AcDbSymbolTableRecord
100
AcDbBlockTableRecord
  2
*D29
340
0
  0
BLOCK_RECORD
  5
7DE
330
1
100
AcDbSymbolTableRecord
100
AcDbBlockTableRecord
  2
*D30
340
0
  0
BLOCK_RECORD
  5
8C0
330
1
100
AcDbSymbolTableRecord
100
AcDbBlockTableRecord
  2
*D31
340
0
  0
BLOCK_RECORD
  5
9A2
330
1
100
AcDbSymbolTableRecord
100
AcDbBlockTableRecord
  2
*D32
340
0
  0
BLOCK_RECORD
  5
A83
330
1
100
AcDbSymbolTableRecord
100
AcDbBlockTableRecord
  2
Pozice1
340
0
  0
BLOCK_RECORD
  5
A95
330
1
100
AcDbSymbolTableRecord
100
AcDbBlockTableRecord
  2
Pozice2
340
0
  0
BLOCK_RECORD
  5
AA7
330
1
100
AcDbSymbolTableRecord
100
AcDbBlockTableRecord
  2
Pozice3
340
0
  0
BLOCK_RECORD
  5
AB9
330
1
100
AcDbSymbolTableRecord
100
AcDbBlockTableRecord
  2
Pozice4
340
0
  0
BLOCK_RECORD
  5
BA1
330
1
100
AcDbSymbolTableRecord
100
AcDbBlockTableRecord
  2
GENAXEH
340
0
  0
BLOCK_RECORD
  5
BBB
330
1
100
AcDbSymbolTableRecord
100
AcDbBlockTableRecord
  2
*D38
340
0
  0
BLOCK_RECORD
  5
BC7
330
1
100
AcDbSymbolTableRecord
100
AcDbBlockTableRecord
  2
*D39
340
0
  0
BLOCK_RECORD
  5
BD3
330
1
100
AcDbSymbolTableRecord
100
AcDbBlockTableRecord
  2
*D40
340
0
  0
BLOCK_RECORD
  5
BDF
330
1
100
AcDbSymbolTableRecord
100
AcDbBlockTableRecord
  2
*D41
340
0
  0
BLOCK_RECORD
  5
BEB
330
1
100
AcDbSymbolTableRecord
100
AcDbBlockTableRecord
  2
*D42
340
0
  0
BLOCK_RECORD
  5
BF7
330
1
100
AcDbSymbolTableRecord
100
AcDbBlockTableRecord
  2
*D43
340
0
  0
BLOCK_RECORD
  5
C03
330
1
100
AcDbSymbolTableRecord
100
AcDbBlockTableRecord
  2
*D44
340
0
  0
BLOCK_RECORD
  5
D10
330
1
100
AcDbSymbolTableRecord
100
AcDbBlockTableRecord
  2
*D45
340
0
  0
BLOCK_RECORD
  5
D1C
330
1
100
AcDbSymbolTableRecord
100
AcDbBlockTableRecord
  2
*D46
340
0
  0
BLOCK_RECORD
  5
D28
330
1
100
AcDbSymbolTableRecord
100
AcDbBlockTableRecord
  2
*D47
340
0
  0
BLOCK_RECORD
  5
D34
330
1
100
AcDbSymbolTableRecord
100
AcDbBlockTableRecord
  2
*D48
340
0
  0
BLOCK_RECORD
  5
D40
330
1
100
AcDbSymbolTableRecord
100
AcDbBlockTableRecord
  2
*D49
340
0
  0
BLOCK_RECORD
  5
D4C
330
1
100
AcDbSymbolTableRecord
100
AcDbBlockTableRecord
  2
*D50
340
0
  0
BLOCK_RECORD
  5
D58
330
1
100
AcDbSymbolTableRecord
100
AcDbBlockTableRecord
  2
*D51
340
0
  0
ENDTAB
  0
ENDSEC
  0
SECTION
  2
BLOCKS
  0
BLOCK
  5
6D
330
6C
100
AcDbEntity
  8
0
100
AcDbBlockBegin
  2
*Model_Space
 70
     0
 10
0.0
 20
0.0
 30
0.0
  3
*Model_Space
  1

  0
ENDBLK
  5
6E
330
6C
100
AcDbEntity
  8
0
100
AcDbBlockEnd
  0
BLOCK
  5
69
330
68
100
AcDbEntity
 67
     1
  8
0
100
AcDbBlockBegin
  2
*Paper_Space
 70
     0
 10
0.0
 20
0.0
 30
0.0
  3
*Paper_Space
  1

  0
ENDBLK
  5
6A
330
68
100
AcDbEntity
 67
     1
  8
0
100
AcDbBlockEnd
  0
BLOCK
  5
71
330
70
100
AcDbEntity
 67
     1
  8
0
100
AcDbBlockBegin
  2
*Paper_Space0
 70
     0
 10
0.0
 20
0.0
 30
0.0
  3
*Paper_Space0
  1

  0
ENDBLK
  5
72
330
70
100
AcDbEntity
 67
     1
  8
0
100
AcDbBlockEnd
  0
BLOCK
  5
99
330
98
100
AcDbEntity
  8
0
100
AcDbBlockBegin
  2
Filled-1
 70
     0
 10
0.0
 20
0.0
 30
0.0
  3
Filled-1
  1

  0
LINE
  5
9B
330
98
100
AcDbEntity
  8
0
 62
     0
100
AcDbLine
 10
-1.0
 20
0.0
 30
0.0
 11
0.0
 21
0.0
 31
0.0
  0
POLYLINE
  5
9D
330
98
100
AcDbEntity
  8
0
 62
     0
100
AcDb2dPolyline
 66
     1
 10
0.0
 20
0.0
 30
0.0
 70
   128
  0
VERTEX
  5
9E
330
9D
100
AcDbEntity
  8
0
 62
     0
100
AcDbVertex
100
AcDb2dVertex
 10
-1.0
 20
-0.1
 30
0.0
  0
VERTEX
  5
9F
330
9D
100
AcDbEntity
  8
0
 62
     0
100
AcDbVertex
100
AcDb2dVertex
 10
0.0
 20
0.0
 30
0.0
  0
VERTEX
  5
A1
330
9D
100
AcDbEntity
  8
0
 62
     0
100
AcDbVertex
100
AcDb2dVertex
 10
-1.0
 20
0.1
 30
0.0
  0
VERTEX
  5
A2
330
9D
100
AcDbEntity
  8
0
 62
     0
100
AcDbVertex
100
AcDb2dVertex
 10
-1.0
 20
-0.1
 30
0.0
  0
SEQEND
  5
A0
330
9D
100
AcDbEntity
  8
0
 62
     0
  0
SOLID
  5
A3
330
98
100
AcDbEntity
  8
0
 62
     0
100
AcDbTrace
 10
-1.0
 20
-0.1
 30
0.0
 11
0.0
 21
0.0
 31
0.0
 12
-1.0
 22
0.1
 32
0.0
 13
-1.0
 23
-0.1
 33
0.0
  0
LINE
  5
A4
330
98
100
AcDbEntity
  8
0
 62
     0
100
AcDbLine
 10
-1.0
 20
-0.1
 30
0.0
 11
0.0
 21
0.0
 31
0.0
  0
LINE
  5
A5
330
98
100
AcDbEntity
  8
0
 62
     0
100
AcDbLine
 10
0.0
 20
0.0
 30
0.0
 11
-1.0
 21
0.1
 31
0.0
  0
LINE
  5
A6
330
98
100
AcDbEntity
  8
0
 62
     0
100
AcDbLine
 10
-1.0
 20
0.1
 30
0.0
 11
-1.0
 21
-0.1
 31
0.0
  0
ENDBLK
  5
9A
330
98
100
AcDbEntity
  8
0
100
AcDbBlockEnd
  0
BLOCK
  5
B9
330
B4
100
AcDbEntity
  8
0
100
AcDbBlockBegin
  2
_Closed
 70
     0
 10
0.0
 20
0.0
 30
0.0
  3
_Closed
  1

  0
LINE
  5
B5
330
B4
100
AcDbEntity
  8
0
  6
ByBlock
 62
     0
370
    -2
100
AcDbLine
 10
-1.0
 20
0.1666666666666666
 30
0.0
 11
0.0
 21
0.0
 31
0.0
  0
LINE
  5
B6
330
B4
100
AcDbEntity
  8
0
  6
ByBlock
 62
     0
370
    -2
100
AcDbLine
 10
0.0
 20
0.0
 30
0.0
 11
-1.0
 21
-0.1666666666666666
 31
0.0
  0
LINE
  5
B7
330
B4
100
AcDbEntity
  8
0
  6
ByBlock
 62
     0
370
    -2
100
AcDbLine
 10
-1.0
 20
0.1666666666666666
 30
0.0
 11
-1.0
 21
-0.1666666666666666
 31
0.0
  0
LINE
  5
B8
330
B4
100
AcDbEntity
  8
0
  6
ByBlock
 62
     0
370
    -2
100
AcDbLine
 10
0.0
 20
0.0
 30
0.0
 11
-1.0
 21
0.0
 31
0.0
  0
ENDBLK
  5
BA
330
B4
100
AcDbEntity
  8
0
100
AcDbBlockEnd
  0
BLOCK
  5
BC
330
BB
100
AcDbEntity
  8
0
100
AcDbBlockBegin
  2
DatumFilled45
 70
     0
 10
0.0
 20
0.0
 30
0.0
  3
DatumFilled45
  1

  0
POLYLINE
  5
BE
330
BB
100
AcDbEntity
  8
0
 62
     0
100
AcDb2dPolyline
 66
     1
 10
0.0
 20
0.0
 30
0.0
 70
   128
  0
VERTEX
  5
BF
330
BE
100
AcDbEntity
  8
0
 62
     0
100
AcDbVertex
100
AcDb2dVertex
 10
0.0
 20
1.0
 30
0.0
  0
VERTEX
  5
C0
330
BE
100
AcDbEntity
  8
0
 62
     0
100
AcDbVertex
100
AcDb2dVertex
 10
0.0
 20
-1.0
 30
0.0
  0
VERTEX
  5
C2
330
BE
100
AcDbEntity
  8
0
 62
     0
100
AcDbVertex
100
AcDb2dVertex
 10
-1.0
 20
0.0
 30
0.0
  0
VERTEX
  5
C3
330
BE
100
AcDbEntity
  8
0
 62
     0
100
AcDbVertex
100
AcDb2dVertex
 10
0.0
 20
1.0
 30
0.0
  0
SEQEND
  5
C1
330
BE
100
AcDbEntity
  8
0
 62
     0
  0
SOLID
  5
C4
330
BB
100
AcDbEntity
  8
0
 62
     0
100
AcDbTrace
 10
0.0
 20
1.0
 30
0.0
 11
0.0
 21
-1.0
 31
0.0
 12
-1.0
 22
0.0
 32
0.0
 13
0.0
 23
1.0
 33
0.0
  0
ENDBLK
  5
BD
330
BB
100
AcDbEntity
  8
0
100
AcDbBlockEnd
  0
BLOCK
  5
C7
330
C6
100
AcDbEntity
  8
0
100
AcDbBlockBegin
  2
WIG-svarovani
 70
     0
 10
0.0
 20
0.0
 30
0.0
  3
WIG-svarovani
  1

  0
MTEXT
  5
C9
102
{ACAD_XDICTIONARY
360
FCF
102
}
330
C6
100
AcDbEntity
  8
Značka (ISO)
100
AcDbMText
 10
-57.87338256835937
 20
16.31795931607484
 30
0.0
 40
3.499999940395355
 41
115.7467651367187
 71
     1
 72
     1
  1
WIG Schweisung, Nahte sauber geschliffen und poliert\PSichtstege geschliffen mit 240 Korn und abgeklebt.\P{\H0.85714x; \P\H1.1667x;WIG svarovani- svary dle potreby zabrousit.\PPohledove plochy brousit (vel. brusnych zrn 240)\Pa polepit paskou}
  7
Text poznámky (ISO)
 73
     1
 44
0.9596589207649227
  0
ENDBLK
  5
C8
330
C6
100
AcDbEntity
  8
0
100
AcDbBlockEnd
  0
BLOCK
  5
CC
330
CB
100
AcDbEntity
  8
0
100
AcDbBlockBegin
  2
Popis kotvy_srouby
 70
     0
 10
0.0
 20
0.0
 30
0.0
  3
Popis kotvy_srouby
  1

  0
MTEXT
  5
CE
330
CB
100
AcDbEntity
  8
Značka (ISO)
100
AcDbMText
 10
-39.79761123657226
 20
21.84130281209946
 30
0.0
 40
3.499999940395355
 41
0.0
 71
     1
 72
     1
  1
Vzdalenost nivel. sroubu ca. 1500\PVzdalenost kotev ca. 400\PVzdalenost dist. koliku ca. 250\P\PAbstand der Nivellieschraben ca.1500\PAbstand der Maueranker ca.400\PAbstand der Distanzstege ca.250\P
  7
Text poznámky (ISO)
 73
     2
 44
0.9878841638565063
  0
ENDBLK
  5
CD
330
CB
100
AcDbEntity
  8
0
100
AcDbBlockEnd
  0
BLOCK
  5
D0
330
CF
100
AcDbEntity
  8
0
100
AcDbBlockBegin
  2
Mater. provedeni Art.
 70
     0
 10
0.0
 20
0.0
 30
0.0
  3
Mater. provedeni Art.
  1

  0
LINE
  5
D2
330
CF
100
AcDbEntity
  8
Geometrie náčrtu (ISO)
100
AcDbLine
 10
-35.0
 20
-22.5
 30
0.0
 11
35.0
 21
-22.5
 31
0.0
  0
LINE
  5
D3
330
CF
100
AcDbEntity
  8
Geometrie náčrtu (ISO)
100
AcDbLine
 10
35.0
 20
-22.5
 30
0.0
 11
34.99999999999996
 21
-13.49999999999998
 31
0.0
  0
LINE
  5
D4
330
CF
100
AcDbEntity
  8
Geometrie náčrtu (ISO)
100
AcDbLine
 10
34.99999999999996
 20
-13.49999999999998
 30
0.0
 11
-35.00000000000003
 21
-13.49999999999998
 31
0.0
  0
LINE
  5
D5
330
CF
100
AcDbEntity
  8
Geometrie náčrtu (ISO)
100
AcDbLine
 10
-35.00000000000003
 20
-13.49999999999998
 30
0.0
 11
-35.0
 21
-22.5
 31
0.0
  0
LINE
  5
D6
330
CF
100
AcDbEntity
  8
Geometrie náčrtu (ISO)
100
AcDbLine
 10
-35.00000000000003
 20
-13.49999999999998
 30
0.0
 11
34.99999999999996
 21
-13.49999999999998
 31
0.0
  0
LINE
  5
D7
330
CF
100
AcDbEntity
  8
Geometrie náčrtu (ISO)
100
AcDbLine
 10
34.99999999999996
 20
-13.49999999999998
 30
0.0
 11
34.99999999999996
 21
-4.499999999999992
 31
0.0
  0
LINE
  5
D8
330
CF
100
AcDbEntity
  8
Geometrie náčrtu (ISO)
100
AcDbLine
 10
34.99999999999996
 20
-4.499999999999992
 30
0.0
 11
-35.00000000000003
 21
-4.499999999999992
 31
0.0
  0
LINE
  5
D9
330
CF
100
AcDbEntity
  8
Geometrie náčrtu (ISO)
100
AcDbLine
 10
-35.00000000000003
 20
-4.499999999999992
 30
0.0
 11
-35.00000000000003
 21
-13.49999999999998
 31
0.0
  0
LINE
  5
DA
330
CF
100
AcDbEntity
  8
Geometrie náčrtu (ISO)
100
AcDbLine
 10
-35.00000000000003
 20
-4.499999999999992
 30
0.0
 11
34.99999999999996
 21
-4.499999999999992
 31
0.0
  0
LINE
  5
DB
330
CF
100
AcDbEntity
  8
Geometrie náčrtu (ISO)
100
AcDbLine
 10
34.99999999999996
 20
-4.499999999999992
 30
0.0
 11
34.99999999999996
 21
4.499999999999992
 31
0.0
  0
LINE
  5
DC
330
CF
100
AcDbEntity
  8
Geometrie náčrtu (ISO)
100
AcDbLine
 10
34.99999999999996
 20
4.499999999999992
 30
0.0
 11
-35.00000000000003
 21
4.499999999999992
 31
0.0
  0
LINE
  5
DD
330
CF
100
AcDbEntity
  8
Geometrie náčrtu (ISO)
100
AcDbLine
 10
-35.00000000000003
 20
4.499999999999992
 30
0.0
 11
-35.00000000000003
 21
-4.499999999999992
 31
0.0
  0
LINE
  5
DE
330
CF
100
AcDbEntity
  8
Geometrie náčrtu (ISO)
100
AcDbLine
 10
-35.00000000000003
 20
4.499999999999992
 30
0.0
 11
34.99999999999996
 21
4.499999999999992
 31
0.0
  0
LINE
  5
DF
330
CF
100
AcDbEntity
  8
Geometrie náčrtu (ISO)
100
AcDbLine
 10
34.99999999999996
 20
4.499999999999992
 30
0.0
 11
34.99999999999996
 21
13.50000000000001
 31
0.0
  0
LINE
  5
E0
330
CF
100
AcDbEntity
  8
Geometrie náčrtu (ISO)
100
AcDbLine
 10
34.99999999999996
 20
13.50000000000001
 30
0.0
 11
-35.00000000000003
 21
13.50000000000001
 31
0.0
  0
LINE
  5
E1
330
CF
100
AcDbEntity
  8
Geometrie náčrtu (ISO)
100
AcDbLine
 10
-35.00000000000003
 20
13.50000000000001
 30
0.0
 11
-35.00000000000003
 21
4.499999999999992
 31
0.0
  0
LINE
  5
E2
330
CF
100
AcDbEntity
  8
Geometrie náčrtu (ISO)
100
AcDbLine
 10
-35.00000000000003
 20
13.50000000000001
 30
0.0
 11
34.99999999999996
 21
13.50000000000001
 31
0.0
  0
LINE
  5
E3
330
CF
100
AcDbEntity
  8
Geometrie náčrtu (ISO)
100
AcDbLine
 10
34.99999999999996
 20
13.50000000000001
 30
0.0
 11
34.99999999999996
 21
22.5
 31
0.0
  0
LINE
  5
E4
330
CF
100
AcDbEntity
  8
Geometrie náčrtu (ISO)
100
AcDbLine
 10
34.99999999999996
 20
22.5
 30
0.0
 11
-35.00000000000003
 21
22.5
 31
0.0
  0
LINE
  5
E5
330
CF
100
AcDbEntity
  8
Geometrie náčrtu (ISO)
100
AcDbLine
 10
-35.00000000000003
 20
22.5
 30
0.0
 11
-35.00000000000003
 21
13.50000000000001
 31
0.0
  0
LINE
  5
E6
330
CF
100
AcDbEntity
  8
Geometrie náčrtu (ISO)
100
AcDbLine
 10
-6.999999999999992
 20
22.5
 30
0.0
 11
-6.999999999999992
 21
-22.5
 31
0.0
  0
MTEXT
  5
E7
330
CF
100
AcDbEntity
  8
Značka (ISO)
100
AcDbMText
 10
-5.126613448311374
 20
11.7684641726084
 30
0.0
 40
5.0
 41
0.0
 71
     1
 72
     1
  1
\fTahoma|b0|i0;\H5.0000;xxxxxxxxxxx
  7
Text poznámky (ISO)
 73
     1
 44
1.0
  0
MTEXT
  5
E8
330
CF
100
AcDbEntity
  8
Značka (ISO)
100
AcDbMText
 10
-33.0130165251342
 20
11.7684641726084
 30
0.0
 40
5.0
 41
20.42139291763306
 71
     1
 72
     1
  1
\fTahoma|b0|i0;\H5.0000;xxxxxx
  7
Text poznámky (ISO)
 73
     1
 44
1.0
  0
MTEXT
  5
E9
330
CF
100
AcDbEntity
  8
Značka (ISO)
100
AcDbMText
 10
-32.07756235018873
 20
20.30710993714994
 30
0.0
 40
5.0
 41
13.92583036716939
 71
     1
 72
     1
  1
\fTahoma|b0|i0;\H5.0000;Art.
  7
Text poznámky (ISO)
 73
     1
 44
1.0
  0
MTEXT
  5
EA
330
CF
100
AcDbEntity
  8
Značka (ISO)
100
AcDbMText
 10
4.291672002492318
 20
20.30710993714994
 30
0.0
 40
5.0
 41
0.0
 71
     1
 72
     1
  1
\fTahoma|b0|i0;\H5.0000;Mat.
  7
Text poznámky (ISO)
 73
     1
 44
1.0
  0
MTEXT
  5
EB
330
CF
100
AcDbEntity
  8
Značka (ISO)
100
AcDbMText
 10
-33.0130165251342
 20
2.473781856899818
 30
0.0
 40
5.0
 41
20.42139291763306
 71
     1
 72
     1
  1
\fTahoma|b0|i0;\H5.0000;xxxxxx
  7
Text poznámky (ISO)
 73
     1
 44
1.0
  0
MTEXT
  5
EC
330
CF
100
AcDbEntity
  8
Značka (ISO)
100
AcDbMText
 10
-5.126613448311374
 20
2.473781856899818
 30
0.0
 40
5.0
 41
0.0
 71
     1
 72
     1
  1
\fTahoma|b0|i0;\H5.0000;xxxxxxxxxxx
  7
Text poznámky (ISO)
 73
     1
 44
1.0
  0
MTEXT
  5
ED
330
CF
100
AcDbEntity
  8
Značka (ISO)
100
AcDbMText
 10
-33.0130165251342
 20
-6.862452441171491
 30
0.0
 40
5.0
 41
20.42139291763306
 71
     1
 72
     1
  1
\fTahoma|b0|i0;\H5.0000;xxxxxx
  7
Text poznámky (ISO)
 73
     1
 44
1.0
  0
MTEXT
  5
EE
330
CF
100
AcDbEntity
  8
Značka (ISO)
100
AcDbMText
 10
-5.126613448311374
 20
-6.862452441171491
 30
0.0
 40
5.0
 41
0.0
 71
     1
 72
     1
  1
\fTahoma|b0|i0;\H5.0000;xxxxxxxxxxx
  7
Text poznámky (ISO)
 73
     1
 44
1.0
  0
MTEXT
  5
EF
330
CF
100
AcDbEntity
  8
Značka (ISO)
100
AcDbMText
 10
-33.0130165251342
 20
-15.52177565039578
 30
0.0
 40
5.0
 41
20.42139291763306
 71
     1
 72
     1
  1
\fTahoma|b0|i0;\H5.0000;xxxxxx
  7
Text poznámky (ISO)
 73
     1
 44
1.0
  0
MTEXT
  5
F0
330
CF
100
AcDbEntity
  8
Značka (ISO)
100
AcDbMText
 10
-5.126613448311374
 20
-15.52177565039578
 30
0.0
 40
5.0
 41
0.0
 71
     1
 72
     1
  1
\fTahoma|b0|i0;\H5.0000;xxxxxxxxxxx
  7
Text poznámky (ISO)
 73
     1
 44
1.0
  0
ENDBLK
  5
D1
330
CF
100
AcDbEntity
  8
0
100
AcDbBlockEnd
  0
BLOCK
  5
F2
330
F1
100
AcDbEntity
  8
0
100
AcDbBlockBegin
  2
Art. s popisy
 70
     0
 10
0.0
 20
0.0
 30
0.0
  3
Art. s popisy
  1

  0
LINE
  5
F4
330
F1
100
AcDbEntity
  8
Geometrie náčrtu (ISO)
100
AcDbLine
 10
-60.00000000000081
 20
-22.5
 30
0.0
 11
59.99999999999911
 21
-22.5
 31
0.0
  0
LINE
  5
F5
330
F1
100
AcDbEntity
  8
Geometrie náčrtu (ISO)
100
AcDbLine
 10
59.99999999999911
 20
-22.5
 30
0.0
 11
60.00000000000081
 21
-13.50000000000001
 31
0.0
  0
LINE
  5
F6
330
F1
100
AcDbEntity
  8
Geometrie náčrtu (ISO)
100
AcDbLine
 10
60.00000000000081
 20
-13.50000000000001
 30
0.0
 11
-60.00000000000081
 21
-13.49999999999998
 31
0.0
  0
LINE
  5
F7
330
F1
100
AcDbEntity
  8
Geometrie náčrtu (ISO)
100
AcDbLine
 10
-60.00000000000081
 20
-13.49999999999998
 30
0.0
 11
-60.00000000000081
 21
-22.5
 31
0.0
  0
LINE
  5
F8
330
F1
100
AcDbEntity
  8
Geometrie náčrtu (ISO)
100
AcDbLine
 10
-60.00000000000081
 20
-13.49999999999998
 30
0.0
 11
60.00000000000081
 21
-13.50000000000001
 31
0.0
  0
LINE
  5
F9
330
F1
100
AcDbEntity
  8
Geometrie náčrtu (ISO)
100
AcDbLine
 10
60.00000000000081
 20
-13.50000000000001
 30
0.0
 11
59.99999999999911
 21
-4.500000000000028
 31
0.0
  0
LINE
  5
FA
330
F1
100
AcDbEntity
  8
Geometrie náčrtu (ISO)
100
AcDbLine
 10
59.99999999999911
 20
-4.500000000000028
 30
0.0
 11
-60.00000000000081
 21
-4.499999999999992
 31
0.0
  0
LINE
  5
FB
330
F1
100
AcDbEntity
  8
Geometrie náčrtu (ISO)
100
AcDbLine
 10
-60.00000000000081
 20
-4.499999999999992
 30
0.0
 11
-60.00000000000081
 21
-13.49999999999998
 31
0.0
  0
LINE
  5
FC
330
F1
100
AcDbEntity
  8
Geometrie náčrtu (ISO)
100
AcDbLine
 10
-60.00000000000081
 20
-4.499999999999992
 30
0.0
 11
59.99999999999911
 21
-4.500000000000028
 31
0.0
  0
LINE
  5
FD
330
F1
100
AcDbEntity
  8
Geometrie náčrtu (ISO)
100
AcDbLine
 10
59.99999999999911
 20
-4.500000000000028
 30
0.0
 11
59.99999999999911
 21
4.499999999999957
 31
0.0
  0
LINE
  5
FE
330
F1
100
AcDbEntity
  8
Geometrie náčrtu (ISO)
100
AcDbLine
 10
59.99999999999911
 20
4.499999999999957
 30
0.0
 11
-60.00000000000081
 21
4.499999999999992
 31
0.0
  0
LINE
  5
FF
330
F1
100
AcDbEntity
  8
Geometrie náčrtu (ISO)
100
AcDbLine
 10
-60.00000000000081
 20
4.499999999999992
 30
0.0
 11
-60.00000000000081
 21
-4.499999999999992
 31
0.0
  0
LINE
  5
100
330
F1
100
AcDbEntity
  8
Geometrie náčrtu (ISO)
100
AcDbLine
 10
-60.00000000000081
 20
4.499999999999992
 30
0.0
 11
59.99999999999911
 21
4.499999999999957
 31
0.0
  0
LINE
  5
101
330
F1
100
AcDbEntity
  8
Geometrie náčrtu (ISO)
100
AcDbLine
 10
59.99999999999911
 20
4.499999999999957
 30
0.0
 11
59.99999999999911
 21
13.49999999999998
 31
0.0
  0
LINE
  5
102
330
F1
100
AcDbEntity
  8
Geometrie náčrtu (ISO)
100
AcDbLine
 10
59.99999999999911
 20
13.49999999999998
 30
0.0
 11
-60.00000000000081
 21
13.50000000000001
 31
0.0
  0
LINE
  5
103
330
F1
100
AcDbEntity
  8
Geometrie náčrtu (ISO)
100
AcDbLine
 10
-60.00000000000081
 20
13.50000000000001
 30
0.0
 11
-60.00000000000081
 21
4.499999999999992
 31
0.0
  0
LINE
  5
104
330
F1
100
AcDbEntity
  8
Geometrie náčrtu (ISO)
100
AcDbLine
 10
-60.00000000000081
 20
13.50000000000001
 30
0.0
 11
59.99999999999911
 21
13.49999999999998
 31
0.0
  0
LINE
  5
105
330
F1
100
AcDbEntity
  8
Geometrie náčrtu (ISO)
100
AcDbLine
 10
59.99999999999911
 20
13.49999999999998
 30
0.0
 11
59.99999999999911
 21
22.49999999999996
 31
0.0
  0
LINE
  5
106
330
F1
100
AcDbEntity
  8
Geometrie náčrtu (ISO)
100
AcDbLine
 10
59.99999999999911
 20
22.49999999999996
 30
0.0
 11
-60.00000000000081
 21
22.5
 31
0.0
  0
LINE
  5
107
330
F1
100
AcDbEntity
  8
Geometrie náčrtu (ISO)
100
AcDbLine
 10
-60.00000000000081
 20
22.5
 30
0.0
 11
-60.00000000000081
 21
13.50000000000001
 31
0.0
  0
LINE
  5
108
330
F1
100
AcDbEntity
  8
Geometrie náčrtu (ISO)
100
AcDbLine
 10
-32.00000000000081
 20
22.5
 30
0.0
 11
-32.00000000000081
 21
-22.5
 31
0.0
  0
MTEXT
  5
109
330
F1
100
AcDbEntity
  8
Značka (ISO)
100
AcDbMText
 10
-27.63552601875791
 20
11.7684641726084
 30
0.0
 40
5.0
 41
0.0
 71
     1
 72
     1
  1
\fTahoma|b0|i0;\H5.0000;xxxxxxxxxxx
  7
Text poznámky (ISO)
 73
     1
 44
1.0
  0
MTEXT
  5
10A
330
F1
100
AcDbEntity
  8
Značka (ISO)
100
AcDbMText
 10
-55.52192909558073
 20
11.7684641726084
 30
0.0
 40
5.0
 41
20.42139291763306
 71
     1
 72
     1
  1
\fTahoma|b0|i0;\H5.0000;xxxxxx
  7
Text poznámky (ISO)
 73
     1
 44
1.0
  0
MTEXT
  5
10B
330
F1
100
AcDbEntity
  8
Značka (ISO)
100
AcDbMText
 10
-54.58647492063526
 20
20.30710993714994
 30
0.0
 40
5.0
 41
13.92583036716939
 71
     1
 72
     1
  1
\fTahoma|b0|i0;\H5.0000;Art.
  7
Text poznámky (ISO)
 73
     1
 44
1.0
  0
MTEXT
  5
10C
330
F1
100
AcDbEntity
  8
Značka (ISO)
100
AcDbMText
 10
-18.21724056795421
 20
20.30710993714994
 30
0.0
 40
5.0
 41
0.0
 71
     1
 72
     1
  1
\fTahoma|b0|i0;\H5.0000;Popis.
  7
Text poznámky (ISO)
 73
     1
 44
1.0
  0
MTEXT
  5
10D
330
F1
100
AcDbEntity
  8
Značka (ISO)
100
AcDbMText
 10
-55.52192909558073
 20
2.473781856899818
 30
0.0
 40
5.0
 41
20.42139291763306
 71
     1
 72
     1
  1
\fTahoma|b0|i0;\H5.0000;xxxxxx
  7
Text poznámky (ISO)
 73
     1
 44
1.0
  0
MTEXT
  5
10E
330
F1
100
AcDbEntity
  8
Značka (ISO)
100
AcDbMText
 10
-27.63552601875791
 20
2.473781856899818
 30
0.0
 40
5.0
 41
0.0
 71
     1
 72
     1
  1
\fTahoma|b0|i0;\H5.0000;xxxxxxxxxxx
  7
Text poznámky (ISO)
 73
     1
 44
1.0
  0
MTEXT
  5
10F
330
F1
100
AcDbEntity
  8
Značka (ISO)
100
AcDbMText
 10
-55.52192909558073
 20
-6.862452441171491
 30
0.0
 40
5.0
 41
20.42139291763306
 71
     1
 72
     1
  1
\fTahoma|b0|i0;\H5.0000;xxxxxx
  7
Text poznámky (ISO)
 73
     1
 44
1.0
  0
MTEXT
  5
110
330
F1
100
AcDbEntity
  8
Značka (ISO)
100
AcDbMText
 10
-27.63552601875791
 20
-6.862452441171491
 30
0.0
 40
5.0
 41
0.0
 71
     1
 72
     1
  1
\fTahoma|b0|i0;\H5.0000;xxxxxxxxxxx
  7
Text poznámky (ISO)
 73
     1
 44
1.0
  0
MTEXT
  5
111
330
F1
100
AcDbEntity
  8
Značka (ISO)
100
AcDbMText
 10
-55.52192909558073
 20
-15.52177565039578
 30
0.0
 40
5.0
 41
20.42139291763306
 71
     1
 72
     1
  1
\fTahoma|b0|i0;\H5.0000;xxxxxx
  7
Text poznámky (ISO)
 73
     1
 44
1.0
  0
MTEXT
  5
112
330
F1
100
AcDbEntity
  8
Značka (ISO)
100
AcDbMText
 10
-27.63552601875791
 20
-15.52177565039578
 30
0.0
 40
5.0
 41
0.0
 71
     1
 72
     1
  1
\fTahoma|b0|i0;\H5.0000;xxxxxxxxxxx
  7
Text poznámky (ISO)
 73
     1
 44
1.0
  0
ENDBLK
  5
F3
330
F1
100
AcDbEntity
  8
0
100
AcDbBlockEnd
  0
BLOCK
  5
114
330
113
100
AcDbEntity
  8
0
100
AcDbBlockBegin
  2
Tryskat
 70
     0
 10
0.0
 20
0.0
 30
0.0
  3
Tryskat
  1

  0
MTEXT
  5
116
330
113
100
AcDbEntity
  8
Značka (ISO)
100
AcDbMText
 10
-30.20239114761352
 20
5.036920197308063
 30
0.0
 40
3.499999940395355
 41
0.0
 71
     1
 72
     1
  1
Tryskat \P( Blasted , Glasperlstrahken)
  7
Text poznámky (ISO)
 73
     2
 44
0.9878841638565063
  0
ENDBLK
  5
115
330
113
100
AcDbEntity
  8
0
100
AcDbBlockEnd
  0
BLOCK
  5
118
330
117
100
AcDbEntity
  8
0
100
AcDbBlockBegin
  2
Morit
 70
     0
 10
0.0
 20
0.0
 30
0.0
  3
Morit
  1

  0
MTEXT
  5
11A
330
117
100
AcDbEntity
  8
Značka (ISO)
100
AcDbMText
 10
-19.08124089241028
 20
5.11633675545454
 30
0.0
 40
3.499999940395355
 41
0.0
 71
     1
 72
     1
  1
Morit a pasivovat\P(Pickled, gebeitzt)
  7
Text poznámky (ISO)
 73
     2
 44
0.9878841638565063
  0
ENDBLK
  5
119
330
117
100
AcDbEntity
  8
0
100
AcDbBlockEnd
  0
BLOCK
  5
11C
330
11B
100
AcDbEntity
  8
0
100
AcDbBlockBegin
  2
zinkovat
 70
     0
 10
0.0
 20
0.0
 30
0.0
  3
zinkovat
  1

  0
MTEXT
  5
11E
330
11B
100
AcDbEntity
  8
Značka (ISO)
100
AcDbMText
 10
-27.74189710617065
 20
5.049683563411233
 30
0.0
 40
3.499999940395355
 41
0.0
 71
     1
 72
     1
  1
Zarove zinkovat\P(hot galvanized, verzinkt )
  7
Text poznámky (ISO)
 73
     2
 44
0.9878841638565063
  0
ENDBLK
  5
11D
330
11B
100
AcDbEntity
  8
0
100
AcDbBlockEnd
  0
BLOCK
  5
120
330
11F
100
AcDbEntity
  8
0
100
AcDbBlockBegin
  2
Nater
 70
     0
 10
0.0
 20
0.0
 30
0.0
  3
Nater
  1

  0
MTEXT
  5
122
330
11F
100
AcDbEntity
  8
Značka (ISO)
100
AcDbMText
 10
-25.88411808013916
 20
1.864870421122757
 30
0.0
 40
3.499999940395355
 41
0.0
 71
     1
 72
     1
  1
Lackiert Farbe RAL 5002
  7
Text poznámky (ISO)
 73
     1
 44
1.0
  0
ENDBLK
  5
121
330
11F
100
AcDbEntity
  8
0
100
AcDbBlockEnd
  0
BLOCK
  5
124
330
123
100
AcDbEntity
  8
0
100
AcDbBlockBegin
  2
Brus
 70
     0
 10
0.0
 20
0.0
 30
0.0
  3
Brus
  1

  0
MTEXT
  5
126
330
123
100
AcDbEntity
  8
Značka (ISO)
100
AcDbMText
 10
-23.46616744995117
 20
5.11633675545454
 30
0.0
 40
3.499999940395355
 41
0.0
 71
     1
 72
     1
  1
Brousit\P(geburstet , brushed )
  7
Text poznámky (ISO)
 73
     2
 44
0.9878841638565063
  0
ENDBLK
  5
125
330
123
100
AcDbEntity
  8
0
100
AcDbBlockEnd
  0
BLOCK
  5
128
330
127
100
AcDbEntity
  8
0
100
AcDbBlockBegin
  2
Elektroliticky lestit
 70
     0
 10
0.0
 20
0.0
 30
0.0
  3
Elektroliticky lestit
  1

  0
MTEXT
  5
12A
330
127
100
AcDbEntity
  8
Značka (ISO)
100
AcDbMText
 10
-18.68841171264648
 20
5.036920197308063
 30
0.0
 40
3.499999940395355
 41
0.0
 71
     1
 72
     1
  1
Elektrolit. lestit\P(Elektropolished )
  7
Text poznámky (ISO)
 73
     2
 44
0.9878841638565063
  0
ENDBLK
  5
129
330
127
100
AcDbEntity
  8
0
100
AcDbBlockEnd
  0
BLOCK
  5
12C
330
12B
100
AcDbEntity
  8
0
100
AcDbBlockBegin
  2
Mořit de.
 70
     0
 10
0.0
 20
0.0
 30
0.0
  3
Mořit de.
  1

  0
MTEXT
  5
12E
102
{ACAD_XDICTIONARY
360
1019
102
}
330
12B
100
AcDbEntity
  8
Značka (ISO)
100
AcDbMText
 10
-21.33184909820557
 20
4.448386959265915
 30
0.0
 40
3.499999940395355
 41
0.0
 71
     1
 72
     1
  1
Mo\U+0159it a opl\U+00E1chnout\PBeizen und Pasiviert
  7
Text poznámky (ISO)
 73
     2
 44
0.9878841638565063
  0
ENDBLK
  5
12D
330
12B
100
AcDbEntity
  8
0
100
AcDbBlockEnd
  0
BLOCK
  5
130
330
12F
100
AcDbEntity
  8
0
100
AcDbBlockBegin
  2
Žlab bez spádu De.
 70
     0
 10
0.0
 20
0.0
 30
0.0
  3
Žlab bez spádu De.
  1

  0
MTEXT
  5
132
102
{ACAD_XDICTIONARY
360
101B
102
}
330
12F
100
AcDbEntity
  8
Značka (ISO)
100
AcDbMText
 10
-20.81989526748657
 20
4.01017793221399
 30
0.0
 40
3.499999940395355
 41
0.0
 71
     1
 72
     1
  1
\U+017Dlab bez sp\U+00E1du!\PRinne ohne Gef\U+00E4lle!
  7
Text poznámky (ISO)
 73
     2
 44
0.9878841638565063
  0
ENDBLK
  5
131
330
12F
100
AcDbEntity
  8
0
100
AcDbBlockEnd
  0
BLOCK
  5
134
330
133
100
AcDbEntity
  8
0
100
AcDbBlockBegin
  2
Žlab bez spádu Ang.
 70
     0
 10
0.0
 20
0.0
 30
0.0
  3
Žlab bez spádu Ang.
  1

  0
MTEXT
  5
136
102
{ACAD_XDICTIONARY
360
101D
102
}
330
133
100
AcDbEntity
  8
Značka (ISO)
100
AcDbMText
 10
-24.31422233581541
 20
4.456895925104618
 30
0.0
 40
3.499999940395355
 41
0.0
 71
     1
 72
     1
  1
\U+017Dlab bez sp\U+00E1du!\PChannel without slope!
  7
Text poznámky (ISO)
 73
     2
 44
0.9878841638565063
  0
ENDBLK
  5
135
330
133
100
AcDbEntity
  8
0
100
AcDbBlockEnd
  0
BLOCK
  5
138
330
137
100
AcDbEntity
  8
0
100
AcDbBlockBegin
  2
Aschl Nirotec-tryskání
 70
     0
 10
0.0
 20
0.0
 30
0.0
  3
Aschl Nirotec-tryskání
  1

  0
MTEXT
  5
13A
102
{ACAD_XDICTIONARY
360
101F
102
}
330
137
100
AcDbEntity
  8
Značka (ISO)
100
AcDbMText
 10
-58.85332584381103
 20
10.67052584141493
 30
0.0
 40
3.499999940395355
 41
0.0
 71
     1
 72
     1
  1
Povrchov\U+00E1 \U+00FAprava/Oberfl\U+00E4che:\PTryskat pouze vnit\U+0159ek \U+017Elabu, v\U+010Detn\U+011B pohledov\U+00FDch ploch!\PP\U+0159\U+00EDruby proti trysk\U+00E1n\U+00ED chr\U+00E1nit!\PFlansches per strahlung beh\U+00FCtent!
  7
Text poznámky (ISO)
 73
     2
 44
0.9878841638565063
  0
ENDBLK
  5
139
330
137
100
AcDbEntity
  8
0
100
AcDbBlockEnd
  0
BLOCK
  5
13C
330
13B
100
AcDbEntity
  8
0
100
AcDbBlockBegin
  2
Popis šrouby_kotvy Ang.
 70
     0
 10
0.0
 20
0.0
 30
0.0
  3
Popis šrouby_kotvy Ang.
  1

  0
MTEXT
  5
13E
102
{ACAD_XDICTIONARY
360
1021
102
}
330
13B
100
AcDbEntity
  8
Značka (ISO)
100
AcDbMText
 10
-62.9617118835449
 20
22.19584088772535
 30
0.0
 40
3.499999940395355
 41
0.0
 71
     1
 72
     1
  3
Vzd\U+00E1lenost nivela\U+010Dn\U+00EDch \U+0161roubu ca. 1500mm.\PVzd\U+00E1lenost kotev ca. 400mm.\PPohledov\U+00E9 plochy brousit(vel.brusn\U+00FDch zrn 240)\Pa polepit p\U+00E1skou.\P\PDistance of leveling feets ca. 1500 mm.\PDistance of fixing t
  1
angs ca. 400 mm.\PVisible surfaces to be grinded and covered by protectiv foil.
  7
Text poznámky (ISO)
 73
     2
 44
0.9878841638565063
  0
ENDBLK
  5
13D
330
13B
100
AcDbEntity
  8
0
100
AcDbBlockEnd
  0
BLOCK
  5
140
330
13F
100
AcDbEntity
  8
0
100
AcDbBlockBegin
  2
Spád žlabu Ang.
 70
     0
 10
0.0
 20
0.0
 30
0.0
  3
Spád žlabu Ang.
  1

  0
MTEXT
  5
142
102
{ACAD_XDICTIONARY
360
1023
102
}
330
13F
100
AcDbEntity
  8
Značka (ISO)
100
AcDbMText
 10
-61.18476867675779
 20
16.15664371056482
 30
0.0
 40
3.499999940395355
 41
0.0
 71
     1
 72
     1
  1
POZOR:\PSp\U+00E1d \U+017Elabu je men\U+0161\U+00ED ne\U+017E 1% - nebezpe\U+010D\U+00ED vzniku prohlubn\U+00ED\Pse stojatou vodou.\PAUTENTION:\PThe gradient of the bottom is minor then 1%.\PThat can be reason of slack water.
  7
Text poznámky (ISO)
 73
     2
 44
0.9878841638565063
  0
ENDBLK
  5
141
330
13F
100
AcDbEntity
  8
0
100
AcDbBlockEnd
  0
BLOCK
  5
144
330
143
100
AcDbEntity
  8
0
100
AcDbBlockBegin
  2
Spád žlabu De.
 70
     0
 10
0.0
 20
0.0
 30
0.0
  3
Spád žlabu De.
  1

  0
MTEXT
  5
146
102
{ACAD_XDICTIONARY
360
1025
102
}
330
143
100
AcDbEntity
  8
Značka (ISO)
100
AcDbMText
 10
-61.18476867675779
 20
16.61612506955862
 30
0.0
 40
3.499999940395355
 41
0.0
 71
     1
 72
     1
  1
POZOR:\PSp\U+00E1d \U+017Elabu je men\U+0161\U+00ED ne\U+017E 1% - nebezpe\U+010D\U+00ED vzniku prohlubn\U+00ED\Pse stojatou vodou.\PACHTUNG:\PDas Bodengef\U+00E4lle ist kleiner als 1%. Das Gefahr der\PSenkungsentstehung mit dem stehenden Wasser.
  7
Text poznámky (ISO)
 73
     2
 44
0.9878841638565063
  0
ENDBLK
  5
145
330
143
100
AcDbEntity
  8
0
100
AcDbBlockEnd
  0
BLOCK
  5
148
330
147
100
AcDbEntity
  8
0
100
AcDbBlockBegin
  2
Kartáč + folie
 70
     0
 10
0.0
 20
0.0
 30
0.0
  3
Kartáč + folie
  1

  0
MTEXT
  5
14A
102
{ACAD_XDICTIONARY
360
1027
102
}
330
147
100
AcDbEntity
  8
Značka (ISO)
100
AcDbMText
 10
-39.86001014709473
 20
4.448386959265915
 30
0.0
 40
3.499999940395355
 41
0.0
 71
     1
 72
     1
  1
Kart\U+00E1\U+010Dov\U+00E1no + folie\PGeburstet mit abziehbarer Schutzfolie
  7
Text poznámky (ISO)
 73
     2
 44
0.9878841638565063
  0
ENDBLK
  5
149
330
147
100
AcDbEntity
  8
0
100
AcDbBlockEnd
  0
BLOCK
  5
14C
330
14B
100
AcDbEntity
  8
0
100
AcDbBlockBegin
  2
Komplet tryskat De.
 70
     0
 10
0.0
 20
0.0
 30
0.0
  3
Komplet tryskat De.
  1

  0
MTEXT
  5
14E
330
14B
100
AcDbEntity
  8
Značka (ISO)
100
AcDbMText
 10
-37.33711719512939
 20
7.475785464048382
 30
0.0
 40
3.499999940395355
 41
0.0
 71
     1
 72
     1
  1
KOMPLETT GLASPER GESTRAHLT !\PKOMPLET ZHORA TRYSKAT ! \P
  7
Text poznámky (ISO)
 73
     2
 44
0.9878841638565063
  0
ENDBLK
  5
14D
330
14B
100
AcDbEntity
  8
0
100
AcDbBlockEnd
  0
BLOCK
  5
150
330
14F
100
AcDbEntity
  8
0
100
AcDbBlockBegin
  2
Mořit Ang.
 70
     0
 10
0.0
 20
0.0
 30
0.0
  3
Mořit Ang.
  1

  0
MTEXT
  5
152
102
{ACAD_XDICTIONARY
360
1029
102
}
330
14F
100
AcDbEntity
  8
Značka (ISO)
100
AcDbMText
 10
-19.84846115112304
 20
4.448386959265915
 30
0.0
 40
3.499999940395355
 41
0.0
 71
     1
 72
     1
  1
Mo\U+0159it a opl\U+00E1chnout\PPickled and wash
  7
Text poznámky (ISO)
 73
     2
 44
0.9878841638565063
  0
ENDBLK
  5
151
330
14F
100
AcDbEntity
  8
0
100
AcDbBlockEnd
  0
BLOCK
  5
154
330
153
100
AcDbEntity
  8
0
100
AcDbBlockBegin
  2
Rámečky Default Border
 70
     0
 10
0.0
 20
0.0
 30
0.0
  3
Rámečky Default Border
  1

  0
POLYLINE
  5
156
330
153
100
AcDbEntity
  8
Rámeček (ISO)
100
AcDb2dPolyline
 66
     1
 10
0.0
 20
0.0
 30
0.0
 70
   128
  0
VERTEX
  5
157
330
156
100
AcDbEntity
  8
Rámeček (ISO)
100
AcDbVertex
100
AcDb2dVertex
 10
10.0
 20
10.0
 30
0.0
  0
VERTEX
  5
158
330
156
100
AcDbEntity
  8
Rámeček (ISO)
100
AcDbVertex
100
AcDb2dVertex
 10
10.0
 20
287.0000076293946
 30
0.0
  0
VERTEX
  5
15A
330
156
100
AcDbEntity
  8
Rámeček (ISO)
100
AcDbVertex
100
AcDb2dVertex
 10
410.0
 20
287.0000076293946
 30
0.0
  0
VERTEX
  5
15B
330
156
100
AcDbEntity
  8
Rámeček (ISO)
100
AcDbVertex
100
AcDb2dVertex
 10
410.0
 20
10.0
 30
0.0
  0
VERTEX
  5
15C
330
156
100
AcDbEntity
  8
Rámeček (ISO)
100
AcDbVertex
100
AcDb2dVertex
 10
10.0
 20
10.0
 30
0.0
  0
SEQEND
  5
159
330
156
100
AcDbEntity
  8
Rámeček (ISO)
  0
POLYLINE
  5
15D
330
153
100
AcDbEntity
  8
Rámeček (ISO)
100
AcDb2dPolyline
 66
     1
 10
0.0
 20
0.0
 30
0.0
 70
   128
  0
VERTEX
  5
15E
330
15D
100
AcDbEntity
  8
Rámeček (ISO)
100
AcDbVertex
100
AcDb2dVertex
 10
210.0
 20
0.0
 30
0.0
  0
VERTEX
  5
15F
330
15D
100
AcDbEntity
  8
Rámeček (ISO)
100
AcDbVertex
100
AcDb2dVertex
 10
210.0
 20
10.0
 30
0.0
  0
VERTEX
  5
161
330
15D
100
AcDbEntity
  8
Rámeček (ISO)
100
AcDbVertex
100
AcDb2dVertex
 10
207.1132469177246
 20
5.0
 30
0.0
  0
VERTEX
  5
162
330
15D
100
AcDbEntity
  8
Rámeček (ISO)
100
AcDbVertex
100
AcDb2dVertex
 10
212.8867530822754
 20
5.0
 30
0.0
  0
VERTEX
  5
163
330
15D
100
AcDbEntity
  8
Rámeček (ISO)
100
AcDbVertex
100
AcDb2dVertex
 10
210.0
 20
10.0
 30
0.0
  0
SEQEND
  5
160
330
15D
100
AcDbEntity
  8
Rámeček (ISO)
  0
POLYLINE
  5
164
330
153
100
AcDbEntity
  8
Rámeček (ISO)
100
AcDb2dPolyline
 66
     1
 10
0.0
 20
0.0
 30
0.0
 70
   128
  0
VERTEX
  5
165
330
164
100
AcDbEntity
  8
Rámeček (ISO)
100
AcDbVertex
100
AcDb2dVertex
 10
210.0
 20
297.0000076293946
 30
0.0
  0
VERTEX
  5
166
330
164
100
AcDbEntity
  8
Rámeček (ISO)
100
AcDbVertex
100
AcDb2dVertex
 10
210.0
 20
287.0000076293946
 30
0.0
  0
VERTEX
  5
168
330
164
100
AcDbEntity
  8
Rámeček (ISO)
100
AcDbVertex
100
AcDb2dVertex
 10
207.1132469177246
 20
292.0000076293945
 30
0.0
  0
VERTEX
  5
169
330
164
100
AcDbEntity
  8
Rámeček (ISO)
100
AcDbVertex
100
AcDb2dVertex
 10
212.8867530822754
 20
292.0000076293945
 30
0.0
  0
VERTEX
  5
16A
330
164
100
AcDbEntity
  8
Rámeček (ISO)
100
AcDbVertex
100
AcDb2dVertex
 10
210.0
 20
287.0000076293946
 30
0.0
  0
SEQEND
  5
167
330
164
100
AcDbEntity
  8
Rámeček (ISO)
  0
POLYLINE
  5
16B
330
153
100
AcDbEntity
  8
Rámeček (ISO)
100
AcDb2dPolyline
 66
     1
 10
0.0
 20
0.0
 30
0.0
 70
   128
  0
VERTEX
  5
16C
330
16B
100
AcDbEntity
  8
Rámeček (ISO)
100
AcDbVertex
100
AcDb2dVertex
 10
0.0
 20
148.5000038146973
 30
0.0
  0
VERTEX
  5
16D
330
16B
100
AcDbEntity
  8
Rámeček (ISO)
100
AcDbVertex
100
AcDb2dVertex
 10
10.0
 20
148.5000038146973
 30
0.0
  0
VERTEX
  5
16F
330
16B
100
AcDbEntity
  8
Rámeček (ISO)
100
AcDbVertex
100
AcDb2dVertex
 10
5.0
 20
151.3867473602295
 30
0.0
  0
VERTEX
  5
170
330
16B
100
AcDbEntity
  8
Rámeček (ISO)
100
AcDbVertex
100
AcDb2dVertex
 10
5.0
 20
145.6132507324219
 30
0.0
  0
VERTEX
  5
171
330
16B
100
AcDbEntity
  8
Rámeček (ISO)
100
AcDbVertex
100
AcDb2dVertex
 10
10.0
 20
148.5000038146973
 30
0.0
  0
SEQEND
  5
16E
330
16B
100
AcDbEntity
  8
Rámeček (ISO)
  0
POLYLINE
  5
172
330
153
100
AcDbEntity
  8
Rámeček (ISO)
100
AcDb2dPolyline
 66
     1
 10
0.0
 20
0.0
 30
0.0
 70
   128
  0
VERTEX
  5
173
330
172
100
AcDbEntity
  8
Rámeček (ISO)
100
AcDbVertex
100
AcDb2dVertex
 10
420.0
 20
148.5000038146973
 30
0.0
  0
VERTEX
  5
174
330
172
100
AcDbEntity
  8
Rámeček (ISO)
100
AcDbVertex
100
AcDb2dVertex
 10
410.0
 20
148.5000038146973
 30
0.0
  0
VERTEX
  5
176
330
172
100
AcDbEntity
  8
Rámeček (ISO)
100
AcDbVertex
100
AcDb2dVertex
 10
415.0
 20
151.3867473602295
 30
0.0
  0
VERTEX
  5
177
330
172
100
AcDbEntity
  8
Rámeček (ISO)
100
AcDbVertex
100
AcDb2dVertex
 10
415.0
 20
145.6132507324219
 30
0.0
  0
VERTEX
  5
178
330
172
100
AcDbEntity
  8
Rámeček (ISO)
100
AcDbVertex
100
AcDb2dVertex
 10
410.0
 20
148.5000038146973
 30
0.0
  0
SEQEND
  5
175
330
172
100
AcDbEntity
  8
Rámeček (ISO)
  0
LINE
  5
179
330
153
100
AcDbEntity
  8
Rámeček (ISO)
100
AcDbLine
 10
70.0
 20
10.0
 30
0.0
 11
70.0
 21
6.100000143051147
 31
0.0
  0
LINE
  5
17A
330
153
100
AcDbEntity
  8
Rámeček (ISO)
100
AcDbLine
 10
70.0
 20
287.0000076293946
 30
0.0
 11
70.0
 21
290.9000015258789
 31
0.0
  0
LINE
  5
17B
330
153
100
AcDbEntity
  8
Rámeček (ISO)
100
AcDbLine
 10
140.0
 20
10.0
 30
0.0
 11
140.0
 21
6.100000143051147
 31
0.0
  0
LINE
  5
17C
330
153
100
AcDbEntity
  8
Rámeček (ISO)
100
AcDbLine
 10
140.0
 20
287.0000076293946
 30
0.0
 11
140.0
 21
290.9000015258789
 31
0.0
  0
LINE
  5
17D
330
153
100
AcDbEntity
  8
Rámeček (ISO)
100
AcDbLine
 10
280.0
 20
10.0
 30
0.0
 11
280.0
 21
6.100000143051147
 31
0.0
  0
LINE
  5
17E
330
153
100
AcDbEntity
  8
Rámeček (ISO)
100
AcDbLine
 10
280.0
 20
287.0000076293946
 30
0.0
 11
280.0
 21
290.9000015258789
 31
0.0
  0
LINE
  5
17F
330
153
100
AcDbEntity
  8
Rámeček (ISO)
100
AcDbLine
 10
350.0
 20
10.0
 30
0.0
 11
350.0
 21
6.100000143051147
 31
0.0
  0
LINE
  5
180
330
153
100
AcDbEntity
  8
Rámeček (ISO)
100
AcDbLine
 10
350.0
 20
287.0000076293946
 30
0.0
 11
350.0
 21
290.9000015258789
 31
0.0
  0
MTEXT
  5
181
330
153
100
AcDbEntity
  8
Rámeček (ISO)
100
AcDbMText
 10
384.2103922448459
 20
287.4
 30
0.0
 40
3.499999940395355
 41
0.0
 71
     7
 72
     1
  1
1
  7
Text poznámky (ISO)
 73
     1
 44
1.0
  0
MTEXT
  5
182
330
153
100
AcDbEntity
  8
Rámeček (ISO)
100
AcDbMText
 10
384.2103922448459
 20
6.100000059604642
 30
0.0
 40
3.499999940395355
 41
0.0
 71
     7
 72
     1
  1
1
  7
Text poznámky (ISO)
 73
     1
 44
1.0
  0
MTEXT
  5
183
330
153
100
AcDbEntity
  8
Rámeček (ISO)
100
AcDbMText
 10
313.9387915541735
 20
287.4
 30
0.0
 40
3.499999940395355
 41
0.0
 71
     7
 72
     1
  1
2
  7
Text poznámky (ISO)
 73
     1
 44
1.0
  0
MTEXT
  5
184
330
153
100
AcDbEntity
  8
Rámeček (ISO)
100
AcDbMText
 10
313.9387915541735
 20
6.100000059604642
 30
0.0
 40
3.499999940395355
 41
0.0
 71
     7
 72
     1
  1
2
  7
Text poznámky (ISO)
 73
     1
 44
1.0
  0
MTEXT
  5
185
330
153
100
AcDbEntity
  8
Rámeček (ISO)
100
AcDbMText
 10
243.9107914829702
 20
287.3262560764327
 30
0.0
 40
3.499999940395355
 41
0.0
 71
     7
 72
     1
  1
3
  7
Text poznámky (ISO)
 73
     1
 44
1.0
  0
MTEXT
  5
186
330
153
100
AcDbEntity
  8
Rámeček (ISO)
100
AcDbMText
 10
243.9107914829702
 20
6.026256136037407
 30
0.0
 40
3.499999940395355
 41
0.0
 71
     7
 72
     1
  1
3
  7
Text poznámky (ISO)
 73
     1
 44
1.0
  0
MTEXT
  5
187
330
153
100
AcDbEntity
  8
Rámeček (ISO)
100
AcDbMText
 10
173.7791911483144
 20
287.4
 30
0.0
 40
3.499999940395355
 41
0.0
 71
     7
 72
     1
  1
4
  7
Text poznámky (ISO)
 73
     1
 44
1.0
  0
MTEXT
  5
188
330
153
100
AcDbEntity
  8
Rámeček (ISO)
100
AcDbMText
 10
173.7791911483144
 20
6.100000059604642
 30
0.0
 40
3.499999940395355
 41
0.0
 71
     7
 72
     1
  1
4
  7
Text poznámky (ISO)
 73
     1
 44
1.0
  0
MTEXT
  5
189
330
153
100
AcDbEntity
  8
Rámeček (ISO)
100
AcDbMText
 10
103.9751916467378
 20
287.3262560764327
 30
0.0
 40
3.499999940395355
 41
0.0
 71
     7
 72
     1
  1
5
  7
Text poznámky (ISO)
 73
     1
 44
1.0
  0
MTEXT
  5
18A
330
153
100
AcDbEntity
  8
Rámeček (ISO)
100
AcDbMText
 10
103.9751916467378
 20
6.026256136037407
 30
0.0
 40
3.499999940395355
 41
0.0
 71
     7
 72
     1
  1
5
  7
Text poznámky (ISO)
 73
     1
 44
1.0
  0
MTEXT
  5
18B
330
153
100
AcDbEntity
  8
Rámeček (ISO)
100
AcDbMText
 10
33.88279141176685
 20
287.3262560764327
 30
0.0
 40
3.499999940395355
 41
0.0
 71
     7
 72
     1
  1
6
  7
Text poznámky (ISO)
 73
     1
 44
1.0
  0
MTEXT
  5
18C
330
153
100
AcDbEntity
  8
Rámeček (ISO)
100
AcDbMText
 10
33.88279141176685
 20
6.026256136037407
 30
0.0
 40
3.499999940395355
 41
0.0
 71
     7
 72
     1
  1
6
  7
Text poznámky (ISO)
 73
     1
 44
1.0
  0
LINE
  5
18D
330
153
100
AcDbEntity
  8
Rámeček (ISO)
100
AcDbLine
 10
10.0
 20
74.25000190734862
 30
0.0
 11
6.100000143051147
 21
74.25000190734862
 31
0.0
  0
LINE
  5
18E
330
153
100
AcDbEntity
  8
Rámeček (ISO)
100
AcDbLine
 10
410.0
 20
74.25000190734862
 30
0.0
 11
413.8999938964841
 21
74.25000190734862
 31
0.0
  0
LINE
  5
18F
330
153
100
AcDbEntity
  8
Rámeček (ISO)
100
AcDbLine
 10
10.0
 20
222.7499961853027
 30
0.0
 11
6.100000143051147
 21
222.7499961853027
 31
0.0
  0
LINE
  5
190
330
153
100
AcDbEntity
  8
Rámeček (ISO)
100
AcDbLine
 10
410.0
 20
222.7499961853027
 30
0.0
 11
413.8999938964841
 21
222.7499961853027
 31
0.0
  0
MTEXT
  5
191
330
153
100
AcDbEntity
  8
Rámeček (ISO)
100
AcDbMText
 10
6.361230343933396
 20
35.37500002980233
 30
0.0
 40
3.499999940395355
 41
0.0
 71
     7
 72
     1
  1
A
  7
Text poznámky (ISO)
 73
     1
 44
1.0
  0
MTEXT
  5
192
330
153
100
AcDbEntity
  8
Rámeček (ISO)
100
AcDbMText
 10
410.6612302843286
 20
35.37500002980233
 30
0.0
 40
3.499999940395355
 41
0.0
 71
     7
 72
     1
  1
A
  7
Text poznámky (ISO)
 73
     1
 44
1.0
  0
MTEXT
  5
193
330
153
100
AcDbEntity
  8
Rámeček (ISO)
100
AcDbMText
 10
6.781848468328937
 20
109.6250000298023
 30
0.0
 40
3.499999940395355
 41
0.0
 71
     7
 72
     1
  1
B
  7
Text poznámky (ISO)
 73
     1
 44
1.0
  0
MTEXT
  5
194
330
153
100
AcDbEntity
  8
Rámeček (ISO)
100
AcDbMText
 10
411.0818484087242
 20
109.6250000298023
 30
0.0
 40
3.499999940395355
 41
0.0
 71
     7
 72
     1
  1
B
  7
Text poznámky (ISO)
 73
     1
 44
1.0
  0
MTEXT
  5
195
330
153
100
AcDbEntity
  8
Rámeček (ISO)
100
AcDbMText
 10
6.558903094188357
 20
183.8126013241708
 30
0.0
 40
3.499999940395355
 41
0.0
 71
     7
 72
     1
  1
C
  7
Text poznámky (ISO)
 73
     1
 44
1.0
  0
MTEXT
  5
196
330
153
100
AcDbEntity
  8
Rámeček (ISO)
100
AcDbMText
 10
410.8589030345836
 20
183.8126013241708
 30
0.0
 40
3.499999940395355
 41
0.0
 71
     7
 72
     1
  1
C
  7
Text poznámky (ISO)
 73
     1
 44
1.0
  0
MTEXT
  5
197
330
153
100
AcDbEntity
  8
Rámeček (ISO)
100
AcDbMText
 10
6.56770745709084
 20
258.1250000298023
 30
0.0
 40
3.499999940395355
 41
0.0
 71
     7
 72
     1
  1
D
  7
Text poznámky (ISO)
 73
     1
 44
1.0
  0
MTEXT
  5
198
330
153
100
AcDbEntity
  8
Rámeček (ISO)
100
AcDbMText
 10
410.8677073974861
 20
258.1250000298023
 30
0.0
 40
3.499999940395355
 41
0.0
 71
     7
 72
     1
  1
D
  7
Text poznámky (ISO)
 73
     1
 44
1.0
  0
ENDBLK
  5
155
330
153
100
AcDbEntity
  8
0
100
AcDbBlockEnd
  0
BLOCK
  5
19B
330
19A
100
AcDbEntity
  8
0
100
AcDbBlockBegin
  2
Rohová razítka ACO-razitko
 70
     2
 10
0.0
 20
0.0
 30
0.0
  3
Rohová razítka ACO-razitko
  1

  0
LINE
  5
19D
330
19A
100
AcDbEntity
  8
KOPF
  6
Continuous
370
    25
100
AcDbLine
 10
271.0
 20
94.01203200000002
 30
0.0
 11
271.0
 21
74.00000000000004
 31
0.0
  0
LINE
  5
19E
330
19A
100
AcDbEntity
  8
KOPF
  6
Continuous
370
    25
100
AcDbLine
 10
271.0
 20
94.01203200000002
 30
0.0
 11
271.0
 21
74.00000000000004
 31
0.0
  0
CIRCLE
  5
19F
330
19A
100
AcDbEntity
  8
TEXT50
  6
Continuous
370
    25
100
AcDbCircle
 10
228.4029491544077
 20
82.96404964998812
 30
0.0
 40
1.979948192651899
  0
LINE
  5
1A0
330
19A
100
AcDbEntity
  8
TEXT50
  6
Continuous
370
    25
100
AcDbLine
 10
243.3885593590108
 20
84.94399784264013
 30
0.0
 11
243.3885593590108
 21
80.98410145733607
 31
0.0
  0
LINE
  5
1A1
330
19A
100
AcDbEntity
  8
TEXT50
  6
Continuous
370
    25
100
AcDbLine
 10
234.8388431898113
 20
86.98698300161327
 30
0.0
 11
234.8388431898113
 21
78.94111629836295
 31
0.0
  0
LINE
  5
1A2
330
19A
100
AcDbEntity
  8
TEXT50
  6
Continuous
370
    25
100
AcDbLine
 10
243.3885593590108
 20
84.94399784264013
 30
0.0
 11
234.8388431898113
 21
86.98698300161327
 31
0.0
  0
CIRCLE
  5
1A3
330
19A
100
AcDbEntity
  8
TEXT50
  6
Continuous
370
    25
100
AcDbCircle
 10
228.4029491544077
 20
82.96404964998812
 30
0.0
 40
4.022933351625178
  0
LINE
  5
1A4
330
19A
100
AcDbEntity
  8
TEXT50
  6
Continuous
370
    25
100
AcDbLine
 10
234.8388431898113
 20
78.94111629836295
 30
0.0
 11
243.3885593590108
 21
80.98410145733607
 31
0.0
  0
CIRCLE
  5
1A5
330
19A
100
AcDbEntity
  8
TEXT35
  6
Continuous
370
    25
100
AcDbCircle
 10
221.0936673107637
 20
101.9131972309053
 30
0.0
 40
2.281499999999998
  0
CIRCLE
  5
1A6
330
19A
100
AcDbEntity
  8
TEXT35
  6
Continuous
370
    25
100
AcDbCircle
 10
221.0936673107637
 20
101.9131972309053
 30
0.0
 40
1.579499999999999
  0
ARC
  5
1A7
330
19A
100
AcDbEntity
  8
TEXT35
  6
Continuous
370
    25
100
AcDbCircle
 10
214.6291610736662
 20
101.9131972309054
 30
0.0
 40
1.57950000000007
100
AcDbArc
 50
31.05580049908738
 51
329.9999999999987
  0
LINE
  5
1A8
330
19A
100
AcDbEntity
  8
TEXT35
  6
Continuous
370
    25
100
AcDbLine
 10
215.9822639109751
 20
102.7280180465864
 30
0.0
 11
216.5902852082589
 21
103.0790593062462
 31
0.0
  0
ARC
  5
1A9
330
19A
100
AcDbEntity
  8
TEXT35
  6
Continuous
370
    25
100
AcDbCircle
 10
214.6291610736662
 20
101.9131972309052
 30
0.0
 40
2.281500000000015
100
AcDbArc
 50
30.73091726592628
 51
330.0000000000017
  0
LINE
  5
1AA
330
19A
100
AcDbEntity
  8
TEXT35
  6
Continuous
370
    25
100
AcDbLine
 10
216.6049980324005
 20
100.7724472309053
 30
0.0
 11
215.9970481989438
 21
101.1234472309053
 31
0.0
  0
LINE
  5
1AB
330
19A
100
AcDbEntity
  8
TEXT35
  6
Continuous
370
    25
100
AcDbLine
 10
211.8347763192409
 20
111.6789659312995
 30
0.0
 11
211.8347763192409
 21
98.44416361029551
 31
0.0
  0
LINE
  5
1AC
330
19A
100
AcDbEntity
  8
TEXT35
  6
Continuous
370
    25
100
AcDbLine
 10
211.8347763192409
 20
98.44416361029551
 30
0.0
 11
217.4235458280916
 21
98.44416361029551
 31
0.0
  0
LINE
  5
1AD
330
19A
100
AcDbEntity
  8
TEXT35
  6
Continuous
370
    25
100
AcDbLine
 10
217.4235458280916
 20
98.44416361029551
 30
0.0
 11
217.4235458280916
 21
111.6789659312995
 31
0.0
  0
LINE
  5
1AE
330
19A
100
AcDbEntity
  8
TEXT35
  6
Continuous
370
    25
100
AcDbLine
 10
217.4235458280916
 20
111.6789659312995
 30
0.0
 11
211.8347763192409
 21
111.6789659312995
 31
0.0
  0
LINE
  5
1AF
330
19A
100
AcDbEntity
  8
TEXT35
  6
Continuous
370
    25
100
AcDbLine
 10
223.888052065189
 20
111.6789659312995
 30
0.0
 11
223.888052065189
 21
98.44416361029551
 31
0.0
  0
LINE
  5
1B0
330
19A
100
AcDbEntity
  8
TEXT35
  6
Continuous
370
    25
100
AcDbLine
 10
223.888052065189
 20
98.44416361029551
 30
0.0
 11
218.2992825563384
 21
98.44416361029551
 31
0.0
  0
LINE
  5
1B1
330
19A
100
AcDbEntity
  8
TEXT35
  6
Continuous
370
    25
100
AcDbLine
 10
218.2992825563384
 20
98.44416361029551
 30
0.0
 11
218.2992825563384
 21
111.6789659312995
 31
0.0
  0
LINE
  5
1B2
330
19A
100
AcDbEntity
  8
TEXT35
  6
Continuous
370
    25
100
AcDbLine
 10
218.2992825563384
 20
111.6789659312995
 30
0.0
 11
223.888052065189
 21
111.6789659312995
 31
0.0
  0
ARC
  5
1B3
330
19A
100
AcDbEntity
  8
TEXT35
  6
Continuous
370
    25
100
AcDbCircle
 10
211.499154836569
 20
99.57623034270234
 30
0.0
 40
4.914000000000251
100
AcDbArc
 50
172.305837035409
 51
179.7113029220757
  0
LINE
  5
1B4
330
19A
100
AcDbEntity
  8
TEXT35
  6
Continuous
370
    25
100
AcDbLine
 10
206.6293963427935
 20
100.2341423522474
 30
0.0
 11
209.6999133303443
 21
100.2341423522474
 31
0.0
  0
ARC
  5
1B5
330
19A
100
AcDbEntity
  8
TEXT35
  6
Continuous
370
    25
100
AcDbCircle
 10
204.8301548365688
 20
99.57623034270323
 30
0.0
 40
4.914000000000132
100
AcDbArc
 50
0.2886970779141535
 51
7.694162964580896
  0
LINE
  5
1B6
330
19A
100
AcDbEntity
  8
TEXT35
  6
Continuous
370
    25
100
AcDbLine
 10
209.7440924568018
 20
99.60099048123304
 30
0.0
 11
210.4461002543538
 21
99.60099048123304
 31
0.0
  0
ARC
  5
1B7
330
19A
100
AcDbEntity
  8
TEXT35
  6
Continuous
370
    25
100
AcDbCircle
 10
204.8301548365688
 20
99.5762303427033
 30
0.0
 40
5.616000000000016
100
AcDbArc
 50
0.2526096926473688
 51
53.57642635766914
  0
ARC
  5
1B8
330
19A
100
AcDbEntity
  8
TEXT35
  6
Continuous
370
    25
100
AcDbCircle
 10
211.4991548365688
 20
99.57623034270323
 30
0.0
 40
5.616000000000023
100
AcDbArc
 50
126.4235736423304
 51
179.7473903073512
  0
LINE
  5
1B9
330
19A
100
AcDbEntity
  8
TEXT35
  6
Continuous
370
    25
100
AcDbLine
 10
205.8832094187838
 20
99.60099048123304
 30
0.0
 11
206.5852172163358
 21
99.60099048123304
 31
0.0
  0
LINE
  5
1BA
330
19A
100
AcDbEntity
  8
TEXT35
  6
Continuous
370
    25
100
AcDbLine
 10
205.3702700821435
 20
111.6789659312995
 30
0.0
 11
205.3702700821435
 21
98.44416361029551
 31
0.0
  0
LINE
  5
1BB
330
19A
100
AcDbEntity
  8
TEXT35
  6
Continuous
370
    25
100
AcDbLine
 10
205.3702700821435
 20
98.44416361029551
 30
0.0
 11
210.9590395909941
 21
98.44416361029551
 31
0.0
  0
LINE
  5
1BC
330
19A
100
AcDbEntity
  8
TEXT35
  6
Continuous
370
    25
100
AcDbLine
 10
210.9590395909941
 20
98.44416361029551
 30
0.0
 11
210.9590395909941
 21
111.6789659312995
 31
0.0
  0
LINE
  5
1BD
330
19A
100
AcDbEntity
  8
TEXT35
  6
Continuous
370
    25
100
AcDbLine
 10
210.9590395909941
 20
111.6789659312995
 30
0.0
 11
205.3702700821435
 21
111.6789659312995
 31
0.0
  0
ARC
  5
1BE
330
19A
100
AcDbEntity
  8
TEXT35
  6
Continuous
370
    25
100
AcDbCircle
 10
204.830154836569
 20
99.57623034270341
 30
0.0
 40
4.913999999999818
100
AcDbArc
 50
16.0658750272321
 51
47.26788995739759
  0
LINE
  5
1BF
330
19A
100
AcDbEntity
  8
TEXT35
  6
Continuous
370
    25
100
AcDbLine
 10
209.5522343918387
 20
100.9361423522474
 30
0.0
 11
206.7770752812989
 21
100.9361423522474
 31
0.0
  0
ARC
  5
1C0
330
19A
100
AcDbEntity
  8
TEXT35
  6
Continuous
370
    25
100
AcDbCircle
 10
211.4991548365683
 20
99.57623034270341
 30
0.0
 40
4.913999999999566
100
AcDbArc
 50
132.7321100425983
 51
163.9341249727667
  0
LINE
  5
1C1
330
19A
100
AcDbEntity
  8
Nadpis (ISO)
100
AcDbLine
 10
304.0
 20
114.0000000000001
 30
0.0
 11
304.0
 21
45.0
 31
0.0
  0
LINE
  5
1C2
330
19A
100
AcDbEntity
  8
Nadpis (ISO)
100
AcDbLine
 10
304.0
 20
45.0
 30
0.0
 11
117.0
 21
44.99999999999999
 31
0.0
  0
LINE
  5
1C3
330
19A
100
AcDbEntity
  8
Nadpis (ISO)
100
AcDbLine
 10
117.0
 20
44.99999999999999
 30
0.0
 11
117.0
 21
114.0
 31
0.0
  0
LINE
  5
1C4
330
19A
100
AcDbEntity
  8
Nadpis (ISO)
100
AcDbLine
 10
117.0
 20
114.0
 30
0.0
 11
304.0
 21
114.0000000000001
 31
0.0
  0
LINE
  5
1C5
330
19A
100
AcDbEntity
  8
Nadpis (ISO)
100
AcDbLine
 10
199.0
 20
114.0
 30
0.0
 11
199.0
 21
93.99999999999998
 31
0.0
  0
LINE
  5
1C6
330
19A
100
AcDbEntity
  8
KOPF
100
AcDbLine
 10
199.0
 20
104.0
 30
0.0
 11
117.0
 21
104.0
 31
0.0
  0
LINE
  5
1C7
330
19A
100
AcDbEntity
  8
Nadpis (ISO)
100
AcDbLine
 10
199.0
 20
93.99999999999998
 30
0.0
 11
117.0
 21
93.99999999999996
 31
0.0
  0
LINE
  5
1C8
330
19A
100
AcDbEntity
  8
KOPF
100
AcDbLine
 10
158.0
 20
93.99999999999998
 30
0.0
 11
158.0
 21
114.0
 31
0.0
  0
LINE
  5
1C9
330
19A
100
AcDbEntity
  8
Nadpis (ISO)
100
AcDbLine
 10
199.0
 20
93.99999999999998
 30
0.0
 11
304.0
 21
94.00000000000003
 31
0.0
  0
LINE
  5
1CA
330
19A
100
AcDbEntity
  8
Nadpis (ISO)
100
AcDbLine
 10
223.0
 20
94.00000000000003
 30
0.0
 11
223.0
 21
44.99999999999999
 31
0.0
  0
LINE
  5
1CB
330
19A
100
AcDbEntity
  8
Nadpis (ISO)
100
AcDbLine
 10
304.0
 20
74.00000000000004
 30
0.0
 11
117.0
 21
73.99999999999998
 31
0.0
  0
LINE
  5
1CC
330
19A
100
AcDbEntity
  8
Nadpis (ISO)
100
AcDbLine
 10
186.0
 20
94.0
 30
0.0
 11
186.0
 21
74.00000000000002
 31
0.0
  0
LINE
  5
1CD
330
19A
100
AcDbEntity
  8
KOPF
100
AcDbLine
 10
144.0
 20
93.99999999999996
 30
0.0
 11
144.0
 21
74.00000000000004
 31
0.0
  0
LINE
  5
1CE
330
19A
100
AcDbEntity
  8
KOPF
100
AcDbLine
 10
169.0
 20
93.99999999999996
 30
0.0
 11
169.0
 21
74.00000000000004
 31
0.0
  0
LINE
  5
1CF
330
19A
100
AcDbEntity
  8
KOPF
100
AcDbLine
 10
186.0
 20
84.0
 30
0.0
 11
117.0
 21
83.99999999999996
 31
0.0
  0
LINE
  5
1D0
330
19A
100
AcDbEntity
  8
KOPF
100
AcDbLine
 10
186.0
 20
79.0
 30
0.0
 11
117.0
 21
78.99999999999997
 31
0.0
  0
LINE
  5
1D1
330
19A
100
AcDbEntity
  8
KOPF
100
AcDbLine
 10
186.0
 20
89.0
 30
0.0
 11
117.0
 21
88.99999999999996
 31
0.0
  0
LINE
  5
1D2
330
19A
100
AcDbEntity
  8
KOPF
100
AcDbLine
 10
223.0
 20
49.99999999999996
 30
0.0
 11
304.0
 21
50.00000000000003
 31
0.0
  0
LINE
  5
1D3
330
19A
100
AcDbEntity
  8
KOPF
100
AcDbLine
 10
245.0
 20
94.00000000000003
 30
0.0
 11
245.0
 21
74.00000000000004
 31
0.0
  0
LINE
  5
1D4
330
19A
100
AcDbEntity
  8
Nadpis (ISO)
100
AcDbLine
 10
292.0
 20
74.00000000000004
 30
0.0
 11
292.0
 21
50.00000000000007
 31
0.0
  0
LINE
  5
1D5
330
19A
100
AcDbEntity
  8
KOPF
100
AcDbLine
 10
292.0
 20
50.0
 30
0.0
 11
292.0
 21
45.0
 31
0.0
  0
LINE
  5
1D6
330
19A
100
AcDbEntity
  8
Nadpis (ISO)
100
AcDbLine
 10
260.9160465310349
 20
50.0
 30
0.0
 11
260.9160465310349
 21
45.0
 31
0.0
  0
TEXT
  5
1D8
330
19A
100
AcDbEntity
  8
Viditelná tenká (ISO)
100
AcDbText
 10
273.0
 20
84.97994933403731
 30
0.0
 40
1.539999991655349
  1
zum Zweck anderweitiger Benutzung
 41
0.7999999523162842
  7
Styl textu62
100
AcDbText
  0
TEXT
  5
1DA
330
19A
100
AcDbEntity
  8
Viditelná tenká (ISO)
100
AcDbText
 10
273.0
 20
82.63814072439636
 30
0.0
 40
1.539999991655349
  1
mitgeteilt werden und bleibt unser
 41
0.7999999523162842
  7
Styl textu62
100
AcDbText
  0
TEXT
  5
1DB
330
19A
100
AcDbEntity
  8
Viditelná tenká (ISO)
100
AcDbText
 10
273.0
 20
87.26106040199923
 30
0.0
 40
1.539999991655349
  1
noch dritten Personen, insbesondere
 41
0.7999999523162842
  7
Styl textu62
100
AcDbText
  0
TEXT
  5
1DC
330
19A
100
AcDbEntity
  8
Viditelná tenká (ISO)
100
AcDbText
 10
273.0
 20
89.62823225872142
 30
0.0
 40
1.539999991655349
  1
Diese Zeichnung darf weder kopiert
 41
0.7999999523162842
  7
Styl textu62
100
AcDbText
  0
TEXT
  5
1DD
330
19A
100
AcDbEntity
  8
Viditelná tenká (ISO)
100
AcDbText
 10
273.0
 20
80.37532604459601
 30
0.0
 40
1.539999991655349
  1
Eigentum.
 41
0.7999999523162842
  7
Styl textu62
100
AcDbText
  0
TEXT
  5
1DF
330
19A
100
AcDbEntity
  8
Viditelná tenká (ISO)
100
AcDbText
 10
223.6386390092129
 20
91.29914147596016
 30
0.0
 40
2.000000029802321
  1
Projektion: ISO-E
 41
0.7999999523162842
  7
Styl textu58
100
AcDbText
  0
TEXT
  5
1E1
330
19A
100
AcDbEntity
  8
Viditelná tenká (ISO)
100
AcDbText
 10
273.0
 20
77.30982488917629
 30
0.0
 40
1.539999991655349
  1
Schutzvermerk nach DIN 34 beachten
 41
0.75
  7
Styl textu63
100
AcDbText
  0
TEXT
  5
1E2
330
19A
100
AcDbEntity
  8
Viditelná tenká (ISO)
100
AcDbText
 10
236.2487793316645
 20
99.38243367792949
 30
0.0
 40
2.000000029802321
  1
582 22 Přibyslav; CZ
 41
0.7999999523162842
  7
Styl textu58
100
AcDbText
  0
TEXT
  5
1E3
330
19A
100
AcDbEntity
  8
Viditelná tenká (ISO)
100
AcDbText
 10
236.5351154208068
 20
103.0087314099309
 30
0.0
 40
2.000000029802321
  1
Havlíčkova 260
 41
0.7999999523162842
  7
Styl textu58
100
AcDbText
  0
TEXT
  5
1E5
330
19A
100
AcDbEntity
  8
TEXT35
100
AcDbText
 10
235.9801354774567
 20
108.2018007493417
 30
0.0
 40
3.000000119209288
  1
ACO Industries k.s.
 41
0.7999999523162842
  7
Styl textu75
100
AcDbText
  0
TEXT
  5
1E7
330
19A
100
AcDbEntity
  8
Viditelná tenká (ISO)
100
AcDbText
 10
261.6456899832647
 20
102.9064533471121
 30
0.0
 40
2.099999934434889
  1
Tel.: +420 569 491 111
 41
0.7000000476837159
  7
Styl textu72
100
AcDbText
  0
MTEXT
  5
1E8
330
19A
100
AcDbEntity
  8
Viditelná tenká (ISO)
100
AcDbMText
 10
223.7412519286358
 20
73.27889989032858
 30
0.0
 40
2.000000029802321
 41
34.87667701558774
 71
     1
 72
     1
  1
\fArial|b0|i0;\H2.0000;Zeichnung Nr.\fTahoma|b0|i0;\H2.0000;/Drawing No:
  7
Text poznámky (ISO)
 73
     1
 44
1.0
  0
MTEXT
  5
1E9
330
19A
100
AcDbEntity
  8
Viditelná tenká (ISO)
100
AcDbMText
 10
292.8014921014588
 20
72.84063462326732
 30
0.0
 40
2.000000029802321
 41
7.016185171142836
 71
     1
 72
     1
  1
\fArial|b0|i0;\H2.0000;Index
  7
Text poznámky (ISO)
 73
     1
 44
1.0
  0
MTEXT
  5
1EA
330
19A
100
AcDbEntity
  8
Viditelná tenká (ISO)
100
AcDbMText
 10
188.9161081342839
 20
93.0
 30
0.0
 40
2.000000029802321
 41
0.0
 71
     1
 72
     1
  1
\fArial|b0|i0;\H2.0000;Massstab\fTahoma|b0|i0;\H2.0000;/Scale:
  7
Text poznámky (ISO)
 73
     1
 44
1.0
  0
MTEXT
  5
1EB
330
19A
100
AcDbEntity
  8
Viditelná tenká (ISO)
100
AcDbMText
 10
118.0
 20
113.0
 30
0.0
 40
2.000000029802321
 41
0.0
 71
     1
 72
     1
  1
\fArial|b0|i0;\H2.0000;Werkstoff/Material:
  7
Text poznámky (ISO)
 73
     1
 44
1.0
  0
MTEXT
  5
1EC
330
19A
100
AcDbEntity
  8
Viditelná tenká (ISO)
100
AcDbMText
 10
159.0
 20
113.0
 30
0.0
 40
2.000000029802321
 41
0.0
 71
     1
 72
     1
  1
\fArial|b0|i0;\H2.0000;Gewicht/Weight:
  7
Text poznámky (ISO)
 73
     1
 44
1.0
  0
MTEXT
  5
1ED
330
19A
100
AcDbEntity
  8
Viditelná tenká (ISO)
100
AcDbMText
 10
118.0
 20
103.0
 30
0.0
 40
2.000000029802321
 41
0.0
 71
     1
 72
     1
  1
\fArial|b0|i0;\H2.0000;zul.Abweich.\fTahoma|b0|i0;\H2.0000;/Tolerance:
  7
Text poznámky (ISO)
 73
     1
 44
1.0
  0
MTEXT
  5
1EE
330
19A
100
AcDbEntity
  8
Viditelná tenká (ISO)
100
AcDbMText
 10
159.0
 20
103.0
 30
0.0
 40
2.000000029802321
 41
0.0
 71
     1
 72
     1
  1
\fArial|b0|i0;\H2.0000;Oberflache\fTahoma|b0|i0;\H2.0000;/Surface:
  7
Text poznámky (ISO)
 73
     1
 44
1.0
  0
MTEXT
  5
1EF
330
19A
100
AcDbEntity
  8
Viditelná tenká (ISO)
100
AcDbMText
 10
118.2064366962235
 20
87.52498463872976
 30
0.0
 40
2.000000029802321
 41
0.0
 71
     1
 72
     1
  1
\fArial|b0|i0;\H2.0000;Gezeichnet\fTahoma|b0|i0;\H2.0000;/Drawn:
  7
Text poznámky (ISO)
 73
     1
 44
1.0
  0
MTEXT
  5
1F0
102
{ACAD_XDICTIONARY
360
102B
102
}
330
19A
100
AcDbEntity
  8
Viditelná tenká (ISO)
100
AcDbMText
 10
118.2064366962235
 20
82.79398756785594
 30
0.0
 40
2.000000029802321
 41
0.0
 71
     1
 72
     1
  1
\fArial|b0|i0;\H2.0000;Gepr\U+00FCft\fTahoma|b0|i0;\H2.0000;/Checked by:
  7
Text poznámky (ISO)
 73
     1
 44
1.0
  0
MTEXT
  5
1F1
330
19A
100
AcDbEntity
  8
Viditelná tenká (ISO)
100
AcDbMText
 10
118.2064366962235
 20
77.59713566222233
 30
0.0
 40
2.000000029802321
 41
0.0
 71
     1
 72
     1
  1
\fArial|b0|i0;\H2.0000;Update\fTahoma|b0|i0;\H2.0000;:
  7
Text poznámky (ISO)
 73
     1
 44
1.0
  0
MTEXT
  5
1F2
330
19A
100
AcDbEntity
  8
Viditelná tenká (ISO)
100
AcDbMText
 10
148.0773056067903
 20
93.0
 30
0.0
 40
2.000000029802321
 41
15.9304416179657
 71
     1
 72
     1
  1
\fArial|b0|i0;\H2.0000;Datum\fTahoma|b0|i0;\H2.0000;/Date:
  7
Text poznámky (ISO)
 73
     1
 44
1.0
  0
MTEXT
  5
1F3
330
19A
100
AcDbEntity
  8
Viditelná tenká (ISO)
100
AcDbMText
 10
171.7579499603394
 20
93.0
 30
0.0
 40
2.000000029802321
 41
7.452743649482727
 71
     1
 72
     1
  1
\fArial|b0|i0;\H2.0000;Name
  7
Text poznámky (ISO)
 73
     1
 44
1.0
  0
MTEXT
  5
1F4
102
{ACAD_XDICTIONARY
360
102D
102
}
330
19A
100
AcDbEntity
  8
Nadpis (ISO)
100
AcDbMText
 10
118.0
 20
71.0
 30
0.0
 40
3.499999940395355
 41
0.0
 71
     1
 72
     1
  1
ACO vpust 142 sestava vod. dvoud\U+00EDln\U+00E1 DN100 12mm priruba bez ZU V2A
  7
Text poznámky (ISO)
 73
     1
 44
1.0
  0
MTEXT
  5
1F5
330
19A
100
AcDbEntity
  8
Nadpis (ISO)
100
AcDbMText
 10
147.8345772780873
 20
87.78242706242744
 30
0.0
 40
2.000000029802321
 41
29.41232473017148
 71
     1
 72
     1
  1
\fTahoma|b0|i0;\H2.0000;19.9.2011
  7
Text poznámky (ISO)
 73
     1
 44
1.0
  0
MTEXT
  5
1F6
330
19A
100
AcDbEntity
  8
Nadpis (ISO)
100
AcDbMText
 10
118.9147684950603
 20
98.79632878646518
 30
0.0
 40
3.499999940395355
 41
0.0
 71
     1
 72
     1
  1
ISO 2768-m
  7
Text poznámky (ISO)
 73
     1
 44
1.0
  0
MTEXT
  5
1F7
330
19A
100
AcDbEntity
  8
Nadpis (ISO)
100
AcDbMText
 10
162.5831033854
 20
99.20167780246003
 30
0.0
 40
3.499999940395355
 41
0.0
 71
     1
 72
     1
  1
DIN ISO 1302
  7
Text poznámky (ISO)
 73
     1
 44
1.0
  0
MTEXT
  5
1F8
330
19A
100
AcDbEntity
  8
Nadpis (ISO)
100
AcDbMText
 10
262.4743825961981
 20
49.17778241269704
 30
0.0
 40
3.499999940395355
 41
0.0
 71
     1
 72
     1
  1
\fArial|b0|i0;\H3.5000;List:\fArial|b0|i0;\H3.5000;1 \fArial|b0|i0;\H3.5000;/\fArial|b0|i0;\H3.5000;1 
  7
Text poznámky (ISO)
 73
     1
 44
1.0
  0
MTEXT
  5
1F9
102
{ACAD_XDICTIONARY
360
102F
102
}
330
19A
100
AcDbEntity
  8
Nadpis (ISO)
100
AcDbMText
 10
159.4396788094336
 20
109.2360383310952
 30
0.0
 40
3.499999940395355
 41
29.10098367733216
 71
     1
 72
     1
  1
Nen\U+00ED k dispozici
  7
Text poznámky (ISO)
 73
     2
 44
0.9878841638565063
  0
MTEXT
  5
1FA
330
19A
100
AcDbEntity
  8
Nadpis (ISO)
100
AcDbMText
 10
246.4026076227944
 20
91.02705239790408
 30
0.0
 40
1.500000059604644
 41
0.0
 71
     1
 72
     1
  1
\fTahoma|b0|i0;\W0.80;\H1.5000;The drawing is property \Pof company ACO \Pand must not be neither \Pcopied nor used\Pfor other unauthorized purposes. \PTrademark according to DIN 34\P
  7
Text poznámky (ISO)
 73
     2
 44
0.8232368230819702
  0
MTEXT
  5
1FB
330
19A
100
AcDbEntity
  8
Nadpis (ISO)
100
AcDbMText
 10
261.7171631717141
 20
101.5413993827952
 30
0.0
 40
2.099999934434889
 41
0.0
 71
     1
 72
     1
  1
\fTahoma|b0|i0;\H2.1000;www.aco.com
  7
Text poznámky (ISO)
 73
     1
 44
1.0
  0
ATTDEF
  5
1FD
102
{ACAD_XDICTIONARY
360
AD6
102
}
330
19A
100
AcDbEntity
  8
Nadpis (ISO)
100
AcDbText
 10
292.1851661835569
 20
62.4856753668063
 30
0.0
 40
3.499999940395355
  1
000
  7
Styl textu9
100
AcDbAttributeDefinition
  3
ČÍSLO REVIZE
  2
ČÍSLO_REVIZE_001
 70
     0
  0
ATTDEF
  5
201
102
{ACAD_XDICTIONARY
360
AD9
102
}
330
19A
100
AcDbEntity
  8
Nadpis (ISO)
100
AcDbText
 10
294.5873446304243
 20
46.32882590415592
 30
0.0
 40
2.000000029802321
  1
A3
  7
Styl textu40
100
AcDbAttributeDefinition
  3
Sheet Size
  2
Sheet_Size_001
 70
     0
  0
ATTDEF
  5
202
102
{ACAD_XDICTIONARY
360
ADC
102
}
330
19A
100
AcDbEntity
  8
Nadpis (ISO)
100
AcDbText
 10
224.4232249036362
 20
62.42713236440501
 30
0.0
 40
3.499999940395355
  1
414726
  7
Text poznámky (ISO)
100
AcDbAttributeDefinition
  3
PART NUMBER
  2
PART_NUMBER_001
 70
     0
  0
ATTDEF
  5
203
102
{ACAD_XDICTIONARY
360
ADF
102
}
330
19A
100
AcDbEntity
  8
Nadpis (ISO)
100
AcDbText
 10
118.0
 20
56.50000005960464
 30
0.0
 40
3.499999940395355
  1

  7
Text poznámky (ISO)
 11
118.0
 21
60.0
 31
0.0
100
AcDbAttributeDefinition
  3
PROJECT
  2
PROJECT
 70
     0
 74
     3
  0
ATTDEF
  5
205
102
{ACAD_XDICTIONARY
360
AE2
102
}
330
19A
100
AcDbEntity
  8
Nadpis (ISO)
100
AcDbText
 10
117.8119543349687
 20
47.7481777837024
 30
0.0
 40
6.99999988079071
  1
414726
  7
Styl textu94
100
AcDbAttributeDefinition
  3
SKLADOVÉ ČÍSLO
  2
SKLADOVÉ_ČÍSLO_001
 70
     0
  0
ATTDEF
  5
206
102
{ACAD_XDICTIONARY
360
AE5
102
}
330
19A
100
AcDbEntity
  8
Nadpis (ISO)
100
AcDbText
 10
117.5939056808251
 20
105.1756658592857
 30
0.0
 40
3.499999940395355
  1

  7
Text poznámky (ISO)
 11
117.5939056808251
 21
108.6756657996811
 31
0.0
100
AcDbAttributeDefinition
  3
MATERIAL
  2
MATERIAL
 70
     0
 74
     3
  0
ATTDEF
  5
207
102
{ACAD_XDICTIONARY
360
AE8
102
}
330
19A
100
AcDbEntity
  8
Nadpis (ISO)
100
AcDbText
 10
171.1119787164545
 20
85.78242703262512
 30
0.0
 40
2.000000029802321
  1
pmacoun
  7
Styl textu40
100
AcDbAttributeDefinition
  3
AUTHOR
  2
AUTHOR_001
 70
     0
  0
ATTDEF
  5
208
102
{ACAD_XDICTIONARY
360
AEB
102
}
330
19A
100
AcDbEntity
  8
Nadpis (ISO)
100
AcDbText
 10
189.1855699863978
 20
82.50038826992808
 30
0.0
 40
3.499999940395355
  1

  7
Text poznámky (ISO)
 11
189.1855699863978
 21
86.00038821032343
 31
0.0
100
AcDbAttributeDefinition
  3
FirstViewScale
  2
FirstViewScale
 70
     0
 74
     3
  0
ENDBLK
  5
19C
330
19A
100
AcDbEntity
  8
0
100
AcDbBlockEnd
  0
BLOCK
  5
4F9
330
4F8
100
AcDbEntity
  8
0
100
AcDbBlockBegin
  2
KUSOVNÍK
 70
     0
 10
0.0
 20
0.0
 30
0.0
  3
KUSOVNÍK
  1

  0
LINE
  5
4FB
330
4F8
100
AcDbEntity
  8
Značka (ISO)
100
AcDbLine
 10
410.0
 20
174.2305179536343
 30
0.0
 11
197.4558999395496
 21
174.2305179536343
 31
0.0
  0
LINE
  5
4FC
330
4F8
100
AcDbEntity
  8
Značka (ISO)
100
AcDbLine
 10
410.0
 20
174.2305179536343
 30
0.0
 11
410.0
 21
167.8818167567254
 31
0.0
  0
LINE
  5
4FD
330
4F8
100
AcDbEntity
  8
Značka (ISO)
100
AcDbLine
 10
197.4558999395496
 20
174.2305179536343
 30
0.0
 11
197.4558999395496
 21
167.8818167567254
 31
0.0
  0
MTEXT
  5
4FE
102
{ACAD_XDICTIONARY
360
1031
102
}
330
4F8
100
AcDbEntity
  8
Značka (ISO)
100
AcDbMText
 10
293.1845715582442
 20
168.6064920037985
 30
0.0
 40
3.499999940395355
 41
0.0
 71
     7
 72
     1
  1
KUSOVN\U+00CDK
  7
Text poznámky (DIN)
 73
     1
 44
1.0
  0
LINE
  5
500
330
4F8
100
AcDbEntity
  8
Značka (ISO)
100
AcDbLine
 10
410.0
 20
167.8818167567254
 30
0.0
 11
197.4558999395496
 21
167.8818167567254
 31
0.0
  0
LINE
  5
501
330
4F8
100
AcDbEntity
  8
Značka (ISO)
100
AcDbLine
 10
410.0
 20
167.8818167567254
 30
0.0
 11
410.0
 21
161.5331155598164
 31
0.0
  0
MTEXT
  5
502
102
{ACAD_XDICTIONARY
360
1033
102
}
330
4F8
100
AcDbEntity
  8
Značka (ISO)
100
AcDbMText
 10
385.3682808505682
 20
162.2577908068896
 30
0.0
 40
3.499999940395355
 41
0.0
 71
     7
 72
     1
  1
MATERI\U+00C1L
  7
Text poznámky (DIN)
 73
     1
 44
1.0
  0
LINE
  5
503
330
4F8
100
AcDbEntity
  8
Značka (ISO)
100
AcDbLine
 10
381.1220198105135
 20
167.8818167567254
 30
0.0
 11
381.1220198105135
 21
161.5331155598164
 31
0.0
  0
MTEXT
  5
504
330
4F8
100
AcDbEntity
  8
Značka (ISO)
100
AcDbMText
 10
355.6153008995003
 20
162.9574661880732
 30
0.0
 40
3.499999940395355
 41
0.0
 71
     7
 72
     1
  1
HMOTNOST
  7
Text poznámky (DIN)
 73
     1
 44
1.0
  0
LINE
  5
505
330
4F8
100
AcDbEntity
  8
Značka (ISO)
100
AcDbLine
 10
352.244039621027
 20
167.8818167567254
 30
0.0
 11
352.244039621027
 21
161.5331155598164
 31
0.0
  0
MTEXT
  5
506
102
{ACAD_XDICTIONARY
360
1035
102
}
330
4F8
100
AcDbEntity
  8
Značka (ISO)
100
AcDbMText
 10
324.6382942684397
 20
162.2577908068896
 30
0.0
 40
3.499999940395355
 41
0.0
 71
     7
 72
     1
  1
SKLADOV\U+00C9 \U+010C
  7
Text poznámky (DIN)
 73
     1
 44
1.0
  0
LINE
  5
507
330
4F8
100
AcDbEntity
  8
Značka (ISO)
100
AcDbLine
 10
323.3660594315405
 20
167.8818167567254
 30
0.0
 11
323.3660594315405
 21
161.5331155598164
 31
0.0
  0
MTEXT
  5
508
330
4F8
100
AcDbEntity
  8
Značka (ISO)
100
AcDbMText
 10
267.9723141750687
 20
162.9574661880732
 30
0.0
 40
3.499999940395355
 41
0.0
 71
     7
 72
     1
  1
POPIS
  7
Text poznámky (DIN)
 73
     1
 44
1.0
  0
LINE
  5
509
330
4F8
100
AcDbEntity
  8
Značka (ISO)
100
AcDbLine
 10
224.2172730969286
 20
167.8818167567254
 30
0.0
 11
224.2172730969286
 21
161.5331155598164
 31
0.0
  0
MTEXT
  5
50A
330
4F8
100
AcDbEntity
  8
Značka (ISO)
100
AcDbMText
 10
217.5158143418986
 20
162.9574661880732
 30
0.0
 40
3.499999940395355
 41
0.0
 71
     7
 72
     1
  1
KS
  7
Text poznámky (DIN)
 73
     1
 44
1.0
  0
LINE
  5
50B
330
4F8
100
AcDbEntity
  8
Značka (ISO)
100
AcDbLine
 10
215.8069565022989
 20
167.8818167567254
 30
0.0
 11
215.8069565022989
 21
161.5331155598164
 31
0.0
  0
MTEXT
  5
50C
330
4F8
100
AcDbEntity
  8
Značka (ISO)
100
AcDbMText
 10
199.7633747262333
 20
162.9574661880732
 30
0.0
 40
3.499999940395355
 41
0.0
 71
     7
 72
     1
  1
POZICE
  7
Text poznámky (DIN)
 73
     1
 44
1.0
  0
LINE
  5
50D
330
4F8
100
AcDbEntity
  8
Značka (ISO)
100
AcDbLine
 10
197.4558999395497
 20
167.8818167567254
 30
0.0
 11
197.4558999395497
 21
161.5331155598164
 31
0.0
  0
MTEXT
  5
50E
330
4F8
100
AcDbEntity
  8
Značka (ISO)
100
AcDbMText
 10
382.3244205795096
 20
156.6087649911643
 30
0.0
 40
3.499999940395355
 41
0.0
 71
     7
 72
     1
  1
Guma
  7
Text poznámky (DIN)
 73
     1
 44
1.0
  0
MTEXT
  5
50F
330
4F8
100
AcDbEntity
  8
Značka (ISO)
100
AcDbMText
 10
353.4464403900231
 20
155.5600637346507
 30
0.0
 40
3.499999940395355
 41
0.0
 71
     7
 72
     1
  1
0,084 kg
  7
Text poznámky (DIN)
 73
     1
 44
1.0
  0
MTEXT
  5
510
330
4F8
100
AcDbEntity
  8
Značka (ISO)
100
AcDbMText
 10
324.5684602005366
 20
156.6087649911643
 30
0.0
 40
3.499999940395355
 41
0.0
 71
     7
 72
     1
  1
E55520
  7
Text poznámky (DIN)
 73
     1
 44
1.0
  0
MTEXT
  5
511
330
4F8
100
AcDbEntity
  8
Značka (ISO)
100
AcDbMText
 10
225.4196738659247
 20
155.5600637346507
 30
0.0
 40
3.499999940395355
 41
0.0
 71
     7
 72
     1
  1
ACO vpust drenazni krouzek komplet 142
  7
Text poznámky (DIN)
 73
     1
 44
1.0
  0
MTEXT
  5
512
330
4F8
100
AcDbEntity
  8
Značka (ISO)
100
AcDbMText
 10
219.4367155763907
 20
156.6087649911643
 30
0.0
 40
3.499999940395355
 41
0.0
 71
     7
 72
     1
  1
1
  7
Text poznámky (DIN)
 73
     1
 44
1.0
  0
MTEXT
  5
513
330
4F8
100
AcDbEntity
  8
Značka (ISO)
100
AcDbMText
 10
206.0560289977012
 20
156.6087649911643
 30
0.0
 40
3.499999940395355
 41
0.0
 71
     7
 72
     1
  1
1
  7
Text poznámky (DIN)
 73
     1
 44
1.0
  0
LINE
  5
514
330
4F8
100
AcDbEntity
  8
Značka (ISO)
100
AcDbLine
 10
410.0
 20
161.5331155598164
 30
0.0
 11
197.4558999395497
 21
161.5331155598164
 31
0.0
  0
MTEXT
  5
515
330
4F8
100
AcDbEntity
  8
Značka (ISO)
100
AcDbMText
 10
382.3244205795096
 20
150.2600637942553
 30
0.0
 40
3.499999940395355
 41
0.0
 71
     7
 72
     1
  1
Mosaz
  7
Text poznámky (DIN)
 73
     1
 44
1.0
  0
MTEXT
  5
516
330
4F8
100
AcDbEntity
  8
Značka (ISO)
100
AcDbMText
 10
353.4464403900231
 20
149.2113625377417
 30
0.0
 40
3.499999940395355
 41
0.0
 71
     7
 72
     1
  1
0,005 kg
  7
Text poznámky (DIN)
 73
     1
 44
1.0
  0
MTEXT
  5
517
330
4F8
100
AcDbEntity
  8
Značka (ISO)
100
AcDbMText
 10
324.5684602005366
 20
150.2600637942553
 30
0.0
 40
3.499999940395355
 41
0.0
 71
     7
 72
     1
  1
90678
  7
Text poznámky (DIN)
 73
     1
 44
1.0
  0
MTEXT
  5
518
330
4F8
100
AcDbEntity
  8
Značka (ISO)
100
AcDbMText
 10
225.4196738659247
 20
150.2600637942553
 30
0.0
 40
3.499999940395355
 41
0.0
 71
     7
 72
     1
  1
Matice M8 DIN 934
  7
Text poznámky (DIN)
 73
     1
 44
1.0
  0
MTEXT
  5
519
330
4F8
100
AcDbEntity
  8
Značka (ISO)
100
AcDbMText
 10
219.4367155763907
 20
150.2600637942553
 30
0.0
 40
3.499999940395355
 41
0.0
 71
     7
 72
     1
  1
1
  7
Text poznámky (DIN)
 73
     1
 44
1.0
  0
MTEXT
  5
51A
330
4F8
100
AcDbEntity
  8
Značka (ISO)
100
AcDbMText
 10
205.7098030549858
 20
150.2600637942553
 30
0.0
 40
3.499999940395355
 41
0.0
 71
     7
 72
     1
  1
2
  7
Text poznámky (DIN)
 73
     1
 44
1.0
  0
LINE
  5
51B
330
4F8
100
AcDbEntity
  8
Značka (ISO)
100
AcDbLine
 10
410.0
 20
155.1844143629075
 30
0.0
 11
197.4558999395497
 21
155.1844143629075
 31
0.0
  0
MTEXT
  5
51C
330
4F8
100
AcDbEntity
  8
Značka (ISO)
100
AcDbMText
 10
382.3244205795096
 20
143.9113625973464
 30
0.0
 40
3.499999940395355
 41
0.0
 71
     7
 72
     1
  1
Plast ABS
  7
Text poznámky (DIN)
 73
     1
 44
1.0
  0
MTEXT
  5
51D
330
4F8
100
AcDbEntity
  8
Značka (ISO)
100
AcDbMText
 10
353.4464403900231
 20
142.8626613408328
 30
0.0
 40
3.499999940395355
 41
0.0
 71
     7
 72
     1
  1
0,002 kg
  7
Text poznámky (DIN)
 73
     1
 44
1.0
  0
MTEXT
  5
51E
330
4F8
100
AcDbEntity
  8
Značka (ISO)
100
AcDbMText
 10
324.5684602005366
 20
143.9113625973464
 30
0.0
 40
3.499999940395355
 41
0.0
 71
     7
 72
     1
  1
91363
  7
Text poznámky (DIN)
 73
     1
 44
1.0
  0
MTEXT
  5
51F
330
4F8
100
AcDbEntity
  8
Značka (ISO)
100
AcDbMText
 10
225.4196738659247
 20
142.8626613408328
 30
0.0
 40
3.499999940395355
 41
0.0
 71
     7
 72
     1
  1
Krytka  matic
  7
Text poznámky (DIN)
 73
     1
 44
1.0
  0
MTEXT
  5
520
330
4F8
100
AcDbEntity
  8
Značka (ISO)
100
AcDbMText
 10
219.4367155763907
 20
143.9113625973464
 30
0.0
 40
3.499999940395355
 41
0.0
 71
     7
 72
     1
  1
1
  7
Text poznámky (DIN)
 73
     1
 44
1.0
  0
MTEXT
  5
521
330
4F8
100
AcDbEntity
  8
Značka (ISO)
100
AcDbMText
 10
205.7098030549858
 20
143.9113625973464
 30
0.0
 40
3.499999940395355
 41
0.0
 71
     7
 72
     1
  1
3
  7
Text poznámky (DIN)
 73
     1
 44
1.0
  0
LINE
  5
522
330
4F8
100
AcDbEntity
  8
Značka (ISO)
100
AcDbLine
 10
410.0
 20
148.8357131659985
 30
0.0
 11
197.4558999395497
 21
148.8357131659985
 31
0.0
  0
MTEXT
  5
523
330
4F8
100
AcDbEntity
  8
Značka (ISO)
100
AcDbMText
 10
382.3244205795096
 20
137.5626614004374
 30
0.0
 40
3.499999940395355
 41
0.0
 71
     7
 72
     1
  1
PVC-U
  7
Text poznámky (DIN)
 73
     1
 44
1.0
  0
MTEXT
  5
524
330
4F8
100
AcDbEntity
  8
Značka (ISO)
100
AcDbMText
 10
353.4464403900231
 20
136.5139601439238
 30
0.0
 40
3.499999940395355
 41
0.0
 71
     7
 72
     1
  1
0,069 kg
  7
Text poznámky (DIN)
 73
     1
 44
1.0
  0
MTEXT
  5
525
330
4F8
100
AcDbEntity
  8
Značka (ISO)
100
AcDbMText
 10
324.5684602005366
 20
137.5626614004374
 30
0.0
 40
3.499999940395355
 41
0.0
 71
     7
 72
     1
  1
NM 6702
  7
Text poznámky (DIN)
 73
     1
 44
1.0
  0
MTEXT
  5
526
102
{ACAD_XDICTIONARY
360
1037
102
}
330
4F8
100
AcDbEntity
  8
Značka (ISO)
100
AcDbMText
 10
225.4196738659247
 20
136.3402587980033
 30
0.0
 40
3.499999940395355
 41
0.0
 71
     7
 72
     1
  1
n\U+00E1vlek sunap-DN100
  7
Text poznámky (DIN)
 73
     1
 44
1.0
  0
MTEXT
  5
527
330
4F8
100
AcDbEntity
  8
Značka (ISO)
100
AcDbMText
 10
219.4367155763907
 20
137.5626614004374
 30
0.0
 40
3.499999940395355
 41
0.0
 71
     7
 72
     1
  1
1
  7
Text poznámky (DIN)
 73
     1
 44
1.0
  0
MTEXT
  5
528
330
4F8
100
AcDbEntity
  8
Značka (ISO)
100
AcDbMText
 10
205.5344783765648
 20
137.5626614004374
 30
0.0
 40
3.499999940395355
 41
0.0
 71
     7
 72
     1
  1
4
  7
Text poznámky (DIN)
 73
     1
 44
1.0
  0
LINE
  5
529
330
4F8
100
AcDbEntity
  8
Značka (ISO)
100
AcDbLine
 10
410.0
 20
142.4870119690896
 30
0.0
 11
197.4558999395497
 21
142.4870119690896
 31
0.0
  0
MTEXT
  5
52A
330
4F8
100
AcDbEntity
  8
Značka (ISO)
100
AcDbMText
 10
382.3244205795096
 20
131.2139602035285
 30
0.0
 40
3.499999940395355
 41
0.0
 71
     7
 72
     1
  1
AISI 304
  7
Text poznámky (DIN)
 73
     1
 44
1.0
  0
MTEXT
  5
52B
330
4F8
100
AcDbEntity
  8
Značka (ISO)
100
AcDbMText
 10
353.4464403900231
 20
130.1652589470149
 30
0.0
 40
3.499999940395355
 41
0.0
 71
     7
 72
     1
  1
0,944 kg
  7
Text poznámky (DIN)
 73
     1
 44
1.0
  0
MTEXT
  5
52C
330
4F8
100
AcDbEntity
  8
Značka (ISO)
100
AcDbMText
 10
324.5684602005366
 20
131.2139602035285
 30
0.0
 40
3.499999940395355
 41
0.0
 71
     7
 72
     1
  1
E55502
  7
Text poznámky (DIN)
 73
     1
 44
1.0
  0
MTEXT
  5
52D
102
{ACAD_XDICTIONARY
360
1039
102
}
330
4F8
100
AcDbEntity
  8
Značka (ISO)
100
AcDbMText
 10
225.4196738659247
 20
129.9915576010943
 30
0.0
 40
3.499999940395355
 41
0.0
 71
     7
 72
     1
  1
ACO vpust 142 svarenec vod. dvoud\U+00EDln\U+00E1 
  7
Text poznámky (DIN)
 73
     1
 44
1.0
  0
MTEXT
  5
52E
102
{ACAD_XDICTIONARY
360
103B
102
}
330
4F8
100
AcDbEntity
  8
Značka (ISO)
100
AcDbMText
 10
225.4168738588044
 20
123.6428564816714
 30
0.0
 40
3.499999940395355
 41
0.0
 71
     7
 72
     1
  1
12mm p\U+0159\U+00EDruba DN100 V2A
  7
Text poznámky (DIN)
 73
     1
 44
1.0
  0
MTEXT
  5
52F
330
4F8
100
AcDbEntity
  8
Značka (ISO)
100
AcDbMText
 10
219.4367155763907
 20
131.2139602035285
 30
0.0
 40
3.499999940395355
 41
0.0
 71
     7
 72
     1
  1
1
  7
Text poznámky (DIN)
 73
     1
 44
1.0
  0
MTEXT
  5
530
330
4F8
100
AcDbEntity
  8
Značka (ISO)
100
AcDbMText
 10
205.7098030549858
 20
131.2139602035285
 30
0.0
 40
3.499999940395355
 41
0.0
 71
     7
 72
     1
  1
5
  7
Text poznámky (DIN)
 73
     1
 44
1.0
  0
LINE
  5
531
330
4F8
100
AcDbEntity
  8
Značka (ISO)
100
AcDbLine
 10
410.0
 20
136.1383107721806
 30
0.0
 11
197.4558999395497
 21
136.1383107721806
 31
0.0
  0
MTEXT
  5
532
102
{ACAD_XDICTIONARY
360
103D
102
}
330
4F8
100
AcDbEntity
  8
Značka (ISO)
100
AcDbMText
 10
382.3244205795096
 20
117.2941552072764
 30
0.0
 40
3.499999940395355
 41
0.0
 71
     7
 72
     1
  1
Pap\U+00EDr
  7
Text poznámky (DIN)
 73
     1
 44
1.0
  0
MTEXT
  5
533
330
4F8
100
AcDbEntity
  8
Značka (ISO)
100
AcDbMText
 10
353.4464403900231
 20
117.467856553197
 30
0.0
 40
3.499999940395355
 41
0.0
 71
     7
 72
     1
  1
0 kg
  7
Text poznámky (DIN)
 73
     1
 44
1.0
  0
MTEXT
  5
534
330
4F8
100
AcDbEntity
  8
Značka (ISO)
100
AcDbMText
 10
324.5684602005366
 20
118.5165578097106
 30
0.0
 40
3.499999940395355
 41
0.0
 71
     7
 72
     1
  1
91018
  7
Text poznámky (DIN)
 73
     1
 44
1.0
  0
MTEXT
  5
535
330
4F8
100
AcDbEntity
  8
Značka (ISO)
100
AcDbMText
 10
225.4196738659247
 20
118.5165578097106
 30
0.0
 40
3.499999940395355
 41
0.0
 71
     7
 72
     1
  1
Etiketa
  7
Text poznámky (DIN)
 73
     1
 44
1.0
  0
MTEXT
  5
536
330
4F8
100
AcDbEntity
  8
Značka (ISO)
100
AcDbMText
 10
219.4367155763907
 20
118.5165578097106
 30
0.0
 40
3.499999940395355
 41
0.0
 71
     7
 72
     1
  1
1
  7
Text poznámky (DIN)
 73
     1
 44
1.0
  0
MTEXT
  5
537
330
4F8
100
AcDbEntity
  8
Značka (ISO)
100
AcDbMText
 10
205.7098030549858
 20
118.5165578097106
 30
0.0
 40
3.499999940395355
 41
0.0
 71
     7
 72
     1
  1
6
  7
Text poznámky (DIN)
 73
     1
 44
1.0
  0
LINE
  5
538
330
4F8
100
AcDbEntity
  8
Značka (ISO)
100
AcDbLine
 10
410.0
 20
123.4409083783627
 30
0.0
 11
197.4558999395497
 21
123.4409083783627
 31
0.0
  0
MTEXT
  5
539
102
{ACAD_XDICTIONARY
360
103F
102
}
330
4F8
100
AcDbEntity
  8
Značka (ISO)
100
AcDbMText
 10
382.3244205795096
 20
110.9454540103675
 30
0.0
 40
3.499999940395355
 41
0.0
 71
     7
 72
     1
  1
Polykarbon\U+00E1
  7
Text poznámky (DIN)
 73
     1
 44
1.0
  0
MTEXT
  5
53A
102
{ACAD_XDICTIONARY
360
1041
102
}
330
4F8
100
AcDbEntity
  8
Značka (ISO)
100
AcDbMText
 10
382.3216205723893
 20
104.5967528909446
 30
0.0
 40
3.499999940395355
 41
0.0
 71
     7
 72
     1
  1
t, kou\U+0159ov\U+00FD
  7
Text poznámky (DIN)
 73
     1
 44
1.0
  0
MTEXT
  5
53B
330
4F8
100
AcDbEntity
  8
Značka (ISO)
100
AcDbMText
 10
353.4464403900231
 20
111.119155356288
 30
0.0
 40
3.499999940395355
 41
0.0
 71
     7
 72
     1
  1
0,025 kg
  7
Text poznámky (DIN)
 73
     1
 44
1.0
  0
MTEXT
  5
53C
330
4F8
100
AcDbEntity
  8
Značka (ISO)
100
AcDbMText
 10
324.5684602005366
 20
112.1678566128016
 30
0.0
 40
3.499999940395355
 41
0.0
 71
     7
 72
     1
  1
E55477
  7
Text poznámky (DIN)
 73
     1
 44
1.0
  0
MTEXT
  5
53D
102
{ACAD_XDICTIONARY
360
1043
102
}
330
4F8
100
AcDbEntity
  8
Značka (ISO)
100
AcDbMText
 10
225.4196738659247
 20
110.9454540103675
 30
0.0
 40
3.499999940395355
 41
0.0
 71
     7
 72
     1
  1
ACO vpust 142 kryt plastov\U+00FD 157 pro 
  7
Text poznámky (DIN)
 73
     1
 44
1.0
  0
MTEXT
  5
53E
102
{ACAD_XDICTIONARY
360
1045
102
}
330
4F8
100
AcDbEntity
  8
Značka (ISO)
100
AcDbMText
 10
225.4196738659247
 20
105.6454541474582
 30
0.0
 40
3.499999940395355
 41
0.0
 71
     7
 72
     1
  1
balen\U+00ED PP 12mm
  7
Text poznámky (DIN)
 73
     1
 44
1.0
  0
MTEXT
  5
53F
330
4F8
100
AcDbEntity
  8
Značka (ISO)
100
AcDbMText
 10
219.4367155763907
 20
112.1678566128016
 30
0.0
 40
3.499999940395355
 41
0.0
 71
     7
 72
     1
  1
1
  7
Text poznámky (DIN)
 73
     1
 44
1.0
  0
MTEXT
  5
540
330
4F8
100
AcDbEntity
  8
Značka (ISO)
100
AcDbMText
 10
204.8320029882608
 20
112.1678566128016
 30
0.0
 40
3.499999940395355
 41
0.0
 71
     7
 72
     1
  1
17
  7
Text poznámky (DIN)
 73
     1
 44
1.0
  0
LINE
  5
541
330
4F8
100
AcDbEntity
  8
Značka (ISO)
100
AcDbLine
 10
410.0
 20
117.0922071814538
 30
0.0
 11
197.4558999395497
 21
117.0922071814538
 31
0.0
  0
MTEXT
  5
542
330
4F8
100
AcDbEntity
  8
Značka (ISO)
100
AcDbMText
 10
382.3244205795096
 20
98.4217529624702
 30
0.0
 40
3.499999940395355
 41
0.0
 71
     7
 72
     1
  1
karton_papi
  7
Text poznámky (DIN)
 73
     1
 44
1.0
  0
MTEXT
  5
543
330
4F8
100
AcDbEntity
  8
Značka (ISO)
100
AcDbMText
 10
382.3244205795096
 20
93.12175309956087
 30
0.0
 40
3.499999940395355
 41
0.0
 71
     7
 72
     1
  1
r
  7
Text poznámky (DIN)
 73
     1
 44
1.0
  0
MTEXT
  5
544
330
4F8
100
AcDbEntity
  8
Značka (ISO)
100
AcDbMText
 10
353.4464403900231
 20
98.4217529624702
 30
0.0
 40
3.499999940395355
 41
0.0
 71
     7
 72
     1
  1
0,052 kg
  7
Text poznámky (DIN)
 73
     1
 44
1.0
  0
MTEXT
  5
545
330
4F8
100
AcDbEntity
  8
Značka (ISO)
100
AcDbMText
 10
324.5684602005366
 20
99.4704542189838
 30
0.0
 40
3.499999940395355
 41
0.0
 71
     7
 72
     1
  1
E56574
  7
Text poznámky (DIN)
 73
     1
 44
1.0
  0
MTEXT
  5
546
102
{ACAD_XDICTIONARY
360
1047
102
}
330
4F8
100
AcDbEntity
  8
Značka (ISO)
100
AcDbMText
 10
225.4196738659247
 20
98.24805161654964
 30
0.0
 40
3.499999940395355
 41
0.0
 71
     7
 72
     1
  1
Effidrain karton - dren\U+00E1\U+017En\U+00ED pro mont\U+00E1\U+017E 142
  7
Text poznámky (DIN)
 73
     1
 44
1.0
  0
MTEXT
  5
547
330
4F8
100
AcDbEntity
  8
Značka (ISO)
100
AcDbMText
 10
219.4367155763907
 20
99.4704542189838
 30
0.0
 40
3.499999940395355
 41
0.0
 71
     7
 72
     1
  1
1
  7
Text poznámky (DIN)
 73
     1
 44
1.0
  0
MTEXT
  5
548
330
4F8
100
AcDbEntity
  8
Značka (ISO)
100
AcDbMText
 10
204.8320029882608
 20
99.4704542189838
 30
0.0
 40
3.499999940395355
 41
0.0
 71
     7
 72
     1
  1
18
  7
Text poznámky (DIN)
 73
     1
 44
1.0
  0
LINE
  5
549
330
4F8
100
AcDbEntity
  8
Značka (ISO)
100
AcDbLine
 10
410.0
 20
104.3948047876359
 30
0.0
 11
197.4558999395497
 21
104.3948047876359
 31
0.0
  0
MTEXT
  5
54A
330
4F8
100
AcDbEntity
  8
Značka (ISO)
100
AcDbMText
 10
382.3244205795096
 20
86.77305182516588
 30
0.0
 40
3.499999940395355
 41
0.0
 71
     7
 72
     1
  1
PE-HD
  7
Text poznámky (DIN)
 73
     1
 44
1.0
  0
MTEXT
  5
54B
330
4F8
100
AcDbEntity
  8
Značka (ISO)
100
AcDbMText
 10
353.4464403900231
 20
85.72435056865229
 30
0.0
 40
3.499999940395355
 41
0.0
 71
     7
 72
     1
  1
0,002 kg
  7
Text poznámky (DIN)
 73
     1
 44
1.0
  0
MTEXT
  5
54C
330
4F8
100
AcDbEntity
  8
Značka (ISO)
100
AcDbMText
 10
324.5684602005366
 20
86.77305182516588
 30
0.0
 40
3.499999940395355
 41
0.0
 71
     7
 72
     1
  1
NM6373
  7
Text poznámky (DIN)
 73
     1
 44
1.0
  0
MTEXT
  5
54D
330
4F8
100
AcDbEntity
  8
Značka (ISO)
100
AcDbMText
 10
225.4196738659247
 20
86.77305182516588
 30
0.0
 40
3.499999940395355
 41
0.0
 71
     7
 72
     1
  1
Effidrain lubricant
  7
Text poznámky (DIN)
 73
     1
 44
1.0
  0
MTEXT
  5
54E
330
4F8
100
AcDbEntity
  8
Značka (ISO)
100
AcDbMText
 10
219.4367155763907
 20
86.77305182516588
 30
0.0
 40
3.499999940395355
 41
0.0
 71
     7
 72
     1
  1
1
  7
Text poznámky (DIN)
 73
     1
 44
1.0
  0
MTEXT
  5
54F
330
4F8
100
AcDbEntity
  8
Značka (ISO)
100
AcDbMText
 10
204.8320029882608
 20
86.77305182516588
 30
0.0
 40
3.499999940395355
 41
0.0
 71
     7
 72
     1
  1
19
  7
Text poznámky (DIN)
 73
     1
 44
1.0
  0
LINE
  5
550
330
4F8
100
AcDbEntity
  8
Značka (ISO)
100
AcDbLine
 10
410.0
 20
91.697402393818
 30
0.0
 11
197.4558999395497
 21
91.697402393818
 31
0.0
  0
MTEXT
  5
551
330
4F8
100
AcDbEntity
  8
Značka (ISO)
100
AcDbMText
 10
382.3244205795096
 20
80.42435062825692
 30
0.0
 40
3.499999940395355
 41
0.0
 71
     7
 72
     1
  1
PE-HD
  7
Text poznámky (DIN)
 73
     1
 44
1.0
  0
MTEXT
  5
552
330
4F8
100
AcDbEntity
  8
Značka (ISO)
100
AcDbMText
 10
353.4464403900231
 20
79.37564937174332
 30
0.0
 40
3.499999940395355
 41
0.0
 71
     7
 72
     1
  1
0,000 kg
  7
Text poznámky (DIN)
 73
     1
 44
1.0
  0
MTEXT
  5
553
330
4F8
100
AcDbEntity
  8
Značka (ISO)
100
AcDbMText
 10
324.5684602005366
 20
80.42435062825692
 30
0.0
 40
3.499999940395355
 41
0.0
 71
     7
 72
     1
  1
NM6522
  7
Text poznámky (DIN)
 73
     1
 44
1.0
  0
MTEXT
  5
554
330
4F8
100
AcDbEntity
  8
Značka (ISO)
100
AcDbMText
 10
225.4196738659247
 20
79.37564937174332
 30
0.0
 40
3.499999940395355
 41
0.0
 71
     7
 72
     1
  1
sitka pro baleni
  7
Text poznámky (DIN)
 73
     1
 44
1.0
  0
MTEXT
  5
555
330
4F8
100
AcDbEntity
  8
Značka (ISO)
100
AcDbMText
 10
219.4367155763907
 20
80.42435062825692
 30
0.0
 40
3.499999940395355
 41
0.0
 71
     7
 72
     1
  1
1
  7
Text poznámky (DIN)
 73
     1
 44
1.0
  0
MTEXT
  5
556
330
4F8
100
AcDbEntity
  8
Značka (ISO)
100
AcDbMText
 10
204.8348029953812
 20
80.42435062825692
 30
0.0
 40
3.499999940395355
 41
0.0
 71
     7
 72
     1
  1
21
  7
Text poznámky (DIN)
 73
     1
 44
1.0
  0
LINE
  5
557
330
4F8
100
AcDbEntity
  8
Značka (ISO)
100
AcDbLine
 10
410.0
 20
85.34870119690905
 30
0.0
 11
197.4558999395497
 21
85.34870119690905
 31
0.0
  0
LINE
  5
558
330
4F8
100
AcDbEntity
  8
Značka (ISO)
100
AcDbLine
 10
410.0
 20
79.00000000000012
 30
0.0
 11
197.4558999395497
 21
79.00000000000012
 31
0.0
  0
LINE
  5
559
330
4F8
100
AcDbEntity
  8
Značka (ISO)
100
AcDbLine
 10
410.0
 20
161.5331155598164
 30
0.0
 11
410.0
 21
79.00000000000012
 31
0.0
  0
LINE
  5
55A
330
4F8
100
AcDbEntity
  8
Značka (ISO)
100
AcDbLine
 10
381.1220198105135
 20
161.5331155598164
 30
0.0
 11
381.1220198105135
 21
79.00000000000012
 31
0.0
  0
LINE
  5
55B
330
4F8
100
AcDbEntity
  8
Značka (ISO)
100
AcDbLine
 10
352.244039621027
 20
161.5331155598164
 30
0.0
 11
352.244039621027
 21
79.00000000000012
 31
0.0
  0
LINE
  5
55C
330
4F8
100
AcDbEntity
  8
Značka (ISO)
100
AcDbLine
 10
323.3660594315405
 20
161.5331155598164
 30
0.0
 11
323.3660594315405
 21
79.00000000000012
 31
0.0
  0
LINE
  5
55D
330
4F8
100
AcDbEntity
  8
Značka (ISO)
100
AcDbLine
 10
224.2172730969286
 20
161.5331155598164
 30
0.0
 11
224.2172730969286
 21
79.00000000000012
 31
0.0
  0
LINE
  5
55E
330
4F8
100
AcDbEntity
  8
Značka (ISO)
100
AcDbLine
 10
215.8069565022989
 20
161.5331155598164
 30
0.0
 11
215.8069565022989
 21
79.00000000000012
 31
0.0
  0
LINE
  5
55F
330
4F8
100
AcDbEntity
  8
Značka (ISO)
100
AcDbLine
 10
197.4558999395497
 20
161.5331155598164
 30
0.0
 11
197.4558999395497
 21
79.00000000000012
 31
0.0
  0
ENDBLK
  5
4FA
330
4F8
100
AcDbEntity
  8
0
100
AcDbBlockEnd
  0
BLOCK
  5
572
330
571
100
AcDbEntity
  8
0
100
AcDbBlockBegin
  2
*D27
 70
     1
 10
0.0
 20
0.0
 30
0.0
  3
*D27
  1

  0
LINE
  5
64A
330
571
100
AcDbEntity
  8
Kóta (ISO)
440
 16777216
100
AcDbLine
 10
289.2269022312896
 20
245.6336130786275
 30
0.0
 11
316.2772855186375
 21
245.6336130786275
 31
0.0
  0
LINE
  5
64B
330
571
100
AcDbEntity
  8
Kóta (ISO)
440
 16777216
100
AcDbLine
 10
289.2269022312896
 20
355.6336130786274
 30
0.0
 11
316.2772855186375
 21
355.6336130786274
 31
0.0
  0
LINE
  5
64C
330
571
100
AcDbEntity
  8
Kóta (ISO)
440
 16777216
100
AcDbLine
 10
314.7772855186375
 20
249.3836130786275
 30
0.0
 11
314.7772855186375
 21
351.8836130786274
 31
0.0
  0
SOLID
  5
64D
330
571
100
AcDbEntity
  8
Kóta (ISO)
440
 16777216
100
AcDbTrace
 10
314.1522855186375
 20
249.3836130786275
 30
0.0
 11
315.4022855186375
 21
249.3836130786275
 31
0.0
 12
314.7772855186375
 22
245.6336130786275
 32
0.0
 13
314.7772855186375
 23
245.6336130786275
 33
0.0
  0
SOLID
  5
64E
330
571
100
AcDbEntity
  8
Kóta (ISO)
440
 16777216
100
AcDbTrace
 10
314.1522855186375
 20
351.8836130786274
 30
0.0
 11
315.4022855186375
 21
351.8836130786274
 31
0.0
 12
314.7772855186375
 22
355.6336130786274
 32
0.0
 13
314.7772855186375
 23
355.6336130786274
 33
0.0
  0
MTEXT
  5
64F
330
571
100
AcDbEntity
  8
Kóta (ISO)
440
 16777216
100
AcDbMText
 10
305.7351396579278
 20
292.0316612046572
 30
0.0
 40
5.25
 41
0.0
 71
     1
 72
     1
  1
\A1;{\fAIGDT|b0|i0;\H5.2500;\ln\fTahoma|b0|i0;\H5.2500;}110
  7
Text poznámky (ISO)
 11
0.0000000000000001
 21
1.0
 31
0.0
 73
     1
 44
1.0
  0
POINT
  5
650
330
571
100
AcDbEntity
  8
Defpoints
 62
     0
440
 16777216
100
AcDbPoint
 10
289.2269022312896
 20
245.6336130786275
 30
0.0
  0
POINT
  5
651
330
571
100
AcDbEntity
  8
Defpoints
 62
     0
440
 16777216
100
AcDbPoint
 10
289.2269022312896
 20
355.6336130786274
 30
0.0
  0
POINT
  5
652
330
571
100
AcDbEntity
  8
Defpoints
 62
     0
440
 16777216
100
AcDbPoint
 10
314.7772855186375
 20
355.6336130786274
 30
0.0
  0
ENDBLK
  5
573
330
571
100
AcDbEntity
  8
0
100
AcDbBlockEnd
  0
BLOCK
  5
655
330
654
100
AcDbEntity
  8
0
100
AcDbBlockBegin
  2
*D28
 70
     1
 10
0.0
 20
0.0
 30
0.0
  3
*D28
  1

  0
LINE
  5
6F4
330
654
100
AcDbEntity
  8
Kóta (ISO)
440
 16777216
100
AcDbLine
 10
171.3219398815859
 20
78.65663863862983
 30
0.0
 11
60.65972862587464
 21
189.3188498943079
 31
0.0
  0
LINE
  5
6F5
330
654
100
AcDbEntity
  8
Kóta (ISO)
440
 16777216
100
AcDbLine
 10
58.00807819642471
 20
191.9705003237571
 30
0.0
 11
36.30557929410641
 21
213.6729992260688
 31
0.0
  0
SOLID
  5
6F6
330
654
100
AcDbEntity
  8
Kóta (ISO)
440
 16777216
100
AcDbTrace
 10
171.7638816198275
 20
79.09858037687147
 30
0.0
 11
170.8799981433444
 21
78.21469690038814
 31
0.0
 12
173.9735903110359
 22
76.00498820918066
 32
0.0
 13
173.9735903110359
 23
76.00498820918066
 33
0.0
  0
SOLID
  5
6F7
330
654
100
AcDbEntity
  8
Kóta (ISO)
440
 16777216
100
AcDbTrace
 10
61.1016703641162
 20
189.7607916325496
 30
0.0
 11
60.21778688763316
 21
188.8769081560663
 31
0.0
 12
58.00807819642471
 22
191.9705003237571
 32
0.0
 13
58.00807819642471
 23
191.9705003237571
 33
0.0
  0
MTEXT
  5
6F8
102
{ACAD_XDICTIONARY
360
1049
102
}
330
654
100
AcDbEntity
  8
Kóta (ISO)
440
 16777216
100
AcDbMText
 10
42.15291262913281
 20
217.9038864593043
 30
0.0
 40
5.25
 41
0.0
 71
     1
 72
     1
  1
\A1;\U+2205164
  7
Text poznámky (ISO)
 11
0.7071067811866536
 21
-0.7071067811864415
 31
0.0
 73
     1
 44
1.0
  0
POINT
  5
6F9
330
654
100
AcDbEntity
  8
Defpoints
 62
     0
440
 16777216
100
AcDbPoint
 10
58.00807819642471
 20
191.9705003237571
 30
0.0
  0
POINT
  5
6FA
330
654
100
AcDbEntity
  8
Defpoints
 62
     0
440
 16777216
100
AcDbPoint
 10
173.9735903110359
 20
76.00498820918066
 30
0.0
  0
ENDBLK
  5
656
330
654
100
AcDbEntity
  8
0
100
AcDbBlockEnd
  0
BLOCK
  5
6FD
330
6FC
100
AcDbEntity
  8
0
100
AcDbBlockBegin
  2
*D29
 70
     1
 10
0.0
 20
0.0
 30
0.0
  3
*D29
  1

  0
LINE
  5
7D4
330
6FC
100
AcDbEntity
  8
Kóta (ISO)
440
 16777216
100
AcDbLine
 10
44.74083425378964
 20
363.0644888452467
 30
0.0
 11
44.74083425378964
 21
337.0765281641739
 31
0.0
  0
LINE
  5
7D5
330
6FC
100
AcDbEntity
  8
Kóta (ISO)
440
 16777216
100
AcDbLine
 10
187.2408342537896
 20
363.0644888452467
 30
0.0
 11
187.2408342537896
 21
337.0765281641739
 31
0.0
  0
LINE
  5
7D6
330
6FC
100
AcDbEntity
  8
Kóta (ISO)
440
 16777216
100
AcDbLine
 10
48.49083425378964
 20
338.5765281641739
 30
0.0
 11
183.4908342537896
 21
338.5765281641739
 31
0.0
  0
SOLID
  5
7D7
330
6FC
100
AcDbEntity
  8
Kóta (ISO)
440
 16777216
100
AcDbTrace
 10
48.49083425378964
 20
339.2015281641739
 30
0.0
 11
48.49083425378964
 21
337.9515281641739
 31
0.0
 12
44.74083425378964
 22
338.5765281641739
 32
0.0
 13
44.74083425378964
 23
338.5765281641739
 33
0.0
  0
SOLID
  5
7D8
330
6FC
100
AcDbEntity
  8
Kóta (ISO)
440
 16777216
100
AcDbTrace
 10
183.4908342537896
 20
339.2015281641739
 30
0.0
 11
183.4908342537896
 21
337.9515281641739
 31
0.0
 12
187.2408342537896
 22
338.5765281641739
 32
0.0
 13
187.2408342537896
 23
338.5765281641739
 33
0.0
  0
MTEXT
  5
7D9
102
{ACAD_XDICTIONARY
360
104B
102
}
330
6FC
100
AcDbEntity
  8
Kóta (ISO)
440
 16777216
100
AcDbMText
 10
88.94005866573811
 20
346.5984737652485
 30
0.0
 40
5.25
 41
0.0
 71
     1
 72
     1
  1
\A1;{\U+00D8}142,5
  7
Text poznámky (ISO)
 73
     1
 44
1.0
  0
POINT
  5
7DA
330
6FC
100
AcDbEntity
  8
Defpoints
 62
     0
440
 16777216
100
AcDbPoint
 10
44.74083425378964
 20
363.0644888452467
 30
0.0
  0
POINT
  5
7DB
330
6FC
100
AcDbEntity
  8
Defpoints
 62
     0
440
 16777216
100
AcDbPoint
 10
187.2408342537896
 20
363.0644888452467
 30
0.0
  0
POINT
  5
7DC
330
6FC
100
AcDbEntity
  8
Defpoints
 62
     0
440
 16777216
100
AcDbPoint
 10
187.2408342537896
 20
338.5765281641739
 30
0.0
  0
ENDBLK
  5
6FE
330
6FC
100
AcDbEntity
  8
0
100
AcDbBlockEnd
  0
BLOCK
  5
7DF
330
7DE
100
AcDbEntity
  8
0
100
AcDbBlockBegin
  2
*D30
 70
     1
 10
0.0
 20
0.0
 30
0.0
  3
*D30
  1

  0
LINE
  5
8B6
330
7DE
100
AcDbEntity
  8
Kóta (ISO)
440
 16777216
100
AcDbLine
 10
72.9656217176006
 20
283.6287648786054
 30
0.0
 11
27.83173574583357
 21
283.6287648786054
 31
0.0
  0
LINE
  5
8B7
330
7DE
100
AcDbEntity
  8
Kóta (ISO)
440
 16777216
100
AcDbLine
 10
33.78537873300017
 20
392.8836130786053
 30
0.0
 11
27.8317357458336
 21
392.8836130786053
 31
0.0
  0
LINE
  5
8B8
330
7DE
100
AcDbEntity
  8
Kóta (ISO)
440
 16777216
100
AcDbLine
 10
29.33173574583357
 20
287.3787648786053
 30
0.0
 11
29.33173574583359
 21
389.1336130786053
 31
0.0
  0
SOLID
  5
8B9
330
7DE
100
AcDbEntity
  8
Kóta (ISO)
440
 16777216
100
AcDbTrace
 10
28.70673574583357
 20
287.3787648786053
 30
0.0
 11
29.95673574583357
 21
287.3787648786053
 31
0.0
 12
29.33173574583357
 22
283.6287648786054
 32
0.0
 13
29.33173574583357
 23
283.6287648786054
 33
0.0
  0
SOLID
  5
8BA
330
7DE
100
AcDbEntity
  8
Kóta (ISO)
440
 16777216
100
AcDbTrace
 10
28.70673574583359
 20
389.1336130786053
 30
0.0
 11
29.95673574583359
 21
389.1336130786053
 31
0.0
 12
29.3317357458336
 22
392.8836130786053
 32
0.0
 13
29.3317357458336
 23
392.8836130786053
 33
0.0
  0
MTEXT
  5
8BB
330
7DE
100
AcDbEntity
  8
Kóta (ISO)
440
 16777216
100
AcDbMText
 10
21.52486737780129
 20
327.8954603016409
 30
0.0
 40
5.25
 41
0.0
 71
     1
 72
     1
  1
\A1;109,25
  7
Text poznámky (ISO)
 11
0.0000000000000001
 21
1.0
 31
0.0
 73
     1
 44
1.0
  0
POINT
  5
8BC
330
7DE
100
AcDbEntity
  8
Defpoints
 62
     0
440
 16777216
100
AcDbPoint
 10
72.9656217176006
 20
283.6287648786054
 30
0.0
  0
POINT
  5
8BD
330
7DE
100
AcDbEntity
  8
Defpoints
 62
     0
440
 16777216
100
AcDbPoint
 10
33.78537873300017
 20
392.8836130786053
 30
0.0
  0
POINT
  5
8BE
330
7DE
100
AcDbEntity
  8
Defpoints
 62
     0
440
 16777216
100
AcDbPoint
 10
29.3317357458336
 20
392.8836130786053
 30
0.0
  0
ENDBLK
  5
7E0
330
7DE
100
AcDbEntity
  8
0
100
AcDbBlockEnd
  0
BLOCK
  5
8C1
330
8C0
100
AcDbEntity
  8
0
100
AcDbBlockBegin
  2
*D31
 70
     1
 10
0.0
 20
0.0
 30
0.0
  3
*D31
  1

  0
LINE
  5
998
330
8C0
100
AcDbEntity
  8
Kóta (ISO)
440
 16777216
100
AcDbLine
 10
191.9908342537896
 20
283.6287648786154
 30
0.0
 11
206.7034117951482
 21
283.6287648786154
 31
0.0
  0
LINE
  5
999
330
8C0
100
AcDbEntity
  8
Kóta (ISO)
440
 16777216
100
AcDbLine
 10
191.9908342537896
 20
347.1287648786153
 30
0.0
 11
206.7034117951482
 21
347.1287648786153
 31
0.0
  0
LINE
  5
99A
330
8C0
100
AcDbEntity
  8
Kóta (ISO)
440
 16777216
100
AcDbLine
 10
205.2034117951482
 20
287.3787648786154
 30
0.0
 11
205.2034117951482
 21
343.3787648786154
 31
0.0
  0
SOLID
  5
99B
330
8C0
100
AcDbEntity
  8
Kóta (ISO)
440
 16777216
100
AcDbTrace
 10
204.5784117951482
 20
287.3787648786154
 30
0.0
 11
205.8284117951482
 21
287.3787648786154
 31
0.0
 12
205.2034117951482
 22
283.6287648786154
 32
0.0
 13
205.2034117951482
 23
283.6287648786154
 33
0.0
  0
SOLID
  5
99C
330
8C0
100
AcDbEntity
  8
Kóta (ISO)
440
 16777216
100
AcDbTrace
 10
204.5784117951483
 20
343.3787648786154
 30
0.0
 11
205.8284117951482
 21
343.3787648786154
 31
0.0
 12
205.2034117951482
 22
347.1287648786153
 32
0.0
 13
205.2034117951482
 23
347.1287648786153
 33
0.0
  0
MTEXT
  5
99D
330
8C0
100
AcDbEntity
  8
Kóta (ISO)
440
 16777216
100
AcDbMText
 10
196.1612659344386
 20
305.9761078333893
 30
0.0
 40
5.25
 41
0.0
 71
     1
 72
     1
  1
\A1;{\fAIGDT|b0|i0;\H5.2500;\ln\fTahoma|b0|i0;\H5.2500;}63,5
  7
Text poznámky (ISO)
 11
0.0000000000000001
 21
1.0
 31
0.0
 73
     1
 44
1.0
  0
POINT
  5
99E
330
8C0
100
AcDbEntity
  8
Defpoints
 62
     0
440
 16777216
100
AcDbPoint
 10
191.9908342537896
 20
283.6287648786154
 30
0.0
  0
POINT
  5
99F
330
8C0
100
AcDbEntity
  8
Defpoints
 62
     0
440
 16777216
100
AcDbPoint
 10
191.9908342537896
 20
347.1287648786153
 30
0.0
  0
POINT
  5
9A0
330
8C0
100
AcDbEntity
  8
Defpoints
 62
     0
440
 16777216
100
AcDbPoint
 10
205.2034117951482
 20
347.1287648786153
 30
0.0
  0
ENDBLK
  5
8C2
330
8C0
100
AcDbEntity
  8
0
100
AcDbBlockEnd
  0
BLOCK
  5
9A3
330
9A2
100
AcDbEntity
  8
0
100
AcDbBlockBegin
  2
*D32
 70
     1
 10
0.0
 20
0.0
 30
0.0
  3
*D32
  1

  0
LINE
  5
A7A
330
9A2
100
AcDbEntity
  8
Kóta (ISO)
440
 16777216
100
AcDbLine
 10
211.9908342537897
 20
252.3836130786274
 30
0.0
 11
232.0366274115122
 21
252.3836130786274
 31
0.0
  0
LINE
  5
A7B
330
9A2
100
AcDbEntity
  8
Kóta (ISO)
440
 16777216
100
AcDbLine
 10
211.9908342537897
 20
348.8836130786276
 30
0.0
 11
232.0366274115122
 21
348.8836130786276
 31
0.0
  0
LINE
  5
A7C
330
9A2
100
AcDbEntity
  8
Kóta (ISO)
440
 16777216
100
AcDbLine
 10
230.5366274115122
 20
256.1336130786274
 30
0.0
 11
230.5366274115122
 21
345.1336130786275
 31
0.0
  0
SOLID
  5
A7D
330
9A2
100
AcDbEntity
  8
Kóta (ISO)
440
 16777216
100
AcDbTrace
 10
229.9116274115122
 20
256.1336130786274
 30
0.0
 11
231.1616274115122
 21
256.1336130786274
 31
0.0
 12
230.5366274115122
 22
252.3836130786274
 32
0.0
 13
230.5366274115122
 23
252.3836130786274
 33
0.0
  0
SOLID
  5
A7E
330
9A2
100
AcDbEntity
  8
Kóta (ISO)
440
 16777216
100
AcDbTrace
 10
229.9116274115123
 20
345.1336130786275
 30
0.0
 11
231.1616274115122
 21
345.1336130786275
 31
0.0
 12
230.5366274115122
 22
348.8836130786276
 32
0.0
 13
230.5366274115122
 23
348.8836130786276
 33
0.0
  0
MTEXT
  5
A7F
330
9A2
100
AcDbEntity
  8
Kóta (ISO)
440
 16777216
100
AcDbMText
 10
221.4944815508026
 20
290.9809560334013
 30
0.0
 40
5.25
 41
0.0
 71
     1
 72
     1
  1
\A1;{\fAIGDT|b0|i0;\H5.2500;\ln\fTahoma|b0|i0;\H5.2500;}96,5
  7
Text poznámky (ISO)
 11
0.0000000000000001
 21
1.0
 31
0.0
 73
     1
 44
1.0
  0
POINT
  5
A80
330
9A2
100
AcDbEntity
  8
Defpoints
 62
     0
440
 16777216
100
AcDbPoint
 10
211.9908342537897
 20
252.3836130786274
 30
0.0
  0
POINT
  5
A81
330
9A2
100
AcDbEntity
  8
Defpoints
 62
     0
440
 16777216
100
AcDbPoint
 10
211.9908342537897
 20
348.8836130786276
 30
0.0
  0
POINT
  5
A82
330
9A2
100
AcDbEntity
  8
Defpoints
 62
     0
440
 16777216
100
AcDbPoint
 10
230.5366274115122
 20
348.8836130786276
 30
0.0
  0
ENDBLK
  5
9A4
330
9A2
100
AcDbEntity
  8
0
100
AcDbBlockEnd
  0
BLOCK
  5
A84
330
A83
100
AcDbEntity
  8
0
100
AcDbBlockBegin
  2
Pozice1
 70
     0
 10
0.0
 20
0.0
 30
0.0
  3
Pozice1
  1

  0
LINE
  5
A86
330
A83
100
AcDbEntity
  8
Značka (ISO)
100
AcDbLine
 10
199.2423175964583
 20
240.1568691970447
 30
0.0
 11
197.6442086737145
 21
238.2343583723557
 31
0.0
  0
POLYLINE
  5
A87
330
A83
100
AcDbEntity
  8
Značka (ISO)
100
AcDb2dPolyline
 66
     1
 10
0.0
 20
0.0
 30
0.0
 70
   128
  0
VERTEX
  5
A88
330
A87
100
AcDbEntity
  8
Značka (ISO)
100
AcDbVertex
100
AcDb2dVertex
 10
198.8578224182129
 20
240.4764938354492
 30
0.0
  0
VERTEX
  5
A89
330
A87
100
AcDbEntity
  8
Značka (ISO)
100
AcDbVertex
100
AcDb2dVertex
 10
197.6442146301269
 20
238.2343673706055
 30
0.0
  0
VERTEX
  5
A8B
330
A87
100
AcDbEntity
  8
Značka (ISO)
100
AcDbVertex
100
AcDb2dVertex
 10
199.6268272399902
 20
239.8372459411621
 30
0.0
  0
VERTEX
  5
A8C
330
A87
100
AcDbEntity
  8
Značka (ISO)
100
AcDbVertex
100
AcDb2dVertex
 10
198.8578224182129
 20
240.4764938354492
 30
0.0
  0
SEQEND
  5
A8A
330
A87
100
AcDbEntity
  8
Značka (ISO)
  0
SOLID
  5
A8D
330
A83
100
AcDbEntity
  8
Značka (ISO)
100
AcDbTrace
 10
198.8578224182129
 20
240.4764938354492
 30
0.0
 11
197.6442146301269
 21
238.2343673706055
 31
0.0
 12
199.6268272399902
 22
239.8372459411621
 32
0.0
 13
198.8578224182129
 23
240.4764938354492
 33
0.0
  0
LINE
  5
A8E
330
A83
100
AcDbEntity
  8
Značka (ISO)
100
AcDbLine
 10
198.8578154315205
 20
240.4764909815935
 30
0.0
 11
197.6442086737145
 21
238.2343583723557
 31
0.0
  0
LINE
  5
A8F
330
A83
100
AcDbEntity
  8
Značka (ISO)
100
AcDbLine
 10
197.6442086737145
 20
238.2343583723557
 30
0.0
 11
199.6268197613962
 21
239.837247412496
 31
0.0
  0
LINE
  5
A90
330
A83
100
AcDbEntity
  8
Značka (ISO)
100
AcDbLine
 10
199.6268197613962
 20
239.837247412496
 30
0.0
 11
198.8578154315205
 21
240.4764909815935
 31
0.0
  0
LINE
  5
A91
330
A83
100
AcDbEntity
  8
Značka (ISO)
100
AcDbLine
 10
199.2423175964583
 20
240.1568691970447
 30
0.0
 11
206.6848004042999
 21
249.1101098410378
 31
0.0
  0
MTEXT
  5
A92
330
A83
100
AcDbEntity
  8
Značka (ISO)
100
AcDbMText
 10
214.5598000466721
 20
255.6726095430146
 30
0.0
 40
5.24999976158142
 41
0.0
 71
     5
 72
     1
  1
4
  7
Text popisu (ISO)
 73
     1
 44
1.0
  0
LINE
  5
A93
330
A83
100
AcDbEntity
  8
Značka (ISO)
100
AcDbLine
 10
206.6848004042999
 20
249.1101098410378
 30
0.0
 11
222.4347996890442
 21
249.1101098410378
 31
0.0
  0
ENDBLK
  5
A85
330
A83
100
AcDbEntity
  8
0
100
AcDbBlockEnd
  0
BLOCK
  5
A96
330
A95
100
AcDbEntity
  8
0
100
AcDbBlockBegin
  2
Pozice2
 70
     0
 10
0.0
 20
0.0
 30
0.0
  3
Pozice2
  1

  0
LINE
  5
A98
330
A95
100
AcDbEntity
  8
Značka (ISO)
100
AcDbLine
 10
55.96772062723577
 20
186.9207797429427
 30
0.0
 11
54.71772062723534
 21
189.0858432524035
 31
0.0
  0
POLYLINE
  5
A99
330
A95
100
AcDbEntity
  8
Značka (ISO)
100
AcDb2dPolyline
 66
     1
 10
0.0
 20
0.0
 30
0.0
 70
   128
  0
VERTEX
  5
A9A
330
A99
100
AcDbEntity
  8
Značka (ISO)
100
AcDbVertex
100
AcDb2dVertex
 10
56.40073299407958
 20
187.1707725524902
 30
0.0
  0
VERTEX
  5
A9B
330
A99
100
AcDbEntity
  8
Značka (ISO)
100
AcDbVertex
100
AcDb2dVertex
 10
54.71772193908691
 20
189.0858459472656
 30
0.0
  0
VERTEX
  5
A9D
330
A99
100
AcDbEntity
  8
Značka (ISO)
100
AcDbVertex
100
AcDb2dVertex
 10
55.53470611572265
 20
186.6707801818845
 30
0.0
  0
VERTEX
  5
A9E
330
A99
100
AcDbEntity
  8
Značka (ISO)
100
AcDbVertex
100
AcDb2dVertex
 10
56.40073299407958
 20
187.1707725524902
 30
0.0
  0
SEQEND
  5
A9C
330
A99
100
AcDbEntity
  8
Značka (ISO)
  0
SOLID
  5
A9F
330
A95
100
AcDbEntity
  8
Značka (ISO)
100
AcDbTrace
 10
56.40073299407958
 20
187.1707725524902
 30
0.0
 11
54.71772193908691
 21
189.0858459472656
 31
0.0
 12
55.53470611572265
 22
186.6707801818845
 32
0.0
 13
56.40073299407958
 23
187.1707725524902
 33
0.0
  0
LINE
  5
AA0
330
A95
100
AcDbEntity
  8
Značka (ISO)
100
AcDbLine
 10
56.40073332912793
 20
187.1707797429428
 30
0.0
 11
54.71772062723534
 21
189.0858432524035
 31
0.0
  0
LINE
  5
AA1
330
A95
100
AcDbEntity
  8
Značka (ISO)
100
AcDbLine
 10
54.71772062723534
 20
189.0858432524035
 30
0.0
 11
55.53470792534358
 21
186.6707797429426
 31
0.0
  0
LINE
  5
AA2
330
A95
100
AcDbEntity
  8
Značka (ISO)
100
AcDbLine
 10
55.53470792534358
 20
186.6707797429426
 30
0.0
 11
56.40073332912793
 21
187.1707797429428
 31
0.0
  0
LINE
  5
AA3
330
A95
100
AcDbEntity
  8
Značka (ISO)
100
AcDbLine
 10
55.96772062723577
 20
186.9207797429427
 30
0.0
 11
63.07390047883195
 21
174.6125151922615
 31
0.0
  0
MTEXT
  5
AA4
330
A95
100
AcDbEntity
  8
Značka (ISO)
100
AcDbMText
 10
70.94890012120408
 20
181.3409387048021
 30
0.0
 40
5.24999976158142
 41
0.0
 71
     5
 72
     1
  1
5
  7
Text popisu (ISO)
 73
     1
 44
1.0
  0
LINE
  5
AA5
330
A95
100
AcDbEntity
  8
Značka (ISO)
100
AcDbLine
 10
63.07390047883195
 20
174.6125151922615
 30
0.0
 11
78.82389976357621
 21
174.6125151922615
 31
0.0
  0
ENDBLK
  5
A97
330
A95
100
AcDbEntity
  8
0
100
AcDbBlockEnd
  0
BLOCK
  5
AA8
330
AA7
100
AcDbEntity
  8
0
100
AcDbBlockBegin
  2
Pozice3
 70
     0
 10
0.0
 20
0.0
 30
0.0
  3
Pozice3
  1

  0
LINE
  5
AAA
330
AA7
100
AcDbEntity
  8
Značka (ISO)
100
AcDbLine
 10
300.7946616387061
 20
252.4946879248596
 30
0.0
 11
302.7825267464478
 21
254.0107328824459
 31
0.0
  0
POLYLINE
  5
AAB
330
AA7
100
AcDbEntity
  8
Značka (ISO)
100
AcDb2dPolyline
 66
     1
 10
0.0
 20
0.0
 30
0.0
 70
   128
  0
VERTEX
  5
AAC
330
AAB
100
AcDbEntity
  8
Značka (ISO)
100
AcDbVertex
100
AcDb2dVertex
 10
301.0978698730469
 20
252.097110748291
 30
0.0
  0
VERTEX
  5
AAD
330
AAB
100
AcDbEntity
  8
Značka (ISO)
100
AcDbVertex
100
AcDb2dVertex
 10
302.7825355529785
 20
254.0107345581055
 30
0.0
  0
VERTEX
  5
AAF
330
AAB
100
AcDbEntity
  8
Značka (ISO)
100
AcDbVertex
100
AcDb2dVertex
 10
300.4914474487305
 20
252.8922653198242
 30
0.0
  0
VERTEX
  5
AB0
330
AAB
100
AcDbEntity
  8
Značka (ISO)
100
AcDbVertex
100
AcDb2dVertex
 10
301.0978698730469
 20
252.097110748291
 30
0.0
  0
SEQEND
  5
AAE
330
AAB
100
AcDbEntity
  8
Značka (ISO)
  0
SOLID
  5
AB1
330
AA7
100
AcDbEntity
  8
Značka (ISO)
100
AcDbTrace
 10
301.0978698730469
 20
252.097110748291
 30
0.0
 11
302.7825355529785
 21
254.0107345581055
 31
0.0
 12
300.4914474487305
 22
252.8922653198242
 32
0.0
 13
301.0978698730469
 23
252.097110748291
 33
0.0
  0
LINE
  5
AB2
330
AA7
100
AcDbEntity
  8
Značka (ISO)
100
AcDbLine
 10
301.0978706302235
 20
252.0971149033112
 30
0.0
 11
302.7825267464478
 21
254.0107328824459
 31
0.0
  0
LINE
  5
AB3
330
AA7
100
AcDbEntity
  8
Značka (ISO)
100
AcDbLine
 10
302.7825267464478
 20
254.0107328824459
 30
0.0
 11
300.4914526471889
 21
252.8922609464079
 31
0.0
  0
LINE
  5
AB4
330
AA7
100
AcDbEntity
  8
Značka (ISO)
100
AcDbLine
 10
300.4914526471889
 20
252.8922609464079
 30
0.0
 11
301.0978706302235
 21
252.0971149033112
 31
0.0
  0
LINE
  5
AB5
330
AA7
100
AcDbEntity
  8
Značka (ISO)
100
AcDbLine
 10
300.7946616387061
 20
252.4946879248596
 30
0.0
 11
273.8148827855365
 21
231.918564561233
 31
0.0
  0
MTEXT
  5
AB6
330
AA7
100
AcDbEntity
  8
Značka (ISO)
100
AcDbMText
 10
265.9398831431644
 20
238.4895731242747
 30
0.0
 40
5.24999976158142
 41
0.0
 71
     5
 72
     1
  1
1
  7
Text popisu (ISO)
 73
     1
 44
1.0
  0
LINE
  5
AB7
330
AA7
100
AcDbEntity
  8
Značka (ISO)
100
AcDbLine
 10
273.8148827855365
 20
231.918564561233
 30
0.0
 11
258.0648835007923
 21
231.918564561233
 31
0.0
  0
ENDBLK
  5
AA9
330
AA7
100
AcDbEntity
  8
0
100
AcDbBlockEnd
  0
BLOCK
  5
ABA
330
AB9
100
AcDbEntity
  8
0
100
AcDbBlockBegin
  2
Pozice4
 70
     0
 10
0.0
 20
0.0
 30
0.0
  3
Pozice4
  1

  0
LINE
  5
ABC
330
AB9
100
AcDbEntity
  8
Značka (ISO)
100
AcDbLine
 10
137.0378404675915
 20
273.6047412459269
 30
0.0
 11
135.1605561691931
 21
275.2557420524035
 31
0.0
  0
POLYLINE
  5
ABD
330
AB9
100
AcDbEntity
  8
Značka (ISO)
100
AcDb2dPolyline
 66
     1
 10
0.0
 20
0.0
 30
0.0
 70
   128
  0
VERTEX
  5
ABE
330
ABD
100
AcDbEntity
  8
Značka (ISO)
100
AcDbVertex
100
AcDb2dVertex
 10
137.3680400848388
 20
273.9801979064941
 30
0.0
  0
VERTEX
  5
ABF
330
ABD
100
AcDbEntity
  8
Značka (ISO)
100
AcDbVertex
100
AcDb2dVertex
 10
135.1605606079101
 20
275.2557373046875
 30
0.0
  0
VERTEX
  5
AC1
330
ABD
100
AcDbEntity
  8
Značka (ISO)
100
AcDbVertex
100
AcDb2dVertex
 10
136.7076396942138
 20
273.2292938232422
 30
0.0
  0
VERTEX
  5
AC2
330
ABD
100
AcDbEntity
  8
Značka (ISO)
100
AcDbVertex
100
AcDb2dVertex
 10
137.3680400848388
 20
273.9801979064941
 30
0.0
  0
SEQEND
  5
AC0
330
ABD
100
AcDbEntity
  8
Značka (ISO)
  0
SOLID
  5
AC3
330
AB9
100
AcDbEntity
  8
Značka (ISO)
100
AcDbTrace
 10
137.3680400848388
 20
273.9801979064941
 30
0.0
 11
135.1605606079101
 21
275.2557373046875
 31
0.0
 12
136.7076396942138
 22
273.2292938232422
 32
0.0
 13
137.3680400848388
 23
273.9801979064941
 33
0.0
  0
LINE
  5
AC4
330
AB9
100
AcDbEntity
  8
Značka (ISO)
100
AcDbLine
 10
137.3680406288868
 20
273.9801981056065
 30
0.0
 11
135.1605561691931
 21
275.2557420524035
 31
0.0
  0
LINE
  5
AC5
330
AB9
100
AcDbEntity
  8
Značka (ISO)
100
AcDbLine
 10
135.1605561691931
 20
275.2557420524035
 30
0.0
 11
136.7076403062961
 21
273.2292843862471
 31
0.0
  0
LINE
  5
AC6
330
AB9
100
AcDbEntity
  8
Značka (ISO)
100
AcDbLine
 10
136.7076403062961
 20
273.2292843862471
 30
0.0
 11
137.3680406288868
 21
273.9801981056065
 31
0.0
  0
LINE
  5
AC7
330
AB9
100
AcDbEntity
  8
Značka (ISO)
100
AcDbLine
 10
137.0378404675915
 20
273.6047412459269
 30
0.0
 11
146.334552674938
 21
265.4286331492435
 31
0.0
  0
MTEXT
  5
AC8
330
AB9
100
AcDbEntity
  8
Značka (ISO)
100
AcDbMText
 10
154.2095523173101
 20
272.2123644077178
 30
0.0
 40
5.24999976158142
 41
0.0
 71
     5
 72
     1
  1
3
  7
Text popisu (ISO)
 73
     1
 44
1.0
  0
LINE
  5
AC9
330
AB9
100
AcDbEntity
  8
Značka (ISO)
100
AcDbLine
 10
146.334552674938
 20
265.4286331492435
 30
0.0
 11
162.0845519596823
 21
265.4286331492435
 31
0.0
  0
MTEXT
  5
ACA
330
AB9
100
AcDbEntity
  8
Značka (ISO)
100
AcDbMText
 10
169.9595516020544
 20
272.0464405971538
 30
0.0
 40
5.24999976158142
 41
0.0
 71
     5
 72
     1
  1
2
  7
Text popisu (ISO)
 73
     1
 44
1.0
  0
LINE
  5
ACB
330
AB9
100
AcDbEntity
  8
Značka (ISO)
100
AcDbLine
 10
162.0845519596823
 20
265.4286331492435
 30
0.0
 11
163.6595518881567
 21
263.8536332207691
 31
0.0
  0
LINE
  5
ACC
330
AB9
100
AcDbEntity
  8
Značka (ISO)
100
AcDbLine
 10
163.6595518881567
 20
263.8536332207691
 30
0.0
 11
165.2345518166311
 21
265.4286331492435
 31
0.0
  0
LINE
  5
ACD
330
AB9
100
AcDbEntity
  8
Značka (ISO)
100
AcDbLine
 10
165.2345518166311
 20
265.4286331492435
 30
0.0
 11
177.8345512444265
 21
265.4286331492435
 31
0.0
  0
ENDBLK
  5
ABB
330
AB9
100
AcDbEntity
  8
0
100
AcDbBlockEnd
  0
BLOCK
  5
BA3
330
BA1
100
AcDbEntity
  8
0
100
AcDbBlockBegin
  2
GENAXEH
 70
     0
 10
0.0
 20
0.0
 30
0.0
  3
GENAXEH
  1

  0
LINE
  5
BA2
330
BA1
100
AcDbEntity
  8
0
100
AcDbLine
 10
-1.0
 20
0.0
 30
0.0
 11
1.0
 21
0.0
 31
0.0
  0
ENDBLK
  5
BA4
330
BA1
100
AcDbEntity
  8
0
100
AcDbBlockEnd
  0
BLOCK
  5
BBC
330
BBB
100
AcDbEntity
  8
0
100
AcDbBlockBegin
  2
*D38
 70
     1
 10
0.0
 20
0.0
 30
0.0
  3
*D38
  1

  0
LINE
  5
BBD
330
BBB
100
AcDbEntity
  8
5
370
    -2
100
AcDbLine
 10
279.4992300835019
 20
413.0598137330506
 30
0.0
 11
279.4992300835019
 21
439.3705359533992
 31
0.0
  0
LINE
  5
BBE
330
BBB
100
AcDbEntity
  8
5
370
    -2
100
AcDbLine
 10
443.4992300835019
 20
413.0598137330506
 30
0.0
 11
443.4992300835019
 21
439.3705359533992
 31
0.0
  0
LINE
  5
BBF
330
BBB
100
AcDbEntity
  8
5
370
    -2
100
AcDbLine
 10
284.4992300835019
 20
437.3705359533992
 30
0.0
 11
438.4992300835019
 21
437.3705359533992
 31
0.0
  0
SOLID
  5
BC0
330
BBB
100
AcDbEntity
  8
5
100
AcDbTrace
 10
284.4992300835019
 20
438.2038692867326
 30
0.0
 11
284.4992300835019
 21
436.5372026200661
 31
0.0
 12
279.4992300835019
 22
437.3705359533992
 32
0.0
 13
279.4992300835019
 23
437.3705359533992
 33
0.0
  0
SOLID
  5
BC1
330
BBB
100
AcDbEntity
  8
5
100
AcDbTrace
 10
438.4992300835019
 20
438.2038692867326
 30
0.0
 11
438.4992300835019
 21
436.5372026200661
 31
0.0
 12
443.4992300835019
 22
437.3705359533992
 32
0.0
 13
443.4992300835019
 23
437.3705359533992
 33
0.0
  0
MTEXT
  5
BC2
330
BBB
100
AcDbEntity
  8
5
 62
     7
100
AcDbMText
 10
361.499230083502
 20
446.5483734282147
 30
0.0
 40
14.0
 41
0.0
 71
     5
 72
     1
  1
%%c164
 73
     1
 44
1.0
  0
POINT
  5
BC3
330
BBB
100
AcDbEntity
  8
Defpoints
 62
     0
100
AcDbPoint
 10
279.4992300835019
 20
411.059813733051
 30
0.0
  0
POINT
  5
BC4
330
BBB
100
AcDbEntity
  8
Defpoints
 62
     0
100
AcDbPoint
 10
443.4992300835019
 20
411.059813733051
 30
0.0
  0
POINT
  5
BC5
330
BBB
100
AcDbEntity
  8
Defpoints
 62
     0
100
AcDbPoint
 10
443.4992300835019
 20
437.3705359533992
 30
0.0
  0
ENDBLK
  5
BC6
330
BBB
100
AcDbEntity
  8
0
100
AcDbBlockEnd
  0
BLOCK
  5
BC8
330
BC7
100
AcDbEntity
  8
0
100
AcDbBlockBegin
  2
*D39
 70
     1
 10
0.0
 20
0.0
 30
0.0
  3
*D39
  1

  0
LINE
  5
BC9
330
BC7
100
AcDbEntity
  8
5
370
    -2
100
AcDbLine
 10
316.4740175473129
 20
301.804965533051
 30
0.0
 11
265.2936662478694
 21
301.804965533051
 31
0.0
  0
LINE
  5
BCA
330
BC7
100
AcDbEntity
  8
5
370
    -2
100
AcDbLine
 10
277.2936662478694
 20
411.059813733051
 30
0.0
 11
265.2936662478694
 21
411.059813733051
 31
0.0
  0
LINE
  5
BCB
330
BC7
100
AcDbEntity
  8
5
370
    -2
100
AcDbLine
 10
267.2936662478694
 20
306.804965533051
 30
0.0
 11
267.2936662478694
 21
406.059813733051
 31
0.0
  0
SOLID
  5
BCC
330
BC7
100
AcDbEntity
  8
5
100
AcDbTrace
 10
266.4603329145361
 20
306.804965533051
 30
0.0
 11
268.1269995812027
 21
306.804965533051
 31
0.0
 12
267.2936662478694
 22
301.804965533051
 32
0.0
 13
267.2936662478694
 23
301.804965533051
 33
0.0
  0
SOLID
  5
BCD
330
BC7
100
AcDbEntity
  8
5
100
AcDbTrace
 10
266.4603329145361
 20
406.059813733051
 30
0.0
 11
268.1269995812028
 21
406.059813733051
 31
0.0
 12
267.2936662478694
 22
411.059813733051
 32
0.0
 13
267.2936662478694
 23
411.059813733051
 33
0.0
  0
MTEXT
  5
BCE
330
BC7
100
AcDbEntity
  8
5
 62
     7
100
AcDbMText
 10
258.8068966038129
 20
356.4323896330512
 30
0.0
 40
14.0
 41
0.0
 71
     5
 72
     1
  1
109
 11
0.0000000000000001
 21
1.0
 31
0.0
 73
     1
 44
1.0
  0
POINT
  5
BCF
330
BC7
100
AcDbEntity
  8
Defpoints
 62
     0
100
AcDbPoint
 10
318.4740175473129
 20
301.804965533051
 30
0.0
  0
POINT
  5
BD0
330
BC7
100
AcDbEntity
  8
Defpoints
 62
     0
100
AcDbPoint
 10
279.2936662478694
 20
411.059813733051
 30
0.0
  0
POINT
  5
BD1
330
BC7
100
AcDbEntity
  8
Defpoints
 62
     0
100
AcDbPoint
 10
267.2936662478694
 20
411.059813733051
 30
0.0
  0
ENDBLK
  5
BD2
330
BC7
100
AcDbEntity
  8
0
100
AcDbBlockEnd
  0
BLOCK
  5
BD4
330
BD3
100
AcDbEntity
  8
0
100
AcDbBlockBegin
  2
*D40
 70
     1
 10
0.0
 20
0.0
 30
0.0
  3
*D40
  1

  0
LINE
  5
BD5
330
BD3
100
AcDbEntity
  8
5
370
    -2
100
AcDbLine
 10
536.2129680391118
 20
373.8098137330732
 30
0.0
 11
566.1152979774552
 21
373.8098137330732
 31
0.0
  0
LINE
  5
BD6
330
BD3
100
AcDbEntity
  8
5
370
    -2
100
AcDbLine
 10
536.2129680391118
 20
263.8098137330731
 30
0.0
 11
566.1152979774552
 21
263.8098137330731
 31
0.0
  0
LINE
  5
BD7
330
BD3
100
AcDbEntity
  8
5
370
    -2
100
AcDbLine
 10
564.1152979774552
 20
368.8098137330732
 30
0.0
 11
564.1152979774552
 21
268.809813733073
 31
0.0
  0
SOLID
  5
BD8
330
BD3
100
AcDbEntity
  8
5
100
AcDbTrace
 10
563.2819646441219
 20
368.8098137330732
 30
0.0
 11
564.9486313107886
 21
368.8098137330732
 31
0.0
 12
564.1152979774552
 22
373.8098137330732
 32
0.0
 13
564.1152979774552
 23
373.8098137330732
 33
0.0
  0
SOLID
  5
BD9
330
BD3
100
AcDbEntity
  8
5
100
AcDbTrace
 10
563.2819646441219
 20
268.809813733073
 30
0.0
 11
564.9486313107886
 21
268.809813733073
 31
0.0
 12
564.1152979774552
 22
263.8098137330731
 32
0.0
 13
564.1152979774552
 23
263.8098137330731
 33
0.0
  0
MTEXT
  5
BDA
330
BD3
100
AcDbEntity
  8
5
 62
     7
100
AcDbMText
 10
554.9374605026399
 20
318.8098137330732
 30
0.0
 40
14.0
 41
0.0
 71
     5
 72
     1
  1
%%c110
 11
0.0000000000000001
 21
1.0
 31
0.0
 73
     1
 44
1.0
  0
POINT
  5
BDB
330
BD3
100
AcDbEntity
  8
Defpoints
 62
     0
100
AcDbPoint
 10
534.2129680391118
 20
373.8098137330732
 30
0.0
  0
POINT
  5
BDC
330
BD3
100
AcDbEntity
  8
Defpoints
 62
     0
100
AcDbPoint
 10
534.2129680391118
 20
263.8098137330731
 30
0.0
  0
POINT
  5
BDD
330
BD3
100
AcDbEntity
  8
Defpoints
 62
     0
100
AcDbPoint
 10
564.1152979774552
 20
263.8098137330731
 30
0.0
  0
ENDBLK
  5
BDE
330
BD3
100
AcDbEntity
  8
0
100
AcDbBlockEnd
  0
BLOCK
  5
BE0
330
BDF
100
AcDbEntity
  8
0
100
AcDbBlockBegin
  2
*D41
 70
     1
 10
0.0
 20
0.0
 30
0.0
  3
*D41
  1

  0
LINE
  5
BE1
330
BDF
100
AcDbEntity
  8
5
370
    -2
100
AcDbLine
 10
445.4992300835018
 20
411.059813733051
 30
0.0
 11
586.8012436808109
 21
411.059813733051
 31
0.0
  0
LINE
  5
BE2
330
BDF
100
AcDbEntity
  8
5
370
    -2
100
AcDbLine
 10
574.9807034884407
 20
318.8098137330731
 30
0.0
 11
586.8012436808109
 21
318.8098137330731
 31
0.0
  0
LINE
  5
BE3
330
BDF
100
AcDbEntity
  8
5
370
    -2
100
AcDbLine
 10
584.8012436808109
 20
406.059813733051
 30
0.0
 11
584.8012436808109
 21
323.8098137330731
 31
0.0
  0
SOLID
  5
BE4
330
BDF
100
AcDbEntity
  8
5
100
AcDbTrace
 10
583.9679103474775
 20
406.059813733051
 30
0.0
 11
585.6345770141443
 21
406.059813733051
 31
0.0
 12
584.8012436808109
 22
411.059813733051
 32
0.0
 13
584.8012436808109
 23
411.059813733051
 33
0.0
  0
SOLID
  5
BE5
330
BDF
100
AcDbEntity
  8
5
100
AcDbTrace
 10
583.9679103474775
 20
323.8098137330731
 30
0.0
 11
585.6345770141443
 21
323.8098137330731
 31
0.0
 12
584.8012436808109
 22
318.8098137330731
 32
0.0
 13
584.8012436808109
 23
318.8098137330731
 33
0.0
  0
MTEXT
  5
BE6
330
BDF
100
AcDbEntity
  8
5
 62
     7
100
AcDbMText
 10
576.3191751784602
 20
364.9348137330621
 30
0.0
 40
14.0
 41
0.0
 71
     5
 72
     1
  1
92
 11
0.0000000000000001
 21
1.0
 31
0.0
 73
     1
 44
1.0
  0
POINT
  5
BE7
330
BDF
100
AcDbEntity
  8
Defpoints
 62
     0
100
AcDbPoint
 10
443.4992300835019
 20
411.059813733051
 30
0.0
  0
POINT
  5
BE8
330
BDF
100
AcDbEntity
  8
Defpoints
 62
     0
100
AcDbPoint
 10
572.9807034884409
 20
318.8098137330731
 30
0.0
  0
POINT
  5
BE9
330
BDF
100
AcDbEntity
  8
Defpoints
 62
     0
100
AcDbPoint
 10
584.8012436808109
 20
318.8098137330731
 30
0.0
  0
ENDBLK
  5
BEA
330
BDF
100
AcDbEntity
  8
0
100
AcDbBlockEnd
  0
BLOCK
  5
BEC
330
BEB
100
AcDbEntity
  8
0
100
AcDbBlockBegin
  2
*D42
 70
     1
 10
0.0
 20
0.0
 30
0.0
  3
*D42
  1

  0
LINE
  5
BED
330
BEB
100
AcDbEntity
  8
5
370
    -2
100
AcDbLine
 10
445.4992300835018
 20
411.059813733051
 30
0.0
 11
610.0729314969611
 21
411.059813733051
 31
0.0
  0
LINE
  5
BEE
330
BEB
100
AcDbEntity
  8
5
370
    -2
100
AcDbLine
 10
536.2129680391118
 20
263.8098137330731
 30
0.0
 11
610.0729314969611
 21
263.8098137330731
 31
0.0
  0
LINE
  5
BEF
330
BEB
100
AcDbEntity
  8
5
370
    -2
100
AcDbLine
 10
608.0729314969611
 20
406.059813733051
 30
0.0
 11
608.0729314969611
 21
268.8098137330731
 31
0.0
  0
SOLID
  5
BF0
330
BEB
100
AcDbEntity
  8
5
100
AcDbTrace
 10
607.2395981636277
 20
406.059813733051
 30
0.0
 11
608.9062648302943
 21
406.059813733051
 31
0.0
 12
608.0729314969611
 22
411.059813733051
 32
0.0
 13
608.0729314969611
 23
411.059813733051
 33
0.0
  0
SOLID
  5
BF1
330
BEB
100
AcDbEntity
  8
5
100
AcDbTrace
 10
607.2395981636277
 20
268.8098137330731
 30
0.0
 11
608.9062648302943
 21
268.8098137330731
 31
0.0
 12
608.0729314969611
 22
263.8098137330731
 32
0.0
 13
608.0729314969611
 23
263.8098137330731
 33
0.0
  0
MTEXT
  5
BF2
330
BEB
100
AcDbEntity
  8
5
 62
     7
100
AcDbMText
 10
599.8494257884317
 20
337.4348137330621
 30
0.0
 40
14.0
 41
0.0
 71
     5
 72
     1
  1
147
 11
0.0000000000000001
 21
1.0
 31
0.0
 73
     1
 44
1.0
  0
POINT
  5
BF3
330
BEB
100
AcDbEntity
  8
Defpoints
 62
     0
100
AcDbPoint
 10
443.4992300835019
 20
411.059813733051
 30
0.0
  0
POINT
  5
BF4
330
BEB
100
AcDbEntity
  8
Defpoints
 62
     0
100
AcDbPoint
 10
534.2129680391118
 20
263.8098137330731
 30
0.0
  0
POINT
  5
BF5
330
BEB
100
AcDbEntity
  8
Defpoints
 62
     0
100
AcDbPoint
 10
608.0729314969611
 20
263.8098137330731
 30
0.0
  0
ENDBLK
  5
BF6
330
BEB
100
AcDbEntity
  8
0
100
AcDbBlockEnd
  0
BLOCK
  5
BF8
330
BF7
100
AcDbEntity
  8
0
100
AcDbBlockBegin
  2
*D43
 70
     1
 10
0.0
 20
0.0
 30
0.0
  3
*D43
  1

  0
LINE
  5
BF9
330
BF7
100
AcDbEntity
  8
5
370
    -2
100
AcDbLine
 10
542.4992300835018
 20
263.8098137330731
 30
0.0
 11
542.4992300835018
 21
242.8977574395449
 31
0.0
  0
LINE
  5
BFA
330
BF7
100
AcDbEntity
  8
5
370
    -2
100
AcDbLine
 10
361.499230083502
 20
277.3625919658157
 30
0.0
 11
361.499230083502
 21
242.8977574395449
 31
0.0
  0
LINE
  5
BFB
330
BF7
100
AcDbEntity
  8
5
370
    -2
100
AcDbLine
 10
537.4992300835018
 20
244.8977574395449
 30
0.0
 11
366.499230083502
 21
244.8977574395449
 31
0.0
  0
SOLID
  5
BFC
330
BF7
100
AcDbEntity
  8
5
100
AcDbTrace
 10
537.4992300835018
 20
245.7310907728782
 30
0.0
 11
537.4992300835018
 21
244.0644241062115
 31
0.0
 12
542.4992300835018
 22
244.8977574395449
 32
0.0
 13
542.4992300835018
 23
244.8977574395449
 33
0.0
  0
SOLID
  5
BFD
330
BF7
100
AcDbEntity
  8
5
100
AcDbTrace
 10
366.499230083502
 20
245.7310907728782
 30
0.0
 11
366.499230083502
 21
244.0644241062115
 31
0.0
 12
361.499230083502
 22
244.8977574395449
 32
0.0
 13
361.499230083502
 23
244.8977574395449
 33
0.0
  0
MTEXT
  5
BFE
330
BF7
100
AcDbEntity
  8
5
 62
     7
100
AcDbMText
 10
451.999230083502
 20
253.4174350755422
 30
0.0
 40
14.0
 41
0.0
 71
     5
 72
     1
  1
181
 73
     1
 44
1.0
  0
POINT
  5
BFF
330
BF7
100
AcDbEntity
  8
Defpoints
 62
     0
100
AcDbPoint
 10
542.4992300835018
 20
265.8098137330731
 30
0.0
  0
POINT
  5
C00
330
BF7
100
AcDbEntity
  8
Defpoints
 62
     0
100
AcDbPoint
 10
361.499230083502
 20
279.3625919658157
 30
0.0
  0
POINT
  5
C01
330
BF7
100
AcDbEntity
  8
Defpoints
 62
     0
100
AcDbPoint
 10
361.499230083502
 20
244.8977574395449
 30
0.0
  0
ENDBLK
  5
C02
330
BF7
100
AcDbEntity
  8
0
100
AcDbBlockEnd
  0
BLOCK
  5
C04
330
C03
100
AcDbEntity
  8
0
100
AcDbBlockBegin
  2
*D44
 70
     1
 10
0.0
 20
0.0
 30
0.0
  3
*D44
  1

  0
LINE
  5
C05
330
C03
100
AcDbEntity
  8
5
370
    -2
100
AcDbLine
 10
432.7492300835019
 20
365.3049655330609
 30
0.0
 11
432.7492300835019
 21
273.1898775370703
 31
0.0
  0
LINE
  5
C06
330
C03
100
AcDbEntity
  8
5
370
    -2
100
AcDbLine
 10
290.2492300835019
 20
318.3485366540523
 30
0.0
 11
290.2492300835019
 21
273.1898775370703
 31
0.0
  0
LINE
  5
C07
330
C03
100
AcDbEntity
  8
5
370
    -2
100
AcDbLine
 10
427.7492300835019
 20
275.1898775370703
 30
0.0
 11
295.2492300835019
 21
275.1898775370703
 31
0.0
  0
SOLID
  5
C08
330
C03
100
AcDbEntity
  8
5
100
AcDbTrace
 10
427.7492300835019
 20
276.0232108704036
 30
0.0
 11
427.7492300835019
 21
274.356544203737
 31
0.0
 12
432.7492300835019
 22
275.1898775370703
 32
0.0
 13
432.7492300835019
 23
275.1898775370703
 33
0.0
  0
SOLID
  5
C09
330
C03
100
AcDbEntity
  8
5
100
AcDbTrace
 10
295.2492300835019
 20
276.0232108704036
 30
0.0
 11
295.2492300835019
 21
274.356544203737
 31
0.0
 12
290.2492300835019
 22
275.1898775370703
 32
0.0
 13
290.2492300835019
 23
275.1898775370703
 33
0.0
  0
MTEXT
  5
C0A
330
C03
100
AcDbEntity
  8
5
 62
     7
100
AcDbMText
 10
361.499230083502
 20
283.5356129299514
 30
0.0
 40
14.0
 41
0.0
 71
     5
 72
     1
  1
142
 73
     1
 44
1.0
  0
POINT
  5
C0B
330
C03
100
AcDbEntity
  8
Defpoints
 62
     0
100
AcDbPoint
 10
432.7492300835019
 20
367.304965533061
 30
0.0
  0
POINT
  5
C0C
330
C03
100
AcDbEntity
  8
Defpoints
 62
     0
100
AcDbPoint
 10
290.2492300835019
 20
320.3485366540523
 30
0.0
  0
POINT
  5
C0D
330
C03
100
AcDbEntity
  8
Defpoints
 62
     0
100
AcDbPoint
 10
290.2492300835019
 20
275.1898775370703
 30
0.0
  0
ENDBLK
  5
C0E
330
C03
100
AcDbEntity
  8
0
100
AcDbBlockEnd
  0
BLOCK
  5
D11
330
D10
100
AcDbEntity
  8
0
100
AcDbBlockBegin
  2
*D45
 70
     1
 10
0.0
 20
0.0
 30
0.0
  3
*D45
  1

  0
LINE
  5
D64
330
D10
100
AcDbEntity
  8
5
370
    -2
100
AcDbLine
 10
143.5537271427046
 20
268.1942143215813
 30
0.0
 11
143.5537271427046
 21
176.0791263255906
 31
0.0
  0
LINE
  5
D65
330
D10
100
AcDbEntity
  8
5
370
    -2
100
AcDbLine
 10
1.053727142704643
 20
221.2377854425727
 30
0.0
 11
1.053727142704639
 21
176.0791263255906
 31
0.0
  0
LINE
  5
D66
330
D10
100
AcDbEntity
  8
5
370
    -2
100
AcDbLine
 10
138.5537271427046
 20
178.0791263255905
 30
0.0
 11
6.053727142704643
 21
178.0791263255905
 31
0.0
  0
SOLID
  5
D67
330
D10
100
AcDbEntity
  8
5
100
AcDbTrace
 10
138.5537271427046
 20
178.9124596589239
 30
0.0
 11
138.5537271427046
 21
177.2457929922573
 31
0.0
 12
143.5537271427046
 22
178.0791263255905
 32
0.0
 13
143.5537271427046
 23
178.0791263255905
 33
0.0
  0
SOLID
  5
D68
330
D10
100
AcDbEntity
  8
5
100
AcDbTrace
 10
6.053727142704643
 20
178.9124596589239
 30
0.0
 11
6.053727142704643
 21
177.2457929922573
 31
0.0
 12
1.053727142704642
 22
178.0791263255905
 32
0.0
 13
1.053727142704642
 23
178.0791263255905
 33
0.0
  0
MTEXT
  5
D69
330
D10
100
AcDbEntity
  8
5
 62
     7
100
AcDbMText
 10
72.3037271427047
 20
186.4248617184718
 30
0.0
 40
14.0
 41
0.0
 71
     5
 72
     1
  1
142
 73
     1
 44
1.0
  0
POINT
  5
D6A
330
D10
100
AcDbEntity
  8
Defpoints
 62
     0
100
AcDbPoint
 10
143.5537271427046
 20
270.1942143215813
 30
0.0
  0
POINT
  5
D6B
330
D10
100
AcDbEntity
  8
Defpoints
 62
     0
100
AcDbPoint
 10
1.053727142704643
 20
223.2377854425727
 30
0.0
  0
POINT
  5
D6C
330
D10
100
AcDbEntity
  8
Defpoints
 62
     0
100
AcDbPoint
 10
1.053727142704642
 20
178.0791263255905
 30
0.0
  0
ENDBLK
  5
D12
330
D10
100
AcDbEntity
  8
0
100
AcDbBlockEnd
  0
BLOCK
  5
D1D
330
D1C
100
AcDbEntity
  8
0
100
AcDbBlockBegin
  2
*D46
 70
     1
 10
0.0
 20
0.0
 30
0.0
  3
*D46
  1

  0
LINE
  5
FBB
330
D1C
100
AcDbEntity
  8
5
370
    -2
100
AcDbLine
 10
-9.696272857295355
 20
315.9490625215714
 30
0.0
 11
-9.696272857295353
 21
338.7392564974062
 31
0.0
  0
LINE
  5
FBC
330
D1C
100
AcDbEntity
  8
5
370
    -2
100
AcDbLine
 10
154.3037271427046
 20
315.9490625215714
 30
0.0
 11
154.3037271427046
 21
338.7392564974062
 31
0.0
  0
LINE
  5
FBD
330
D1C
100
AcDbEntity
  8
5
370
    -2
100
AcDbLine
 10
-4.696272857295353
 20
336.7392564974062
 30
0.0
 11
149.3037271427046
 21
336.7392564974062
 31
0.0
  0
SOLID
  5
FBE
330
D1C
100
AcDbEntity
  8
5
100
AcDbTrace
 10
-4.696272857295353
 20
337.5725898307396
 30
0.0
 11
-4.696272857295353
 21
335.9059231640729
 31
0.0
 12
-9.696272857295353
 22
336.7392564974062
 32
0.0
 13
-9.696272857295353
 23
336.7392564974062
 33
0.0
  0
SOLID
  5
FBF
330
D1C
100
AcDbEntity
  8
5
100
AcDbTrace
 10
149.3037271427046
 20
337.5725898307396
 30
0.0
 11
149.3037271427046
 21
335.9059231640729
 31
0.0
 12
154.3037271427046
 22
336.7392564974062
 32
0.0
 13
154.3037271427046
 23
336.7392564974062
 33
0.0
  0
MTEXT
  5
FC0
330
D1C
100
AcDbEntity
  8
5
 62
     7
100
AcDbMText
 10
72.96868040741538
 20
345.9170939722215
 30
0.0
 40
14.0
 41
0.0
 71
     5
 72
     1
  1
%%c164
 73
     1
 44
1.0
  0
POINT
  5
FC1
330
D1C
100
AcDbEntity
  8
Defpoints
 62
     0
100
AcDbPoint
 10
-9.696272857295355
 20
313.9490625215714
 30
0.0
  0
POINT
  5
FC2
330
D1C
100
AcDbEntity
  8
Defpoints
 62
     0
100
AcDbPoint
 10
154.3037271427046
 20
313.9490625215714
 30
0.0
  0
POINT
  5
FC3
330
D1C
100
AcDbEntity
  8
Defpoints
 62
     0
100
AcDbPoint
 10
154.3037271427046
 20
336.7392564974062
 30
0.0
  0
ENDBLK
  5
D1E
330
D1C
100
AcDbEntity
  8
0
100
AcDbBlockEnd
  0
BLOCK
  5
D29
330
D28
100
AcDbEntity
  8
0
100
AcDbBlockBegin
  2
*D47
 70
     1
 10
0.0
 20
0.0
 30
0.0
  3
*D47
  1

  0
LINE
  5
D76
330
D28
100
AcDbEntity
  8
5
370
    -2
100
AcDbLine
 10
27.27851460651562
 20
204.6942143215714
 30
0.0
 11
-23.9018366929279
 21
204.6942143215714
 31
0.0
  0
LINE
  5
D77
330
D28
100
AcDbEntity
  8
5
370
    -2
100
AcDbLine
 10
-11.90183669292787
 20
313.9490625215714
 30
0.0
 11
-23.90183669292787
 21
313.9490625215714
 31
0.0
  0
LINE
  5
D78
330
D28
100
AcDbEntity
  8
5
370
    -2
100
AcDbLine
 10
-21.9018366929279
 20
209.6942143215714
 30
0.0
 11
-21.90183669292788
 21
308.9490625215713
 31
0.0
  0
SOLID
  5
D79
330
D28
100
AcDbEntity
  8
5
100
AcDbTrace
 10
-22.73517002626123
 20
209.6942143215714
 30
0.0
 11
-21.06850335959457
 21
209.6942143215714
 31
0.0
 12
-21.9018366929279
 22
204.6942143215714
 32
0.0
 13
-21.9018366929279
 23
204.6942143215714
 33
0.0
  0
SOLID
  5
D7A
330
D28
100
AcDbEntity
  8
5
100
AcDbTrace
 10
-22.73517002626121
 20
308.9490625215713
 30
0.0
 11
-21.06850335959455
 21
308.9490625215713
 31
0.0
 12
-21.90183669292787
 22
313.9490625215714
 32
0.0
 13
-21.90183669292787
 23
313.9490625215714
 33
0.0
  0
MTEXT
  5
D7B
330
D28
100
AcDbEntity
  8
5
 62
     7
100
AcDbMText
 10
-30.38860633698436
 20
259.3216384215714
 30
0.0
 40
14.0
 41
0.0
 71
     5
 72
     1
  1
109
 11
0.0000000000000001
 21
1.0
 31
0.0
 73
     1
 44
1.0
  0
POINT
  5
D7C
330
D28
100
AcDbEntity
  8
Defpoints
 62
     0
100
AcDbPoint
 10
29.27851460651562
 20
204.6942143215714
 30
0.0
  0
POINT
  5
D7D
330
D28
100
AcDbEntity
  8
Defpoints
 62
     0
100
AcDbPoint
 10
-9.901836692927872
 20
313.9490625215714
 30
0.0
  0
POINT
  5
D7E
330
D28
100
AcDbEntity
  8
Defpoints
 62
     0
100
AcDbPoint
 10
-21.90183669292787
 20
313.9490625215714
 30
0.0
  0
ENDBLK
  5
D2A
330
D28
100
AcDbEntity
  8
0
100
AcDbBlockEnd
  0
BLOCK
  5
D35
330
D34
100
AcDbEntity
  8
0
100
AcDbBlockBegin
  2
*D48
 70
     1
 10
0.0
 20
0.0
 30
0.0
  3
*D48
  1

  0
LINE
  5
D7F
330
D34
100
AcDbEntity
  8
5
370
    -2
100
AcDbLine
 10
247.0174650983146
 20
276.6990625215936
 30
0.0
 11
276.9197950366581
 21
276.6990625215936
 31
0.0
  0
LINE
  5
D80
330
D34
100
AcDbEntity
  8
5
370
    -2
100
AcDbLine
 10
247.0174650983146
 20
166.6990625215935
 30
0.0
 11
276.9197950366581
 21
166.6990625215935
 31
0.0
  0
LINE
  5
D81
330
D34
100
AcDbEntity
  8
5
370
    -2
100
AcDbLine
 10
274.9197950366581
 20
271.6990625215936
 30
0.0
 11
274.9197950366581
 21
171.6990625215935
 31
0.0
  0
SOLID
  5
D82
330
D34
100
AcDbEntity
  8
5
100
AcDbTrace
 10
274.0864617033247
 20
271.6990625215936
 30
0.0
 11
275.7531283699914
 21
271.6990625215936
 31
0.0
 12
274.9197950366581
 22
276.6990625215936
 32
0.0
 13
274.9197950366581
 23
276.6990625215936
 33
0.0
  0
SOLID
  5
D83
330
D34
100
AcDbEntity
  8
5
100
AcDbTrace
 10
274.0864617033247
 20
171.6990625215935
 30
0.0
 11
275.7531283699914
 21
171.6990625215935
 31
0.0
 12
274.9197950366581
 22
166.6990625215935
 32
0.0
 13
274.9197950366581
 23
166.6990625215935
 33
0.0
  0
MTEXT
  5
D84
330
D34
100
AcDbEntity
  8
5
 62
     7
100
AcDbMText
 10
265.7419575618427
 20
221.6990625215936
 30
0.0
 40
14.0
 41
0.0
 71
     5
 72
     1
  1
%%c110
 11
0.0000000000000001
 21
1.0
 31
0.0
 73
     1
 44
1.0
  0
POINT
  5
D85
330
D34
100
AcDbEntity
  8
Defpoints
 62
     0
100
AcDbPoint
 10
245.0174650983146
 20
276.6990625215936
 30
0.0
  0
POINT
  5
D86
330
D34
100
AcDbEntity
  8
Defpoints
 62
     0
100
AcDbPoint
 10
245.0174650983146
 20
166.6990625215935
 30
0.0
  0
POINT
  5
D87
330
D34
100
AcDbEntity
  8
Defpoints
 62
     0
100
AcDbPoint
 10
274.9197950366581
 20
166.6990625215935
 30
0.0
  0
ENDBLK
  5
D36
330
D34
100
AcDbEntity
  8
0
100
AcDbBlockEnd
  0
BLOCK
  5
D41
330
D40
100
AcDbEntity
  8
0
100
AcDbBlockBegin
  2
*D49
 70
     1
 10
0.0
 20
0.0
 30
0.0
  3
*D49
  1

  0
LINE
  5
D88
330
D40
100
AcDbEntity
  8
5
370
    -2
100
AcDbLine
 10
156.3037271427046
 20
313.9490625215714
 30
0.0
 11
297.6057407400136
 21
313.9490625215714
 31
0.0
  0
LINE
  5
D89
330
D40
100
AcDbEntity
  8
5
370
    -2
100
AcDbLine
 10
285.7852005476436
 20
221.6990625215935
 30
0.0
 11
297.6057407400136
 21
221.6990625215935
 31
0.0
  0
LINE
  5
D8A
330
D40
100
AcDbEntity
  8
5
370
    -2
100
AcDbLine
 10
295.6057407400136
 20
308.9490625215713
 30
0.0
 11
295.6057407400136
 21
226.6990625215935
 31
0.0
  0
SOLID
  5
D8B
330
D40
100
AcDbEntity
  8
5
100
AcDbTrace
 10
294.7724074066803
 20
308.9490625215713
 30
0.0
 11
296.4390740733469
 21
308.9490625215713
 31
0.0
 12
295.6057407400136
 22
313.9490625215714
 32
0.0
 13
295.6057407400136
 23
313.9490625215714
 33
0.0
  0
SOLID
  5
D8C
330
D40
100
AcDbEntity
  8
5
100
AcDbTrace
 10
294.7724074066803
 20
226.6990625215935
 30
0.0
 11
296.4390740733469
 21
226.6990625215935
 31
0.0
 12
295.6057407400136
 22
221.6990625215935
 32
0.0
 13
295.6057407400136
 23
221.6990625215935
 33
0.0
  0
MTEXT
  5
D8D
330
D40
100
AcDbEntity
  8
5
 62
     7
100
AcDbMText
 10
287.123672237663
 20
267.8240625215825
 30
0.0
 40
14.0
 41
0.0
 71
     5
 72
     1
  1
92
 11
0.0000000000000001
 21
1.0
 31
0.0
 73
     1
 44
1.0
  0
POINT
  5
D8E
330
D40
100
AcDbEntity
  8
Defpoints
 62
     0
100
AcDbPoint
 10
154.3037271427046
 20
313.9490625215714
 30
0.0
  0
POINT
  5
D8F
330
D40
100
AcDbEntity
  8
Defpoints
 62
     0
100
AcDbPoint
 10
283.7852005476436
 20
221.6990625215935
 30
0.0
  0
POINT
  5
D90
330
D40
100
AcDbEntity
  8
Defpoints
 62
     0
100
AcDbPoint
 10
295.6057407400136
 20
221.6990625215935
 30
0.0
  0
ENDBLK
  5
D42
330
D40
100
AcDbEntity
  8
0
100
AcDbBlockEnd
  0
BLOCK
  5
D4D
330
D4C
100
AcDbEntity
  8
0
100
AcDbBlockBegin
  2
*D50
 70
     1
 10
0.0
 20
0.0
 30
0.0
  3
*D50
  1

  0
LINE
  5
D91
330
D4C
100
AcDbEntity
  8
5
370
    -2
100
AcDbLine
 10
156.3037271427046
 20
313.9490625215714
 30
0.0
 11
320.8774285561638
 21
313.9490625215714
 31
0.0
  0
LINE
  5
D92
330
D4C
100
AcDbEntity
  8
5
370
    -2
100
AcDbLine
 10
247.0174650983146
 20
166.6990625215935
 30
0.0
 11
320.8774285561638
 21
166.6990625215934
 31
0.0
  0
LINE
  5
D93
330
D4C
100
AcDbEntity
  8
5
370
    -2
100
AcDbLine
 10
318.8774285561638
 20
308.9490625215713
 30
0.0
 11
318.8774285561638
 21
171.6990625215935
 31
0.0
  0
SOLID
  5
D94
330
D4C
100
AcDbEntity
  8
5
100
AcDbTrace
 10
318.0440952228305
 20
308.9490625215713
 30
0.0
 11
319.7107618894971
 21
308.9490625215713
 31
0.0
 12
318.8774285561638
 22
313.9490625215714
 32
0.0
 13
318.8774285561638
 23
313.9490625215714
 33
0.0
  0
SOLID
  5
D95
330
D4C
100
AcDbEntity
  8
5
100
AcDbTrace
 10
318.0440952228305
 20
171.6990625215935
 30
0.0
 11
319.7107618894971
 21
171.6990625215935
 31
0.0
 12
318.8774285561638
 22
166.6990625215935
 32
0.0
 13
318.8774285561638
 23
166.6990625215935
 33
0.0
  0
MTEXT
  5
D96
330
D4C
100
AcDbEntity
  8
5
 62
     7
100
AcDbMText
 10
310.6539228476346
 20
240.3240625215825
 30
0.0
 40
14.0
 41
0.0
 71
     5
 72
     1
  1
147
 11
0.0000000000000001
 21
1.0
 31
0.0
 73
     1
 44
1.0
  0
POINT
  5
D97
330
D4C
100
AcDbEntity
  8
Defpoints
 62
     0
100
AcDbPoint
 10
154.3037271427046
 20
313.9490625215714
 30
0.0
  0
POINT
  5
D98
330
D4C
100
AcDbEntity
  8
Defpoints
 62
     0
100
AcDbPoint
 10
245.0174650983146
 20
166.6990625215935
 30
0.0
  0
POINT
  5
D99
330
D4C
100
AcDbEntity
  8
Defpoints
 62
     0
100
AcDbPoint
 10
318.8774285561638
 20
166.6990625215935
 30
0.0
  0
ENDBLK
  5
D4E
330
D4C
100
AcDbEntity
  8
0
100
AcDbBlockEnd
  0
BLOCK
  5
D59
330
D58
100
AcDbEntity
  8
0
100
AcDbBlockBegin
  2
*D51
 70
     1
 10
0.0
 20
0.0
 30
0.0
  3
*D51
  1

  0
LINE
  5
FC4
330
D58
100
AcDbEntity
  8
5
370
    -2
100
AcDbLine
 10
253.3037271427046
 20
166.6990625215934
 30
0.0
 11
253.3037271427046
 21
145.7870062280653
 31
0.0
  0
LINE
  5
FC5
330
D58
100
AcDbEntity
  8
5
370
    -2
100
AcDbLine
 10
72.3037271427047
 20
180.2518407543361
 30
0.0
 11
72.3037271427047
 21
145.7870062280653
 31
0.0
  0
LINE
  5
FC6
330
D58
100
AcDbEntity
  8
5
370
    -2
100
AcDbLine
 10
248.3037271427046
 20
147.7870062280653
 30
0.0
 11
77.3037271427047
 21
147.7870062280653
 31
0.0
  0
SOLID
  5
FC7
330
D58
100
AcDbEntity
  8
5
100
AcDbTrace
 10
248.3037271427046
 20
148.6203395613986
 30
0.0
 11
248.3037271427046
 21
146.953672894732
 31
0.0
 12
253.3037271427046
 22
147.7870062280653
 32
0.0
 13
253.3037271427046
 23
147.7870062280653
 33
0.0
  0
SOLID
  5
FC8
330
D58
100
AcDbEntity
  8
5
100
AcDbTrace
 10
77.3037271427047
 20
148.6203395613986
 30
0.0
 11
77.3037271427047
 21
146.953672894732
 31
0.0
 12
72.3037271427047
 22
147.7870062280653
 32
0.0
 13
72.3037271427047
 23
147.7870062280653
 33
0.0
  0
MTEXT
  5
FC9
330
D58
100
AcDbEntity
  8
5
 62
     7
100
AcDbMText
 10
162.8037271427047
 20
156.3066838640626
 30
0.0
 40
14.0
 41
0.0
 71
     5
 72
     1
  1
181
 73
     1
 44
1.0
  0
POINT
  5
FCA
330
D58
100
AcDbEntity
  8
Defpoints
 62
     0
100
AcDbPoint
 10
253.3037271427046
 20
168.6990625215934
 30
0.0
  0
POINT
  5
FCB
330
D58
100
AcDbEntity
  8
Defpoints
 62
     0
100
AcDbPoint
 10
72.3037271427047
 20
182.2518407543361
 30
0.0
  0
POINT
  5
FCC
330
D58
100
AcDbEntity
  8
Defpoints
 62
     0
100
AcDbPoint
 10
72.3037271427047
 20
147.7870062280653
 30
0.0
  0
ENDBLK
  5
D5A
330
D58
100
AcDbEntity
  8
0
100
AcDbBlockEnd
  0
ENDSEC
  0
SECTION
  2
ENTITIES
  0
LINE
  5
C99
330
6C
100
AcDbEntity
  8
0
100
AcDbLine
 10
148.3037271427046
 20
268.1942143215813
 30
0.0
 11
148.3037271427046
 21
204.6942143215813
 31
0.0
  0
LINE
  5
C9A
330
6C
100
AcDbEntity
  8
0
100
AcDbLine
 10
12.44322305896509
 20
313.9490625215756
 30
0.0
 11
16.08480381246892
 21
313.949062521576
 31
0.0
  0
LINE
  5
C9B
330
6C
100
AcDbEntity
  8
0
100
AcDbLine
 10
128.5226504729404
 20
313.949062521576
 30
0.0
 11
132.1642312264444
 21
313.9490625215757
 31
0.0
  0
LINE
  5
C9C
330
6C
100
AcDbEntity
  8
0
100
AcDbLine
 10
69.60372714270494
 20
313.9490625215777
 30
0.0
 11
75.00372714270461
 21
313.9490625215777
 31
0.0
  0
LINE
  5
C9D
330
6C
100
AcDbEntity
  8
0
100
AcDbLine
 10
115.3289396788937
 20
204.6942143215714
 30
0.0
 11
29.27851460651562
 21
204.6942143215714
 31
0.0
  0
LINE
  5
C9E
330
6C
100
AcDbEntity
  8
0
100
AcDbLine
 10
141.998333468672
 20
276.449676288738
 30
0.0
 11
2.609120816737345
 21
276.449676288738
 31
0.0
  0
LINE
  5
C9F
330
6C
100
AcDbEntity
  8
0
100
AcDbLine
 10
154.3037271427046
 20
312.6990625215712
 30
0.0
 11
-9.696272857295239
 21
312.6990625215712
 31
0.0
  0
ARC
  5
CA0
330
6C
100
AcDbEntity
  8
0
100
AcDbCircle
 10
16.05372714270476
 20
223.2377854425727
 30
0.0
 40
15.0
100
AcDbArc
 50
180.0
 51
255.0000000000004
  0
LINE
  5
CA1
330
6C
100
AcDbEntity
  8
0
100
AcDbLine
 10
25.39622892997784
 20
205.2053269272354
 30
0.0
 11
12.17144146616692
 21
208.7488980482367
 31
0.0
  0
ARC
  5
CA2
330
6C
100
AcDbEntity
  8
0
100
AcDbCircle
 10
29.27851460651562
 20
219.6942143215714
 30
0.0
 40
14.99999999999946
100
AcDbArc
 50
255.0000000000004
 51
270.0
  0
LINE
  5
CA3
330
6C
100
AcDbEntity
  8
0
100
AcDbLine
 10
1.053727142704643
 20
223.2377854425727
 30
0.0
 11
1.053727142704643
 21
273.9075076383405
 31
0.0
  0
LINE
  5
CA4
330
6C
100
AcDbEntity
  8
0
100
AcDbLine
 10
143.5537271427046
 20
270.1942143215813
 30
0.0
 11
143.5537271427046
 21
273.9075076383405
 31
0.0
  0
ARC
  5
CA5
330
6C
100
AcDbEntity
  8
0
100
AcDbCircle
 10
140.6985429290332
 20
273.9075076383405
 30
0.0
 40
2.855184213671287
100
AcDbArc
 50
0.0
 51
62.9197020617491
  0
ARC
  5
CA6
330
6C
100
AcDbEntity
  8
0
100
AcDbCircle
 10
3.908911356376052
 20
273.9075076383405
 30
0.0
 40
2.855184213671287
100
AcDbArc
 50
117.0802979382509
 51
180.0
  0
ARC
  5
CA7
330
6C
100
AcDbEntity
  8
0
100
AcDbCircle
 10
142.0537271427046
 20
278.9490625215714
 30
0.0
 40
2.5
100
AcDbArc
 50
104.6586757351011
 51
268.7303666035441
  0
ARC
  5
CA8
330
6C
100
AcDbEntity
  8
0
100
AcDbCircle
 10
2.553727142704758
 20
278.9490625215714
 30
0.0
 40
2.5
100
AcDbArc
 50
271.2696333964559
 51
75.34132426489894
  0
ARC
  5
CA9
330
6C
100
AcDbEntity
  8
0
100
AcDbCircle
 10
140.6985429290335
 20
284.1299382882127
 30
0.0
 40
2.855184213671287
100
AcDbArc
 50
284.6586757351012
 51
0.0
  0
ARC
  5
CAA
330
6C
100
AcDbEntity
  8
0
100
AcDbCircle
 10
3.908911356375822
 20
284.1299382882125
 30
0.0
 40
2.855184213671287
100
AcDbArc
 50
180.0
 51
255.3413242648989
  0
LINE
  5
CAB
330
6C
100
AcDbEntity
  8
0
100
AcDbLine
 10
1.053727142704643
 20
284.1299382882127
 30
0.0
 11
1.053727142704643
 21
306.6990625215712
 31
0.0
  0
LINE
  5
CAC
330
6C
100
AcDbEntity
  8
0
100
AcDbLine
 10
143.5537271427046
 20
284.1299382882127
 30
0.0
 11
143.5537271427046
 21
306.6990625215712
 31
0.0
  0
ARC
  5
CAD
330
6C
100
AcDbEntity
  8
0
100
AcDbCircle
 10
149.5537271427044
 20
306.6990625215713
 30
0.0
 40
6.000000000000023
100
AcDbArc
 50
90.0
 51
180.0
  0
ARC
  5
CAE
330
6C
100
AcDbEntity
  8
0
100
AcDbCircle
 10
-4.946272857295126
 20
306.6990625215713
 30
0.0
 40
6.000000000000023
100
AcDbArc
 50
0.0
 51
90.0
  0
LINE
  5
CAF
330
6C
100
AcDbEntity
  8
0
100
AcDbLine
 10
-9.696272857295355
 20
312.6990625215712
 30
0.0
 11
-9.696272857295355
 21
313.9490625215714
 31
0.0
  0
LINE
  5
CB0
330
6C
100
AcDbEntity
  8
0
100
AcDbLine
 10
154.3037271427046
 20
312.6990625215712
 30
0.0
 11
154.3037271427046
 21
313.9490625215714
 31
0.0
  0
ARC
  5
CB1
330
6C
100
AcDbEntity
  8
0
100
AcDbCircle
 10
145.5537271427045
 20
270.1942143215813
 30
0.0
 40
2.0
100
AcDbArc
 50
180.0
 51
270.0
  0
LINE
  5
CB2
330
6C
100
AcDbEntity
  8
0
100
AcDbLine
 10
148.3037271427046
 20
204.6942143215813
 30
0.0
 11
115.3289396788937
 21
204.6942143215813
 31
0.0
  0
LINE
  5
CB3
330
6C
100
AcDbEntity
  8
0
100
AcDbLine
 10
148.3037271427046
 20
268.1942143215813
 30
0.0
 11
145.5537271427045
 21
268.1942143215813
 31
0.0
  0
LINE
  5
CB4
330
6C
100
AcDbEntity
  8
0
100
AcDbLine
 10
168.3037271427046
 20
269.9490625215936
 30
0.0
 11
168.3037271427046
 21
173.4490625215935
 31
0.0
  0
LINE
  5
CB5
330
6C
100
AcDbEntity
  8
0
100
AcDbLine
 10
148.3037271427046
 20
268.1942143215815
 30
0.0
 11
148.3037271427046
 21
204.6942143215813
 31
0.0
  0
SPLINE
  5
CB6
330
6C
100
AcDbEntity
  8
0
100
AcDbSpline
210
0.0
220
0.0
230
1.0
 70
     8
 71
     3
 72
    10
 73
     6
 74
     0
 42
0.0000000001
 43
0.0000000001
 40
0.0
 40
0.0
 40
0.0
 40
0.0
 40
1.00384198483263
 40
1.00384198483263
 40
2.00768396966526
 40
2.00768396966526
 40
2.00768396966526
 40
2.00768396966526
 10
148.3037271427045
 20
268.1942143215815
 30
0.0
 10
151.6498670921466
 20
268.1942143215815
 30
0.0
 10
155.0079490260568
 20
268.4932793920236
 30
0.0
 10
161.5995052593524
 20
269.6499974511514
 30
0.0
 10
164.9575871932626
 20
269.9490625215936
 30
0.0
 10
168.3037271427046
 20
269.9490625215936
 30
0.0
  0
SPLINE
  5
CB7
330
6C
100
AcDbEntity
  8
0
100
AcDbSpline
210
0.0
220
0.0
230
1.0
 70
     8
 71
     3
 72
    28
 73
    24
 74
     0
 42
0.0000000001
 43
0.0000000001
 40
0.0
 40
0.0
 40
0.0
 40
0.0
 40
0.1558173799580213
 40
0.1558173799580213
 40
0.3012206765060305
 40
0.3012206765060305
 40
0.4668027614997014
 40
0.4668027614997014
 40
0.7055317918088112
 40
0.7055317918088112
 40
1.114149171698529
 40
1.114149171698529
 40
1.982374152564824
 40
1.982374152564824
 40
2.866072628232323
 40
2.866072628232323
 40
3.329295866229986
 40
3.329295866229986
 40
3.591036205480483
 40
3.591036205480483
 40
3.73252150902181
 40
3.73252150902181
 40
3.911166636466193
 40
3.911166636466193
 40
3.911166636466193
 40
3.911166636466193
 10
168.3037271427046
 20
173.4490625215935
 30
0.0
 10
167.7843358761778
 20
173.4490625215935
 30
0.0
 10
167.2573736991947
 20
173.5385705844476
 30
0.0
 10
166.3113286210432
 20
173.8749529704347
 30
0.0
 10
165.8776066457678
 20
174.1118798543999
 30
0.0
 10
165.034895742794
 20
174.7155478793702
 30
0.0
 10
164.6285681656984
 20
175.0991794029762
 30
0.0
 10
163.7322081354098
 20
176.1055809166567
 30
0.0
 10
163.2752520932349
 20
176.7657767156888
 30
0.0
 10
162.1640425234479
 20
178.6154811097252
 30
0.0
 10
161.5897984216058
 20
179.8596018345542
 30
0.0
 10
159.9689551787635
 20
183.7950313051358
 30
0.0
 10
159.106218725691
 20
186.5648474765112
 30
0.0
 10
157.3257895845802
 20
192.126564122143
 30
0.0
 10
156.4394872416924
 20
194.9460869260435
 30
0.0
 10
154.6605841545269
 20
199.0683751866597
 30
0.0
 10
153.968397521714
 20
200.4703811118539
 30
0.0
 10
152.5593755890813
 20
202.4336305037743
 30
0.0
 10
151.9716337677352
 20
203.1050005500739
 30
0.0
 10
150.9036829282729
 20
203.9211174358279
 30
0.0
 10
150.4922669822947
 20
204.1678581190015
 30
0.0
 10
149.5056432703742
 20
204.5744034757709
 30
0.0
 10
148.8992109008525
 20
204.6942143215813
 30
0.0
 10
148.3037271427046
 20
204.6942143215813
 30
0.0
  0
LINE
  5
CB8
330
6C
100
AcDbEntity
  8
0
100
AcDbLine
 10
168.3037271427046
 20
269.9490625215936
 30
0.0
 11
168.3037271427046
 21
173.4490625215935
 31
0.0
  0
LINE
  5
CB9
330
6C
100
AcDbEntity
  8
0
100
AcDbLine
 10
215.3037271427047
 20
166.6990625215935
 30
0.0
 11
178.4968033273528
 21
166.6990625215935
 31
0.0
  0
LINE
  5
CBA
330
6C
100
AcDbEntity
  8
0
100
AcDbLine
 10
215.3037271427047
 20
276.6990625215935
 30
0.0
 11
178.4968033273528
 21
276.6990625215935
 31
0.0
  0
ARC
  5
CBB
330
6C
100
AcDbEntity
  8
0
100
AcDbCircle
 10
178.4968033273528
 20
270.6990625215935
 30
0.0
 40
6.0
100
AcDbArc
 50
90.0
 51
130.1559996249199
  0
ARC
  5
CBC
330
6C
100
AcDbEntity
  8
0
100
AcDbCircle
 10
178.4968033273528
 20
172.6990625215936
 30
0.0
 40
6.0
100
AcDbArc
 50
229.8440003750801
 51
270.0
  0
LINE
  5
CBD
330
6C
100
AcDbEntity
  8
0
100
AcDbLine
 10
168.3037271427046
 20
269.9490625215935
 30
0.0
 11
174.627577692094
 21
275.2848114226409
 31
0.0
  0
LINE
  5
CBE
330
6C
100
AcDbEntity
  8
0
100
AcDbLine
 10
168.3037271427046
 20
173.4490625215935
 30
0.0
 11
174.627577692094
 21
168.1133136205462
 31
0.0
  0
LINE
  5
CBF
330
6C
100
AcDbEntity
  8
0
100
AcDbLine
 10
253.3037271427046
 20
274.6990625215936
 30
0.0
 11
253.3037271427046
 21
168.6990625215934
 31
0.0
  0
ARC
  5
CC0
330
6C
100
AcDbEntity
  8
0
100
AcDbCircle
 10
245.0174650983146
 20
270.6990625215935
 30
0.0
 40
6.000000000000031
100
AcDbArc
 50
75.06858282186319
 51
90.0
  0
ARC
  5
CC1
330
6C
100
AcDbEntity
  8
0
100
AcDbCircle
 10
245.0174650983146
 20
172.6990625215936
 30
0.0
 40
6.000000000000031
100
AcDbArc
 50
270.0
 51
284.9314171781368
  0
LINE
  5
CC2
330
6C
100
AcDbEntity
  8
0
100
AcDbLine
 10
245.0174650983146
 20
166.6990625215935
 30
0.0
 11
215.3037271427047
 21
166.6990625215935
 31
0.0
  0
LINE
  5
CC3
330
6C
100
AcDbEntity
  8
0
100
AcDbLine
 10
245.0174650983146
 20
276.6990625215936
 30
0.0
 11
215.3037271427047
 21
276.6990625215935
 31
0.0
  0
LINE
  5
CC4
330
6C
100
AcDbEntity
  8
0
100
AcDbLine
 10
253.3037271427046
 20
168.6990625215934
 30
0.0
 11
246.5634410016767
 21
166.9016528839859
 31
0.0
  0
LINE
  5
CC5
330
6C
100
AcDbEntity
  8
0
100
AcDbLine
 10
253.3037271427046
 20
274.6990625215935
 30
0.0
 11
246.5634410016765
 21
276.496472159201
 31
0.0
  0
LINE
  5
CC6
330
6C
100
AcDbEntity
  8
0
100
AcDbLine
 10
253.3037271427046
 20
274.6990625215935
 30
0.0
 11
253.3037271427046
 21
168.6990625215934
 31
0.0
  0
LINE
  5
CC7
330
6C
100
AcDbEntity
  8
0
100
AcDbLine
 10
231.0676591652049
 20
276.6990625215936
 30
0.0
 11
227.5397951202046
 21
276.6990625215935
 31
0.0
  0
LINE
  5
CC8
330
6C
100
AcDbEntity
  8
0
100
AcDbLine
 10
132.3456042204055
 20
313.9490625215714
 30
0.0
 11
132.3410270913476
 21
313.9490625215714
 31
0.0
  0
LINE
  5
CC9
330
6C
100
AcDbEntity
  8
0
100
AcDbLine
 10
132.1642312264444
 20
313.9490625215714
 30
0.0
 11
132.3410270913476
 21
313.9490625215714
 31
0.0
  0
LINE
  5
CCA
330
6C
100
AcDbEntity
  8
0
100
AcDbLine
 10
128.5226504729404
 20
313.9490625215714
 30
0.0
 11
128.5179201635622
 21
313.9490625215714
 31
0.0
  0
LINE
  5
CCB
330
6C
100
AcDbEntity
  8
0
100
AcDbLine
 10
75.01030849553831
 20
313.9490625215714
 30
0.0
 11
75.00372714270461
 21
313.9490625215714
 31
0.0
  0
LINE
  5
CCC
330
6C
100
AcDbEntity
  8
0
100
AcDbLine
 10
69.6037271427046
 20
313.9490625215714
 30
0.0
 11
69.59714578987092
 21
313.9490625215714
 31
0.0
  0
LINE
  5
CCD
330
6C
100
AcDbEntity
  8
0
100
AcDbLine
 10
16.08953412184706
 20
313.9490625215714
 30
0.0
 11
16.08480381246892
 21
313.9490625215714
 31
0.0
  0
LINE
  5
CCE
330
6C
100
AcDbEntity
  8
0
100
AcDbLine
 10
12.26642719406157
 20
313.9490625215714
 30
0.0
 11
12.44322305896492
 21
313.9490625215714
 31
0.0
  0
LINE
  5
CCF
330
6C
100
AcDbEntity
  8
0
100
AcDbLine
 10
12.26642719406157
 20
313.9490625215714
 30
0.0
 11
12.26185006500356
 21
313.9490625215714
 31
0.0
  0
LINE
  5
CD0
330
6C
100
AcDbEntity
  8
0
100
AcDbLine
 10
-9.901728378084726
 20
313.9490625215714
 30
0.0
 11
-9.901836692927872
 21
313.9490625215714
 31
0.0
  0
LINE
  5
CD1
330
6C
100
AcDbEntity
  8
0
100
AcDbLine
 10
128.5179201635622
 20
313.9490625215714
 30
0.0
 11
75.01030849553831
 21
313.9490625215714
 31
0.0
  0
LINE
  5
CD2
330
6C
100
AcDbEntity
  8
0
100
AcDbLine
 10
69.59714578987092
 20
313.9490625215714
 30
0.0
 11
16.08953412184706
 21
313.9490625215714
 31
0.0
  0
LINE
  5
CD3
330
6C
100
AcDbEntity
  8
0
100
AcDbLine
 10
12.26185006500356
 20
313.9490625215714
 30
0.0
 11
-9.696272857295355
 21
313.9490625215714
 31
0.0
  0
LINE
  5
CD4
330
6C
100
AcDbEntity
  8
0
100
AcDbLine
 10
154.0994684676256
 20
313.9490625215714
 30
0.0
 11
132.3456042204055
 21
313.9490625215714
 31
0.0
  0
LINE
  5
CD5
330
6C
100
AcDbEntity
  8
0
100
AcDbLine
 10
160.0537271427046
 20
331.9490625215715
 30
0.0
 11
143.0537271427046
 21
331.9490625215715
 31
0.0
  0
LINE
  5
CD6
330
6C
100
AcDbEntity
  8
0
100
AcDbLine
 10
159.0537271427046
 20
333.9490625215715
 30
0.0
 11
144.0537271427047
 21
333.9490625215715
 31
0.0
  0
LINE
  5
CD7
330
6C
100
AcDbEntity
  8
0
100
AcDbLine
 10
143.0537271427046
 20
314.9490625215713
 30
0.0
 11
142.5537271427046
 21
313.9490625215714
 31
0.0
  0
LINE
  5
CD8
330
6C
100
AcDbEntity
  8
0
100
AcDbLine
 10
143.0537271427046
 20
314.9490625215713
 30
0.0
 11
143.0537271427046
 21
318.6779578850202
 31
0.0
  0
LINE
  5
CD9
330
6C
100
AcDbEntity
  8
0
100
AcDbLine
 10
143.0537271427046
 20
318.9072379610047
 30
0.0
 11
143.0537271427046
 21
331.9490625215715
 31
0.0
  0
LINE
  5
CDA
330
6C
100
AcDbEntity
  8
0
100
AcDbLine
 10
160.0537271427046
 20
318.4072379610047
 30
0.0
 11
160.0537271427046
 21
331.9490625215715
 31
0.0
  0
LINE
  5
CDB
330
6C
100
AcDbEntity
  8
0
100
AcDbLine
 10
159.0537271427046
 20
333.9490625215715
 30
0.0
 11
160.0537271427046
 21
331.9490625215715
 31
0.0
  0
LINE
  5
CDC
330
6C
100
AcDbEntity
  8
0
100
AcDbLine
 10
144.0537271427047
 20
333.9490625215715
 30
0.0
 11
143.0537271427046
 21
331.9490625215715
 31
0.0
  0
LINE
  5
CDD
330
6C
100
AcDbEntity
  8
0
100
AcDbLine
 10
160.5537271427046
 20
313.9490625215714
 30
0.0
 11
154.0994684676256
 21
313.9490625215714
 31
0.0
  0
LINE
  5
CDE
330
6C
100
AcDbEntity
  8
0
100
AcDbLine
 10
160.0537271427046
 20
314.9490625215713
 30
0.0
 11
160.5537271427046
 21
313.9490625215714
 31
0.0
  0
LINE
  5
CDF
330
6C
100
AcDbEntity
  8
0
100
AcDbLine
 10
143.0537271427046
 20
318.6779578850202
 30
0.0
 11
143.0537271427046
 21
318.9072379610047
 31
0.0
  0
LINE
  5
CE0
330
6C
100
AcDbEntity
  8
0
100
AcDbLine
 10
160.0537271427046
 20
314.9490625215713
 30
0.0
 11
160.0537271427046
 21
318.4072379610047
 31
0.0
  0
LINE
  5
CE1
330
6C
100
AcDbEntity
  8
0
100
AcDbLine
 10
168.3037271426453
 20
103.3031937094071
 30
0.0
 11
168.3037271426453
 21
6.803193709407081
 31
0.0
  0
SPLINE
  5
CE2
330
6C
100
AcDbEntity
  8
0
100
AcDbSpline
210
0.0
220
0.0
230
1.0
 70
     8
 71
     3
 72
    26
 73
    22
 74
     0
 42
0.0000000001
 43
0.0000000001
 40
0.0145171860823741
 40
0.0145171860823741
 40
0.0145171860823741
 40
0.0145171860823741
 40
0.2202068915348778
 40
0.2202068915348778
 40
0.417303682440805
 40
0.417303682440805
 40
0.6325306094543434
 40
0.6325306094543434
 40
0.9452423249545807
 40
0.9452423249545807
 40
1.514359431910556
 40
1.514359431910556
 40
2.255644299377626
 40
2.255644299377626
 40
2.652272447338559
 40
2.652272447338559
 40
2.883846682458421
 40
2.883846682458421
 40
3.123441435306737
 40
3.123441435306737
 40
3.149900657610916
 40
3.149900657610916
 40
3.149900657610916
 40
3.149900657610916
 10
148.4490407393896
 20
86.80443332699946
 30
0.0
 10
149.1359159222606
 20
86.81614349386235
 30
0.0
 10
149.8295559312049
 20
86.91083351812171
 30
0.0
 10
151.087913319403
 20
87.25991158709014
 30
0.0
 10
151.6701233306644
 20
87.50866277148238
 30
0.0
 10
152.7660352234855
 20
88.12713811471105
 30
0.0
 10
153.2807244296151
 20
88.50917304143186
 30
0.0
 10
154.4186566043111
 20
89.5101144647082
 30
0.0
 10
154.9973394641379
 20
90.16407139019847
 30
0.0
 10
156.477686917599
 20
92.05760244282506
 30
0.0
 10
157.2686748257595
 20
93.34859009811706
 30
0.0
 10
159.0708402282601
 20
96.31544246947596
 30
0.0
 10
160.054018307798
 20
98.01755694267619
 30
0.0
 10
162.0291552250073
 20
100.4321146946795
 30
0.0
 10
162.8187410495023
 20
101.2484625486334
 30
0.0
 10
164.3615071283205
 20
102.3042139613103
 30
0.0
 10
165.0070333979324
 20
102.6449341158403
 30
0.0
 10
166.4342732672388
 20
103.1336906320549
 30
0.0
 10
167.2411667043246
 20
103.2756613867346
 30
0.0
 10
168.1273143828054
 20
103.3019093293185
 30
0.0
 10
168.2155297349648
 20
103.3031937094071
 30
0.0
 10
168.3037271426453
 20
103.3031937094071
 30
0.0
  0
SPLINE
  5
CE3
330
6C
100
AcDbEntity
  8
0
100
AcDbSpline
210
0.0
220
0.0
230
1.0
 70
     8
 71
     3
 72
    26
 73
    22
 74
     0
 42
0.0000000001
 43
0.0000000001
 40
0.0
 40
0.0
 40
0.0
 40
0.0
 40
0.2202068915348956
 40
0.2202068915348956
 40
0.4173036824408085
 40
0.4173036824408085
 40
0.6325306094543445
 40
0.6325306094543445
 40
0.9452423249545846
 40
0.9452423249545846
 40
1.514359431910595
 40
1.514359431910595
 40
2.255644299377673
 40
2.255644299377673
 40
2.652272447338607
 40
2.652272447338607
 40
2.883846682458471
 40
2.883846682458471
 40
3.123441435306801
 40
3.123441435306801
 40
3.135366254260051
 40
3.135366254260051
 40
3.135366254260051
 40
3.135366254260051
 10
168.3037271426453
 20
6.803193709407081
 30
0.0
 10
167.5697041708621
 20
6.803193709407081
 30
0.0
 10
166.8232519310494
 20
6.89825208519808
 30
0.0
 10
165.5195409658874
 20
7.259911587085482
 30
0.0
 10
164.937330954626
 20
7.508662771477771
 30
0.0
 10
163.8414190618049
 20
8.127138114706879
 30
0.0
 10
163.3267298556755
 20
8.509173041427885
 30
0.0
 10
162.1887976809795
 20
9.510114464704782
 30
0.0
 10
161.6101148211527
 20
10.16407139019547
 30
0.0
 10
160.1297673676914
 20
12.05760244282328
 30
0.0
 10
159.338779459531
 20
13.34859009811607
 30
0.0
 10
157.5366140570304
 20
16.31544246947665
 30
0.0
 10
156.5534359774925
 20
18.01755694267778
 30
0.0
 10
154.5782990602833
 20
20.43211469468258
 30
0.0
 10
153.7887132357883
 20
21.24846254863688
 30
0.0
 10
152.2459471569701
 20
22.30421396131447
 30
0.0
 10
151.6004208873583
 20
22.64493411584468
 30
0.0
 10
150.1731810180518
 20
23.13369063205946
 30
0.0
 10
149.366287580966
 20
23.27566138673937
 30
0.0
 10
148.5285497327841
 20
23.30047541658277
 30
0.0
 10
148.4888138990277
 20
23.30138254328108
 30
0.0
 10
148.4490699505512
 20
23.30202414565416
 30
0.0
  0
LINE
  5
CE4
330
6C
100
AcDbEntity
  8
0
100
AcDbLine
 10
168.3037271426453
 20
103.3031937094071
 30
0.0
 11
168.3037271426453
 21
6.803193709407081
 31
0.0
  0
LINE
  5
CE5
330
6C
100
AcDbEntity
  8
0
100
AcDbLine
 10
215.3037271426454
 20
0.0531937094071395
 30
0.0
 11
178.4968033272934
 21
0.0531937094071395
 31
0.0
  0
LINE
  5
CE6
330
6C
100
AcDbEntity
  8
0
100
AcDbLine
 10
215.3037271426454
 20
110.053193709407
 30
0.0
 11
178.4968033272934
 21
110.053193709407
 31
0.0
  0
ARC
  5
CE7
330
6C
100
AcDbEntity
  8
0
100
AcDbCircle
 10
178.4968033272934
 20
104.0531937094071
 30
0.0
 40
6.0
100
AcDbArc
 50
90.0
 51
130.1559996249199
  0
ARC
  5
CE8
330
6C
100
AcDbEntity
  8
0
100
AcDbCircle
 10
178.4968033272934
 20
6.053193709407081
 30
0.0
 40
6.0
100
AcDbArc
 50
229.8440003750801
 51
270.0
  0
LINE
  5
CE9
330
6C
100
AcDbEntity
  8
0
100
AcDbLine
 10
168.3037271426453
 20
103.3031937094071
 30
0.0
 11
174.6275776920348
 21
108.6389426104545
 31
0.0
  0
LINE
  5
CEA
330
6C
100
AcDbEntity
  8
0
100
AcDbLine
 10
168.3037271426453
 20
6.803193709407081
 30
0.0
 11
174.6275776920348
 21
1.467444808359771
 31
0.0
  0
LINE
  5
CEB
330
6C
100
AcDbEntity
  8
0
100
AcDbLine
 10
253.3037271426453
 20
108.0531937094072
 30
0.0
 11
253.3037271426453
 21
2.053193709407139
 31
0.0
  0
ARC
  5
CEC
330
6C
100
AcDbEntity
  8
0
100
AcDbCircle
 10
245.0174650982553
 20
104.0531937094071
 30
0.0
 40
6.000000000000031
100
AcDbArc
 50
75.06858282186319
 51
90.0
  0
ARC
  5
CED
330
6C
100
AcDbEntity
  8
0
100
AcDbCircle
 10
245.0174650982553
 20
6.053193709407081
 30
0.0
 40
6.000000000000031
100
AcDbArc
 50
270.0
 51
284.9314171781368
  0
LINE
  5
CEE
330
6C
100
AcDbEntity
  8
0
100
AcDbLine
 10
245.0174650982553
 20
0.0531937094071395
 30
0.0
 11
215.3037271426454
 21
0.0531937094071395
 31
0.0
  0
LINE
  5
CEF
330
6C
100
AcDbEntity
  8
0
100
AcDbLine
 10
245.0174650982553
 20
110.053193709407
 30
0.0
 11
215.3037271426454
 21
110.053193709407
 31
0.0
  0
LINE
  5
CF0
330
6C
100
AcDbEntity
  8
0
100
AcDbLine
 10
253.3037271426453
 20
2.053193709407139
 30
0.0
 11
246.5634410016172
 21
0.2557840717996669
 31
0.0
  0
LINE
  5
CF1
330
6C
100
AcDbEntity
  8
0
100
AcDbLine
 10
253.3037271426453
 20
108.0531937094072
 30
0.0
 11
246.5634410016172
 21
109.8506033470145
 31
0.0
  0
LINE
  5
CF2
330
6C
100
AcDbEntity
  8
0
100
AcDbLine
 10
253.3037271426453
 20
108.053193709407
 30
0.0
 11
253.3037271426453
 21
2.053193709407139
 31
0.0
  0
LINE
  5
CF3
330
6C
100
AcDbEntity
  8
0
100
AcDbLine
 10
223.0676591651455
 20
110.053193709407
 30
0.0
 11
215.3037271426454
 21
110.053193709407
 31
0.0
  0
ARC
  5
CF4
330
6C
100
AcDbEntity
  8
0
100
AcDbCircle
 10
72.30372714264536
 20
55.05319370943718
 30
0.0
 40
82.50000000000005
100
AcDbArc
 50
6.751453648695528
 51
353.2485463513037
  0
ARC
  5
CF5
330
6C
100
AcDbEntity
  8
0
100
AcDbCircle
 10
154.3309353445381
 20
45.34252356761155
 30
0.0
 40
0.1000000000000491
100
AcDbArc
 50
105.96029246172
 51
173.2485463513028
  0
ARC
  5
CF6
330
6C
100
AcDbEntity
  8
0
100
AcDbCircle
 10
154.330935344538
 20
64.76386385126247
 30
0.0
 40
0.1000000000000191
100
AcDbArc
 50
186.7514536487151
 51
254.0397075382902
  0
CIRCLE
  5
CF7
330
6C
100
AcDbEntity
  8
0
100
AcDbCircle
 10
151.5537271426453
 20
55.05319370944167
 30
0.0
 40
9.250000000059143
  0
LINE
  5
CF8
330
6C
100
AcDbEntity
  8
7
  6
Continuous
100
AcDbLine
 10
72.3037271427047
 20
201.4553269272354
 30
0.0
 11
72.3037271427047
 21
317.6990625215714
 31
0.0
  0
LINE
  5
CF9
330
6C
100
AcDbEntity
  8
7
  6
Continuous
100
AcDbLine
 10
257.0537271427047
 20
221.6990625215935
 30
0.0
 11
164.5537271427046
 21
221.6990625215935
 31
0.0
  0
LINE
  5
CFA
330
6C
100
AcDbEntity
  8
7
  6
Continuous
100
AcDbLine
 10
158.0537271426453
 20
55.05319370943496
 30
0.0
 11
-13.44627285735464
 21
55.05319370943496
 31
0.0
  0
LINE
  5
CFB
330
6C
100
AcDbEntity
  8
7
  6
Continuous
100
AcDbLine
 10
72.30372714264536
 20
140.803193709435
 30
0.0
 11
72.30372714264536
 21
-30.69680629056504
 31
0.0
  0
LINE
  5
CFC
330
6C
100
AcDbEntity
  8
7
  6
Continuous
100
AcDbLine
 10
152.0537271426453
 20
55.05319370941196
 30
0.0
 11
133.5652645802417
 21
55.05319370941196
 31
0.0
  0
LINE
  5
CFD
330
6C
100
AcDbEntity
  8
7
  6
Continuous
100
AcDbLine
 10
257.0537271426452
 20
55.05319370940704
 30
0.0
 11
164.5537271426453
 21
55.05319370940704
 31
0.0
  0
LINE
  5
CFE
330
6C
100
AcDbEntity
  8
7
  6
Continuous
100
AcDbLine
 10
159.3037271426453
 20
55.05319370944018
 30
0.0
 11
143.8037271426453
 21
55.05319370944018
 31
0.0
  0
CIRCLE
  5
CFF
330
6C
100
AcDbEntity
  8
0
100
AcDbCircle
 10
72.30372714264536
 20
55.05319370943496
 30
0.0
 40
69.99999999994082
  0
CIRCLE
  5
D00
330
6C
100
AcDbEntity
  8
0
100
AcDbCircle
 10
72.30372714264536
 20
55.05319370943496
 30
0.0
 40
66.00903102561368
  0
SPLINE
  5
D01
330
6C
100
AcDbEntity
  8
0
100
AcDbSpline
210
0.0
220
0.0
230
1.0
 70
     8
 71
     3
 72
    17
 73
    13
 74
     0
 42
0.0000000001
 43
0.0000000001
 40
-0.7417404034104901
 40
-0.7417404034104901
 40
-0.7417404034104901
 40
-0.7417404034104901
 40
-0.649022852984179
 40
-0.649022852984179
 40
-0.5563053025578676
 40
-0.5563053025578676
 40
-0.370870201705245
 40
-0.370870201705245
 40
-0.370870201705245
 40
-0.1854351008526225
 40
-0.1854351008526225
 40
0.0
 40
0.0
 40
0.0
 40
0.0
 10
115.3289396788937
 20
204.6942143215722
 30
0.0
 10
115.5078136430596
 20
204.6942143215722
 30
0.0
 10
115.6853029739388
 20
204.6968700816734
 30
0.0
 10
116.0374283316831
 20
204.7076422446908
 30
0.0
 10
116.212046325352
 20
204.7157585392765
 30
0.0
 10
116.7313160607781
 20
204.748509162781
 30
0.0
 10
117.0713819391528
 20
204.7815490961179
 30
0.0
 10
117.4046849249233
 20
204.8263115773963
 30
0.0
 10
117.7379879106941
 20
204.8710740586744
 30
0.0
 10
118.0645278804284
 20
204.9275588185206
 30
0.0
 10
118.702837017845
 20
205.0648854824481
 30
0.0
 10
119.0146062369207
 20
205.1457268012787
 30
0.0
 10
119.3183948781135
 20
205.2391486996614
 30
0.0
  0
SPLINE
  5
D02
330
6C
100
AcDbEntity
  8
0
100
AcDbSpline
210
0.0
220
0.0
230
1.0
 70
     8
 71
     3
 72
    12
 73
     8
 74
     0
 42
0.0000000001
 43
0.0000000001
 40
0.0
 40
0.0
 40
0.0
 40
0.0
 40
0.5003708409616671
 40
0.5003708409616671
 40
1.300964186500334
 40
1.300964186500334
 40
1.570072010651736
 40
1.570072010651736
 40
1.570072010651736
 40
1.570072010651736
 10
119.3183948781137
 20
205.2391486996614
 30
0.0
 10
120.138126294492
 20
205.4912347051853
 30
0.0
 10
121.1848973960392
 20
205.8087497185649
 30
0.0
 10
124.1665886214378
 20
206.6953756789912
 30
0.0
 10
126.282497595754
 20
207.3087567152565
 30
0.0
 10
129.2413945896684
 20
208.1469221304526
 30
0.0
 10
129.9976227048128
 20
208.3596515667485
 30
0.0
 10
130.7598631099624
 20
208.5727304209
 30
0.0
  0
SPLINE
  5
D03
330
6C
100
AcDbEntity
  8
0
100
AcDbSpline
210
0.0
220
0.0
230
1.0
 70
     8
 71
     3
 72
    20
 73
    16
 74
     0
 42
0.0000000001
 43
0.0000000001
 40
-2.502443670996286
 40
-2.502443670996286
 40
-2.502443670996286
 40
-2.502443670996286
 40
-2.311386878326654
 40
-2.311386878326654
 40
-2.005696010055245
 40
-2.005696010055245
 40
-1.731938016349629
 40
-1.731938016349629
 40
-1.314232557008715
 40
-1.314232557008715
 40
-1.030195795810512
 40
-1.030195795810512
 40
-0.5314578382803551
 40
-0.5314578382803551
 40
0.0
 40
0.0
 40
0.0
 40
0.0
 10
130.7598631099637
 20
208.572730420899
 30
0.0
 10
131.3010261456737
 20
208.7240086774427
 30
0.0
 10
131.8105180339736
 20
208.9040040224075
 30
0.0
 10
133.0526814842011
 20
209.435237396456
 30
0.0
 10
133.7307872393743
 20
209.8208902130967
 30
0.0
 10
134.8893897495194
 20
210.6469145629469
 30
0.0
 10
135.3842155793818
 20
211.0789800699395
 30
0.0
 10
136.5111632653692
 20
212.262952922017
 30
0.0
 10
137.0758365048496
 20
213.0577153005688
 30
0.0
 10
137.8559695861752
 20
214.5306272180085
 30
0.0
 10
138.1237488432804
 20
215.1641589781854
 30
0.0
 10
138.7232994108589
 20
216.9952245584612
 30
0.0
 10
138.9505056838114
 20
218.2491408397939
 30
0.0
 10
139.0839012705997
 20
221.0048429418604
 30
0.0
 10
138.9623112422604
 20
222.5118344758075
 30
0.0
 10
138.643080197556
 20
224.0203886354055
 30
0.0
  0
SPLINE
  5
D04
330
6C
100
AcDbEntity
  8
0
100
AcDbSpline
210
0.0
220
0.0
230
1.0
 70
     8
 71
     3
 72
    28
 73
    24
 74
     0
 42
0.0000000001
 43
0.0000000001
 40
0.0
 40
0.0
 40
0.0
 40
0.0
 40
0.9237263956971528
 40
0.9237263956971528
 40
1.997582976566295
 40
1.997582976566295
 40
2.247641558602893
 40
2.247641558602893
 40
2.896438882796691
 40
2.896438882796691
 40
3.891541805522591
 40
3.891541805522591
 40
4.601877024296086
 40
4.601877024296086
 40
5.130867816574697
 40
5.130867816574697
 40
5.659853342878449
 40
5.659853342878449
 40
6.164537358387527
 40
6.164537358387527
 40
6.482318518211092
 40
6.482318518211092
 40
6.718729942560003
 40
6.718729942560003
 40
6.718729942560003
 40
6.718729942560003
 10
138.643080197556
 20
224.0203886354059
 30
0.0
 10
138.0882250028842
 20
226.6424052775318
 30
0.0
 10
137.6659490886444
 20
229.4700678735611
 30
0.0
 10
137.2244056816596
 20
235.6677636536275
 30
0.0
 10
137.282458172826
 20
239.0965031056489
 30
0.0
 10
137.7020126791656
 20
243.1688990000465
 30
0.0
 10
137.7957625326996
 20
243.9308055702411
 30
0.0
 10
138.178848302689
 20
246.6305757696004
 30
0.0
 10
138.5461403007083
 20
248.5296331951563
 30
0.0
 10
139.6193366825501
 20
253.0897176662622
 30
0.0
 10
140.40345741238
 20
255.6357645410423
 30
0.0
 10
141.7612925902146
 20
259.4962992713133
 30
0.0
 10
142.3246020394203
 20
260.9393857665708
 30
0.0
 10
143.2439247014001
 20
263.1665306350455
 30
0.0
 10
143.6156239486791
 20
264.0225327913695
 30
0.0
 10
144.2796139105247
 20
265.5090272096729
 30
0.0
 10
144.5716925245626
 20
266.1393370680888
 30
0.0
 10
145.0379221692873
 20
267.1298969161376
 30
0.0
 10
145.2195200444891
 20
267.5067992516559
 30
0.0
 10
145.4243123215479
 20
267.9294429649017
 30
0.0
 10
145.4813917597711
 20
268.0463120860278
 30
0.0
 10
145.540904903701
 20
268.1680594538215
 30
0.0
 10
145.5535705926346
 20
268.1940087747623
 30
0.0
 10
145.5535373777334
 20
268.1939649335604
 30
0.0
  0
LINE
  5
D05
330
6C
100
AcDbEntity
  8
0
100
AcDbLine
 10
245.0174650983146
 20
276.6990625215936
 30
0.0
 11
245.0174650983146
 21
166.6990625215935
 31
0.0
  0
LINE
  5
D06
330
6C
100
AcDbEntity
  8
0
100
AcDbLine
 10
245.0174650982553
 20
110.053193709407
 30
0.0
 11
245.0174650982553
 21
0.0531937094071395
 31
0.0
  0
LINE
  5
D07
330
6C
100
AcDbEntity
  8
0
100
AcDbLine
 10
178.4968033273528
 20
276.6990625215935
 30
0.0
 11
178.4968033273528
 21
166.6990625215935
 31
0.0
  0
LINE
  5
D08
330
6C
100
AcDbEntity
  8
0
100
AcDbLine
 10
178.4968033272934
 20
110.0531937094071
 30
0.0
 11
178.4968033272934
 21
0.0531937094071395
 31
0.0
  0
DIMENSION
  5
D09
330
6C
100
AcDbEntity
  8
5
100
AcDbDimension
  2
*D46
 10
154.3037271427046
 20
336.7392564974062
 30
0.0
 11
72.96868040741538
 21
336.7392564974062
 31
0.0
 70
   160
  1
%%c<>
 71
     5
 42
163.9999999999999
  3
GEN-ISO
100
AcDbAlignedDimension
 13
-9.696272857295355
 23
313.9490625215714
 33
0.0
 14
154.3037271427046
 24
313.9490625215714
 34
0.0
100
AcDbRotatedDimension
1001
ACAD
1000
DSTYLE
1002
{
1070
     3
1000

1070
   271
1070
     0
1002
}
1001
ACAD_DSTYLE_DIMINSPECT
1070
   396
1000
100%
1070
   395
1000

1070
   394
1070
    33
1070
   393
1070
     0
  0
DIMENSION
  5
D0A
330
6C
100
AcDbEntity
  8
5
100
AcDbDimension
  2
*D47
 10
-21.90183669292787
 20
313.9490625215714
 30
0.0
 11
-30.38860633698436
 21
259.3216384215714
 31
0.0
 70
    32
 71
     5
 42
109.2548481999999
  3
GEN-ISO
100
AcDbAlignedDimension
 13
29.27851460651562
 23
204.6942143215714
 33
0.0
 14
-9.901836692927872
 24
313.9490625215714
 34
0.0
 50
90.0
100
AcDbRotatedDimension
1001
ACAD_DSTYLE_DIMINSPECT
1070
   396
1000
100%
1070
   395
1000

1070
   394
1070
    33
1070
   393
1070
     0
1001
ACAD
1000
DSTYLE
1002
{
1070
     3
1000

1070
   271
1070
     0
1002
}
  0
DIMENSION
  5
D0B
330
6C
100
AcDbEntity
  8
5
100
AcDbDimension
  2
*D48
 10
274.9197950366581
 20
166.6990625215935
 30
0.0
 11
274.919795036658
 21
221.6990625215936
 31
0.0
 70
   160
  1
%%c<>
 71
     5
 42
110.0000000000001
  3
GEN-ISO
100
AcDbAlignedDimension
 13
245.0174650983146
 23
276.6990625215936
 33
0.0
 14
245.0174650983146
 24
166.6990625215935
 34
0.0
 50
90.0
100
AcDbRotatedDimension
1001
ACAD
1000
DSTYLE
1002
{
1070
     3
1000

1070
   271
1070
     0
1002
}
1001
ACAD_DSTYLE_DIMINSPECT
1070
   396
1000
100%
1070
   395
1000

1070
   394
1070
    33
1070
   393
1070
     0
  0
DIMENSION
  5
D0C
330
6C
100
AcDbEntity
  8
5
100
AcDbDimension
  2
*D49
 10
295.6057407400136
 20
221.6990625215935
 30
0.0
 11
295.6057407400135
 21
267.8240625215825
 31
0.0
 70
   160
 71
     5
 42
92.24999999997788
  3
GEN-ISO
100
AcDbAlignedDimension
 13
154.3037271427046
 23
313.9490625215714
 33
0.0
 14
283.7852005476436
 24
221.6990625215935
 34
0.0
 50
90.0
100
AcDbRotatedDimension
1001
ACAD_DSTYLE_DIMINSPECT
1070
   396
1000
100%
1070
   395
1000

1070
   394
1070
    33
1070
   393
1070
     0
1001
ACAD
1000
DSTYLE
1002
{
1070
     3
1000

1070
   271
1070
     0
1002
}
  0
DIMENSION
  5
D0D
330
6C
100
AcDbEntity
  8
5
100
AcDbDimension
  2
*D50
 10
318.8774285561638
 20
166.6990625215935
 30
0.0
 11
318.8774285561637
 21
240.3240625215825
 31
0.0
 70
   160
 71
     5
 42
147.2499999999779
  3
GEN-ISO
100
AcDbAlignedDimension
 13
154.3037271427046
 23
313.9490625215714
 33
0.0
 14
245.0174650983146
 24
166.6990625215935
 34
0.0
 50
90.0
100
AcDbRotatedDimension
1001
ACAD_DSTYLE_DIMINSPECT
1070
   396
1000
100%
1070
   395
1000

1070
   394
1070
    33
1070
   393
1070
     0
1001
ACAD
1000
DSTYLE
1002
{
1070
     3
1000

1070
   271
1070
     0
1002
}
  0
DIMENSION
  5
D0E
330
6C
100
AcDbEntity
  8
5
100
AcDbDimension
  2
*D51
 10
72.3037271427047
 20
147.7870062280653
 30
0.0
 11
162.8037271427047
 21
147.7870062280653
 31
0.0
 70
   160
 71
     5
 42
180.9999999999999
  3
GEN-ISO
100
AcDbAlignedDimension
 13
253.3037271427046
 23
168.6990625215934
 33
0.0
 14
72.3037271427047
 24
182.2518407543361
 34
0.0
100
AcDbRotatedDimension
1001
ACAD_DSTYLE_DIMINSPECT
1070
   396
1000
100%
1070
   395
1000

1070
   394
1070
    33
1070
   393
1070
     0
1001
ACAD
1000
DSTYLE
1002
{
1070
     3
1000

1070
   271
1070
     0
1002
}
  0
DIMENSION
  5
D0F
330
6C
100
AcDbEntity
  8
5
100
AcDbDimension
  2
*D45
 10
1.053727142704642
 20
178.0791263255905
 30
0.0
 11
72.3037271427047
 21
178.0791263255905
 31
0.0
 70
   160
  1
142
 71
     5
 42
142.5
  3
GEN-ISO
100
AcDbAlignedDimension
 13
143.5537271427046
 23
270.1942143215813
 33
0.0
 14
1.053727142704643
 24
223.2377854425727
 34
0.0
100
AcDbRotatedDimension
1001
ACAD
1000
DSTYLE
1002
{
1070
     3
1000

1070
   271
1070
     0
1002
}
1001
ACAD_DSTYLE_DIMINSPECT
1070
   396
1000
100%
1070
   395
1000

1070
   394
1070
    33
1070
   393
1070
     0
  0
LINE
  5
EB5
330
6C
100
AcDbEntity
  8
0
100
AcDbLine
 10
174.627577692094
 20
275.2848114226408
 30
0.0
 11
174.627577692094
 21
168.1133136205462
 31
0.0
  0
ENDSEC
  0
SECTION
  2
OBJECTS
  0
DICTIONARY
  5
C
330
0
100
AcDbDictionary
281
     1
  3
ACAD_2007HEADERVARS_RT
350
FE3
  3
ACAD_CIP_PREVIOUS_PRODUCT_INFO
350
AD1
  3
ACAD_COLOR
350
63
  3
ACAD_GROUP
350
D
  3
ACAD_LAYOUT
350
62
  3
ACAD_MATERIAL
350
10
  3
ACAD_MLEADERSTYLE
350
66
  3
ACAD_MLINESTYLE
350
5F
  3
ACAD_PLOTSETTINGS
350
61
  3
ACAD_PLOTSTYLENAME
350
E
  3
ACAD_SCALELIST
350
42
  3
ACAD_TABLESTYLE
350
64
  3
ACAD_VISUALSTYLE
350
29
  3
ACDB_RECOMPOSE_DATA
350
FE2
  3
AcDbVariableDictionary
350
B07
  3
AcmDictionary
350
B73
  3
AEC_PROPERTY_SET_DEFS
350
C93
  3
AMG
350
B19
  3
AMGSNAPSETTINGS
350
BB3
  0
DICTIONARY
  5
C17
330
2
100
AcDbDictionary
280
     1
281
     1
  3
ACAD_LAYERSTATES
360
C18
  0
DICTIONARY
  5
C11
330
C10
100
AcDbDictionary
280
     1
281
     1
  0
DICTIONARY
  5
C13
330
C12
100
AcDbDictionary
280
     1
281
     1
  0
DICTIONARY
  5
FCF
330
C9
100
AcDbDictionary
280
     1
281
     1
  3
ACAD_MTEXT_2008_RT
360
FD0
  0
DICTIONARY
  5
1019
330
12E
100
AcDbDictionary
280
     1
281
     1
  3
ACAD_MTEXT_2008_RT
360
101A
  0
DICTIONARY
  5
101B
330
132
100
AcDbDictionary
280
     1
281
     1
  3
ACAD_MTEXT_2008_RT
360
101C
  0
DICTIONARY
  5
101D
330
136
100
AcDbDictionary
280
     1
281
     1
  3
ACAD_MTEXT_2008_RT
360
101E
  0
DICTIONARY
  5
101F
330
13A
100
AcDbDictionary
280
     1
281
     1
  3
ACAD_MTEXT_2008_RT
360
1020
  0
DICTIONARY
  5
1021
330
13E
100
AcDbDictionary
280
     1
281
     1
  3
ACAD_MTEXT_2008_RT
360
1022
  0
DICTIONARY
  5
1023
330
142
100
AcDbDictionary
280
     1
281
     1
  3
ACAD_MTEXT_2008_RT
360
1024
  0
DICTIONARY
  5
1025
330
146
100
AcDbDictionary
280
     1
281
     1
  3
ACAD_MTEXT_2008_RT
360
1026
  0
DICTIONARY
  5
1027
330
14A
100
AcDbDictionary
280
     1
281
     1
  3
ACAD_MTEXT_2008_RT
360
1028
  0
DICTIONARY
  5
1029
330
152
100
AcDbDictionary
280
     1
281
     1
  3
ACAD_MTEXT_2008_RT
360
102A
  0
DICTIONARY
  5
102B
330
1F0
100
AcDbDictionary
280
     1
281
     1
  3
ACAD_MTEXT_2008_RT
360
102C
  0
DICTIONARY
  5
102D
330
1F4
100
AcDbDictionary
280
     1
281
     1
  3
ACAD_MTEXT_2008_RT
360
102E
  0
DICTIONARY
  5
102F
330
1F9
100
AcDbDictionary
280
     1
281
     1
  3
ACAD_MTEXT_2008_RT
360
1030
  0
DICTIONARY
  5
AD6
330
1FD
100
AcDbDictionary
280
     1
281
     1
  3
ACAD_MLATT
360
FD2
  3
ACAD_XREC_ROUNDTRIP
360
FD1
  0
DICTIONARY
  5
AD9
330
201
100
AcDbDictionary
280
     1
281
     1
  3
ACAD_MLATT
360
FD4
  3
ACAD_XREC_ROUNDTRIP
360
FD3
  0
DICTIONARY
  5
ADC
330
202
100
AcDbDictionary
280
     1
281
     1
  3
ACAD_MLATT
360
FD6
  3
ACAD_XREC_ROUNDTRIP
360
FD5
  0
DICTIONARY
  5
ADF
330
203
100
AcDbDictionary
280
     1
281
     1
  3
ACAD_MLATT
360
FD8
  3
ACAD_XREC_ROUNDTRIP
360
FD7
  0
DICTIONARY
  5
AE2
330
205
100
AcDbDictionary
280
     1
281
     1
  3
ACAD_MLATT
360
FDA
  3
ACAD_XREC_ROUNDTRIP
360
FD9
  0
DICTIONARY
  5
AE5
330
206
100
AcDbDictionary
280
     1
281
     1
  3
ACAD_MLATT
360
FDC
  3
ACAD_XREC_ROUNDTRIP
360
FDB
  0
DICTIONARY
  5
AE8
330
207
100
AcDbDictionary
280
     1
281
     1
  3
ACAD_MLATT
360
FDE
  3
ACAD_XREC_ROUNDTRIP
360
FDD
  0
DICTIONARY
  5
AEB
330
208
100
AcDbDictionary
280
     1
281
     1
  3
ACAD_MLATT
360
FE0
  3
ACAD_XREC_ROUNDTRIP
360
FDF
  0
DICTIONARY
  5
1031
330
4FE
100
AcDbDictionary
280
     1
281
     1
  3
ACAD_MTEXT_2008_RT
360
1032
  0
DICTIONARY
  5
1033
330
502
100
AcDbDictionary
280
     1
281
     1
  3
ACAD_MTEXT_2008_RT
360
1034
  0
DICTIONARY
  5
1035
330
506
100
AcDbDictionary
280
     1
281
     1
  3
ACAD_MTEXT_2008_RT
360
1036
  0
DICTIONARY
  5
1037
330
526
100
AcDbDictionary
280
     1
281
     1
  3
ACAD_MTEXT_2008_RT
360
1038
  0
DICTIONARY
  5
1039
330
52D
100
AcDbDictionary
280
     1
281
     1
  3
ACAD_MTEXT_2008_RT
360
103A
  0
DICTIONARY
  5
103B
330
52E
100
AcDbDictionary
280
     1
281
     1
  3
ACAD_MTEXT_2008_RT
360
103C
  0
DICTIONARY
  5
103D
330
532
100
AcDbDictionary
280
     1
281
     1
  3
ACAD_MTEXT_2008_RT
360
103E
  0
DICTIONARY
  5
103F
330
539
100
AcDbDictionary
280
     1
281
     1
  3
ACAD_MTEXT_2008_RT
360
1040
  0
DICTIONARY
  5
1041
330
53A
100
AcDbDictionary
280
     1
281
     1
  3
ACAD_MTEXT_2008_RT
360
1042
  0
DICTIONARY
  5
1043
330
53D
100
AcDbDictionary
280
     1
281
     1
  3
ACAD_MTEXT_2008_RT
360
1044
  0
DICTIONARY
  5
1045
330
53E
100
AcDbDictionary
280
     1
281
     1
  3
ACAD_MTEXT_2008_RT
360
1046
  0
DICTIONARY
  5
1047
330
546
100
AcDbDictionary
280
     1
281
     1
  3
ACAD_MTEXT_2008_RT
360
1048
  0
DICTIONARY
  5
1049
330
6F8
100
AcDbDictionary
280
     1
281
     1
  3
ACAD_MTEXT_2008_RT
360
104A
  0
DICTIONARY
  5
104B
330
7D9
100
AcDbDictionary
280
     1
281
     1
  3
ACAD_MTEXT_2008_RT
360
104C
  0
DICTIONARY
  5
FE3
102
{ACAD_REACTORS
330
C
102
}
330
C
100
AcDbDictionary
281
     1
  3
DIMARCSYM
350
FE4
  3
DIMLTEX1
350
FE6
  3
DIMLTEX2
350
FE7
  3
DIMLTYPE
350
FE5
  0
XRECORD
  5
AD1
102
{ACAD_REACTORS
330
C
102
}
330
C
100
AcDbXrecord
280
     1
300
INVNTOR
300
2012
300
PDSP_F_S
  0
DICTIONARY
  5
63
102
{ACAD_REACTORS
330
C
102
}
330
C
100
AcDbDictionary
281
     1
  0
DICTIONARY
  5
D
102
{ACAD_REACTORS
330
C
102
}
330
C
100
AcDbDictionary
281
     1
  0
DICTIONARY
  5
62
102
{ACAD_REACTORS
330
C
102
}
330
C
100
AcDbDictionary
281
     1
  3
Layout1
350
6B
  3
Layout2
350
73
  3
Model
350
6F
  0
DICTIONARY
  5
10
102
{ACAD_REACTORS
330
C
102
}
330
C
100
AcDbDictionary
281
     1
  3
ByBlock
350
19
  3
ByLayer
350
11
  3
Global
350
21
  0
DICTIONARY
  5
66
102
{ACAD_REACTORS
330
C
102
}
330
C
100
AcDbDictionary
281
     1
  3
Standard
350
67
  0
DICTIONARY
  5
5F
102
{ACAD_REACTORS
330
C
102
}
330
C
100
AcDbDictionary
281
     1
  3
Standard
350
60
  0
DICTIONARY
  5
61
102
{ACAD_REACTORS
330
C
102
}
330
C
100
AcDbDictionary
281
     1
  0
ACDBDICTIONARYWDFLT
  5
E
102
{ACAD_REACTORS
330
C
102
}
330
C
100
AcDbDictionary
281
     1
  3
Normal
350
F
100
AcDbDictionaryWithDefault
340
F
  0
DICTIONARY
  5
42
102
{ACAD_REACTORS
330
C
102
}
330
C
100
AcDbDictionary
281
     1
  3
A0
350
43
  3
A1
350
44
  3
A2
350
45
  3
A3
350
46
  3
A4
350
47
  3
A5
350
48
  3
A6
350
49
  3
A7
350
4A
  3
A8
350
4B
  3
A9
350
4C
  3
B0
350
4D
  3
B1
350
4E
  3
B2
350
4F
  3
B3
350
50
  3
B4
350
51
  3
B5
350
52
  3
B6
350
53
  0
DICTIONARY
  5
64
102
{ACAD_REACTORS
330
C
102
}
330
C
100
AcDbDictionary
281
     1
  3
Standard
350
65
  0
DICTIONARY
  5
29
102
{ACAD_REACTORS
330
C
102
}
330
C
100
AcDbDictionary
281
     1
  3
2dWireframe
350
2F
  3
3D Hidden
350
B0D
  3
3dWireframe
350
B0C
  3
Basic
350
2E
  3
Brighten
350
35
  3
ColorChange
350
39
  3
Conceptual
350
32
  3
Dim
350
34
  3
EdgeColorOff
350
41
  3
Facepattern
350
38
  3
Flat
350
2A
  3
FlatWithEdges
350
2B
  3
Gouraud
350
2C
  3
GouraudWithEdges
350
2D
  3
Hidden
350
31
  3
JitterOff
350
3F
  3
Linepattern
350
37
  3
OverhangOff
350
40
  3
Realistic
350
33
  3
Shaded
350
3E
  3
Shaded with edges
350
3D
  3
Shades of Gray
350
3A
  3
Sketchy
350
3B
  3
Thicken
350
36
  3
Wireframe
350
30
  3
X-Ray
350
3C
  0
XRECORD
  5
FE2
102
{ACAD_REACTORS
330
C
102
}
330
C
100
AcDbXrecord
280
     1
 90
        1
330
65
330
C9
330
1FD
330
201
330
202
330
203
330
205
330
206
330
207
330
208
  0
DICTIONARY
  5
B07
102
{ACAD_REACTORS
330
C
102
}
330
C
100
AcDbDictionary
281
     1
  3
CANNOSCALE
350
B0A
  3
CMLEADERSTYLE
350
B09
  3
CTABLESTYLE
350
B08
  3
LAYEREVAL
350
DA5
  3
LAYERNOTIFY
350
DA6
  3
LIGHTINGUNITS
350
DA4
  3
MSLTSCALE
350
DA3
  3
SOLIDHIST
350
DA7
  3
XCLIPFRAME
350
FCD
  0
DICTIONARY
  5
B73
102
{ACAD_REACTORS
330
C
102
}
330
C
100
AcDbDictionary
281
     1
  3
AcmStdDictionary
350
B7D
  0
DICTIONARY
  5
C93
102
{ACAD_REACTORS
330
C
102
}
330
C
100
AcDbDictionary
281
     1
  0
DICTIONARY
  5
B19
102
{ACAD_REACTORS
330
C
102
}
330
C
100
AcDbDictionary
281
     1
  0
DICTIONARY
  5
BB3
102
{ACAD_REACTORS
330
C
102
}
330
C
100
AcDbDictionary
281
     1
  0
DICTIONARY
  5
C18
102
{ACAD_REACTORS
330
C17
102
}
330
C17
100
AcDbDictionary
281
     1
  0
XRECORD
  5
FD0
102
{ACAD_REACTORS
330
FCF
102
}
330
FCF
100
AcDbXrecord
280
     1
 40
2697178.0
  1
\pxsm0.94;WIG Schweisung, Nahte sauber geschliffen und poliert\PSichtstege geschliffen mit 240 Korn und abgeklebt.\P\fTahoma|b0|i0;\H3.0000; \P\fTahoma|b0|i0;\H3.5000;WIG svarovani- svary dle potreby zabrousit.\PPohledove plochy brousit (vel. brusnyc
  1
h zrn 240)\Pa polepit paskou
  0
XRECORD
  5
101A
102
{ACAD_REACTORS
330
1019
102
}
330
1019
100
AcDbXrecord
280
     1
 40
128335.0
  1
Mořit a opláchnout\PBeizen und Pasiviert
  0
XRECORD
  5
101C
102
{ACAD_REACTORS
330
101B
102
}
330
101B
100
AcDbXrecord
280
     1
 40
118263.0
  1
Žlab bez spádu!\PRinne ohne Gefälle!
  0
XRECORD
  5
101E
102
{ACAD_REACTORS
330
101D
102
}
330
101D
100
AcDbXrecord
280
     1
 40
119399.0
  1
Žlab bez spádu!\PChannel without slope!
  0
XRECORD
  5
1020
102
{ACAD_REACTORS
330
101F
102
}
330
101F
100
AcDbXrecord
280
     1
 40
2320136.0
  1
Povrchová úprava/Oberfläche:\PTryskat pouze vnitřek žlabu, včetně pohledových ploch!\PPříruby proti tryskání chránit!\PFlansches per strahlung behütent!
  0
XRECORD
  5
1022
102
{ACAD_REACTORS
330
1021
102
}
330
1021
100
AcDbXrecord
280
     1
 40
4745921.0
  1
Vzdálenost nivelačních šroubu ca. 1500mm.\PVzdálenost kotev ca. 400mm.\PPohledové plochy brousit(vel.brusných zrn 240)\Pa polepit páskou.\P\PDistance of leveling feets ca. 1500 mm.\PDistance of fixing tangs ca. 400 mm.\PVisible surfaces to be grinded
  1
 and covered by protectiv foil.
  0
XRECORD
  5
1024
102
{ACAD_REACTORS
330
1023
102
}
330
1023
100
AcDbXrecord
280
     1
 40
2193518.0
  1
POZOR:\PSpád žlabu je menší než 1% - nebezpečí vzniku prohlubní\Pse stojatou vodou.\PAUTENTION:\PThe gradient of the bottom is minor then 1%.\PThat can be reason of slack water.
  0
XRECORD
  5
1026
102
{ACAD_REACTORS
330
1025
102
}
330
1025
100
AcDbXrecord
280
     1
 40
2672228.0
  1
POZOR:\PSpád žlabu je menší než 1% - nebezpečí vzniku prohlubní\Pse stojatou vodou.\PACHTUNG:\PDas Bodengefälle ist kleiner als 1%. Das Gefahr der\PSenkungsentstehung mit dem stehenden Wasser.
  0
XRECORD
  5
1028
102
{ACAD_REACTORS
330
1027
102
}
330
1027
100
AcDbXrecord
280
     1
 40
275286.0
  1
Kartáčováno + folie\PGeburstet mit abziehbarer Schutzfolie
  0
XRECORD
  5
102A
102
{ACAD_REACTORS
330
1029
102
}
330
1029
100
AcDbXrecord
280
     1
 40
105970.0
  1
Mořit a opláchnout\PPickled and wash
  0
XRECORD
  5
102C
102
{ACAD_REACTORS
330
102B
102
}
330
102B
100
AcDbXrecord
280
     1
 40
209162.0
  1
\fArial|b0|i0;\H2.0000;Geprüft\fTahoma|b0|i0;\H2.0000;/Checked by:
  0
XRECORD
  5
102E
102
{ACAD_REACTORS
330
102D
102
}
330
102D
100
AcDbXrecord
280
     1
 40
236978.0
  1
ACO vpust 142 sestava vod. dvoudílná DN100 12mm priruba bez ZU V2A
  0
XRECORD
  5
1030
102
{ACAD_REACTORS
330
102F
102
}
330
102F
100
AcDbXrecord
280
     1
 40
23258.0
  1
Není k dispozici
  0
XRECORD
  5
FD2
102
{ACAD_REACTORS
330
AD6
102
}
330
AD6
100
AcDbXrecord
280
     1
 70
     4
 70
     0
 70
     0
 40
1.0
  2
ČÍSLO_REVIZE
  1
Embedded Object
 10
292.3880993315334
 20
66.0
 30
0.0
 40
3.499999940395355
 41
34.661232501043
 46
0.0
 71
     1
 72
     5
  1
000
  7
Styl textu9
 73
     1
 44
1.0
  0
XRECORD
  5
FD1
102
{ACAD_REACTORS
330
AD6
102
}
330
AD6
100
AcDbXrecord
280
     1
102
ACAD_MATT_HEIGHT
140
3.499999940395355
  0
XRECORD
  5
FD4
102
{ACAD_REACTORS
330
AD9
102
}
330
AD9
100
AcDbXrecord
280
     1
 70
     4
 70
     0
 70
     0
 40
1.0
  2
Sheet_Size
  1
Embedded Object
 10
294.5873446304243
 20
48.33701147296152
 30
0.0
 40
2.000000029802321
 41
19.44201149373395
 46
0.0
 71
     1
 72
     5
  1
A3
  7
Styl textu40
 73
     1
 44
1.0
  0
XRECORD
  5
FD3
102
{ACAD_REACTORS
330
AD9
102
}
330
AD9
100
AcDbXrecord
280
     1
102
ACAD_MATT_HEIGHT
140
2.000000029802321
  0
XRECORD
  5
FD6
102
{ACAD_REACTORS
330
ADC
102
}
330
ADC
100
AcDbXrecord
280
     1
 70
     4
 70
     0
 70
     0
 40
1.0
  2
PART_NUMBER
  1
Embedded Object
 10
224.5172477361519
 20
66.0
 30
0.0
 40
3.499999940395355
 41
42.57494038810881
 46
0.0
 71
     1
 72
     5
  1
414726
  7
Text poznámky (ISO)
 73
     1
 44
1.0
  0
XRECORD
  5
FD5
102
{ACAD_REACTORS
330
ADC
102
}
330
ADC
100
AcDbXrecord
280
     1
102
ACAD_MATT_HEIGHT
140
3.499999940395355
  0
XRECORD
  5
FD8
102
{ACAD_REACTORS
330
ADF
102
}
330
ADF
100
AcDbXrecord
280
     1
 70
     4
 70
     0
 70
     0
 40
1.0
  2
PROJECT
  1
Embedded Object
 10
118.0
 20
60.0
 30
0.0
 40
3.499999940395355
 41
0.0
 46
0.0
 71
     1
 72
     5
  1

  7
Text poznámky (ISO)
 73
     1
 44
1.0
  0
XRECORD
  5
FD7
102
{ACAD_REACTORS
330
ADF
102
}
330
ADF
100
AcDbXrecord
280
     1
102
ACAD_MATT_HEIGHT
140
3.499999940395355
  0
XRECORD
  5
FDA
102
{ACAD_REACTORS
330
AE2
102
}
330
AE2
100
AcDbXrecord
280
     1
 70
     4
 70
     0
 70
     0
 40
1.0
  2
SKLADOVÉ_ČÍSLO
  1
Embedded Object
 10
118.0
 20
54.89391305489238
 30
0.0
 40
6.99999988079071
 41
153.2966041564941
 46
0.0
 71
     1
 72
     5
  1
414726
  7
Styl textu94
 73
     1
 44
1.0
  0
XRECORD
  5
FD9
102
{ACAD_REACTORS
330
AE2
102
}
330
AE2
100
AcDbXrecord
280
     1
102
ACAD_MATT_HEIGHT
140
6.99999988079071
  0
XRECORD
  5
FDC
102
{ACAD_REACTORS
330
AE5
102
}
330
AE5
100
AcDbXrecord
280
     1
 70
     4
 70
     0
 70
     0
 40
1.0
  2
MATERIAL
  1
Embedded Object
 10
117.5939056808251
 20
108.6756657996811
 30
0.0
 40
3.499999940395355
 41
0.0
 46
0.0
 71
     1
 72
     5
  1

  7
Text poznámky (ISO)
 73
     1
 44
1.0
  0
XRECORD
  5
FDB
102
{ACAD_REACTORS
330
AE5
102
}
330
AE5
100
AcDbXrecord
280
     1
102
ACAD_MATT_HEIGHT
140
3.499999940395355
  0
XRECORD
  5
FDE
102
{ACAD_REACTORS
330
AE8
102
}
330
AE8
100
AcDbXrecord
280
     1
 70
     4
 70
     0
 70
     0
 40
1.0
  2
AUTHOR
  1
Embedded Object
 10
171.2961533440284
 20
87.78242706242744
 30
0.0
 40
2.000000029802321
 41
13.919832764198
 46
0.0
 71
     1
 72
     5
  1
pmacoun
  7
Styl textu40
 73
     1
 44
1.0
  0
XRECORD
  5
FDD
102
{ACAD_REACTORS
330
AE8
102
}
330
AE8
100
AcDbXrecord
280
     1
102
ACAD_MATT_HEIGHT
140
2.000000029802321
  0
XRECORD
  5
FE0
102
{ACAD_REACTORS
330
AEB
102
}
330
AEB
100
AcDbXrecord
280
     1
 70
     4
 70
     0
 70
     0
 40
1.0
  2
FirstViewScale
  1
Embedded Object
 10
189.1855699863978
 20
86.00038821032343
 30
0.0
 40
3.499999940395355
 41
24.15597186978378
 46
0.0
 71
     1
 72
     5
  1

  7
Text poznámky (ISO)
 73
     1
 44
1.0
  0
XRECORD
  5
FDF
102
{ACAD_REACTORS
330
AEB
102
}
330
AEB
100
AcDbXrecord
280
     1
102
ACAD_MATT_HEIGHT
140
3.499999940395355
  0
XRECORD
  5
1032
102
{ACAD_REACTORS
330
1031
102
}
330
1031
100
AcDbXrecord
280
     1
 40
7165.0
  1
KUSOVNÍK
  0
XRECORD
  5
1034
102
{ACAD_REACTORS
330
1033
102
}
330
1033
100
AcDbXrecord
280
     1
 40
6807.0
  1
MATERIÁL
  0
XRECORD
  5
1036
102
{ACAD_REACTORS
330
1035
102
}
330
1035
100
AcDbXrecord
280
     1
 40
15386.0
  1
SKLADOVÉ Č
  0
XRECORD
  5
1038
102
{ACAD_REACTORS
330
1037
102
}
330
1037
100
AcDbXrecord
280
     1
 40
23054.0
  1
návlek sunap-DN100
  0
XRECORD
  5
103A
102
{ACAD_REACTORS
330
1039
102
}
330
1039
100
AcDbXrecord
280
     1
 40
98046.0
  1
ACO vpust 142 svarenec vod. dvoudílná 
  0
XRECORD
  5
103C
102
{ACAD_REACTORS
330
103B
102
}
330
103B
100
AcDbXrecord
280
     1
 40
39485.0
  1
12mm příruba DN100 V2A
  0
XRECORD
  5
103E
102
{ACAD_REACTORS
330
103D
102
}
330
103D
100
AcDbXrecord
280
     1
 40
4936.0
  1
Papír
  0
XRECORD
  5
1040
102
{ACAD_REACTORS
330
103F
102
}
330
103F
100
AcDbXrecord
280
     1
 40
11828.0
  1
Polykarboná
  0
XRECORD
  5
1042
102
{ACAD_REACTORS
330
1041
102
}
330
1041
100
AcDbXrecord
280
     1
 40
17945.0
  1
t, kouřový
  0
XRECORD
  5
1044
102
{ACAD_REACTORS
330
1043
102
}
330
1043
100
AcDbXrecord
280
     1
 40
69594.0
  1
ACO vpust 142 kryt plastový 157 pro 
  0
XRECORD
  5
1046
102
{ACAD_REACTORS
330
1045
102
}
330
1045
100
AcDbXrecord
280
     1
 40
14780.0
  1
balení PP 12mm
  0
XRECORD
  5
1048
102
{ACAD_REACTORS
330
1047
102
}
330
1047
100
AcDbXrecord
280
     1
 40
183692.0
  1
Effidrain karton - drenážní pro montáž 142
  0
XRECORD
  5
104A
102
{ACAD_REACTORS
330
1049
102
}
330
1049
100
AcDbXrecord
280
     1
 40
5807.0
  1
\A1;\U+2205164
  0
XRECORD
  5
104C
102
{ACAD_REACTORS
330
104B
102
}
330
104B
100
AcDbXrecord
280
     1
 40
10636.0
  1
\A1;{\U+00D8}142,5
  0
XRECORD
  5
FE4
102
{ACAD_REACTORS
330
FE3
102
}
330
FE3
100
AcDbXrecord
280
     1
 70
     1
  0
XRECORD
  5
FE6
102
{ACAD_REACTORS
330
FE3
102
}
330
FE3
100
AcDbXrecord
280
     1
340
5B
  0
XRECORD
  5
FE7
102
{ACAD_REACTORS
330
FE3
102
}
330
FE3
100
AcDbXrecord
280
     1
340
5B
  0
XRECORD
  5
FE5
102
{ACAD_REACTORS
330
FE3
102
}
330
FE3
100
AcDbXrecord
280
     1
340
5B
  0
LAYOUT
  5
6B
102
{ACAD_REACTORS
330
62
102
}
330
62
100
AcDbPlotSettings
  1

  2

  4

  6

 40
0.0
 41
0.0
 42
0.0
 43
0.0
 44
0.0
 45
0.0
 46
0.0
 47
0.0
 48
0.0
 49
0.0
140
0.0
141
0.0
142
1.0
143
1.0
 70
   688
 72
     0
 73
     0
 74
     5
  7

 75
    16
147
1.0
 76
     0
 77
     2
 78
   300
148
0.0
149
0.0
100
AcDbLayout
  1
Layout1
 70
     1
 71
     1
 10
0.0
 20
0.0
 11
630.0
 21
445.5
 12
0.0
 22
0.0
 32
0.0
 14
0.0
 24
0.0
 34
0.0
 15
630.0
 25
445.5
 35
0.0
146
0.0
 13
0.0
 23
0.0
 33
0.0
 16
1.0
 26
0.0
 36
0.0
 17
0.0
 27
1.0
 37
0.0
 76
     0
330
68
  0
LAYOUT
  5
73
102
{ACAD_REACTORS
330
62
102
}
330
62
100
AcDbPlotSettings
  1

  2

  4

  6

 40
0.0
 41
0.0
 42
0.0
 43
0.0
 44
0.0
 45
0.0
 46
0.0
 47
0.0
 48
0.0
 49
0.0
140
0.0
141
0.0
142
1.0
143
1.0
 70
   688
 72
     0
 73
     0
 74
     5
  7

 75
    16
147
1.0
 76
     0
 77
     2
 78
   300
148
0.0
149
0.0
100
AcDbLayout
  1
Layout2
 70
     1
 71
     2
 10
0.0
 20
0.0
 11
12.0
 21
9.0
 12
0.0
 22
0.0
 32
0.0
 14
0.0
 24
0.0
 34
0.0
 15
0.0
 25
0.0
 35
0.0
146
0.0
 13
0.0
 23
0.0
 33
0.0
 16
1.0
 26
0.0
 36
0.0
 17
0.0
 27
1.0
 37
0.0
 76
     0
330
70
  0
LAYOUT
  5
6F
102
{ACAD_REACTORS
330
62
102
}
330
62
100
AcDbPlotSettings
  1

  2

  4

  6

 40
0.0
 41
0.0
 42
0.0
 43
0.0
 44
0.0
 45
0.0
 46
0.0
 47
0.0
 48
0.0
 49
0.0
140
0.0
141
0.0
142
1.0
143
1.0
 70
  1712
 72
     0
 73
     0
 74
     0
  7

 75
     0
147
1.0
 76
     0
 77
     2
 78
   300
148
0.0
149
0.0
100
AcDbLayout
  1
Model
 70
     1
 71
     0
 10
0.0
 20
0.0
 11
12.0
 21
9.0
 12
0.0
 22
0.0
 32
0.0
 14
0.0
 24
0.0
 34
0.0
 15
0.0
 25
0.0
 35
0.0
146
0.0
 13
0.0
 23
0.0
 33
0.0
 16
1.0
 26
0.0
 36
0.0
 17
0.0
 27
1.0
 37
0.0
 76
     0
330
6C
331
57
  0
MATERIAL
  5
19
102
{ACAD_XDICTIONARY
360
1A
102
}
102
{ACAD_REACTORS
330
10
102
}
330
10
100
AcDbMaterial
  1
ByBlock
 72
     0
 43
0.0208333333333333
 43
0.0
 43
0.0
 43
0.0
 43
0.0
 43
0.0208333333333333
 43
0.0
 43
0.0
 43
0.0
 43
0.0
 43
1.0
 43
0.0
 43
0.0
 43
0.0
 43
0.0
 43
1.0
 77
     0
 47
0.0208333333333333
 47
0.0
 47
0.0
 47
0.0
 47
0.0
 47
0.0208333333333333
 47
0.0
 47
0.0
 47
0.0
 47
0.0
 47
1.0
 47
0.0
 47
0.0
 47
0.0
 47
0.0
 47
1.0
171
     0
 49
0.0208333333333333
 49
0.0
 49
0.0
 49
0.0
 49
0.0
 49
0.0208333333333333
 49
0.0
 49
0.0
 49
0.0
 49
0.0
 49
1.0
 49
0.0
 49
0.0
 49
0.0
 49
0.0
 49
1.0
175
     0
142
0.0208333333333333
142
0.0
142
0.0
142
0.0
142
0.0
142
0.0208333333333333
142
0.0
142
0.0
142
0.0
142
0.0
142
1.0
142
0.0
142
0.0
142
0.0
142
0.0
142
1.0
179
     0
144
0.0208333333333333
144
0.0
144
0.0
144
0.0
144
0.0
144
0.0208333333333333
144
0.0
144
0.0
144
0.0
144
0.0
144
1.0
144
0.0
144
0.0
144
0.0
144
0.0
144
1.0
147
0.0208333333333333
147
0.0
147
0.0
147
0.0
147
0.0
147
0.0208333333333333
147
0.0
147
0.0
147
0.0
147
0.0
147
1.0
147
0.0
147
0.0
147
0.0
147
0.0
147
1.0
  0
MATERIAL
  5
11
102
{ACAD_XDICTIONARY
360
12
102
}
102
{ACAD_REACTORS
330
10
102
}
330
10
100
AcDbMaterial
  1
ByLayer
 72
     0
 43
0.0208333333333333
 43
0.0
 43
0.0
 43
0.0
 43
0.0
 43
0.0208333333333333
 43
0.0
 43
0.0
 43
0.0
 43
0.0
 43
1.0
 43
0.0
 43
0.0
 43
0.0
 43
0.0
 43
1.0
 77
     0
 47
0.0208333333333333
 47
0.0
 47
0.0
 47
0.0
 47
0.0
 47
0.0208333333333333
 47
0.0
 47
0.0
 47
0.0
 47
0.0
 47
1.0
 47
0.0
 47
0.0
 47
0.0
 47
0.0
 47
1.0
171
     0
 49
0.0208333333333333
 49
0.0
 49
0.0
 49
0.0
 49
0.0
 49
0.0208333333333333
 49
0.0
 49
0.0
 49
0.0
 49
0.0
 49
1.0
 49
0.0
 49
0.0
 49
0.0
 49
0.0
 49
1.0
175
     0
142
0.0208333333333333
142
0.0
142
0.0
142
0.0
142
0.0
142
0.0208333333333333
142
0.0
142
0.0
142
0.0
142
0.0
142
1.0
142
0.0
142
0.0
142
0.0
142
0.0
142
1.0
179
     0
144
0.0208333333333333
144
0.0
144
0.0
144
0.0
144
0.0
144
0.0208333333333333
144
0.0
144
0.0
144
0.0
144
0.0
144
1.0
144
0.0
144
0.0
144
0.0
144
0.0
144
1.0
147
0.0208333333333333
147
0.0
147
0.0
147
0.0
147
0.0
147
0.0208333333333333
147
0.0
147
0.0
147
0.0
147
0.0
147
1.0
147
0.0
147
0.0
147
0.0
147
0.0
147
1.0
  0
MATERIAL
  5
21
102
{ACAD_XDICTIONARY
360
22
102
}
102
{ACAD_REACTORS
330
10
102
}
330
10
100
AcDbMaterial
  1
Global
 72
     0
 43
0.0208333333333333
 43
0.0
 43
0.0
 43
0.0
 43
0.0
 43
0.0208333333333333
 43
0.0
 43
0.0
 43
0.0
 43
0.0
 43
1.0
 43
0.0
 43
0.0
 43
0.0
 43
0.0
 43
1.0
 77
     0
 47
0.0208333333333333
 47
0.0
 47
0.0
 47
0.0
 47
0.0
 47
0.0208333333333333
 47
0.0
 47
0.0
 47
0.0
 47
0.0
 47
1.0
 47
0.0
 47
0.0
 47
0.0
 47
0.0
 47
1.0
171
     0
 49
0.0208333333333333
 49
0.0
 49
0.0
 49
0.0
 49
0.0
 49
0.0208333333333333
 49
0.0
 49
0.0
 49
0.0
 49
0.0
 49
1.0
 49
0.0
 49
0.0
 49
0.0
 49
0.0
 49
1.0
175
     0
142
0.0208333333333333
142
0.0
142
0.0
142
0.0
142
0.0
142
0.0208333333333333
142
0.0
142
0.0
142
0.0
142
0.0
142
1.0
142
0.0
142
0.0
142
0.0
142
0.0
142
1.0
179
     0
144
0.0208333333333333
144
0.0
144
0.0
144
0.0
144
0.0
144
0.0208333333333333
144
0.0
144
0.0
144
0.0
144
0.0
144
1.0
144
0.0
144
0.0
144
0.0
144
0.0
144
1.0
147
0.0208333333333333
147
0.0
147
0.0
147
0.0
147
0.0
147
0.0208333333333333
147
0.0
147
0.0
147
0.0
147
0.0
147
1.0
147
0.0
147
0.0
147
0.0
147
0.0
147
1.0
  0
MLEADERSTYLE
  5
67
102
{ACAD_XDICTIONARY
360
AD2
102
}
102
{ACAD_REACTORS
330
66
102
}
330
66
100
AcDbMLeaderStyle
170
     2
171
     1
172
     0
 90
        2
 40
0.0
 41
0.0
173
     1
 91
-1056964608
340
5B
 92
       -2
290
     1
 42
0.09
291
     1
 43
0.36
  3
Standard
 44
0.18
300

342
55
174
     1
178
     6
175
     1
176
     0
 93
-1056964608
 45
0.18
292
     0
297
     0
 46
0.18
 94
-1056964608
 47
1.0
 49
1.0
140
1.0
293
     1
141
0.0
294
     1
177
     0
142
1.0
295
     0
296
     0
143
0.125
1001
ACAD_MLEADERVER
1070
     2
  0
MLINESTYLE
  5
60
102
{ACAD_REACTORS
330
5F
102
}
330
5F
100
AcDbMlineStyle
  2
STANDARD
 70
     0
  3

 62
   256
 51
90.0
 52
90.0
 71
     2
 49
0.5
 62
   256
  6
BYLAYER
 49
-0.5
 62
   256
  6
BYLAYER
  0
ACDBPLACEHOLDER
  5
F
102
{ACAD_REACTORS
330
E
102
}
330
E
  0
SCALE
  5
43
102
{ACAD_REACTORS
330
42
102
}
330
42
100
AcDbScale
 70
     0
300
1:1
140
1.0
141
1.0
290
     1
  0
SCALE
  5
44
102
{ACAD_REACTORS
330
42
102
}
330
42
100
AcDbScale
 70
     0
300
1/128" = 1'-0"
140
0.0078125
141
12.0
290
     0
  0
SCALE
  5
45
102
{ACAD_REACTORS
330
42
102
}
330
42
100
AcDbScale
 70
     0
300
1/64" = 1'-0"
140
0.015625
141
12.0
290
     0
  0
SCALE
  5
46
102
{ACAD_REACTORS
330
42
102
}
330
42
100
AcDbScale
 70
     0
300
1/32" = 1'-0"
140
0.03125
141
12.0
290
     0
  0
SCALE
  5
47
102
{ACAD_REACTORS
330
42
102
}
330
42
100
AcDbScale
 70
     0
300
1/16" = 1'-0"
140
0.0625
141
12.0
290
     0
  0
SCALE
  5
48
102
{ACAD_REACTORS
330
42
102
}
330
42
100
AcDbScale
 70
     0
300
3/32" = 1'-0"
140
0.09375
141
12.0
290
     0
  0
SCALE
  5
49
102
{ACAD_REACTORS
330
42
102
}
330
42
100
AcDbScale
 70
     0
300
1/8" = 1'-0"
140
0.125
141
12.0
290
     0
  0
SCALE
  5
4A
102
{ACAD_REACTORS
330
42
102
}
330
42
100
AcDbScale
 70
     0
300
3/16" = 1'-0"
140
0.1875
141
12.0
290
     0
  0
SCALE
  5
4B
102
{ACAD_REACTORS
330
42
102
}
330
42
100
AcDbScale
 70
     0
300
1/4" = 1'-0"
140
0.25
141
12.0
290
     0
  0
SCALE
  5
4C
102
{ACAD_REACTORS
330
42
102
}
330
42
100
AcDbScale
 70
     0
300
3/8" = 1'-0"
140
0.375
141
12.0
290
     0
  0
SCALE
  5
4D
102
{ACAD_REACTORS
330
42
102
}
330
42
100
AcDbScale
 70
     0
300
1/2" = 1'-0"
140
0.5
141
12.0
290
     0
  0
SCALE
  5
4E
102
{ACAD_REACTORS
330
42
102
}
330
42
100
AcDbScale
 70
     0
300
3/4" = 1'-0"
140
0.75
141
12.0
290
     0
  0
SCALE
  5
4F
102
{ACAD_REACTORS
330
42
102
}
330
42
100
AcDbScale
 70
     0
300
1" = 1'-0"
140
1.0
141
12.0
290
     0
  0
SCALE
  5
50
102
{ACAD_REACTORS
330
42
102
}
330
42
100
AcDbScale
 70
     0
300
1-1/2" = 1'-0"
140
1.5
141
12.0
290
     0
  0
SCALE
  5
51
102
{ACAD_REACTORS
330
42
102
}
330
42
100
AcDbScale
 70
     0
300
3" = 1'-0"
140
3.0
141
12.0
290
     0
  0
SCALE
  5
52
102
{ACAD_REACTORS
330
42
102
}
330
42
100
AcDbScale
 70
     0
300
6" = 1'-0"
140
6.0
141
12.0
290
     0
  0
SCALE
  5
53
102
{ACAD_REACTORS
330
42
102
}
330
42
100
AcDbScale
 70
     0
300
1'-0" = 1'-0"
140
12.0
141
12.0
290
     0
  0
TABLESTYLE
  5
65
102
{ACAD_XDICTIONARY
360
DA9
102
}
102
{ACAD_REACTORS
330
64
102
}
330
64
100
AcDbTableStyle
  3
Standard
 70
     0
 71
     0
 40
0.06
 41
0.06
280
     0
281
     0
  7
Standard
140
0.18
170
     2
 62
     0
 63
     7
283
     0
274
    -2
284
     1
 64
     0
275
    -2
285
     1
 65
     0
276
    -2
286
     1
 66
     0
277
    -2
287
     1
 67
     0
278
    -2
288
     1
 68
     0
279
    -2
289
     1
 69
     0
  7
Standard
140
0.25
170
     5
 62
     0
 63
     7
283
     0
274
    -2
284
     1
 64
     0
275
    -2
285
     1
 65
     0
276
    -2
286
     1
 66
     0
277
    -2
287
     1
 67
     0
278
    -2
288
     1
 68
     0
279
    -2
289
     1
 69
     0
  7
Standard
140
0.18
170
     5
 62
     0
 63
     7
283
     0
274
    -2
284
     1
 64
     0
275
    -2
285
     1
 65
     0
276
    -2
286
     1
 66
     0
277
    -2
287
     1
 67
     0
278
    -2
288
     1
 68
     0
279
    -2
289
     1
 69
     0
  0
VISUALSTYLE
  5
2F
102
{ACAD_XDICTIONARY
360
FF2
102
}
102
{ACAD_REACTORS
330
29
102
}
330
29
100
AcDbVisualStyle
  2

 70
     4
 71
     0
 72
     2
 73
     0
 90
        0
 40
-0.6
 41
-30.0
 62
     5
 63
     7
421
 16777215
 74
     1
 91
        4
 64
     7
 65
   257
 75
     1
175
     1
 42
1.0
 92
        0
 66
   257
 43
1.0
 76
     1
 77
     6
 78
     2
 67
     7
 79
     5
170
     0
171
     0
290
     0
174
     0
 93
        1
 44
0.0
173
     0
291
     0
 45
0.0
1001
ACAD
1000
AcDbSavedByObjectVersion
1070
     0
  0
VISUALSTYLE
  5
B0D
102
{ACAD_XDICTIONARY
360
104F
102
}
102
{ACAD_REACTORS
330
29
102
}
330
29
100
AcDbVisualStyle
  2

 70
     6
 71
     1
 72
     2
 73
     2
 90
        0
 40
-0.6
 41
-30.0
 62
     5
 63
     7
421
 16777215
 74
     2
 91
        2
 64
     7
 65
   257
 75
     2
175
     1
 42
179.0
 92
        0
 66
   257
 43
1.0
 76
     1
 77
     6
 78
     2
 67
     7
 79
     3
170
     0
171
     0
290
     0
174
     0
 93
        1
 44
0.0
173
     0
291
     0
 45
0.0
1001
ACAD
1000
AcDbSavedByObjectVersion
1070
     0
  0
VISUALSTYLE
  5
B0C
102
{ACAD_XDICTIONARY
360
104D
102
}
102
{ACAD_REACTORS
330
29
102
}
330
29
100
AcDbVisualStyle
  2

 70
     5
 71
     0
 72
     2
 73
     0
 90
        0
 40
-0.6
 41
-30.0
 62
     5
 63
     7
421
 16777215
 74
     1
 91
        4
 64
     7
 65
   257
 75
     1
175
     1
 42
1.0
 92
        0
 66
   257
 43
1.0
 76
     1
 77
     6
 78
     2
 67
     7
 79
     5
170
     0
171
     0
290
     0
174
     0
 93
        1
 44
0.0
173
     0
291
     0
 45
0.0
1001
ACAD
1000
AcDbSavedByObjectVersion
1070
     0
  0
VISUALSTYLE
  5
2E
102
{ACAD_XDICTIONARY
360
FF0
102
}
102
{ACAD_REACTORS
330
29
102
}
330
29
100
AcDbVisualStyle
  2

 70
     7
 71
     1
 72
     0
 73
     1
 90
        0
 40
-0.6
 41
-30.0
 62
     5
 63
     7
421
 16777215
 74
     0
 91
        4
 64
     7
 65
   257
 75
     1
175
     1
 42
1.0
 92
        8
 66
     7
 43
1.0
 76
     1
 77
     6
 78
     2
 67
     7
 79
     5
170
     0
171
     0
290
     0
174
     0
 93
        1
 44
0.0
173
     0
291
     1
 45
0.0
1001
ACAD
1000
AcDbSavedByObjectVersion
1070
     0
  0
VISUALSTYLE
  5
35
102
{ACAD_XDICTIONARY
360
FFE
102
}
102
{ACAD_REACTORS
330
29
102
}
330
29
100
AcDbVisualStyle
  2

 70
    12
 71
     2
 72
     2
 73
     0
 90
        0
 40
-0.6
 41
-30.0
 62
     5
 63
     7
421
 16777215
 74
     1
 91
        4
 64
     7
 65
   257
 75
     1
175
     1
 42
1.0
 92
        8
 66
     7
 43
1.0
 76
     1
 77
     6
 78
     2
 67
     7
 79
     5
170
     0
171
     0
290
     0
174
     0
 93
        1
 44
50.0
173
     0
291
     1
 45
0.0
1001
ACAD
1000
AcDbSavedByObjectVersion
1070
     0
  0
VISUALSTYLE
  5
39
102
{ACAD_XDICTIONARY
360
1006
102
}
102
{ACAD_REACTORS
330
29
102
}
330
29
100
AcDbVisualStyle
  2

 70
    16
 71
     2
 72
     2
 73
     3
 90
        0
 40
-0.6
 41
-30.0
 62
     5
 63
     8
421
  8421504
 74
     1
 91
        4
 64
     7
 65
   257
 75
     1
175
     1
 42
1.0
 92
        8
 66
     8
424
  8421504
 43
1.0
 76
     1
 77
     6
 78
     2
 67
     7
 79
     5
170
     0
171
     0
290
     0
174
     0
 93
        1
 44
0.0
173
     0
291
     1
 45
0.0
1001
ACAD
1000
AcDbSavedByObjectVersion
1070
     0
  0
VISUALSTYLE
  5
32
102
{ACAD_XDICTIONARY
360
FF8
102
}
102
{ACAD_REACTORS
330
29
102
}
330
29
100
AcDbVisualStyle
  2

 70
     9
 71
     3
 72
     2
 73
     0
 90
        0
 40
-0.6
 41
-30.0
 62
     5
 63
     7
421
 16777215
 74
     2
 91
        2
 64
     7
 65
   257
 75
     1
175
     1
 42
179.0
 92
        8
 66
     7
 43
1.0
 76
     1
 77
     6
 78
     2
 67
     7
 79
     3
170
     0
171
     0
290
     0
174
     0
 93
        1
 44
0.0
173
     0
291
     0
 45
0.0
1001
ACAD
1000
AcDbSavedByObjectVersion
1070
     0
  0
VISUALSTYLE
  5
34
102
{ACAD_XDICTIONARY
360
FFC
102
}
102
{ACAD_REACTORS
330
29
102
}
330
29
100
AcDbVisualStyle
  2

 70
    11
 71
     2
 72
     2
 73
     0
 90
        0
 40
-0.6
 41
-30.0
 62
     5
 63
     7
421
 16777215
 74
     1
 91
        4
 64
     7
 65
   257
 75
     1
175
     1
 42
1.0
 92
        8
 66
     7
 43
1.0
 76
     1
 77
     6
 78
     2
 67
     7
 79
     5
170
     0
171
     0
290
     0
174
     0
 93
        1
 44
-50.0
173
     0
291
     1
 45
0.0
1001
ACAD
1000
AcDbSavedByObjectVersion
1070
     0
  0
VISUALSTYLE
  5
41
102
{ACAD_XDICTIONARY
360
1016
102
}
102
{ACAD_REACTORS
330
29
102
}
330
29
100
AcDbVisualStyle
  2

 70
    22
 71
     2
 72
     2
 73
     0
 90
        0
 40
-0.6
 41
-30.0
 62
     5
 63
     7
421
 16777215
 74
     1
 91
        4
 64
     7
 65
   257
 75
     1
175
     1
 42
1.0
 92
        8
 66
     7
 43
1.0
 76
     1
 77
     6
 78
     2
 67
     7
 79
     5
170
     0
171
     0
290
     0
174
     0
 93
        1
 44
0.0
173
     0
291
     1
 45
0.0
1001
ACAD
1000
AcDbSavedByObjectVersion
1070
     0
  0
VISUALSTYLE
  5
38
102
{ACAD_XDICTIONARY
360
1004
102
}
102
{ACAD_REACTORS
330
29
102
}
330
29
100
AcDbVisualStyle
  2

 70
    15
 71
     2
 72
     2
 73
     0
 90
        0
 40
-0.6
 41
-30.0
 62
     5
 63
     7
421
 16777215
 74
     1
 91
        4
 64
     7
 65
   257
 75
     1
175
     1
 42
1.0
 92
        8
 66
     7
 43
1.0
 76
     1
 77
     6
 78
     2
 67
     7
 79
     5
170
     0
171
     0
290
     0
174
     0
 93
        1
 44
0.0
173
     0
291
     1
 45
0.0
1001
ACAD
1000
AcDbSavedByObjectVersion
1070
     0
  0
VISUALSTYLE
  5
2A
102
{ACAD_XDICTIONARY
360
FE8
102
}
102
{ACAD_REACTORS
330
29
102
}
330
29
100
AcDbVisualStyle
  2

 70
     0
 71
     2
 72
     1
 73
     1
 90
        2
 40
-0.6
 41
30.0
 62
     5
 63
     7
421
 16777215
 74
     0
 91
        0
 64
     7
 65
   257
 75
     1
175
     1
 42
1.0
 92
        8
 66
     7
 43
1.0
 76
     1
 77
     6
 78
     2
 67
     7
 79
     5
170
     0
171
     0
290
     0
174
     0
 93
       13
 44
0.0
173
     0
291
     1
 45
0.0
1001
ACAD
1000
AcDbSavedByObjectVersion
1070
     0
  0
VISUALSTYLE
  5
2B
102
{ACAD_XDICTIONARY
360
FEA
102
}
102
{ACAD_REACTORS
330
29
102
}
330
29
100
AcDbVisualStyle
  2

 70
     1
 71
     2
 72
     1
 73
     1
 90
        2
 40
-0.6
 41
30.0
 62
     5
 63
     7
421
 16777215
 74
     1
 91
        0
 64
     7
 65
   257
 75
     1
175
     1
 42
1.0
 92
        0
 66
   257
 43
1.0
 76
     1
 77
     6
 78
     2
 67
     7
 79
     5
170
     0
171
     0
290
     0
174
     0
 93
       13
 44
0.0
173
     0
291
     1
 45
0.0
1001
ACAD
1000
AcDbSavedByObjectVersion
1070
     0
  0
VISUALSTYLE
  5
2C
102
{ACAD_XDICTIONARY
360
FEC
102
}
102
{ACAD_REACTORS
330
29
102
}
330
29
100
AcDbVisualStyle
  2

 70
     2
 71
     2
 72
     2
 73
     1
 90
        2
 40
-0.6
 41
30.0
 62
     5
 63
     7
421
 16777215
 74
     0
 91
        0
 64
     7
 65
   257
 75
     1
175
     1
 42
1.0
 92
        0
 66
     7
 43
1.0
 76
     1
 77
     6
 78
     2
 67
     7
 79
     5
170
     0
171
     0
290
     0
174
     0
 93
       13
 44
0.0
173
     0
291
     1
 45
0.0
1001
ACAD
1000
AcDbSavedByObjectVersion
1070
     0
  0
VISUALSTYLE
  5
2D
102
{ACAD_XDICTIONARY
360
FEE
102
}
102
{ACAD_REACTORS
330
29
102
}
330
29
100
AcDbVisualStyle
  2

 70
     3
 71
     2
 72
     2
 73
     1
 90
        2
 40
-0.6
 41
30.0
 62
     5
 63
     7
421
 16777215
 74
     1
 91
        0
 64
     7
 65
   257
 75
     1
175
     1
 42
1.0
 92
        0
 66
   257
 43
1.0
 76
     1
 77
     6
 78
     2
 67
     7
 79
     5
170
     0
171
     0
290
     0
174
     0
 93
       13
 44
0.0
173
     0
291
     1
 45
0.0
1001
ACAD
1000
AcDbSavedByObjectVersion
1070
     0
  0
VISUALSTYLE
  5
31
102
{ACAD_XDICTIONARY
360
FF6
102
}
102
{ACAD_REACTORS
330
29
102
}
330
29
100
AcDbVisualStyle
  2

 70
     6
 71
     1
 72
     2
 73
     2
 90
        0
 40
-0.6
 41
-30.0
 62
     5
 63
     7
421
 16777215
 74
     2
 91
        2
 64
     7
 65
   257
 75
     2
175
     1
 42
40.0
 92
        0
 66
   257
 43
1.0
 76
     1
 77
     6
 78
     2
 67
     7
 79
     3
170
     0
171
     0
290
     0
174
     0
 93
        1
 44
0.0
173
     0
291
     0
 45
0.0
1001
ACAD
1000
AcDbSavedByObjectVersion
1070
     0
  0
VISUALSTYLE
  5
3F
102
{ACAD_XDICTIONARY
360
1012
102
}
102
{ACAD_REACTORS
330
29
102
}
330
29
100
AcDbVisualStyle
  2

 70
    20
 71
     2
 72
     2
 73
     0
 90
        0
 40
-0.6
 41
-30.0
 62
     5
 63
     7
421
 16777215
 74
     1
 91
        4
 64
     7
 65
   257
 75
     1
175
     1
 42
1.0
 92
       10
 66
     7
 43
1.0
 76
     1
 77
     6
 78
     2
 67
     7
 79
     5
170
     0
171
     0
290
     0
174
     0
 93
        1
 44
0.0
173
     0
291
     1
 45
0.0
1001
ACAD
1000
AcDbSavedByObjectVersion
1070
     0
  0
VISUALSTYLE
  5
37
102
{ACAD_XDICTIONARY
360
1002
102
}
102
{ACAD_REACTORS
330
29
102
}
330
29
100
AcDbVisualStyle
  2

 70
    14
 71
     2
 72
     2
 73
     0
 90
        0
 40
-0.6
 41
-30.0
 62
     5
 63
     7
421
 16777215
 74
     1
 91
        4
 64
     7
 65
   257
 75
     7
175
     7
 42
1.0
 92
        8
 66
     7
 43
1.0
 76
     1
 77
     6
 78
     2
 67
     7
 79
     5
170
     0
171
     0
290
     0
174
     0
 93
        1
 44
0.0
173
     0
291
     1
 45
0.0
1001
ACAD
1000
AcDbSavedByObjectVersion
1070
     0
  0
VISUALSTYLE
  5
40
102
{ACAD_XDICTIONARY
360
1014
102
}
102
{ACAD_REACTORS
330
29
102
}
330
29
100
AcDbVisualStyle
  2

 70
    21
 71
     2
 72
     2
 73
     0
 90
        0
 40
-0.6
 41
-30.0
 62
     5
 63
     7
421
 16777215
 74
     1
 91
        4
 64
     7
 65
   257
 75
     1
175
     1
 42
1.0
 92
        9
 66
     7
 43
1.0
 76
     1
 77
     6
 78
     2
 67
     7
 79
     5
170
     0
171
     0
290
     0
174
     0
 93
        1
 44
0.0
173
     0
291
     1
 45
0.0
1001
ACAD
1000
AcDbSavedByObjectVersion
1070
     0
  0
VISUALSTYLE
  5
33
102
{ACAD_XDICTIONARY
360
FFA
102
}
102
{ACAD_REACTORS
330
29
102
}
330
29
100
AcDbVisualStyle
  2

 70
     8
 71
     2
 72
     3
 73
     0
 90
        2
 40
-0.6
 41
30.0
 62
     5
 63
     7
421
 16777215
 74
     0
 91
        0
 64
     7
 65
   257
 75
     1
175
     1
 42
1.0
 92
        8
 66
   257
 43
1.0
 76
     1
 77
     6
 78
     2
 67
     7
 79
     3
170
     0
171
     0
290
     0
174
     0
 93
       13
 44
0.0
173
     0
291
     0
 45
0.0
1001
ACAD
1000
AcDbSavedByObjectVersion
1070
     0
  0
VISUALSTYLE
  5
3E
102
{ACAD_XDICTIONARY
360
1010
102
}
102
{ACAD_REACTORS
330
29
102
}
330
29
100
AcDbVisualStyle
  2

 70
    27
 71
     2
 72
     2
 73
     1
 90
        2
 40
-0.6
 41
30.0
 62
     5
 63
     7
421
 16777215
 74
     0
 91
        4
 64
     7
 65
   257
 75
     1
175
     1
 42
1.0
 92
        8
 66
   257
 43
1.0
 76
     1
 77
     6
 78
     2
 67
     8
425
  7895160
 79
     3
170
     0
171
     0
290
     0
174
     0
 93
        5
 44
0.0
173
     0
291
     0
 45
0.0
1001
ACAD
1000
AcDbSavedByObjectVersion
1070
     0
  0
VISUALSTYLE
  5
3D
102
{ACAD_XDICTIONARY
360
100E
102
}
102
{ACAD_REACTORS
330
29
102
}
330
29
100
AcDbVisualStyle
  2

 70
    26
 71
     2
 72
     2
 73
     1
 90
        2
 40
-0.6
 41
30.0
 62
     5
 63
     7
421
 16777215
 74
     1
 91
       10
 64
     7
 65
   257
 75
     2
175
     1
 42
1.0
 92
        8
 66
   257
 43
1.0
 76
     1
 77
     6
 78
     2
 67
     7
 79
     3
170
     0
171
     0
290
     0
174
     0
 93
        5
 44
0.0
173
     0
291
     0
 45
0.0
1001
ACAD
1000
AcDbSavedByObjectVersion
1070
     0
  0
VISUALSTYLE
  5
3A
102
{ACAD_XDICTIONARY
360
1008
102
}
102
{ACAD_REACTORS
330
29
102
}
330
29
100
AcDbVisualStyle
  2

 70
    23
 71
     2
 72
     2
 73
     3
 90
        0
 40
-0.6
 41
-30.0
 62
     5
 63
     7
421
 16777215
 74
     2
 91
        2
 64
     7
 65
     7
 75
     1
175
     1
 42
40.0
 92
        8
 66
     7
 43
1.0
 76
     1
 77
     6
 78
     2
 67
     7
 79
     3
170
     0
171
     0
290
     0
174
     0
 93
        1
 44
0.0
173
     0
291
     0
 45
0.0
1001
ACAD
1000
AcDbSavedByObjectVersion
1070
     0
  0
VISUALSTYLE
  5
3B
102
{ACAD_XDICTIONARY
360
100A
102
}
102
{ACAD_REACTORS
330
29
102
}
330
29
100
AcDbVisualStyle
  2

 70
    24
 71
     1
 72
     2
 73
     2
 90
        0
 40
-0.6
 41
-30.0
 62
     5
 63
     7
421
 16777215
 74
     2
 91
        2
 64
     7
 65
     7
 75
     1
175
     1
 42
40.0
 92
       11
 66
     7
 43
1.0
 76
     1
 77
     6
 78
     2
 67
     7
 79
     6
170
     0
171
     0
290
     0
174
     0
 93
        1
 44
0.0
173
     0
291
     0
 45
0.0
1001
ACAD
1000
AcDbSavedByObjectVersion
1070
     0
  0
VISUALSTYLE
  5
36
102
{ACAD_XDICTIONARY
360
1000
102
}
102
{ACAD_REACTORS
330
29
102
}
330
29
100
AcDbVisualStyle
  2

 70
    13
 71
     2
 72
     2
 73
     0
 90
        0
 40
-0.6
 41
-30.0
 62
     5
 63
     7
421
 16777215
 74
     1
 91
        4
 64
     7
 65
   257
 75
     1
175
     1
 42
1.0
 92
       12
 66
     7
 43
1.0
 76
     1
 77
     6
 78
     2
 67
     7
 79
     5
170
     0
171
     0
290
     0
174
     0
 93
        1
 44
0.0
173
     0
291
     1
 45
0.0
1001
ACAD
1000
AcDbSavedByObjectVersion
1070
     0
  0
VISUALSTYLE
  5
30
102
{ACAD_XDICTIONARY
360
FF4
102
}
102
{ACAD_REACTORS
330
29
102
}
330
29
100
AcDbVisualStyle
  2

 70
     5
 71
     0
 72
     2
 73
     0
 90
        0
 40
-0.6
 41
-30.0
 62
     5
 63
     7
421
 16777215
 74
     1
 91
        4
 64
     7
 65
   257
 75
     1
175
     1
 42
1.0
 92
        0
 66
   257
 43
1.0
 76
     1
 77
     6
 78
     2
 67
     7
 79
     3
170
     0
171
     0
290
     0
174
     0
 93
        1
 44
0.0
173
     0
291
     0
 45
0.0
1001
ACAD
1000
AcDbSavedByObjectVersion
1070
     0
  0
VISUALSTYLE
  5
3C
102
{ACAD_XDICTIONARY
360
100C
102
}
102
{ACAD_REACTORS
330
29
102
}
330
29
100
AcDbVisualStyle
  2

 70
    25
 71
     2
 72
     2
 73
     1
 90
        1
 40
0.5
 41
-30.0
 62
     5
 63
     7
421
 16777215
 74
     1
 91
        0
 64
     7
 65
   257
 75
     1
175
     1
 42
1.0
 92
        8
 66
     7
 43
1.0
 76
     1
 77
     6
 78
     2
 67
     7
 79
     3
170
     0
171
     0
290
     0
174
     0
 93
       13
 44
0.0
173
     0
291
     0
 45
0.0
1001
ACAD
1000
AcDbSavedByObjectVersion
1070
     0
  0
DICTIONARYVAR
  5
B0A
102
{ACAD_REACTORS
330
B07
102
}
330
B07
100
DictionaryVariables
280
     0
  1
1:1
  0
DICTIONARYVAR
  5
B09
102
{ACAD_REACTORS
330
B07
102
}
330
B07
100
DictionaryVariables
280
     0
  1
STANDARD
  0
DICTIONARYVAR
  5
B08
102
{ACAD_REACTORS
330
B07
102
}
330
B07
100
DictionaryVariables
280
     0
  1
STANDARD
  0
DICTIONARYVAR
  5
DA5
102
{ACAD_REACTORS
330
B07
102
}
330
B07
100
DictionaryVariables
280
     0
  1
0
  0
DICTIONARYVAR
  5
DA6
102
{ACAD_REACTORS
330
B07
102
}
330
B07
100
DictionaryVariables
280
     0
  1
0
  0
DICTIONARYVAR
  5
DA4
102
{ACAD_REACTORS
330
B07
102
}
330
B07
100
DictionaryVariables
280
     0
  1
2
  0
DICTIONARYVAR
  5
DA3
102
{ACAD_REACTORS
330
B07
102
}
330
B07
100
DictionaryVariables
280
     0
  1
1
  0
DICTIONARYVAR
  5
DA7
102
{ACAD_REACTORS
330
B07
102
}
330
B07
100
DictionaryVariables
280
     0
  1
0
  0
DICTIONARYVAR
  5
FCD
102
{ACAD_REACTORS
330
B07
102
}
330
B07
100
DictionaryVariables
280
     0
  1
2
  0
DICTIONARY
  5
B7D
102
{ACAD_REACTORS
330
B73
102
}
330
B73
100
AcDbDictionary
281
     1
  0
DICTIONARY
  5
1A
330
19
100
AcDbDictionary
280
     1
281
     1
  3
ACAD_XREC_ROUNDTRIP
360
DBF
  3
BUMPTILE
360
1C
  3
DIFFUSETILE
360
1B
  3
OPACITYTILE
360
1F
  3
REFLECTIONTILE
360
1E
  3
REFRACTIONTILE
360
20
  3
SPECULARTILE
360
1D
  0
DICTIONARY
  5
12
330
11
100
AcDbDictionary
280
     1
281
     1
  3
ACAD_XREC_ROUNDTRIP
360
DBE
  3
BUMPTILE
360
14
  3
DIFFUSETILE
360
13
  3
FBXASSET
360
9C
  3
OPACITYTILE
360
17
  3
REFLECTIONTILE
360
16
  3
REFRACTIONTILE
360
18
  3
SPECULARTILE
360
15
  0
DICTIONARY
  5
22
330
21
100
AcDbDictionary
280
     1
281
     1
  3
ACAD_XREC_ROUNDTRIP
360
DC0
  3
BUMPTILE
360
24
  3
DIFFUSETILE
360
23
  3
OPACITYTILE
360
27
  3
REFLECTIONTILE
360
26
  3
REFRACTIONTILE
360
28
  3
SPECULARTILE
360
25
  0
DICTIONARY
  5
AD2
330
67
100
AcDbDictionary
280
     1
281
     1
  3
ACAD_XREC_ROUNDTRIP
360
AD3
  0
DICTIONARY
  5
DA9
330
65
100
AcDbDictionary
280
     1
281
     1
  3
ACAD_ROUNDTRIP_2008_TABLESTYLE_CELLSTYLEMAP
360
FCE
  3
ACAD_XREC_ROUNDTRIP
360
1018
  0
DICTIONARY
  5
FF2
330
2F
100
AcDbDictionary
280
     1
281
     1
  3
ACAD_XREC_ROUNDTRIP
360
FF3
  0
DICTIONARY
  5
104F
330
B0D
100
AcDbDictionary
280
     1
281
     1
  3
ACAD_XREC_ROUNDTRIP
360
1050
  0
DICTIONARY
  5
104D
330
B0C
100
AcDbDictionary
280
     1
281
     1
  3
ACAD_XREC_ROUNDTRIP
360
104E
  0
DICTIONARY
  5
FF0
330
2E
100
AcDbDictionary
280
     1
281
     1
  3
ACAD_XREC_ROUNDTRIP
360
FF1
  0
DICTIONARY
  5
FFE
330
35
100
AcDbDictionary
280
     1
281
     1
  3
ACAD_XREC_ROUNDTRIP
360
FFF
  0
DICTIONARY
  5
1006
330
39
100
AcDbDictionary
280
     1
281
     1
  3
ACAD_XREC_ROUNDTRIP
360
1007
  0
DICTIONARY
  5
FF8
330
32
100
AcDbDictionary
280
     1
281
     1
  3
ACAD_XREC_ROUNDTRIP
360
FF9
  0
DICTIONARY
  5
FFC
330
34
100
AcDbDictionary
280
     1
281
     1
  3
ACAD_XREC_ROUNDTRIP
360
FFD
  0
DICTIONARY
  5
1016
330
41
100
AcDbDictionary
280
     1
281
     1
  3
ACAD_XREC_ROUNDTRIP
360
1017
  0
DICTIONARY
  5
1004
330
38
100
AcDbDictionary
280
     1
281
     1
  3
ACAD_XREC_ROUNDTRIP
360
1005
  0
DICTIONARY
  5
FE8
330
2A
100
AcDbDictionary
280
     1
281
     1
  3
ACAD_XREC_ROUNDTRIP
360
FE9
  0
DICTIONARY
  5
FEA
330
2B
100
AcDbDictionary
280
     1
281
     1
  3
ACAD_XREC_ROUNDTRIP
360
FEB
  0
DICTIONARY
  5
FEC
330
2C
100
AcDbDictionary
280
     1
281
     1
  3
ACAD_XREC_ROUNDTRIP
360
FED
  0
DICTIONARY
  5
FEE
330
2D
100
AcDbDictionary
280
     1
281
     1
  3
ACAD_XREC_ROUNDTRIP
360
FEF
  0
DICTIONARY
  5
FF6
330
31
100
AcDbDictionary
280
     1
281
     1
  3
ACAD_XREC_ROUNDTRIP
360
FF7
  0
DICTIONARY
  5
1012
330
3F
100
AcDbDictionary
280
     1
281
     1
  3
ACAD_XREC_ROUNDTRIP
360
1013
  0
DICTIONARY
  5
1002
330
37
100
AcDbDictionary
280
     1
281
     1
  3
ACAD_XREC_ROUNDTRIP
360
1003
  0
DICTIONARY
  5
1014
330
40
100
AcDbDictionary
280
     1
281
     1
  3
ACAD_XREC_ROUNDTRIP
360
1015
  0
DICTIONARY
  5
FFA
330
33
100
AcDbDictionary
280
     1
281
     1
  3
ACAD_XREC_ROUNDTRIP
360
FFB
  0
DICTIONARY
  5
1010
330
3E
100
AcDbDictionary
280
     1
281
     1
  3
ACAD_XREC_ROUNDTRIP
360
1011
  0
DICTIONARY
  5
100E
330
3D
100
AcDbDictionary
280
     1
281
     1
  3
ACAD_XREC_ROUNDTRIP
360
100F
  0
DICTIONARY
  5
1008
330
3A
100
AcDbDictionary
280
     1
281
     1
  3
ACAD_XREC_ROUNDTRIP
360
1009
  0
DICTIONARY
  5
100A
330
3B
100
AcDbDictionary
280
     1
281
     1
  3
ACAD_XREC_ROUNDTRIP
360
100B
  0
DICTIONARY
  5
1000
330
36
100
AcDbDictionary
280
     1
281
     1
  3
ACAD_XREC_ROUNDTRIP
360
1001
  0
DICTIONARY
  5
FF4
330
30
100
AcDbDictionary
280
     1
281
     1
  3
ACAD_XREC_ROUNDTRIP
360
FF5
  0
DICTIONARY
  5
100C
330
3C
100
AcDbDictionary
280
     1
281
     1
  3
ACAD_XREC_ROUNDTRIP
360
100D
  0
XRECORD
  5
DBF
102
{ACAD_REACTORS
330
1A
102
}
330
1A
100
AcDbXrecord
280
     1
102
MATERIAL
148
0.0
149
0.0
149
0.0
 93
        0
 94
      127
282
     0
 72
     0
 77
     0
171
     0
175
     0
179
     0
273
     0
  0
XRECORD
  5
1C
102
{ACAD_REACTORS
330
1A
102
}
330
1A
100
AcDbXrecord
280
     1
270
     1
271
     1
  0
XRECORD
  5
1B
102
{ACAD_REACTORS
330
1A
102
}
330
1A
100
AcDbXrecord
280
     1
270
     1
271
     1
  0
XRECORD
  5
1F
102
{ACAD_REACTORS
330
1A
102
}
330
1A
100
AcDbXrecord
280
     1
270
     1
271
     1
  0
XRECORD
  5
1E
102
{ACAD_REACTORS
330
1A
102
}
330
1A
100
AcDbXrecord
280
     1
270
     1
271
     1
  0
XRECORD
  5
20
102
{ACAD_REACTORS
330
1A
102
}
330
1A
100
AcDbXrecord
280
     1
270
     1
271
     1
  0
XRECORD
  5
1D
102
{ACAD_REACTORS
330
1A
102
}
330
1A
100
AcDbXrecord
280
     1
270
     1
271
     1
  0
XRECORD
  5
DBE
102
{ACAD_REACTORS
330
12
102
}
330
12
100
AcDbXrecord
280
     1
102
MATERIAL
148
0.0
149
0.0
149
0.0
 93
        0
 94
      127
282
     0
 72
     0
 77
     0
171
     0
175
     0
179
     0
273
     0
  0
XRECORD
  5
14
102
{ACAD_REACTORS
330
12
102
}
330
12
100
AcDbXrecord
280
     1
270
     1
271
     1
  0
XRECORD
  5
13
102
{ACAD_REACTORS
330
12
102
}
330
12
100
AcDbXrecord
280
     1
270
     1
271
     1
  0
XRECORD
  5
9C
102
{ACAD_REACTORS
330
12
102
}
330
12
100
AcDbXrecord
280
     1
 70
     1
 90
1959938040
 71
     1
  1
E0EBBE17-BEE8-4BE8-A6DE-45034D646807
311
504B03040A00000800003157DA403DEE336E79000000790000001B0000006175746F6465736B2D64657369676E2D7061636B6167652E786D6C3C3F786D6C2076657273696F6E3D22312E302220656E636F64696E673D227574662D3822203F3E3C666F726D6174733E3C666F726D61743E687474703A2F2F736368656D612E
311
6175746F6465736B2E636F6D2F64657369676E2D7061636B6167652F323030393C2F666F726D61743E3C2F666F726D6174733E504B03041400060808003157DA40D486FD9CA0000000F4000000130000005B436F6E74656E745F54797065735D2E786D6C7D8EC10E82300C865F65E91D8A1E8C310C0EEA1BF002731658846E
311
D98AC1B77784ABF1D8FE5FBFBF75BBCE937A534CCEB38643598122B6FEE978D0B0485F9C41B54DDD7D022595594E1A469170414C76A4D9A4D207E29CF43ECE46F218070CC6BECC4078ACAA135ACF422C856C0E68EA1BF5669944DDD7BCDE7B1F8E415D77AECB980613C2E4AC91FC167A2B244592486606FC29C8FD7F045B9A
311
EF7053A7E60B504B03041400060808003157DA405797E9FFEB0000007C01000008000000636F72652E786D6C8D90DD8E832010855FC5CCED0605FFAA06696C8C4FB02F40805AD20A4660B38FBFD8DA64F76EAF6672E67C339343CFDFCB23F9529BD3D6F440520C8932C24A6DE61E82BFA2069233A39BB5FE970D12C317D5C3
311
2E03A3F366C37A48C21AAF8C8FAAB1521D22774E7948C423363D3871530B4F79F0D1E1EEE9CAC59DCF2A25EF2EC2216899BC8E6819F7E9AB561BB069BC3405A95B54E1F284CA726C513336031ADAF632E1819C265CD36C8719F57A79DF179BE25E4960392639C235CAEB4F82BBEAD415D507261DC634DBED7FA0B0CA7F4241
311
1B5FE4C7BB2FCC0123F191E780D16CCF22966750B1EEB9B11F504B03041400060808003157DA4055019EA25F0000007C00000007000000636E782E786D6C4DCB3B0E80201045D1AD90E915ED2CF8AC45050C11660C8261F98AB1B07AC9C97D42D718D865D3E909258CFD00CCE24AC6E326A164D74DC0B4128928FF32603847
311
2BA13128B1252AC747C6BAB984FC68F0B87FE8960A5C09FE86CFB69FBA01504B03041400060808003157DA4032D2382867010000020300000C0000006662782F636F72652E786D6C8D52ED8E8230107C95A67F2FD01611C5941A8DF109EE052A548E082D292DF1F16FF9309C17630C49696676766707F8FEDED4A857B6AB8C
311
CE300B29464AE7A6A8749961EFAEC116A3BDE0D618F7A70C232D1B95E101C68297D6F8768672A39DD20E506D0A3583B2EB94C328AFE192E12EFF518D0CA57750D1DDC256E63759AA908540439DE09DB360004D4386138BEBE5CEC9840BEE7D55CC6C55C0B4EA5A298BC5F974DCAE5892066B1A6F82383EA5C1F6B43D048734
311
3D9EE9816DCE34E164100BEEAAE6E12EB74A3A5560115116053409A2E49BD1DD7AB35BADBF28DB51CAC950FE24F26DF1A1C857DAADA2D9EE24EBB060606424FE6D0B1139D4C91EFC10C1C91022BCC6849F8386402064272FF5638F1B40BDCA9DB1313085F10BD5CBDA2B984AD1F87032B1D0796C009BBDEC13BDE9F3BE077C
311
40A94BB0261D5C2FDE0DD3F934758EA25536E8DD1D69631B592FE6268BCBB90C7A29CF4D6DEC276A32AF4AE630C9F0F78A5F504B03041400060808003157DA40891722147D0000009D0000000B0000006662782F636E782E786D6C4DCC410EC2201404D0AB90BFC7D2802D0BA0C12AF7682C6D88140C82F1F852D3859B99E4
311
653262F86C1EBD6D7AB91824B42702C8867B9C5D582594BC600E685022C598FF6680C2B459093B83126B8AE579D06C97A9F85CD5BBF038909E494F3B4EB03635186B09E66347B1EEC9482F57666EDA40A344F37BAABD1FAB2F504B03041400060808003157DA40DF0871262C01000015020000310000006662782F33353037
311
333638302D414638302D343431302D384336332D4137304333424434464541462F636F72652E786D6C8D515B6EC23010BC4AE42FAA2AC93A4F408E11A5E504BD40B00DB52076E447C5F1BB6982D4FEF1E3B566676647BB6C771F6EC9B7725E5BD3119A01499411566A73E9480CE7744D921D67CEDAF0874612D30FAA23134C
311
38BB381BC70512D6046502A2C64AB580BDF72A9044DCF0D3112FBED4D0677D0CC8F0D76CECC5B5BFA88C66D8461E673E380C90CC43A697F0B286B66CD690EE8FF8541585747D68CA74DFC2A17C7BAF8E1FFB23CB672167316AB9C8B5C438FAAC957BD664127316F4F0882F9CEA83928417408B149AB4683E296CEB765BD6AF
311
40B7002C9FE8FF4471944F8AA236A12C96B8B3CC134E593E373893369E6E8F30EA3E5A179269DECA2BF142386400754D5BD8342C9FB9B801346DAAC5D407EB70C3ABEB09E9B49E9D9B8AB37C3A1296DF0B629D0ECA7F00504B03041400060808003157DA40FCD4D17D4E01000033030000300000006662782F333530373336
311
38302D414638302D343431302D384336332D4137304333424434464541462F636E782E786D6CD593BB6E032110457F05D146FBF26313592C9652E40B52A465616C13B3B0E211C57F9FC1C68E1B1729D3A0D59DCBBDA323966DBF2743BEC007EDEC40BBBAA504AC744ADBFD4053DC552F946C39F3CEC53B1B25564C30D02C53
311
CEF6DEA5B9480A76229988AAD1F658440FC1252F21A09C6F12E3A4301800B64A28C2348252A0C8CD885F3BF0B80A8AE389C40390B7D70FE2C64F9031B026A770D6E40ECEF2599AEE4C944823421868900798442D52740AC2B156228ABAABAF5D0F76FA4D22F9C2B532794D72F940F34979D9A8468EACC12167217AA4574CF1
311
3403E5629E8D962222E4E66CBC78384BDAC67E55BC1AC17B7477FD72B5C2B0F38CB3A827280EE9414450942FDA6E51B57DB5E8DFBB76B37EDE2CD74F6DB7695BD6643B67A373A65CC218F06E26D2D9083652DEB1268F1FE12B3EA2B447D6CE9FFE00120194D60B9D5BC67FE6D39CDF37E2F2F817F01F504B03041400060808
311
003157DA4064BF25BD9B0500007B100000340000006662782F33353037333638302D414638302D343431302D384336332D4137304333424434464541462F6F626A656374732E786D6CAD575B739B3814FE2B0CFB6C30B693263B844E7C49C7D34DDBA9A79D7DC88C478020DA88CB482271FAEBF713080CAE9D7A77FA024848
311
47E77CE73B17F9EF7719B79EA990ACC86F6CCF19DB16CDA32266797A63572A195DD9D6FBC01745A17ACB6C2B2719BDB1F5B41DF8A928AAD24CC53421155707B377F3BF2D19D19CDA56C4899437B68C1E69461C52A922A6F2C98989224E9AEC1CCF69160EC5A682948F07424B2268AEA029E67348B11AA5BCE1706CBB81EFEA
311
FF81AF9F66D5F4F42AB7B667783ECBA52279F4D3610762A6DE6CB99A5C5C8F2E66B3E9687639F146F3BBF972E4BD9B8E17978BC5F5EDEA1A074B2520C968226862071F808D6091EF36BF02BF62B99A4ECC12E32057D067A63D650713CBF3DD664D679D31F298FA5191E734AAB1021AB57D46744C4B9AC7F039A3129AF5101A
311
0F879EC6B1F77BAAC7E6C8FEF47908F477F404B5BAB7EFBEA645F80F4C90E7304848AA19D860690C6DB83ADE231C160537FF98B432A2A860845B9C858288573BC052BD24F007623493858E066D811DC00BCDEF215D1046BFE6F9312D938A734D633BA8A3608B58A14AD69AB11F54ECB5EF23039DE02BCD862B63907A2DA91D
311
5C3714B93A605303A4957092C2E53053EF9C4E0E0C5DE8385D2FEDE0E35DB8DBE8D83D7E78298A920AA5E9036AB58E6BDF1A25A3937796E7F406FB40953D285F81FC2784FA5E15F84DB0DD6C3733A7284172991422836FACB1351AE331B6BCFAA9BF7B5FBEDB6D1E7AEF149E70B686EA37E039B4A1EFCB1E9C81FF0CC21762
311
6A4CDB4484236DDCB31C00699258BCC014F27012EEEC608D2C87AC8C5D84071E4C86BACFF8F45D230689A23EA9F7CE81E5415A3C234103B69A9150A321BF5170EFA79FD2597DB059760ADE8BDF42D7DBE5E6E3A6120989E8BD89E9254D58CE144ADC9E377D8506980F2C7AA2AF2F858861E8CF786FFA7867E62809B435E61A
311
F8B4CDE97AB03F797040847D69A1D38DFF8B1360842EAC3DF9F74C46947392D3A26ACF7DB37EA06C3410EB60D74CEE0ACCBEB08034CD9F831844918E042B35885DB5EA92A673C2BA6FEB4F60A41DCC5FFF22AFFDEC15EE736F54F0426CC3D76D93968E42FD7DC86D8381ABA580EE7590B4F16F40DFC62C492A89247804D7EF
311
EB45DF773A2D2045B4529B6899C17E04171186B4AD5C546B4150498B7CCB50371177470FE8CB07A48601B5C0531A4BCA932DE3BCCAB609E3A846DB8C9427E0F8FFFA8755566E495654B93A217BA03AAAC350F7017BE50B51D1A31D6CEAF7688EDC1BD3F80419742D3982D5C0B5ABF16A3E5F79EF46F3D5EA6A349BE3717BB9
311
5C8D6617E3E96C7939BBBC1ABF6BFDD46812F86DA9E94734BC84D2E6578219F77D5B237E4C12B0837BA2E4C387263CDBF7B7B5835ED877B107F5B2DB781B3FA3EFA3F1AF05EC571E15B4CE4A4E339A2BA263E85E7FF0AF047DC64099667E9D91949E21E5F387CD8131983963DF171DEFF4E560AF995DE8803C2A443D565998
311
13C60F36A60D924E99A706BFD627DDBB2934ED508F8C63D099CA82B3187930B6525A6454211B9E5184444625A8D7EFE96373F73863F773D3212A1272DA6AF248D0247389B000B5AA480DE7AD3FD0D4E9BEEAC646B9759EF03099C2B6C0991B1B4DBA6211954E8802AD5BA15A38B8D4EFE4D1F8933CE5E8B59B4DDDB8DBA5B1
311
1994E46EC939FD93B1AB49E1C600A491127D031A2278A75626F06BDDCCFFE83F19DEAA631185CFB0529D2DFB89CE98FA1884686394B92DA089793247EF10A86F9BE539F59A012267DDB2DE24412375A48848EB9B82D6CFA874BBFCE2A243B1D69FAD9257297C79BEA491A02073A5031C2C022B8CCC92285075F1E7C31751E0
311
269B59770C147858145956E466706B6EC2D6E611F7DAF8016981EA0B897C988CBDC9437D113077936D482475482C9F30019F0AD6413C703C18D9DC1651819A1FDD3A573BE1809BEBA5654ADA0C420D51FA5955C3829623A716A2475F2675ACF417946FDE05DC7A295410E8E2837F01504B03041400060800003157DA400000
311
00000000000000000000350000006662782F33353037333638302D414638302D343431302D384336332D4137304333424434464541462F76657274696365732E62696E504B03041400060808003157DA40F270F1330600000004000000360000006662782F33353037333638302D414638302D343431302D384336332D4137
311
304333424434464541462F747269616E676C65732E62696E636660600000504B03041400060800003157DA40000000000000000000000000370000006662782F33353037333638302D414638302D343431302D384336332D4137304333424434464541462F617474726962757465732E62696E504B03041400060808003157
311
DA40D5987DFC8F00000041010000360000006662782F33353037333638302D414638302D343431302D384336332D4137304333424434464541462F6469726563746F72792E786D6C858F410EC2201045AF4266AF15DDB800BA74E7C21B903225242D6328188F2FA5C4183471359997F9FF81E89FF3C41E1816475E02DF1F80
311
A11FC8386F25A438EECEC07A250251FC3803E6F58C12560C4AD840E95E91C151A72936F496F35732D860FE635F62C8F2DA16B505C545B74125BAA2FA9E05D7CC053D063734D5C7665FD55B6B8D15D5E9BFEAFD8490FFA45E504B03041400060808003157DA40443CC767FE000000A00100003B0000006662782F3335303733
311
3638302D414638302D343431302D384336332D4137304333424434464541462F7265736F75726365732F636F72652E786D6C8D50596AC33010BD8A99DF225BF21627C80A0E2627E805843C7145622968293D7EE5D885F6AF3F33C35B98C7E3E7AFE5917DA2F3DA9A1E584E2143A3ECA4CDDC430C37D2417616DC591B7EC920
311
3372C11E5618049F9D8DCF1D52D6043421A1C64EB883D27B0C90A9473A7AF0EA031799CB1892C2DFF3A754773963CEF244279DE03EB81420DB9EAC1384436FA353E879B1B182C7A8A75DA3A7F453DF343A10D7F1D255ACED4843EB03A9EBF148BAB11BC8703C5EAE7460872B6D79B19A050F7AF9C9A81CCA80138892B292D0
311
9694ED3BA3A7E670AA9A37CA4E94F26295FF31C5E7F44F53D42654E51E77B379102C05791182176B5F69BDCA4C7BED567C03504B010214000A00000800003157DA403DEE336E79000000790000001B00000000000000000000000000000000006175746F6465736B2D64657369676E2D7061636B6167652E786D6C504B0102
311
14001400060808003157DA40D486FD9CA0000000F40000001300000000000000000000000000B20000005B436F6E74656E745F54797065735D2E786D6C504B010214001400060808003157DA405797E9FFEB0000007C010000080000000000000000000000000083010000636F72652E786D6C504B01021400140006080800
311
3157DA4055019EA25F0000007C000000070000000000000000000000000094020000636E782E786D6C504B010214001400060808003157DA4032D2382867010000020300000C00000000000000000000000000180300006662782F636F72652E786D6C504B010214001400060808003157DA40891722147D0000009D000000
311
0B00000000000000000000000000A90400006662782F636E782E786D6C504B010214001400060808003157DA40DF0871262C0100001502000031000000000000000000000000004F0500006662782F33353037333638302D414638302D343431302D384336332D4137304333424434464541462F636F72652E786D6C504B01
311
0214001400060808003157DA40FCD4D17D4E010000330300003000000000000000000000000000CA0600006662782F33353037333638302D414638302D343431302D384336332D4137304333424434464541462F636E782E786D6C504B010214001400060808003157DA4064BF25BD9B0500007B1000003400000000000000
311
000000000000660800006662782F33353037333638302D414638302D343431302D384336332D4137304333424434464541462F6F626A656374732E786D6C504B010214001400060800003157DA400000000000000000000000003500000000000000000000000000530E00006662782F33353037333638302D414638302D34
311
3431302D384336332D4137304333424434464541462F76657274696365732E62696E504B010214001400060808003157DA40F270F13306000000040000003600000000000000000000000000A60E00006662782F33353037333638302D414638302D343431302D384336332D4137304333424434464541462F747269616E67
311
6C65732E62696E504B010214001400060800003157DA400000000000000000000000003700000000000000000000000000000F00006662782F33353037333638302D414638302D343431302D384336332D4137304333424434464541462F617474726962757465732E62696E504B010214001400060808003157DA40D5987D
311
FC8F000000410100003600000000000000000000000000550F00006662782F33353037333638302D414638302D343431302D384336332D4137304333424434464541462F6469726563746F72792E786D6C504B010214001400060808003157DA40443CC767FE000000A00100003B0000000000000000000000000038100000
311
6662782F33353037333638302D414638302D343431302D384336332D4137304333424434464541462F7265736F75726365732F636F72652E786D6C504B0506000000000E000E00800400008F1100000000
310
504B03040A00000800003157DA403DEE336E79000000790000001B0000006175746F6465736B2D64657369676E2D7061636B6167652E786D6C3C3F786D6C2076657273696F6E3D22312E302220656E636F64696E673D227574662D3822203F3E3C666F726D6174733E3C666F726D61743E687474703A2F2F736368656D612E
310
6175746F6465736B2E636F6D2F64657369676E2D7061636B6167652F323030393C2F666F726D61743E3C2F666F726D6174733E504B03041400060808003157DA40D486FD9CA0000000F4000000130000005B436F6E74656E745F54797065735D2E786D6C7D8EC10E82300C865F65E91D8A1E8C310C0EEA1BF002731658846E
310
D98AC1B77784ABF1D8FE5FBFBF75BBCE937A534CCEB38643598122B6FEE978D0B0485F9C41B54DDD7D022595594E1A469170414C76A4D9A4D207E29CF43ECE46F218070CC6BECC4078ACAA135ACF422C856C0E68EA1BF5669944DDD7BCDE7B1F8E415D77AECB980613C2E4AC91FC167A2B244592486606FC29C8FD7F045B9A
310
EF7053A7E60B504B03041400060808003157DA40B5C6A34CEB0000007C01000008000000636F72652E786D6C8D90416EC3201045AF82665B6103B693C6C24449649FA01740405C94182C03558F5F9C3852BBEB6A467FFE9B197D7EFC9EEEE8CB2CC17AD7012D0820E394D7D68D1DA478C5EF808E822FDEC75F36404E4EA683
310
5506C1C7C5A779939477D1B89855E7B5D94419828980D43D371D04F5692659C814B323DC8A59AA9B1C4D415F5D8653B21A3D8F589DF7D9AB350B889E0ECDA53FF498D4ACC13563677C62C31E57FDBE196A72390DECCCCB15163CDAE9755F2D4646A341304219263BCC761F94B4CDBEAD9A37425B4278B9DAFF4069D6FF8492
310
75B162DBBB4F2C80A0F991C740F072CD22974750B9AEB9891F504B03041400060808003157DA4055019EA25F0000007C00000007000000636E782E786D6C4DCB3B0E80201045D1AD90E915ED2CF8AC45050C11660C8261F98AB1B07AC9C97D42D718D865D3E909258CFD00CCE24AC6E326A164D74DC0B4128928FF32603847
310
2BA13128B1252AC747C6BAB984FC68F0B87FE8960A5C09FE86CFB69FBA01504B03041400060808003157DA405B8EB3C667010000020300000C0000006662782F636F72652E786D6C8D52ED8E8230107C95A67F2FD05241EF4CA951034F702F50A17244684969898F7FCB87F1BC1863484A33B3B33B3BC077D7B64183B27D6D
310
748AA39062A47461CA5A5729F6EE1C7C62B413DC1AE3FE9461A465AB523CC258F0CA1ADF2D5061B453DA01AA4DA91650F6BD7218150D5C52DC173FAA95A1F40E2AFA4BD8C9E2222B154621D0502778EF2C1840F390F1C4E27CBA7232E3827B5F970B5B9730AD3ED7CA6291457972CCBEB280C62C0962C60EC19EE59B60956D
310
923CA6C77DCE0E9C8C62C15DDDDEDC155649A74A2C188D5840D7015B7F47749B6CB6ABE483465B4A3919CB1F44BE2BDF14F95ABB155BECCEB21E8B088C4CC4BF6D2122877A39801F2238194384D794F063D0100884ECE4A9B9ED7101685085333606A634FE4E0DB2F10AA652343D9CCC2C749E1AC0664FFBB0177D5EF7800F
310
287505D6A483EBC9BB713A9FA72E5174CA0683BB226D6C2B9BBBB9D9E2FDBC0F7A2A2F4C63EC3B6AB2AC4A9630C9F8F78A5F504B03041400060808003157DA40703F61487D0000009D0000000B0000006662782F636E782E786D6C4DCCD10A83201805E05791FFDEB54A73821A39D67BC4B290990EA7638F3F1B5DECEA703E
310
0E47F49FCDA1B7892F1BBC84FA740664FC3DCCD6AF12725AF00550AF440C21FDCD00F9693312760625D618F2F3A0D92C5376A9A8B3FE71E0959381EA5B83693D324C58C3316FA9C6BA2B9D747A6CD9009512D5EFA9E47EACBE504B03041400060808003157DA405CCB56832B01000015020000310000006662782F43393441
310
354245322D353146372D343732392D393335422D4236314637343642463337412F636F72652E786D6C8D515B6EC32010BC0AE22B55850D7EE03AC24471D59CA0172036715162B07854397EA176A4F62F3F2C0C33B3A35D76B8CF37F02DAD53467790641802A907332A3D7530F80B7A83E0C09935C6FFA141A0C52C3B9860C8
310
D9644D58366830DA4BED23AACD28375038273D04C32D5E3AE8862F398B4C041F19EE9A2D62B88A4966248BDF91C799F33606006B937442FEDE56C7BAFF28504D4E0DAA9AA2456D59F7A8A7F15DD1FE54364796AF42CE4250E32657638CA32E4ADA674D929833AFE647FCC14AE1E50879814981304505FD24785F37FBB27EC5
310
648F31CB13FD9F282CE393A2A0B42F8B2DEE2A73901396AF1F9C8D269C6F8F30F2BE18EB41EAB7737278811C6718D3B66E70D3B27CE5C60944535A6DA6CE1B1B27BCBB9E23BDDC9C69C5599E9614CBEF06634D0BE53F504B03041400060808003157DA409A731E6A5601000033030000300000006662782F43393441354245
310
322D353146372D343732392D393335422D4236314637343642463337412F636E782E786D6CBD93CD6EC32010845F0571ADFC9BC48D224CA41EFA043DF48A6193D060B00057CDDB7749489A4B0E95AA5E90353BCCAC3E61B6FD1A0DF9041FB4B33D6DCA9A12B0D2296DF73D9DE3AE5853B2E5CC3B17EF6C945831424F934C39
310
DB7B374F5952B013B389A81A6D8F59F410DCEC250494D34D629C140603C016338A300EA014287233E2D70E3CAE82E27022F100E4F5E59DB8E103640CAC4A299C55A983B374E6A63B1325D288107A1AE40146518A393A05E1582A1145D994D7AE073BFD249174E15A397B4D52794FD34979DEA8448EACC22167217AA4974DF1
310
3401E5629A8C962222E4EA6CBC78389BB58DDD327B3582F7E85EB4DD7A8D61E71967518F901DD28388A0286FEBA62DEAAE68BBB7A6DEAC9E378BD553DD6CEA9A55C9CED9E09CC9973006BC9B887436828D9437AC4AE347F8B28F28ED91B5F3A75F804400B9F542E796F1977C9A6EB15CFE239FEAFCBE1197C7BF807F03504B
310
03041400060808003157DA40E054967659070000941B0000340000006662782F43393441354245322D353146372D343732392D393335422D4236314637343642463337412F6F626A656374732E786D6CED59DD739B3810FF5718EED9D8C44E9ADC103A719C643CBDB49DFADAB987CC3032C8441721184924F1FDF5B7FA0003
310
3109BEE6DEFA6030425AEDFEF6534BF0F139A3CE23E682E4ECDCF5BD89EB6016E70961E9B95BCACDE8D4753E8601CF73D998E63A0C65F8DC55C36E18A43C2F0B3B94E00D2AA9EC8C5ECFFF72448C19769D982221CE5D11DFE30C79A8947982C583972089BC74F3ECF99E99D8269B7254DC7788168863268153186740C5314C
310
F9EDC7893B0E83B17A1F06EA6A674D07CD9AF5CF1A6BA9DB5C12262462F10B963A64A683589AFAB3C5D5D1F1D9E878369B8E662747FE687E3D5F8CFC0FD3C9E5C9E5E5D9C5D519B0B7CE736A654A70815902FADBBAA11F8CD59B5A748BC03EAEE39C311C6B20012A2D569720C102B66AC037693FFA4AA2C66B2D61E379A6DE
310
5B161AC3D33695BE59C38068D10541EC7695C4D5BD295FBEFE1B0417438C920B2C815B213968D7C2C3C12BDC70128CCD6818AC77BA20C2C990C49C20EA50B2E688835260AA9A1206668125A39C8303294749A035675EB76D0B3CF36DD7D9C7E5A6A45479861B6AC78AC0FDB0149A33F20FE63BEE9BC8004F206D49983CB55C
310
CA6D81DDF02C18EBC13050B7E9917D6980743614A5422362DE7604BD54AEBF5CB8E1A7EBF5F34A8583FD9B173C2F3097CAE8941E355F60C8F6AE50B2DBFA8334A71680300654BB7207CA3740FE33448F1D2BA0374E9E67CF333B5772C4C426E719E8C69938A3095C268EAFAFEA7FE35F30AE17B7B5D78727B8A982EAF4E7F1
310
6CCBA0B1B2FC37E00C834730F89C4FEDAB558C28D8F32D610090321287E63004A17DB37E76C325044E08F4B00AD1D0079181DD47F81B8C2D999D562AF7B25EC70051BBC774889200366D91C0468F9E6E207B7012EFD4D414B10FDEE37731D78BC5EAD3AAE41B14E35BEBD30BBC218C48C89AFB196A61DE92E8016F9F729E80
310
A02FF15E35F1CEEC5602D056982BE0D30A04F5B0DBB9B5410CEBD25C859BE08D1D400895AB1BF46F898831A588E1BCACF6ADA39B32D4DAE36DCDE0864706E2E951C784397E24AAAA00A7D9CD68310A793FE6A45020BAE18D91AC0E9A5E8F74DF979FC122EBF93DB3960C422F43F44F1DB4F6E0D0B2EC0A690B442DF07A17CE
310
E39CE63C5A6F2313E95CA825808DB6B7FC681185586F94A4A8800769BFAB424A6AA48D12B2D99402E2EA1E167F2C2F9BE630F1A6FEB1D3BC769C7106D1167C1771EB779D3D2292A114471B94F46DD7DCADA62D34C91ED21C6F28C8451E89DC4648469304A787407310F1B377A59ED25C08C2B0807CB517FC261A130F0289D1
310
66C5B2D26A076822A20C4B440F414091E90157A71D5DE3C6503ABCCD636DBDAF69AC49F47FB2088EA096CC5944A014851CF226E3BE770C31A48DAE41B9832F585B455B8B414B2821E26DF484497A2F0F41DD90EFC13D86234929A3BC403198F500B22F7C4529B5C3FB1AC50F2A7F447149DFCB4004A69B88505A6611FC0883
310
93C710D7AE03D3AB2834889BD8277106451992251FB2C9C9F1E4C53EA666E886C0C6461B42216C47192A7A506F05445D8F3835F8967A8F52D765564428CB4B36C850BC69D79B2CF9AE5A15D981FCAA5211CAC68AB025180684C93AAB56311B4C5D075670231DA8B691405941CD29EC8DC4E3D7DEA429F76EC0AD9FBEEF0619
310
147E3DDA6B46D4590583E5B15518882724E37B375CE9FB680EF57782935DAAAF6ACD66050888A9485E726255F47D09E58DADD1DCF01649717763B26E75FFBEF4A0FB118C610DD42EF5C2A5023AC34C225599DCAA3FF41B8210DCA261C6972AA71E42E5224974D588E835E95367AB8C686D9A11AFB8C72CCFE0C7EE088B6999
310
E03B948887E856D2684514EB564A2F2315C6AF0AF8E566D58107460688F4551578F8A9B3D68E5EAA72692F11795F666B860804C19668A9D18D57B0D46AA4D2727D57670AA8BBC0C0AC8A67BF4E16CD76C4AF93456A0DE3A74E16F3ED1F68DBEC8B34D279ACECFAA063409D9F1495F73806E8B6434DB5CE2226995BF9AD3345
310
1014AB283FB81AAB828621D8C7F17FCEDA7D59D06CD7E1FFB0ACEDBFA8380ECA2AADC9AA4BB5A7725D3673D8D5E46A3EBFF23F8CE65757A7A3D91C2E17278BABD1EC78329D2D4E6627A7930F359ADA51C3A00E663A77C1B3096AD5B07AB218405756E49424709A4F9C1443CC9770A61FD03EE71916903C9BCDEEC436E507AC
310
7E347D4E89D614579CDC2368105301691D302A63D91E777E83D6A48483F6B90B4D23EF012ED62A5D0732CFB90BAD0249622CBC35B49954434F138794AB73BF2506F82096AA946816D5CFF52A854D2BFCD75386A4012B57AB8701855B01DDAF568742F366798A0F12BC62C74112FEAE4B09D59A916537500BA3B7D9A9DFC846
310
097BB05B3F83EBBE2E96EFE9392D44067D3278D5080CD591443CD5FD6EC59865E962F1750C7D3667F9C5296899822E87531A710CC65CAA820AAC08ACC2D22C900453BDFCFDEE2BCFE1134FE6E8AAE8EE32CFB29CD9870B388F25F089C859DDC3079FE40ECA06ACDAEAE2EE68E21FDDE976B6EDB0476B24B0A7EA2118A8CA08
310
2542C7D8C0225FB4A66CE372AC94D099BE5C38367C421BC058D08BEEAEF9BCE580F7A80F29CA57B4875772BEDAD11EEBA9600D1C7AD1E1BF504B03041400060800003157DA40000000000000000000000000350000006662782F43393441354245322D353146372D343732392D393335422D4236314637343642463337412F
310
76657274696365732E62696E504B03041400060808003157DA40F270F1330600000004000000360000006662782F43393441354245322D353146372D343732392D393335422D4236314637343642463337412F747269616E676C65732E62696E636660600000504B03041400060800003157DA400000000000000000000000
310
00370000006662782F43393441354245322D353146372D343732392D393335422D4236314637343642463337412F617474726962757465732E62696E504B03041400060808003157DA40D5987DFC8F00000041010000360000006662782F43393441354245322D353146372D343732392D393335422D423631463734364246
310
3337412F6469726563746F72792E786D6C858F410EC2201045AF4266AF15DDB800BA74E7C21B903225242D6328188F2FA5C4183471359997F9FF81E89FF3C41E1816475E02DF1F80A11FC8386F25A438EECEC07A250251FC3803E6F58C12560C4AD840E95E91C151A72936F496F35732D860FE635F62C8F2DA16B505C545B7
310
4125BAA2FA9E05D7CC053D063734D5C7665FD55B6B8D15D5E9BFEAFD8490FFA45E504B03041400060808003157DA40A66D8DD4FF000000A00100003B0000006662782F43393441354245322D353146372D343732392D393335422D4236314637343642463337412F7265736F75726365732F636F72652E786D6C8D504B6E83
310
3010BD0A9A6D65B09D101A641C256938412F609909B512ECC89FAAC7AF09546A77DDCC8CDE47F3F4C4E16BBA179FE88371B603565228D06A37183B7690E295BC427190C23B177FC9A0B06AC20E6618A418BD4B8F15D2CE46B431A3D60DB8822A048C50E87B3E3A08FA032755AA14B322DCCA87D2373562C9CA4C679D1421FA
310
1CA0589ECC13A4C7E092D71844B5B052A46486556386FCD35C0D7A9017D6D7E7CBFE8DD02DAFC996F31339F2BE219B4B53F75B7A3EF6FC24AAD92C4534D34F46ED51451C4072CA38A13BC277EF8CB675D36EEA17CA5A4A4535CBFF98D263F8A729191B377C8DBBD8024896833C0929AAB9AFBC9E65E63D772BBF01504B0102
310
14000A00000800003157DA403DEE336E79000000790000001B00000000000000000000000000000000006175746F6465736B2D64657369676E2D7061636B6167652E786D6C504B010214001400060808003157DA40D486FD9CA0000000F40000001300000000000000000000000000B20000005B436F6E74656E745F547970
310
65735D2E786D6C504B010214001400060808003157DA40B5C6A34CEB0000007C010000080000000000000000000000000083010000636F72652E786D6C504B010214001400060808003157DA4055019EA25F0000007C000000070000000000000000000000000094020000636E782E786D6C504B0102140014000608080031
310
57DA405B8EB3C667010000020300000C00000000000000000000000000180300006662782F636F72652E786D6C504B010214001400060808003157DA40703F61487D0000009D0000000B00000000000000000000000000A90400006662782F636E782E786D6C504B010214001400060808003157DA405CCB56832B01000015
310
02000031000000000000000000000000004F0500006662782F43393441354245322D353146372D343732392D393335422D4236314637343642463337412F636F72652E786D6C504B010214001400060808003157DA409A731E6A56010000330300003000000000000000000000000000C90600006662782F43393441354245
310
322D353146372D343732392D393335422D4236314637343642463337412F636E782E786D6C504B010214001400060808003157DA40E054967659070000941B000034000000000000000000000000006D0800006662782F43393441354245322D353146372D343732392D393335422D4236314637343642463337412F6F626A
310
656374732E786D6C504B010214001400060800003157DA400000000000000000000000003500000000000000000000000000181000006662782F43393441354245322D353146372D343732392D393335422D4236314637343642463337412F76657274696365732E62696E504B010214001400060808003157DA40F270F133
310
060000000400000036000000000000000000000000006B1000006662782F43393441354245322D353146372D343732392D393335422D4236314637343642463337412F747269616E676C65732E62696E504B010214001400060800003157DA400000000000000000000000003700000000000000000000000000C510000066
310
62782F43393441354245322D353146372D343732392D393335422D4236314637343642463337412F617474726962757465732E62696E504B010214001400060808003157DA40D5987DFC8F0000004101000036000000000000000000000000001A1100006662782F43393441354245322D353146372D343732392D39333542
310
2D4236314637343642463337412F6469726563746F72792E786D6C504B010214001400060808003157DA40A66D8DD4FF000000A00100003B00000000000000000000000000FD1100006662782F43393441354245322D353146372D343732392D393335422D4236314637343642463337412F7265736F75726365732F636F72
310
652E786D6C504B0506000000000E000E0080040000551300000000
  0
XRECORD
  5
17
102
{ACAD_REACTORS
330
12
102
}
330
12
100
AcDbXrecord
280
     1
270
     1
271
     1
  0
XRECORD
  5
16
102
{ACAD_REACTORS
330
12
102
}
330
12
100
AcDbXrecord
280
     1
270
     1
271
     1
  0
XRECORD
  5
18
102
{ACAD_REACTORS
330
12
102
}
330
12
100
AcDbXrecord
280
     1
270
     1
271
     1
  0
XRECORD
  5
15
102
{ACAD_REACTORS
330
12
102
}
330
12
100
AcDbXrecord
280
     1
270
     1
271
     1
  0
XRECORD
  5
DC0
102
{ACAD_REACTORS
330
22
102
}
330
22
100
AcDbXrecord
280
     1
102
MATERIAL
148
0.0
149
0.0
149
0.0
 93
        0
 94
      127
282
     0
 72
     0
 77
     0
171
     0
175
     0
179
     0
273
     0
  0
XRECORD
  5
24
102
{ACAD_REACTORS
330
22
102
}
330
22
100
AcDbXrecord
280
     1
270
     1
271
     1
  0
XRECORD
  5
23
102
{ACAD_REACTORS
330
22
102
}
330
22
100
AcDbXrecord
280
     1
270
     1
271
     1
  0
XRECORD
  5
27
102
{ACAD_REACTORS
330
22
102
}
330
22
100
AcDbXrecord
280
     1
270
     1
271
     1
  0
XRECORD
  5
26
102
{ACAD_REACTORS
330
22
102
}
330
22
100
AcDbXrecord
280
     1
270
     1
271
     1
  0
XRECORD
  5
28
102
{ACAD_REACTORS
330
22
102
}
330
22
100
AcDbXrecord
280
     1
270
     1
271
     1
  0
XRECORD
  5
25
102
{ACAD_REACTORS
330
22
102
}
330
22
100
AcDbXrecord
280
     1
270
     1
271
     1
  0
XRECORD
  5
AD3
102
{ACAD_REACTORS
330
AD2
102
}
330
AD2
100
AcDbXrecord
280
     1
102
ACAD_ROUNDTRIP_2012_MLEADER_STYLE
298
     1
  0
CELLSTYLEMAP
  5
FCE
102
{ACAD_REACTORS
330
DA9
102
}
330
DA9
100
AcDbCellStyleMap
 90
        3
300
CELLSTYLE
  1
TABLEFORMAT_BEGIN
 90
        5
170
     1
 91
        0
 92
    32768
 62
   257
 93
        1
300
CONTENTFORMAT
  1
CONTENTFORMAT_BEGIN
 90
        0
 91
        0
 92
      512
 93
        0
300

 40
0.0
140
1.0
 94
        5
 62
     0
340
55
144
0.25
309
CONTENTFORMAT_END
171
     1
301
MARGIN
  1
CELLMARGIN_BEGIN
 40
0.06
 40
0.06
 40
0.06
 40
0.06
 40
0.18
 40
0.18
309
CELLMARGIN_END
 94
        6
 95
        1
302
GRIDFORMAT
  1
GRIDFORMAT_BEGIN
 90
        0
 91
        1
 62
     0
 92
       -2
340
0
 93
        0
 40
0.045
309
GRIDFORMAT_END
 95
        2
302
GRIDFORMAT
  1
GRIDFORMAT_BEGIN
 90
        0
 91
        1
 62
     0
 92
       -2
340
0
 93
        0
 40
0.045
309
GRIDFORMAT_END
 95
        4
302
GRIDFORMAT
  1
GRIDFORMAT_BEGIN
 90
        0
 91
        1
 62
     0
 92
       -2
340
0
 93
        0
 40
0.045
309
GRIDFORMAT_END
 95
        8
302
GRIDFORMAT
  1
GRIDFORMAT_BEGIN
 90
        0
 91
        1
 62
     0
 92
       -2
340
0
 93
        0
 40
0.045
309
GRIDFORMAT_END
 95
       16
302
GRIDFORMAT
  1
GRIDFORMAT_BEGIN
 90
        0
 91
        1
 62
     0
 92
       -2
340
0
 93
        0
 40
0.045
309
GRIDFORMAT_END
 95
       32
302
GRIDFORMAT
  1
GRIDFORMAT_BEGIN
 90
        0
 91
        1
 62
     0
 92
       -2
340
0
 93
        0
 40
0.045
309
GRIDFORMAT_END
309
TABLEFORMAT_END
  1
CELLSTYLE_BEGIN
 90
        1
 91
        1
300
_TITLE
309
CELLSTYLE_END
300
CELLSTYLE
  1
TABLEFORMAT_BEGIN
 90
        5
170
     1
 91
        0
 92
        0
 62
   257
 93
        1
300
CONTENTFORMAT
  1
CONTENTFORMAT_BEGIN
 90
        0
 91
        0
 92
      512
 93
        0
300

 40
0.0
140
1.0
 94
        5
 62
     0
340
55
144
0.18
309
CONTENTFORMAT_END
171
     1
301
MARGIN
  1
CELLMARGIN_BEGIN
 40
0.06
 40
0.06
 40
0.06
 40
0.06
 40
0.18
 40
0.18
309
CELLMARGIN_END
 94
        6
 95
        1
302
GRIDFORMAT
  1
GRIDFORMAT_BEGIN
 90
        0
 91
        1
 62
     0
 92
       -2
340
0
 93
        0
 40
0.045
309
GRIDFORMAT_END
 95
        2
302
GRIDFORMAT
  1
GRIDFORMAT_BEGIN
 90
        0
 91
        1
 62
     0
 92
       -2
340
0
 93
        0
 40
0.045
309
GRIDFORMAT_END
 95
        4
302
GRIDFORMAT
  1
GRIDFORMAT_BEGIN
 90
        0
 91
        1
 62
     0
 92
       -2
340
0
 93
        0
 40
0.045
309
GRIDFORMAT_END
 95
        8
302
GRIDFORMAT
  1
GRIDFORMAT_BEGIN
 90
        0
 91
        1
 62
     0
 92
       -2
340
0
 93
        0
 40
0.045
309
GRIDFORMAT_END
 95
       16
302
GRIDFORMAT
  1
GRIDFORMAT_BEGIN
 90
        0
 91
        1
 62
     0
 92
       -2
340
0
 93
        0
 40
0.045
309
GRIDFORMAT_END
 95
       32
302
GRIDFORMAT
  1
GRIDFORMAT_BEGIN
 90
        0
 91
        1
 62
     0
 92
       -2
340
0
 93
        0
 40
0.045
309
GRIDFORMAT_END
309
TABLEFORMAT_END
  1
CELLSTYLE_BEGIN
 90
        2
 91
        1
300
_HEADER
309
CELLSTYLE_END
300
CELLSTYLE
  1
TABLEFORMAT_BEGIN
 90
        5
170
     1
 91
        0
 92
        0
 62
   257
 93
        1
300
CONTENTFORMAT
  1
CONTENTFORMAT_BEGIN
 90
        0
 91
        0
 92
      512
 93
        0
300

 40
0.0
140
1.0
 94
        2
 62
     0
340
55
144
0.18
309
CONTENTFORMAT_END
171
     1
301
MARGIN
  1
CELLMARGIN_BEGIN
 40
0.06
 40
0.06
 40
0.06
 40
0.06
 40
0.18
 40
0.18
309
CELLMARGIN_END
 94
        6
 95
        1
302
GRIDFORMAT
  1
GRIDFORMAT_BEGIN
 90
        0
 91
        1
 62
     0
 92
       -2
340
0
 93
        0
 40
0.045
309
GRIDFORMAT_END
 95
        2
302
GRIDFORMAT
  1
GRIDFORMAT_BEGIN
 90
        0
 91
        1
 62
     0
 92
       -2
340
0
 93
        0
 40
0.045
309
GRIDFORMAT_END
 95
        4
302
GRIDFORMAT
  1
GRIDFORMAT_BEGIN
 90
        0
 91
        1
 62
     0
 92
       -2
340
0
 93
        0
 40
0.045
309
GRIDFORMAT_END
 95
        8
302
GRIDFORMAT
  1
GRIDFORMAT_BEGIN
 90
        0
 91
        1
 62
     0
 92
       -2
340
0
 93
        0
 40
0.045
309
GRIDFORMAT_END
 95
       16
302
GRIDFORMAT
  1
GRIDFORMAT_BEGIN
 90
        0
 91
        1
 62
     0
 92
       -2
340
0
 93
        0
 40
0.045
309
GRIDFORMAT_END
 95
       32
302
GRIDFORMAT
  1
GRIDFORMAT_BEGIN
 90
        0
 91
        1
 62
     0
 92
       -2
340
0
 93
        0
 40
0.045
309
GRIDFORMAT_END
309
TABLEFORMAT_END
  1
CELLSTYLE_BEGIN
 90
        3
 91
        2
300
_DATA
309
CELLSTYLE_END
  0
XRECORD
  5
1018
102
{ACAD_REACTORS
330
DA9
102
}
330
DA9
100
AcDbXrecord
280
     1
102
ACAD_ROUNDTRIP_PRE2007_TABLESTYLE
 90
      512
 91
        0
  1

 92
      512
 93
        0
  2

 94
      512
 95
        0
  3

  0
XRECORD
  5
FF3
102
{ACAD_REACTORS
330
FF2
102
}
330
FF2
100
AcDbXrecord
280
     1
102
RTVSPropertyOp0
 70
     1
102
RTVSPropertyOp1
 70
     1
102
RTVSPropertyOp2
 70
     1
102
RTVSPropertyOp3
 70
     1
102
RTVSPropertyOp4
 70
     1
102
RTVSPropertyOp5
 70
     1
102
RTVSPropertyOp6
 70
     1
102
RTVSPropertyOp7
 70
     1
102
RTVSPropertyOp8
 70
     1
102
RTVSPropertyOp9
 70
     1
102
RTVSPropertyOp10
 70
     1
102
RTVSPropertyOp11
 70
     1
102
RTVSPropertyOp12
 70
     1
102
RTVSPropertyOp13
 70
     1
102
RTVSPropertyOp14
 70
     1
102
RTVSPropertyOp15
 70
     1
102
RTVSPropertyOp16
 70
     1
102
RTVSPropertyOp17
 70
     1
102
RTVSPropertyOp18
 70
     1
102
RTVSPropertyOp19
 70
     1
102
RTVSPropertyOp20
 70
     1
102
RTVSPropertyOp21
 70
     1
102
RTVSPropertyOp22
 70
     1
102
RTVSPropertyOp23
 70
     1
102
RTVSPropertyOp24
 70
     1
102
RTVSPropertyOp25
 70
     1
102
RTVSPropertyOp26
 70
     1
102
RTVSPropertyOp27
 70
     1
  0
XRECORD
  5
1050
102
{ACAD_REACTORS
330
104F
102
}
330
104F
100
AcDbXrecord
280
     1
102
RTVSPropertyOp0
 70
     1
102
RTVSPropertyOp1
 70
     1
102
RTVSPropertyOp2
 70
     1
102
RTVSPropertyOp3
 70
     1
102
RTVSPropertyOp4
 70
     1
102
RTVSPropertyOp5
 70
     1
102
RTVSPropertyOp6
 70
     1
102
RTVSPropertyOp7
 70
     1
102
RTVSPropertyOp8
 70
     1
102
RTVSPropertyOp9
 70
     1
102
RTVSPropertyOp10
 70
     1
102
RTVSPropertyOp11
 70
     1
102
RTVSPropertyOp12
 70
     1
102
RTVSPropertyOp13
 70
     1
102
RTVSPropertyOp14
 70
     1
102
RTVSPropertyOp15
 70
     1
102
RTVSPropertyOp16
 70
     1
102
RTVSPropertyOp17
 70
     1
102
RTVSPropertyOp18
 70
     1
102
RTVSPropertyOp19
 70
     1
102
RTVSPropertyOp20
 70
     1
102
RTVSPropertyOp21
 70
     1
102
RTVSPropertyOp22
 70
     1
102
RTVSPropertyOp23
 70
     1
102
RTVSPropertyOp24
 70
     1
102
RTVSPropertyOp25
 70
     1
102
RTVSPropertyOp26
 70
     1
102
RTVSPropertyOp27
 70
     1
  0
XRECORD
  5
104E
102
{ACAD_REACTORS
330
104D
102
}
330
104D
100
AcDbXrecord
280
     1
102
RTVSPropertyOp0
 70
     1
102
RTVSPropertyOp1
 70
     1
102
RTVSPropertyOp2
 70
     1
102
RTVSPropertyOp3
 70
     1
102
RTVSPropertyOp4
 70
     1
102
RTVSPropertyOp5
 70
     1
102
RTVSPropertyOp6
 70
     1
102
RTVSPropertyOp7
 70
     1
102
RTVSPropertyOp8
 70
     1
102
RTVSPropertyOp9
 70
     1
102
RTVSPropertyOp10
 70
     1
102
RTVSPropertyOp11
 70
     1
102
RTVSPropertyOp12
 70
     1
102
RTVSPropertyOp13
 70
     1
102
RTVSPropertyOp14
 70
     1
102
RTVSPropertyOp15
 70
     1
102
RTVSPropertyOp16
 70
     1
102
RTVSPropertyOp17
 70
     1
102
RTVSPropertyOp18
 70
     1
102
RTVSPropertyOp19
 70
     1
102
RTVSPropertyOp20
 70
     1
102
RTVSPropertyOp21
 70
     1
102
RTVSPropertyOp22
 70
     1
102
RTVSPropertyOp23
 70
     1
102
RTVSPropertyOp24
 70
     1
102
RTVSPropertyOp25
 70
     1
102
RTVSPropertyOp26
 70
     1
102
RTVSPropertyOp27
 70
     1
  0
XRECORD
  5
FF1
102
{ACAD_REACTORS
330
FF0
102
}
330
FF0
100
AcDbXrecord
280
     1
102
RTVSPropertyOp0
 70
     1
102
RTVSPropertyOp1
 70
     1
102
RTVSPropertyOp2
 70
     1
102
RTVSPropertyOp3
 70
     1
102
RTVSPropertyOp4
 70
     1
102
RTVSPropertyOp5
 70
     1
102
RTVSPropertyOp6
 70
     1
102
RTVSPropertyOp7
 70
     1
102
RTVSPropertyOp8
 70
     1
102
RTVSPropertyOp9
 70
     1
102
RTVSPropertyOp10
 70
     1
102
RTVSPropertyOp11
 70
     1
102
RTVSPropertyOp12
 70
     1
102
RTVSPropertyOp13
 70
     1
102
RTVSPropertyOp14
 70
     1
102
RTVSPropertyOp15
 70
     1
102
RTVSPropertyOp16
 70
     1
102
RTVSPropertyOp17
 70
     1
102
RTVSPropertyOp18
 70
     1
102
RTVSPropertyOp19
 70
     1
102
RTVSPropertyOp20
 70
     1
102
RTVSPropertyOp21
 70
     1
102
RTVSPropertyOp22
 70
     1
102
RTVSPropertyOp23
 70
     1
102
RTVSPropertyOp24
 70
     1
102
RTVSPropertyOp25
 70
     1
102
RTVSPropertyOp26
 70
     1
102
RTVSPropertyOp27
 70
     1
  0
XRECORD
  5
FFF
102
{ACAD_REACTORS
330
FFE
102
}
330
FFE
100
AcDbXrecord
280
     1
102
RTVSPropertyOp0
 70
     1
102
RTVSPropertyOp1
 70
     1
102
RTVSPropertyOp2
 70
     1
102
RTVSPropertyOp3
 70
     1
102
RTVSPropertyOp4
 70
     1
102
RTVSPropertyOp5
 70
     1
102
RTVSPropertyOp6
 70
     1
102
RTVSPropertyOp7
 70
     1
102
RTVSPropertyOp8
 70
     1
102
RTVSPropertyOp9
 70
     1
102
RTVSPropertyOp10
 70
     1
102
RTVSPropertyOp11
 70
     1
102
RTVSPropertyOp12
 70
     1
102
RTVSPropertyOp13
 70
     1
102
RTVSPropertyOp14
 70
     1
102
RTVSPropertyOp15
 70
     1
102
RTVSPropertyOp16
 70
     1
102
RTVSPropertyOp17
 70
     1
102
RTVSPropertyOp18
 70
     1
102
RTVSPropertyOp19
 70
     1
102
RTVSPropertyOp20
 70
     1
102
RTVSPropertyOp21
 70
     1
102
RTVSPropertyOp22
 70
     1
102
RTVSPropertyOp23
 70
     1
102
RTVSPropertyOp24
 70
     1
102
RTVSPropertyOp25
 70
     1
102
RTVSPropertyOp26
 70
     1
102
RTVSPropertyOp27
 70
     1
  0
XRECORD
  5
1007
102
{ACAD_REACTORS
330
1006
102
}
330
1006
100
AcDbXrecord
280
     1
102
RTVSPropertyOp0
 70
     1
102
RTVSPropertyOp1
 70
     1
102
RTVSPropertyOp2
 70
     1
102
RTVSPropertyOp3
 70
     1
102
RTVSPropertyOp4
 70
     1
102
RTVSPropertyOp5
 70
     1
102
RTVSPropertyOp6
 70
     1
102
RTVSPropertyOp7
 70
     1
102
RTVSPropertyOp8
 70
     1
102
RTVSPropertyOp9
 70
     1
102
RTVSPropertyOp10
 70
     1
102
RTVSPropertyOp11
 70
     1
102
RTVSPropertyOp12
 70
     1
102
RTVSPropertyOp13
 70
     1
102
RTVSPropertyOp14
 70
     1
102
RTVSPropertyOp15
 70
     1
102
RTVSPropertyOp16
 70
     1
102
RTVSPropertyOp17
 70
     1
102
RTVSPropertyOp18
 70
     1
102
RTVSPropertyOp19
 70
     1
102
RTVSPropertyOp20
 70
     1
102
RTVSPropertyOp21
 70
     1
102
RTVSPropertyOp22
 70
     1
102
RTVSPropertyOp23
 70
     1
102
RTVSPropertyOp24
 70
     1
102
RTVSPropertyOp25
 70
     1
102
RTVSPropertyOp26
 70
     1
102
RTVSPropertyOp27
 70
     1
  0
XRECORD
  5
FF9
102
{ACAD_REACTORS
330
FF8
102
}
330
FF8
100
AcDbXrecord
280
     1
102
RTVSPropertyOp0
 70
     1
102
RTVSPropertyOp1
 70
     1
102
RTVSPropertyOp2
 70
     1
102
RTVSPropertyOp3
 70
     1
102
RTVSPropertyOp4
 70
     1
102
RTVSPropertyOp5
 70
     1
102
RTVSPropertyOp6
 70
     1
102
RTVSPropertyOp7
 70
     1
102
RTVSPropertyOp8
 70
     1
102
RTVSPropertyOp9
 70
     1
102
RTVSPropertyOp10
 70
     1
102
RTVSPropertyOp11
 70
     1
102
RTVSPropertyOp12
 70
     1
102
RTVSPropertyOp13
 70
     1
102
RTVSPropertyOp14
 70
     1
102
RTVSPropertyOp15
 70
     1
102
RTVSPropertyOp16
 70
     1
102
RTVSPropertyOp17
 70
     1
102
RTVSPropertyOp18
 70
     1
102
RTVSPropertyOp19
 70
     1
102
RTVSPropertyOp20
 70
     1
102
RTVSPropertyOp21
 70
     1
102
RTVSPropertyOp22
 70
     1
102
RTVSPropertyOp23
 70
     1
102
RTVSPropertyOp24
 70
     1
102
RTVSPropertyOp25
 70
     1
102
RTVSPropertyOp26
 70
     1
102
RTVSPropertyOp27
 70
     1
  0
XRECORD
  5
FFD
102
{ACAD_REACTORS
330
FFC
102
}
330
FFC
100
AcDbXrecord
280
     1
102
RTVSPropertyOp0
 70
     1
102
RTVSPropertyOp1
 70
     1
102
RTVSPropertyOp2
 70
     1
102
RTVSPropertyOp3
 70
     1
102
RTVSPropertyOp4
 70
     1
102
RTVSPropertyOp5
 70
     1
102
RTVSPropertyOp6
 70
     1
102
RTVSPropertyOp7
 70
     1
102
RTVSPropertyOp8
 70
     1
102
RTVSPropertyOp9
 70
     1
102
RTVSPropertyOp10
 70
     1
102
RTVSPropertyOp11
 70
     1
102
RTVSPropertyOp12
 70
     1
102
RTVSPropertyOp13
 70
     1
102
RTVSPropertyOp14
 70
     1
102
RTVSPropertyOp15
 70
     1
102
RTVSPropertyOp16
 70
     1
102
RTVSPropertyOp17
 70
     1
102
RTVSPropertyOp18
 70
     1
102
RTVSPropertyOp19
 70
     1
102
RTVSPropertyOp20
 70
     1
102
RTVSPropertyOp21
 70
     1
102
RTVSPropertyOp22
 70
     1
102
RTVSPropertyOp23
 70
     1
102
RTVSPropertyOp24
 70
     1
102
RTVSPropertyOp25
 70
     1
102
RTVSPropertyOp26
 70
     1
102
RTVSPropertyOp27
 70
     1
  0
XRECORD
  5
1017
102
{ACAD_REACTORS
330
1016
102
}
330
1016
100
AcDbXrecord
280
     1
102
RTVSPropertyOp0
 70
     0
102
RTVSPropertyOp1
 70
     0
102
RTVSPropertyOp2
 70
     0
102
RTVSPropertyOp3
 70
     0
102
RTVSPropertyOp4
 70
     0
102
RTVSPropertyOp5
 70
     0
102
RTVSPropertyOp6
 70
     0
102
RTVSPropertyOp7
 70
     0
102
RTVSPropertyOp8
 70
     0
102
RTVSPropertyOp9
 70
     0
102
RTVSPropertyOp10
 70
     0
102
RTVSPropertyOp11
 70
     0
102
RTVSPropertyOp12
 70
     0
102
RTVSPropertyOp13
 70
     0
102
RTVSPropertyOp14
 70
     2
102
RTVSPropertyOp15
 70
     0
102
RTVSPropertyOp16
 70
     0
102
RTVSPropertyOp17
 70
     0
102
RTVSPropertyOp18
 70
     0
102
RTVSPropertyOp19
 70
     0
102
RTVSPropertyOp20
 70
     0
102
RTVSPropertyOp21
 70
     0
102
RTVSPropertyOp22
 70
     0
102
RTVSPropertyOp23
 70
     0
102
RTVSPropertyOp24
 70
     0
102
RTVSPropertyOp25
 70
     0
102
RTVSPropertyOp26
 70
     0
102
RTVSPropertyOp27
 70
     0
  0
XRECORD
  5
1005
102
{ACAD_REACTORS
330
1004
102
}
330
1004
100
AcDbXrecord
280
     1
102
RTVSPropertyOp0
 70
     1
102
RTVSPropertyOp1
 70
     1
102
RTVSPropertyOp2
 70
     1
102
RTVSPropertyOp3
 70
     1
102
RTVSPropertyOp4
 70
     1
102
RTVSPropertyOp5
 70
     1
102
RTVSPropertyOp6
 70
     1
102
RTVSPropertyOp7
 70
     1
102
RTVSPropertyOp8
 70
     1
102
RTVSPropertyOp9
 70
     1
102
RTVSPropertyOp10
 70
     1
102
RTVSPropertyOp11
 70
     1
102
RTVSPropertyOp12
 70
     1
102
RTVSPropertyOp13
 70
     1
102
RTVSPropertyOp14
 70
     1
102
RTVSPropertyOp15
 70
     1
102
RTVSPropertyOp16
 70
     1
102
RTVSPropertyOp17
 70
     1
102
RTVSPropertyOp18
 70
     1
102
RTVSPropertyOp19
 70
     1
102
RTVSPropertyOp20
 70
     1
102
RTVSPropertyOp21
 70
     1
102
RTVSPropertyOp22
 70
     1
102
RTVSPropertyOp23
 70
     1
102
RTVSPropertyOp24
 70
     1
102
RTVSPropertyOp25
 70
     1
102
RTVSPropertyOp26
 70
     1
102
RTVSPropertyOp27
 70
     1
  0
XRECORD
  5
FE9
102
{ACAD_REACTORS
330
FE8
102
}
330
FE8
100
AcDbXrecord
280
     1
102
RTVSPropertyOp0
 70
     1
102
RTVSPropertyOp1
 70
     1
102
RTVSPropertyOp2
 70
     1
102
RTVSPropertyOp3
 70
     1
102
RTVSPropertyOp4
 70
     1
102
RTVSPropertyOp5
 70
     1
102
RTVSPropertyOp6
 70
     1
102
RTVSPropertyOp7
 70
     1
102
RTVSPropertyOp8
 70
     1
102
RTVSPropertyOp9
 70
     1
102
RTVSPropertyOp10
 70
     1
102
RTVSPropertyOp11
 70
     1
102
RTVSPropertyOp12
 70
     1
102
RTVSPropertyOp13
 70
     1
102
RTVSPropertyOp14
 70
     1
102
RTVSPropertyOp15
 70
     1
102
RTVSPropertyOp16
 70
     1
102
RTVSPropertyOp17
 70
     1
102
RTVSPropertyOp18
 70
     1
102
RTVSPropertyOp19
 70
     1
102
RTVSPropertyOp20
 70
     1
102
RTVSPropertyOp21
 70
     1
102
RTVSPropertyOp22
 70
     1
102
RTVSPropertyOp23
 70
     1
102
RTVSPropertyOp24
 70
     1
102
RTVSPropertyOp25
 70
     1
102
RTVSPropertyOp26
 70
     1
102
RTVSPropertyOp27
 70
     1
  0
XRECORD
  5
FEB
102
{ACAD_REACTORS
330
FEA
102
}
330
FEA
100
AcDbXrecord
280
     1
102
RTVSPropertyOp0
 70
     1
102
RTVSPropertyOp1
 70
     1
102
RTVSPropertyOp2
 70
     1
102
RTVSPropertyOp3
 70
     1
102
RTVSPropertyOp4
 70
     1
102
RTVSPropertyOp5
 70
     1
102
RTVSPropertyOp6
 70
     1
102
RTVSPropertyOp7
 70
     1
102
RTVSPropertyOp8
 70
     1
102
RTVSPropertyOp9
 70
     1
102
RTVSPropertyOp10
 70
     1
102
RTVSPropertyOp11
 70
     1
102
RTVSPropertyOp12
 70
     1
102
RTVSPropertyOp13
 70
     1
102
RTVSPropertyOp14
 70
     1
102
RTVSPropertyOp15
 70
     1
102
RTVSPropertyOp16
 70
     1
102
RTVSPropertyOp17
 70
     1
102
RTVSPropertyOp18
 70
     1
102
RTVSPropertyOp19
 70
     1
102
RTVSPropertyOp20
 70
     1
102
RTVSPropertyOp21
 70
     1
102
RTVSPropertyOp22
 70
     1
102
RTVSPropertyOp23
 70
     1
102
RTVSPropertyOp24
 70
     1
102
RTVSPropertyOp25
 70
     1
102
RTVSPropertyOp26
 70
     1
102
RTVSPropertyOp27
 70
     1
  0
XRECORD
  5
FED
102
{ACAD_REACTORS
330
FEC
102
}
330
FEC
100
AcDbXrecord
280
     1
102
RTVSPropertyOp0
 70
     1
102
RTVSPropertyOp1
 70
     1
102
RTVSPropertyOp2
 70
     1
102
RTVSPropertyOp3
 70
     1
102
RTVSPropertyOp4
 70
     1
102
RTVSPropertyOp5
 70
     1
102
RTVSPropertyOp6
 70
     1
102
RTVSPropertyOp7
 70
     1
102
RTVSPropertyOp8
 70
     1
102
RTVSPropertyOp9
 70
     1
102
RTVSPropertyOp10
 70
     1
102
RTVSPropertyOp11
 70
     1
102
RTVSPropertyOp12
 70
     1
102
RTVSPropertyOp13
 70
     1
102
RTVSPropertyOp14
 70
     1
102
RTVSPropertyOp15
 70
     1
102
RTVSPropertyOp16
 70
     1
102
RTVSPropertyOp17
 70
     1
102
RTVSPropertyOp18
 70
     1
102
RTVSPropertyOp19
 70
     1
102
RTVSPropertyOp20
 70
     1
102
RTVSPropertyOp21
 70
     1
102
RTVSPropertyOp22
 70
     1
102
RTVSPropertyOp23
 70
     1
102
RTVSPropertyOp24
 70
     1
102
RTVSPropertyOp25
 70
     1
102
RTVSPropertyOp26
 70
     1
102
RTVSPropertyOp27
 70
     1
  0
XRECORD
  5
FEF
102
{ACAD_REACTORS
330
FEE
102
}
330
FEE
100
AcDbXrecord
280
     1
102
RTVSPropertyOp0
 70
     1
102
RTVSPropertyOp1
 70
     1
102
RTVSPropertyOp2
 70
     1
102
RTVSPropertyOp3
 70
     1
102
RTVSPropertyOp4
 70
     1
102
RTVSPropertyOp5
 70
     1
102
RTVSPropertyOp6
 70
     1
102
RTVSPropertyOp7
 70
     1
102
RTVSPropertyOp8
 70
     1
102
RTVSPropertyOp9
 70
     1
102
RTVSPropertyOp10
 70
     1
102
RTVSPropertyOp11
 70
     1
102
RTVSPropertyOp12
 70
     1
102
RTVSPropertyOp13
 70
     1
102
RTVSPropertyOp14
 70
     1
102
RTVSPropertyOp15
 70
     1
102
RTVSPropertyOp16
 70
     1
102
RTVSPropertyOp17
 70
     1
102
RTVSPropertyOp18
 70
     1
102
RTVSPropertyOp19
 70
     1
102
RTVSPropertyOp20
 70
     1
102
RTVSPropertyOp21
 70
     1
102
RTVSPropertyOp22
 70
     1
102
RTVSPropertyOp23
 70
     1
102
RTVSPropertyOp24
 70
     1
102
RTVSPropertyOp25
 70
     1
102
RTVSPropertyOp26
 70
     1
102
RTVSPropertyOp27
 70
     1
  0
XRECORD
  5
FF7
102
{ACAD_REACTORS
330
FF6
102
}
330
FF6
100
AcDbXrecord
280
     1
102
RTVSPropertyOp0
 70
     1
102
RTVSPropertyOp1
 70
     1
102
RTVSPropertyOp2
 70
     1
102
RTVSPropertyOp3
 70
     1
102
RTVSPropertyOp4
 70
     1
102
RTVSPropertyOp5
 70
     1
102
RTVSPropertyOp6
 70
     1
102
RTVSPropertyOp7
 70
     1
102
RTVSPropertyOp8
 70
     1
102
RTVSPropertyOp9
 70
     1
102
RTVSPropertyOp10
 70
     1
102
RTVSPropertyOp11
 70
     1
102
RTVSPropertyOp12
 70
     1
102
RTVSPropertyOp13
 70
     1
102
RTVSPropertyOp14
 70
     1
102
RTVSPropertyOp15
 70
     1
102
RTVSPropertyOp16
 70
     1
102
RTVSPropertyOp17
 70
     1
102
RTVSPropertyOp18
 70
     1
102
RTVSPropertyOp19
 70
     1
102
RTVSPropertyOp20
 70
     1
102
RTVSPropertyOp21
 70
     1
102
RTVSPropertyOp22
 70
     1
102
RTVSPropertyOp23
 70
     1
102
RTVSPropertyOp24
 70
     1
102
RTVSPropertyOp25
 70
     1
102
RTVSPropertyOp26
 70
     1
102
RTVSPropertyOp27
 70
     1
  0
XRECORD
  5
1013
102
{ACAD_REACTORS
330
1012
102
}
330
1012
100
AcDbXrecord
280
     1
102
RTVSPropertyOp0
 70
     0
102
RTVSPropertyOp1
 70
     0
102
RTVSPropertyOp2
 70
     0
102
RTVSPropertyOp3
 70
     0
102
RTVSPropertyOp4
 70
     0
102
RTVSPropertyOp5
 70
     0
102
RTVSPropertyOp6
 70
     0
102
RTVSPropertyOp7
 70
     0
102
RTVSPropertyOp8
 70
     0
102
RTVSPropertyOp9
 70
     0
102
RTVSPropertyOp10
 70
     0
102
RTVSPropertyOp11
 70
     0
102
RTVSPropertyOp12
 70
     0
102
RTVSPropertyOp13
 70
     0
102
RTVSPropertyOp14
 70
     2
102
RTVSPropertyOp15
 70
     0
102
RTVSPropertyOp16
 70
     0
102
RTVSPropertyOp17
 70
     0
102
RTVSPropertyOp18
 70
     0
102
RTVSPropertyOp19
 70
     0
102
RTVSPropertyOp20
 70
     0
102
RTVSPropertyOp21
 70
     0
102
RTVSPropertyOp22
 70
     0
102
RTVSPropertyOp23
 70
     0
102
RTVSPropertyOp24
 70
     0
102
RTVSPropertyOp25
 70
     0
102
RTVSPropertyOp26
 70
     0
102
RTVSPropertyOp27
 70
     0
  0
XRECORD
  5
1003
102
{ACAD_REACTORS
330
1002
102
}
330
1002
100
AcDbXrecord
280
     1
102
RTVSPropertyOp0
 70
     1
102
RTVSPropertyOp1
 70
     1
102
RTVSPropertyOp2
 70
     1
102
RTVSPropertyOp3
 70
     1
102
RTVSPropertyOp4
 70
     1
102
RTVSPropertyOp5
 70
     1
102
RTVSPropertyOp6
 70
     1
102
RTVSPropertyOp7
 70
     1
102
RTVSPropertyOp8
 70
     1
102
RTVSPropertyOp9
 70
     1
102
RTVSPropertyOp10
 70
     1
102
RTVSPropertyOp11
 70
     1
102
RTVSPropertyOp12
 70
     1
102
RTVSPropertyOp13
 70
     1
102
RTVSPropertyOp14
 70
     1
102
RTVSPropertyOp15
 70
     1
102
RTVSPropertyOp16
 70
     1
102
RTVSPropertyOp17
 70
     1
102
RTVSPropertyOp18
 70
     1
102
RTVSPropertyOp19
 70
     1
102
RTVSPropertyOp20
 70
     1
102
RTVSPropertyOp21
 70
     1
102
RTVSPropertyOp22
 70
     1
102
RTVSPropertyOp23
 70
     1
102
RTVSPropertyOp24
 70
     1
102
RTVSPropertyOp25
 70
     1
102
RTVSPropertyOp26
 70
     1
102
RTVSPropertyOp27
 70
     1
  0
XRECORD
  5
1015
102
{ACAD_REACTORS
330
1014
102
}
330
1014
100
AcDbXrecord
280
     1
102
RTVSPropertyOp0
 70
     0
102
RTVSPropertyOp1
 70
     0
102
RTVSPropertyOp2
 70
     0
102
RTVSPropertyOp3
 70
     0
102
RTVSPropertyOp4
 70
     0
102
RTVSPropertyOp5
 70
     0
102
RTVSPropertyOp6
 70
     0
102
RTVSPropertyOp7
 70
     0
102
RTVSPropertyOp8
 70
     0
102
RTVSPropertyOp9
 70
     0
102
RTVSPropertyOp10
 70
     0
102
RTVSPropertyOp11
 70
     0
102
RTVSPropertyOp12
 70
     0
102
RTVSPropertyOp13
 70
     0
102
RTVSPropertyOp14
 70
     2
102
RTVSPropertyOp15
 70
     0
102
RTVSPropertyOp16
 70
     0
102
RTVSPropertyOp17
 70
     0
102
RTVSPropertyOp18
 70
     0
102
RTVSPropertyOp19
 70
     0
102
RTVSPropertyOp20
 70
     0
102
RTVSPropertyOp21
 70
     0
102
RTVSPropertyOp22
 70
     0
102
RTVSPropertyOp23
 70
     0
102
RTVSPropertyOp24
 70
     0
102
RTVSPropertyOp25
 70
     0
102
RTVSPropertyOp26
 70
     0
102
RTVSPropertyOp27
 70
     0
  0
XRECORD
  5
FFB
102
{ACAD_REACTORS
330
FFA
102
}
330
FFA
100
AcDbXrecord
280
     1
102
RTVSPropertyOp0
 70
     1
102
RTVSPropertyOp1
 70
     1
102
RTVSPropertyOp2
 70
     1
102
RTVSPropertyOp3
 70
     1
102
RTVSPropertyOp4
 70
     1
102
RTVSPropertyOp5
 70
     1
102
RTVSPropertyOp6
 70
     1
102
RTVSPropertyOp7
 70
     1
102
RTVSPropertyOp8
 70
     1
102
RTVSPropertyOp9
 70
     1
102
RTVSPropertyOp10
 70
     1
102
RTVSPropertyOp11
 70
     1
102
RTVSPropertyOp12
 70
     1
102
RTVSPropertyOp13
 70
     1
102
RTVSPropertyOp14
 70
     1
102
RTVSPropertyOp15
 70
     1
102
RTVSPropertyOp16
 70
     1
102
RTVSPropertyOp17
 70
     1
102
RTVSPropertyOp18
 70
     1
102
RTVSPropertyOp19
 70
     1
102
RTVSPropertyOp20
 70
     1
102
RTVSPropertyOp21
 70
     1
102
RTVSPropertyOp22
 70
     1
102
RTVSPropertyOp23
 70
     1
102
RTVSPropertyOp24
 70
     1
102
RTVSPropertyOp25
 70
     1
102
RTVSPropertyOp26
 70
     1
102
RTVSPropertyOp27
 70
     1
  0
XRECORD
  5
1011
102
{ACAD_REACTORS
330
1010
102
}
330
1010
100
AcDbXrecord
280
     1
102
RTVSPropertyOp0
 70
     1
102
RTVSPropertyOp1
 70
     1
102
RTVSPropertyOp2
 70
     1
102
RTVSPropertyOp3
 70
     1
102
RTVSPropertyOp4
 70
     1
102
RTVSPropertyOp5
 70
     1
102
RTVSPropertyOp6
 70
     1
102
RTVSPropertyOp7
 70
     1
102
RTVSPropertyOp8
 70
     1
102
RTVSPropertyOp9
 70
     1
102
RTVSPropertyOp10
 70
     1
102
RTVSPropertyOp11
 70
     1
102
RTVSPropertyOp12
 70
     1
102
RTVSPropertyOp13
 70
     1
102
RTVSPropertyOp14
 70
     1
102
RTVSPropertyOp15
 70
     1
102
RTVSPropertyOp16
 70
     1
102
RTVSPropertyOp17
 70
     1
102
RTVSPropertyOp18
 70
     1
102
RTVSPropertyOp19
 70
     1
102
RTVSPropertyOp20
 70
     1
102
RTVSPropertyOp21
 70
     1
102
RTVSPropertyOp22
 70
     1
102
RTVSPropertyOp23
 70
     1
102
RTVSPropertyOp24
 70
     1
102
RTVSPropertyOp25
 70
     1
102
RTVSPropertyOp26
 70
     1
102
RTVSPropertyOp27
 70
     1
  0
XRECORD
  5
100F
102
{ACAD_REACTORS
330
100E
102
}
330
100E
100
AcDbXrecord
280
     1
102
RTVSPropertyOp0
 70
     1
102
RTVSPropertyOp1
 70
     1
102
RTVSPropertyOp2
 70
     1
102
RTVSPropertyOp3
 70
     1
102
RTVSPropertyOp4
 70
     1
102
RTVSPropertyOp5
 70
     1
102
RTVSPropertyOp6
 70
     1
102
RTVSPropertyOp7
 70
     1
102
RTVSPropertyOp8
 70
     1
102
RTVSPropertyOp9
 70
     1
102
RTVSPropertyOp10
 70
     1
102
RTVSPropertyOp11
 70
     1
102
RTVSPropertyOp12
 70
     1
102
RTVSPropertyOp13
 70
     1
102
RTVSPropertyOp14
 70
     1
102
RTVSPropertyOp15
 70
     1
102
RTVSPropertyOp16
 70
     1
102
RTVSPropertyOp17
 70
     1
102
RTVSPropertyOp18
 70
     1
102
RTVSPropertyOp19
 70
     1
102
RTVSPropertyOp20
 70
     1
102
RTVSPropertyOp21
 70
     1
102
RTVSPropertyOp22
 70
     1
102
RTVSPropertyOp23
 70
     1
102
RTVSPropertyOp24
 70
     1
102
RTVSPropertyOp25
 70
     1
102
RTVSPropertyOp26
 70
     1
102
RTVSPropertyOp27
 70
     1
  0
XRECORD
  5
1009
102
{ACAD_REACTORS
330
1008
102
}
330
1008
100
AcDbXrecord
280
     1
102
RTVSPropertyOp0
 70
     1
102
RTVSPropertyOp1
 70
     1
102
RTVSPropertyOp2
 70
     1
102
RTVSPropertyOp3
 70
     1
102
RTVSPropertyOp4
 70
     1
102
RTVSPropertyOp5
 70
     1
102
RTVSPropertyOp6
 70
     1
102
RTVSPropertyOp7
 70
     1
102
RTVSPropertyOp8
 70
     1
102
RTVSPropertyOp9
 70
     1
102
RTVSPropertyOp10
 70
     1
102
RTVSPropertyOp11
 70
     1
102
RTVSPropertyOp12
 70
     1
102
RTVSPropertyOp13
 70
     1
102
RTVSPropertyOp14
 70
     1
102
RTVSPropertyOp15
 70
     1
102
RTVSPropertyOp16
 70
     1
102
RTVSPropertyOp17
 70
     1
102
RTVSPropertyOp18
 70
     1
102
RTVSPropertyOp19
 70
     1
102
RTVSPropertyOp20
 70
     1
102
RTVSPropertyOp21
 70
     1
102
RTVSPropertyOp22
 70
     1
102
RTVSPropertyOp23
 70
     1
102
RTVSPropertyOp24
 70
     1
102
RTVSPropertyOp25
 70
     1
102
RTVSPropertyOp26
 70
     1
102
RTVSPropertyOp27
 70
     1
  0
XRECORD
  5
100B
102
{ACAD_REACTORS
330
100A
102
}
330
100A
100
AcDbXrecord
280
     1
102
RTVSPropertyOp0
 70
     1
102
RTVSPropertyOp1
 70
     1
102
RTVSPropertyOp2
 70
     1
102
RTVSPropertyOp3
 70
     1
102
RTVSPropertyOp4
 70
     1
102
RTVSPropertyOp5
 70
     1
102
RTVSPropertyOp6
 70
     1
102
RTVSPropertyOp7
 70
     1
102
RTVSPropertyOp8
 70
     1
102
RTVSPropertyOp9
 70
     1
102
RTVSPropertyOp10
 70
     1
102
RTVSPropertyOp11
 70
     1
102
RTVSPropertyOp12
 70
     1
102
RTVSPropertyOp13
 70
     1
102
RTVSPropertyOp14
 70
     1
102
RTVSPropertyOp15
 70
     1
102
RTVSPropertyOp16
 70
     1
102
RTVSPropertyOp17
 70
     1
102
RTVSPropertyOp18
 70
     1
102
RTVSPropertyOp19
 70
     1
102
RTVSPropertyOp20
 70
     1
102
RTVSPropertyOp21
 70
     1
102
RTVSPropertyOp22
 70
     1
102
RTVSPropertyOp23
 70
     1
102
RTVSPropertyOp24
 70
     1
102
RTVSPropertyOp25
 70
     1
102
RTVSPropertyOp26
 70
     1
102
RTVSPropertyOp27
 70
     1
  0
XRECORD
  5
1001
102
{ACAD_REACTORS
330
1000
102
}
330
1000
100
AcDbXrecord
280
     1
102
RTVSPropertyOp0
 70
     1
102
RTVSPropertyOp1
 70
     1
102
RTVSPropertyOp2
 70
     1
102
RTVSPropertyOp3
 70
     1
102
RTVSPropertyOp4
 70
     1
102
RTVSPropertyOp5
 70
     1
102
RTVSPropertyOp6
 70
     1
102
RTVSPropertyOp7
 70
     1
102
RTVSPropertyOp8
 70
     1
102
RTVSPropertyOp9
 70
     1
102
RTVSPropertyOp10
 70
     1
102
RTVSPropertyOp11
 70
     1
102
RTVSPropertyOp12
 70
     1
102
RTVSPropertyOp13
 70
     1
102
RTVSPropertyOp14
 70
     1
102
RTVSPropertyOp15
 70
     1
102
RTVSPropertyOp16
 70
     1
102
RTVSPropertyOp17
 70
     1
102
RTVSPropertyOp18
 70
     1
102
RTVSPropertyOp19
 70
     1
102
RTVSPropertyOp20
 70
     1
102
RTVSPropertyOp21
 70
     1
102
RTVSPropertyOp22
 70
     1
102
RTVSPropertyOp23
 70
     1
102
RTVSPropertyOp24
 70
     1
102
RTVSPropertyOp25
 70
     1
102
RTVSPropertyOp26
 70
     1
102
RTVSPropertyOp27
 70
     1
  0
XRECORD
  5
FF5
102
{ACAD_REACTORS
330
FF4
102
}
330
FF4
100
AcDbXrecord
280
     1
102
RTVSPropertyOp0
 70
     1
102
RTVSPropertyOp1
 70
     1
102
RTVSPropertyOp2
 70
     1
102
RTVSPropertyOp3
 70
     1
102
RTVSPropertyOp4
 70
     1
102
RTVSPropertyOp5
 70
     1
102
RTVSPropertyOp6
 70
     1
102
RTVSPropertyOp7
 70
     1
102
RTVSPropertyOp8
 70
     1
102
RTVSPropertyOp9
 70
     1
102
RTVSPropertyOp10
 70
     1
102
RTVSPropertyOp11
 70
     1
102
RTVSPropertyOp12
 70
     1
102
RTVSPropertyOp13
 70
     1
102
RTVSPropertyOp14
 70
     1
102
RTVSPropertyOp15
 70
     1
102
RTVSPropertyOp16
 70
     1
102
RTVSPropertyOp17
 70
     1
102
RTVSPropertyOp18
 70
     1
102
RTVSPropertyOp19
 70
     1
102
RTVSPropertyOp20
 70
     1
102
RTVSPropertyOp21
 70
     1
102
RTVSPropertyOp22
 70
     1
102
RTVSPropertyOp23
 70
     1
102
RTVSPropertyOp24
 70
     1
102
RTVSPropertyOp25
 70
     1
102
RTVSPropertyOp26
 70
     1
102
RTVSPropertyOp27
 70
     1
  0
XRECORD
  5
100D
102
{ACAD_REACTORS
330
100C
102
}
330
100C
100
AcDbXrecord
280
     1
102
RTVSPropertyOp0
 70
     1
102
RTVSPropertyOp1
 70
     1
102
RTVSPropertyOp2
 70
     1
102
RTVSPropertyOp3
 70
     1
102
RTVSPropertyOp4
 70
     1
102
RTVSPropertyOp5
 70
     1
102
RTVSPropertyOp6
 70
     1
102
RTVSPropertyOp7
 70
     1
102
RTVSPropertyOp8
 70
     1
102
RTVSPropertyOp9
 70
     1
102
RTVSPropertyOp10
 70
     1
102
RTVSPropertyOp11
 70
     1
102
RTVSPropertyOp12
 70
     1
102
RTVSPropertyOp13
 70
     1
102
RTVSPropertyOp14
 70
     1
102
RTVSPropertyOp15
 70
     1
102
RTVSPropertyOp16
 70
     1
102
RTVSPropertyOp17
 70
     1
102
RTVSPropertyOp18
 70
     1
102
RTVSPropertyOp19
 70
     1
102
RTVSPropertyOp20
 70
     1
102
RTVSPropertyOp21
 70
     1
102
RTVSPropertyOp22
 70
     1
102
RTVSPropertyOp23
 70
     1
102
RTVSPropertyOp24
 70
     1
102
RTVSPropertyOp25
 70
     1
102
RTVSPropertyOp26
 70
     1
102
RTVSPropertyOp27
 70
     1
  0
ENDSEC
  0
EOF
