  0
SECTION
  2
HEADER
  9
$ACADVER
  1
AC1018
  9
$ACADMAINTVER
 70
   104
  9
$DWGCODEPAGE
  3
ANSI_1250
  9
$AUTHOR
  1
onovak
  9
$LASTSAVEDBY
  1
tkotlas
  9
$REVISIONNUMBER
  1
000
  9
$CUSTOMPROPERTYTAG
  1
Vedoucí
  9
$CUSTOMPROPERTY
  1

  9
$CUSTOMPROPERTYTAG
  1
Společnost
  9
$CUSTOMPROPERTY
  1

  9
$CUSTOMPROPERTYTAG
  1
Kategorie
  9
$CUSTOMPROPERTY
  1

  9
$CUSTOMPROPERTYTAG
  1
Číslo součásti
  9
$CUSTOMPROPERTY
  1
408022
  9
$CUSTOMPROPERTYTAG
  1
Popis
  9
$CUSTOMPROPERTY
  1

  9
$CUSTOMPROPERTYTAG
  1
Projekt
  9
$CUSTOMPROPERTY
  1

  9
$CUSTOMPROPERTYTAG
  1
Kreslil
  9
$CUSTOMPROPERTY
  1
onovak
  9
$CUSTOMPROPERTYTAG
  1
Schválil
  9
$CUSTOMPROPERTY
  1

  9
$CUSTOMPROPERTYTAG
  1
Zodpovídá
  9
$CUSTOMPROPERTY
  1

  9
$CUSTOMPROPERTYTAG
  1
Nákladové středisko
  9
$CUSTOMPROPERTY
  1

  9
$CUSTOMPROPERTYTAG
  1
Dodavatel
  9
$CUSTOMPROPERTY
  1

  9
$CUSTOMPROPERTYTAG
  1
Uživatelský stav
  9
$CUSTOMPROPERTY
  1

  9
$CUSTOMPROPERTYTAG
  1
Stav návrhu
  9
$CUSTOMPROPERTY
  1
Rozpracováno
  9
$CUSTOMPROPERTYTAG
  1
Zkontroloval
  9
$CUSTOMPROPERTY
  1

  9
$CUSTOMPROPERTYTAG
  1
Techn. kontr. schválil
  9
$CUSTOMPROPERTY
  1

  9
$CUSTOMPROPERTYTAG
  1
Výrobu schválil
  9
$CUSTOMPROPERTY
  1

  9
$CUSTOMPROPERTYTAG
  1
VS_First
  9
$CUSTOMPROPERTY
  1

  9
$CUSTOMPROPERTYTAG
  1
VS_All
  9
$CUSTOMPROPERTY
  1
1:1,
  9
$CUSTOMPROPERTYTAG
  1
Model_Mass_Value
  9
$CUSTOMPROPERTY
  1
,0
  9
$CUSTOMPROPERTYTAG
  1
Model_Mass_Units
  9
$CUSTOMPROPERTY
  1
kg
  9
$CUSTOMPROPERTYTAG
  1
Model_Area_Value
  9
$CUSTOMPROPERTY
  1
2694,0
  9
$CUSTOMPROPERTYTAG
  1
Model_Area_Units
  9
$CUSTOMPROPERTY
  1
mm˛
  9
$CUSTOMPROPERTYTAG
  1
Model_Volume_Value
  9
$CUSTOMPROPERTY
  1
5471,0
  9
$CUSTOMPROPERTYTAG
  1
Model_Volume_Units
  9
$CUSTOMPROPERTY
  1
mmł
  9
$CUSTOMPROPERTYTAG
  1
Model_CogX_Value
  9
$CUSTOMPROPERTY
  1
,0
  9
$CUSTOMPROPERTYTAG
  1
Model_CogY_Value
  9
$CUSTOMPROPERTY
  1
,0
  9
$CUSTOMPROPERTYTAG
  1
Model_CogZ_Value
  9
$CUSTOMPROPERTY
  1
,0
  9
$CUSTOMPROPERTYTAG
  1
Model_Cog_Units
  9
$CUSTOMPROPERTY
  1
mm
  9
$CUSTOMPROPERTYTAG
  1
Model_Ixx_Value
  9
$CUSTOMPROPERTY
  1
,0
  9
$CUSTOMPROPERTYTAG
  1
Model_Iyy_Value
  9
$CUSTOMPROPERTY
  1
,0
  9
$CUSTOMPROPERTYTAG
  1
Model_Izz_Value
  9
$CUSTOMPROPERTY
  1
,0
  9
$CUSTOMPROPERTYTAG
  1
Model_Ixy_Value
  9
$CUSTOMPROPERTY
  1
,0
  9
$CUSTOMPROPERTYTAG
  1
Model_Iyz_Value
  9
$CUSTOMPROPERTY
  1
,0
  9
$CUSTOMPROPERTYTAG
  1
Model_Ixz_Value
  9
$CUSTOMPROPERTY
  1
,0
  9
$CUSTOMPROPERTYTAG
  1
Model_MassMom_Units
  9
$CUSTOMPROPERTY
  1
kg mm˛
  9
$CUSTOMPROPERTYTAG
  1
FirstViewScale
  9
$CUSTOMPROPERTY
  1

  9
$CUSTOMPROPERTYTAG
  1
AllViewScales
  9
$CUSTOMPROPERTY
  1

  9
$CUSTOMPROPERTYTAG
  1
SaveDate
  9
$CUSTOMPROPERTY
  1
09/12/2007
  9
$CUSTOMPROPERTYTAG
  1
SaveTime
  9
$CUSTOMPROPERTY
  1
10:32
  9
$CUSTOMPROPERTYTAG
  1
PaperSize
  9
$CUSTOMPROPERTY
  1
A3
  9
$CUSTOMPROPERTYTAG
  1
DateSaved
  9
$CUSTOMPROPERTY
  1
12.09.2007
  9
$CUSTOMPROPERTYTAG
  1
TimeSaved
  9
$CUSTOMPROPERTY
  1
10:32 dop.
  9
$INSBASE
 10
0.0
 20
0.0
 30
0.0
  9
$EXTMIN
 10
0.0
 20
0.0
 30
0.0
  9
$EXTMAX
 10
736.0144178547161
 20
445.5000114440918
 30
0.0
  9
$LIMMIN
 10
0.0
 20
0.0
  9
$LIMMAX
 10
630.0
 20
445.5
  9
$ORTHOMODE
 70
     0
  9
$REGENMODE
 70
     1
  9
$FILLMODE
 70
     1
  9
$QTEXTMODE
 70
     0
  9
$MIRRTEXT
 70
     0
  9
$LTSCALE
 40
1.5
  9
$ATTMODE
 70
     1
  9
$TEXTSIZE
 40
0.2
  9
$TRACEWID
 40
0.05
  9
$TEXTSTYLE
  7
Standard
  9
$CLAYER
  8
0
  9
$CELTYPE
  6
ByLayer
  9
$CECOLOR
 62
   256
  9
$CELTSCALE
 40
1.0
  9
$DISPSILH
 70
     0
  9
$DIMSCALE
 40
1.0
  9
$DIMASZ
 40
3.5
  9
$DIMEXO
 40
1.0
  9
$DIMDLI
 40
10.0
  9
$DIMRND
 40
0.0
  9
$DIMDLE
 40
0.0
  9
$DIMEXE
 40
1.0
  9
$DIMTP
 40
0.1
  9
$DIMTM
 40
0.1
  9
$DIMTXT
 40
3.5
  9
$DIMCEN
 40
0.0
  9
$DIMTSZ
 40
0.0
  9
$DIMTOL
 70
     0
  9
$DIMLIM
 70
     0
  9
$DIMTIH
 70
     0
  9
$DIMTOH
 70
     0
  9
$DIMSE1
 70
     0
  9
$DIMSE2
 70
     0
  9
$DIMTAD
 70
     1
  9
$DIMZIN
 70
     8
  9
$DIMBLK
  1

  9
$DIMASO
 70
     1
  9
$DIMSHO
 70
     1
  9
$DIMPOST
  1

  9
$DIMAPOST
  1
"
  9
$DIMALT
 70
     0
  9
$DIMALTD
 70
     2
  9
$DIMALTF
 40
0.0393701
  9
$DIMLFAC
 40
1.0
  9
$DIMTOFL
 70
     1
  9
$DIMTVP
 40
0.0
  9
$DIMTIX
 70
     0
  9
$DIMSOXD
 70
     0
  9
$DIMSAH
 70
     0
  9
$DIMBLK1
  1

  9
$DIMBLK2
  1

  9
$DIMSTYLE
  2
AM_ISO
  9
$DIMCLRD
 70
   256
  9
$DIMCLRE
 70
   256
  9
$DIMCLRT
 70
   140
  9
$DIMTFAC
 40
0.71
  9
$DIMGAP
 40
1.5
  9
$DIMJUST
 70
     0
  9
$DIMSD1
 70
     0
  9
$DIMSD2
 70
     0
  9
$DIMTOLJ
 70
     0
  9
$DIMTZIN
 70
     8
  9
$DIMALTZ
 70
     0
  9
$DIMALTTZ
 70
     0
  9
$DIMUPT
 70
     0
  9
$DIMDEC
 70
     2
  9
$DIMTDEC
 70
     3
  9
$DIMALTU
 70
     2
  9
$DIMALTTD
 70
     4
  9
$DIMTXSTY
  7
Standard
  9
$DIMAUNIT
 70
     0
  9
$DIMADEC
 70
     0
  9
$DIMALTRND
 40
0.0
  9
$DIMAZIN
 70
     2
  9
$DIMDSEP
 70
    46
  9
$DIMATFIT
 70
     3
  9
$DIMFRAC
 70
     0
  9
$DIMLDRBLK
  1

  9
$DIMLUNIT
 70
     2
  9
$DIMLWD
 70
    -1
  9
$DIMLWE
 70
    -1
  9
$DIMTMOVE
 70
     0
  9
$LUNITS
 70
     2
  9
$LUPREC
 70
     4
  9
$SKETCHINC
 40
0.1
  9
$FILLETRAD
 40
0.0
  9
$AUNITS
 70
     0
  9
$AUPREC
 70
     0
  9
$MENU
  1
.
  9
$ELEVATION
 40
0.0
  9
$PELEVATION
 40
0.0
  9
$THICKNESS
 40
0.0
  9
$LIMCHECK
 70
     0
  9
$CHAMFERA
 40
0.0
  9
$CHAMFERB
 40
0.0
  9
$CHAMFERC
 40
0.0
  9
$CHAMFERD
 40
0.0
  9
$SKPOLY
 70
     0
  9
$TDCREATE
 40
2455756.433267048
  9
$TDUCREATE
 40
2455756.349933715
  9
$TDUPDATE
 40
2455758.520285313
  9
$TDUUPDATE
 40
2455758.436951979
  9
$TDINDWG
 40
0.0061427431
  9
$TDUSRTIMER
 40
0.0061427431
  9
$USRTIMER
 70
     1
  9
$ANGBASE
 50
0.0
  9
$ANGDIR
 70
     0
  9
$PDMODE
 70
     0
  9
$PDSIZE
 40
0.0
  9
$PLINEWID
 40
0.0
  9
$SPLFRAME
 70
     0
  9
$SPLINETYPE
 70
     6
  9
$SPLINESEGS
 70
     8
  9
$HANDSEED
  5
1364
  9
$SURFTAB1
 70
     6
  9
$SURFTAB2
 70
     6
  9
$SURFTYPE
 70
     6
  9
$SURFU
 70
     6
  9
$SURFV
 70
     6
  9
$UCSBASE
  2

  9
$UCSNAME
  2

  9
$UCSORG
 10
0.0
 20
0.0
 30
0.0
  9
$UCSXDIR
 10
1.0
 20
0.0
 30
0.0
  9
$UCSYDIR
 10
0.0
 20
1.0
 30
0.0
  9
$UCSORTHOREF
  2

  9
$UCSORTHOVIEW
 70
     0
  9
$UCSORGTOP
 10
0.0
 20
0.0
 30
0.0
  9
$UCSORGBOTTOM
 10
0.0
 20
0.0
 30
0.0
  9
$UCSORGLEFT
 10
0.0
 20
0.0
 30
0.0
  9
$UCSORGRIGHT
 10
0.0
 20
0.0
 30
0.0
  9
$UCSORGFRONT
 10
0.0
 20
0.0
 30
0.0
  9
$UCSORGBACK
 10
0.0
 20
0.0
 30
0.0
  9
$PUCSBASE
  2

  9
$PUCSNAME
  2

  9
$PUCSORG
 10
0.0
 20
0.0
 30
0.0
  9
$PUCSXDIR
 10
1.0
 20
0.0
 30
0.0
  9
$PUCSYDIR
 10
0.0
 20
1.0
 30
0.0
  9
$PUCSORTHOREF
  2

  9
$PUCSORTHOVIEW
 70
     0
  9
$PUCSORGTOP
 10
0.0
 20
0.0
 30
0.0
  9
$PUCSORGBOTTOM
 10
0.0
 20
0.0
 30
0.0
  9
$PUCSORGLEFT
 10
0.0
 20
0.0
 30
0.0
  9
$PUCSORGRIGHT
 10
0.0
 20
0.0
 30
0.0
  9
$PUCSORGFRONT
 10
0.0
 20
0.0
 30
0.0
  9
$PUCSORGBACK
 10
0.0
 20
0.0
 30
0.0
  9
$USERI1
 70
     0
  9
$USERI2
 70
     0
  9
$USERI3
 70
     0
  9
$USERI4
 70
     0
  9
$USERI5
 70
     0
  9
$USERR1
 40
0.0
  9
$USERR2
 40
0.0
  9
$USERR3
 40
0.0
  9
$USERR4
 40
0.0
  9
$USERR5
 40
0.0
  9
$WORLDVIEW
 70
     1
  9
$SHADEDGE
 70
     3
  9
$SHADEDIF
 70
    70
  9
$TILEMODE
 70
     1
  9
$MAXACTVP
 70
    64
  9
$PINSBASE
 10
0.0
 20
0.0
 30
0.0
  9
$PLIMCHECK
 70
     0
  9
$PEXTMIN
 10
0.0
 20
0.0
 30
0.0
  9
$PEXTMAX
 10
630.0
 20
445.5
 30
0.0
  9
$PLIMMIN
 10
0.0
 20
0.0
  9
$PLIMMAX
 10
630.0
 20
445.5
  9
$UNITMODE
 70
     0
  9
$VISRETAIN
 70
     1
  9
$PLINEGEN
 70
     0
  9
$PSLTSCALE
 70
     1
  9
$TREEDEPTH
 70
  3020
  9
$CMLSTYLE
  2
Standard
  9
$CMLJUST
 70
     0
  9
$CMLSCALE
 40
1.0
  9
$PROXYGRAPHICS
 70
     1
  9
$MEASUREMENT
 70
     1
  9
$CELWEIGHT
370
    -1
  9
$ENDCAPS
280
     0
  9
$JOINSTYLE
280
     0
  9
$LWDISPLAY
290
     0
  9
$INSUNITS
 70
     4
  9
$HYPERLINKBASE
  1

  9
$STYLESHEET
  1

  9
$XEDIT
290
     1
  9
$CEPSNTYPE
380
     0
  9
$PSTYLEMODE
290
     1
  9
$FINGERPRINTGUID
  2
{5CCA7EB3-224F-4E24-BB28-49D98A412186}
  9
$VERSIONGUID
  2
{A75B6EA0-5CD5-4311-A4A6-0D6682EB25B3}
  9
$EXTNAMES
290
     1
  9
$PSVPSCALE
 40
0.0
  9
$OLESTARTUP
290
     0
  9
$SORTENTS
280
   127
  9
$INDEXCTL
280
     0
  9
$HIDETEXT
280
     1
  9
$XCLIPFRAME
290
     0
  9
$HALOGAP
280
     0
  9
$OBSCOLOR
 70
   257
  9
$OBSLTYPE
280
     0
  9
$INTERSECTIONDISPLAY
280
     0
  9
$INTERSECTIONCOLOR
 70
   257
  9
$DIMASSOC
280
     1
  9
$PROJECTNAME
  1

  0
ENDSEC
  0
SECTION
  2
CLASSES
  0
CLASS
  1
ACDBDICTIONARYWDFLT
  2
AcDbDictionaryWithDefault
  3
ObjectDBX Classes
 90
        0
 91
        1
280
     0
281
     0
  0
CLASS
  1
MATERIAL
  2
AcDbMaterial
  3
ObjectDBX Classes
 90
     1153
 91
        3
280
     0
281
     0
  0
CLASS
  1
VISUALSTYLE
  2
AcDbVisualStyle
  3
ObjectDBX Classes
 90
     4095
 91
       19
280
     0
281
     0
  0
CLASS
  1
SCALE
  2
AcDbScale
  3
ObjectDBX Classes
 90
     1153
 91
       33
280
     0
281
     0
  0
CLASS
  1
TABLESTYLE
  2
AcDbTableStyle
  3
ObjectDBX Classes
 90
     4095
 91
        1
280
     0
281
     0
  0
CLASS
  1
MLEADERSTYLE
  2
AcDbMLeaderStyle
  3
ACDB_MLEADERSTYLE_CLASS
 90
     4095
 91
        1
280
     0
281
     0
  0
CLASS
  1
CELLSTYLEMAP
  2
AcDbCellStyleMap
  3
ObjectDBX Classes
 90
     1152
 91
        2
280
     0
281
     0
  0
CLASS
  1
DICTIONARYVAR
  2
AcDbDictionaryVar
  3
ObjectDBX Classes
 90
        0
 91
        8
280
     0
281
     0
  0
CLASS
  1
ACME_DOCUMENT
  2
AcMeDbDoc
  3
AcMeServices
 90
     1024
 91
        2
280
     0
281
     0
  0
CLASS
  1
AMGSETTINGSOBJ
  2
AmgSettingsObj
  3
"AcadM|Product Description: AutoCAD Mechanical|Company: Autodesk, Inc."
 90
     1024
 91
        2
280
     0
281
     0
  0
CLASS
  1
ACMESCOPE
  2
AcMeScope
  3
AcMeServices
 90
     1024
 91
        1
280
     0
281
     0
  0
CLASS
  1
ACMECOMMANDHISTORY
  2
AcMeCommandHistory
  3
AcMeServices
 90
     1024
 91
        1
280
     0
281
     0
  0
CLASS
  1
ACIMSYSVARMAN
  2
AcImSysVarManager
  3
AcMeServices
 90
     1024
 91
        6
280
     0
281
     0
  0
CLASS
  1
ACIMINTSYSVAR
  2
AcImIntSysVar
  3
AcMeServices
 90
     1024
 91
       27
280
     0
281
     0
  0
CLASS
  1
ACMEDRAWINGMAN
  2
AcMeDrawingMan
  3
AcMeServices
 90
     1024
 91
        1
280
     0
281
     0
  0
CLASS
  1
ACMEVIEW
  2
AcMeView
  3
AcMeServices
 90
     1024
 91
        1
280
     0
281
     0
  0
CLASS
  1
ACDBENTITYCACHE
  2
AcMeEntityCache
  3
AcMeServices
 90
     1024
 91
        1
280
     0
281
     0
  0
CLASS
  1
GSMANAGER
  2
AcMeGSManager
  3
AcMeServices
 90
     1024
 91
        1
280
     0
281
     0
  0
CLASS
  1
AMDTINTERNALREACTOR
  2
AmdtInternalReactor
  3
AcMeServices
 90
     1024
 91
        2
280
     0
281
     0
  0
CLASS
  1
ACMESTATEMGR
  2
AcMeStateMgr
  3
AcMeServices
 90
     1024
 91
        1
280
     0
281
     0
  0
CLASS
  1
ACGREFMASTER
  2
AcGrefMaster
  3
AcAttribServices
 90
     1024
 91
        1
280
     0
281
     0
  0
CLASS
  1
AM_DRAWING_MGR
  2
AcDmDwgMgr
  3
AcMechDwgViewMgmt
 90
     1024
 91
        1
280
     0
281
     0
  0
CLASS
  1
AM_DWG_DOCUMENT
  2
AcDmDwgDocument
  3
AcMechDwgViewMgmt
 90
     1024
 91
        1
280
     0
281
     0
  0
CLASS
  1
AM_DWG_SHEET
  2
AcDmSheet
  3
AcMechDwgViewMgmt
 90
     1024
 91
        2
280
     0
281
     0
  0
CLASS
  1
AM_VIEWDIMPARMAP
  2
AcDmViewDimParMap
  3
AcMechDwgViewMgmt
 90
     1024
 91
        2
280
     0
281
     0
  0
CLASS
  1
ACIMREALSYSVAR
  2
AcImRealSysVar
  3
AcMeServices
 90
     1024
 91
        1
280
     0
281
     0
  0
CLASS
  1
AM_DWGMGR_NAME
  2
AcDmDwgMgrName
  3
AcMechDwgViewMgmt
 90
     1024
 91
        1
280
     0
281
     0
  0
CLASS
  1
ACME_DATABASE
  2
AcMeDbDatabase
  3
AcMeServices
 90
     1024
 91
        3
280
     0
281
     0
  0
CLASS
  1
ACRFINSADJUSTERMGR
  2
AcRfInsAdjusterMgr
  3
AcMeServices
 90
     1024
 91
        1
280
     0
281
     0
  0
CLASS
  1
ACGREFACADMASTER
  2
AcGrefacadMaster
  3
AcGrefServices
 90
     1024
 91
        1
280
     0
281
     0
  0
CLASS
  1
AMDTMENUSTATEMGR
  2
AmdtMenuStateMgr
  3
McadcomServices
 90
     1024
 91
        1
280
     0
281
     0
  0
CLASS
  1
AMDTMCOMMENUSTATE
  2
AmdtMcomMenuState
  3
McadcomServices
 90
     1024
 91
        1
280
     0
281
     0
  0
CLASS
  1
AMIMASTER
  2
AmiMaster
  3
AmiServices
 90
     1024
 91
        1
280
     0
281
     0
  0
CLASS
  1
MAPIAMMOUDLE
  2
MApiAmModule
  3
MApiAmServices
 90
     1024
 91
        1
280
     0
281
     0
  0
CLASS
  1
ACIMSTRSYSVAR
  2
AcImStrSysVar
  3
AcMeServices
 90
     1024
 91
        6
280
     0
281
     0
  0
CLASS
  1
AMDTADMENUSTATE
  2
AmdtAdMenuState
  3
DesignerServices
 90
     1024
 91
        1
280
     0
281
     0
  0
CLASS
  1
ADAPPL
  2
AcAdAppl
  3
DesignerServices
 90
     1024
 91
        1
280
     0
281
     0
  0
CLASS
  1
DEPMGR
  2
AcAdDepMgr
  3
DesignerServices
 90
     1024
 91
        1
280
     0
281
     0
  0
CLASS
  1
PARAMMGR
  2
AcAdParamMgr
  3
DesignerServices
 90
     1024
 91
        1
280
     0
281
     0
  0
CLASS
  1
PARAMSCOPE
  2
AcAdParamScope
  3
DesignerServices
 90
     1024
 91
        1
280
     0
281
     0
  0
CLASS
  1
NAMEDAPPL
  2
AcAdNamedAppl
  3
DesignerServices
 90
     1024
 91
        1
280
     0
281
     0
  0
CLASS
  1
AMDTDMMENUSTATE
  2
AmdtDmMenuState
  3
AcMechDwgViewMgmt
 90
     1024
 91
        1
280
     0
281
     0
  0
CLASS
  1
AMDTAMMENUSTATE
  2
AmdtAmMenuState
  3
DesignerAssemblies
 90
     1024
 91
        1
280
     0
281
     0
  0
CLASS
  1
ACAMPROJECT
  2
AcAmProject
  3
DesignerAssemblies
 90
     1024
 91
        1
280
     0
281
     0
  0
CLASS
  1
ACAMGRCOMPDEF
  2
AcAmGrCompDef
  3
DesignerAssemblies
 90
     1024
 91
        1
280
     0
281
     0
  0
CLASS
  1
ACCMCONTEXT
  2
AcCmContext
  3
DesignerAssemblies
 90
     1024
 91
        1
280
     0
281
     0
  0
CLASS
  1
ACAMCOMPDEF
  2
AcAmCompDef
  3
DesignerAssemblies
 90
     1024
 91
        1
280
     0
281
     0
  0
CLASS
  1
ACAMCOMPDEFMGR
  2
AcAmCompDefMgr
  3
DesignerAssemblies
 90
     1024
 91
        1
280
     0
281
     0
  0
CLASS
  1
AMCONTEXTMGR
  2
AcAmContextMgr
  3
DesignerAssemblies
 90
     1024
 91
        1
280
     0
281
     0
  0
CLASS
  1
ACAMCONTEXTMODELER
  2
AcAmContextModeler
  3
DesignerAssemblies
 90
     1024
 91
        1
280
     0
281
     0
  0
CLASS
  1
ACMDATADICTIONARY
  2
AcmDataDictionary
  3
"AcmSymBB|Product Description: AutoCAD Mechanical|Company: Autodesk, Inc."
 90
     1024
 91
        1
280
     0
281
     0
  0
CLASS
  1
CATALOGSTATE
  2
AcAmCatalogState
  3
DesignerAssemblies
 90
     1024
 91
        1
280
     0
281
     0
  0
CLASS
  1
ACAMGRCOMPDEFSET
  2
AcAmGrCompDefSet
  3
DesignerAssemblies
 90
     1024
 91
        1
280
     0
281
     0
  0
CLASS
  1
AMDTBROWSERDBTAB
  2
AmdtBrowserDbTab
  3
McadcomServices
 90
     1024
 91
        1
280
     0
281
     0
  0
CLASS
  1
CBROWSERAPPOBJECT
  2
CBrowserAppObject
  3
McadcomServices
 90
     1024
 91
        3
280
     0
281
     0
  0
CLASS
  1
DM_PLACEHOLDER
  2
AcDmSelsetPlaceholder
  3
AcMechDwgViewMgmt
 90
     1024
 91
        1
280
     0
281
     0
  0
CLASS
  1
ACMSTANDARDISO
  2
AcmStandardISO
  3
"Amdt_StdImp|Product Description: AutoCAD Mechanical|Company: Autodesk, Inc."
 90
     1024
 91
        1
280
     0
281
     0
  0
CLASS
  1
AMDTEDGESTANDARDISO13715
  2
AmdtEdgeStdISO13715
  3
"Amdt_StdImp|Product Description: AutoCAD Mechanical|Company: Autodesk, Inc."
 90
     1024
 91
        1
280
     0
281
     0
  0
CLASS
  1
ACMSURFSTANDARDISO2002
  2
AcmSurfTextStdISO2002
  3
"Amdt_StdImp|Product Description: AutoCAD Mechanical|Company: Autodesk, Inc."
 90
     1024
 91
        1
280
     0
281
     0
  0
CLASS
  1
ACMFCFSTANDARDISO
  2
AcmFCFStdISO
  3
"Amdt_StdImp|Product Description: AutoCAD Mechanical|Company: Autodesk, Inc."
 90
     1024
 91
        1
280
     0
281
     0
  0
CLASS
  1
ACMWELDSTANDARDISO
  2
AcmWeldingStdISO
  3
"Amdt_StdImp|Product Description: AutoCAD Mechanical|Company: Autodesk, Inc."
 90
     1024
 91
        1
280
     0
281
     0
  0
CLASS
  1
ACMIDSTANDARDISO
  2
AcmIdStdISO
  3
"Amdt_StdImp|Product Description: AutoCAD Mechanical|Company: Autodesk, Inc."
 90
     1024
 91
        1
280
     0
281
     0
  0
CLASS
  1
ACMDATUMSTANDARDISO
  2
AcmDatumStdISO
  3
"Amdt_StdImp|Product Description: AutoCAD Mechanical|Company: Autodesk, Inc."
 90
     1024
 91
        1
280
     0
281
     0
  0
CLASS
  1
ACMBOMSTANDARDISO
  2
AcmBOMStdISO
  3
"Amdt_StdImp|Product Description: AutoCAD Mechanical|Company: Autodesk, Inc."
 90
     1024
 91
        1
280
     0
281
     0
  0
CLASS
  1
ACMDETAILSTANDARDISO
  2
AmdtDetailSymStdISO
  3
"Amdt_StdImp|Product Description: AutoCAD Mechanical|Company: Autodesk, Inc."
 90
     1024
 91
        1
280
     0
281
     0
  0
CLASS
  1
ACMSECTIONSTANDARDISO2001
  2
AmdtSectionSymStdISO2001
  3
"Amdt_StdImp|Product Description: AutoCAD Mechanical|Company: Autodesk, Inc."
 90
     1024
 91
        1
280
     0
281
     0
  0
CLASS
  1
ACMCENTERLINESTANDARDISO
  2
AmdtCenterLineStdISO
  3
"Amdt_StdImp|Product Description: AutoCAD Mechanical|Company: Autodesk, Inc."
 90
     1024
 91
        1
280
     0
281
     0
  0
CLASS
  1
ACMTHREADLINESTANDARDISO
  2
AmdtThreadLineStdISO
  3
"Amdt_StdImp|Product Description: AutoCAD Mechanical|Company: Autodesk, Inc."
 90
     1024
 91
        1
280
     0
281
     0
  0
CLASS
  1
ACMNOTESTANDARDISO
  2
AmdtNoteStdISO
  3
"Amdt_StdImp|Product Description: AutoCAD Mechanical|Company: Autodesk, Inc."
 90
     1024
 91
        1
280
     0
281
     0
  0
CLASS
  1
ACMTAPERSTANDARDISO
  2
AcmTaperStdISO
  3
"Amdt_StdImp|Product Description: AutoCAD Mechanical|Company: Autodesk, Inc."
 90
     1024
 91
        1
280
     0
281
     0
  0
CLASS
  1
ACMANOOTATIONVIEWSTANDARDISO
  2
AmdtAnViewStdISO
  3
"Amdt_StdImp|Product Description: AutoCAD Mechanical|Company: Autodesk, Inc."
 90
     1024
 91
        1
280
     0
281
     0
  0
CLASS
  1
ACAMGLAYSTD
  2
AcAmgLayStd
  3
"AmgLay|Product Description: AutoCAD Mechanical|Company: Autodesk, Inc."
 90
     1024
 91
        1
280
     0
281
     0
  0
CLASS
  1
ACAMGDIMSTD
  2
AcAmgDimStd
  3
"AmgDim|Product Description: AutoCAD Mechanical|Company: Autodesk, Inc."
 90
     1024
 91
        1
280
     0
281
     0
  0
CLASS
  1
AMGOBJPROPCFG
  2
AmgObjPropCfg
  3
"AmgLay|Product Description: AutoCAD Mechanical|Company: Autodesk, Inc."
 90
     1025
 91
        1
280
     0
281
     0
  0
CLASS
  1
ACAMGHOLECHARTSTDISO
  2
AcAmgHoleChartStdISO
  3
AmgDim|Product Description: AutoCAD Mechanical|Company: Autodesk, Inc.
 90
     1024
 91
        1
280
     0
281
     0
  0
CLASS
  1
ACAMGTITLESTD
  2
AcAmgTitleStd
  3
"AmgTitle|Product Description: AutoCAD Mechanical|Company: Autodesk, Inc."
 90
     4095
 91
        1
280
     0
281
     0
  0
CLASS
  1
AMDTNOTETEMPLATEDB
  2
AmdtNoteTemplateDB
  3
AcmSymBB|Product Description: AutoCAD Mechanical|Company: Autodesk, Inc.
 90
     1024
 91
        6
280
     0
281
     0
  0
CLASS
  1
ACAMGFILTERDAT
  2
AcAmgFilterDat
  3
"AcadM|Product Description: AutoCAD Mechanical|Company: Autodesk, Inc."
 90
     1024
 91
        6
280
     0
281
     0
  0
CLASS
  1
AEC_REFEDIT_STATUS_TRACKER
  2
AecDbRefEditStatusTracker
  3
AecArchBase50|Product Desc: Autodesk Architectural Desktop 2007 |Company: Autodesk,Inc. |WEB Address: www.autodesk.com
 90
      129
 91
        1
280
     0
281
     0
  0
CLASS
  1
NPOCOLLECTION
  2
AcDbImpNonPersistentObjectsCollection
  3
ObjectDBX Classes
 90
     1153
 91
        1
280
     0
281
     0
  0
ENDSEC
  0
SECTION
  2
TABLES
  0
TABLE
  2
VPORT
  5
8
330
0
100
AcDbSymbolTable
 70
     1
  0
VPORT
  5
62
330
8
100
AcDbSymbolTableRecord
100
AcDbViewportTableRecord
  2
*Active
 70
     0
 10
0.0
 20
0.0
 11
1.0
 21
1.0
 12
152.7306631651986
 22
304.4800448839373
 13
0.0
 23
0.0
 14
1.0
 24
1.0
 15
0.0
 25
0.0
 16
0.0
 26
0.0
 36
1.0
 17
0.0
 27
0.0
 37
0.0
 40
305.1133155245362
 41
1.351097178683385
 42
50.0
 43
0.0
 44
0.0
 50
0.0
 51
0.0
 71
     0
 72
   100
 73
     1
 74
     1
 75
     0
 76
     0
 77
     0
 78
     0
281
     0
 65
     1
110
0.0
120
0.0
130
0.0
111
1.0
121
0.0
131
0.0
112
0.0
122
1.0
132
0.0
 79
     0
146
0.0
  0
ENDTAB
  0
TABLE
  2
LTYPE
  5
5
330
0
100
AcDbSymbolTable
 70
    14
  0
LTYPE
  5
66
330
5
100
AcDbSymbolTableRecord
100
AcDbLinetypeTableRecord
  2
ByBlock
 70
     0
  3

 72
    65
 73
     0
 40
0.0
  0
LTYPE
  5
67
330
5
100
AcDbSymbolTableRecord
100
AcDbLinetypeTableRecord
  2
ByLayer
 70
     0
  3

 72
    65
 73
     0
 40
0.0
  0
LTYPE
  5
68
330
5
100
AcDbSymbolTableRecord
100
AcDbLinetypeTableRecord
  2
Continuous
 70
     0
  3
Solid line
 72
    65
 73
     0
 40
0.0
  0
LTYPE
  5
11F5
330
5
100
AcDbSymbolTableRecord
100
AcDbLinetypeTableRecord
  2
HIDDEN
 70
     0
  3
Skrytá __ __ __ __ __ __ __ __ __ __ __ __ __ __
 72
    65
 73
     2
 40
9.525
 49
6.349999999999999
 74
     0
 49
-3.174999999999999
 74
     0
  0
LTYPE
  5
11F6
330
5
100
AcDbSymbolTableRecord
100
AcDbLinetypeTableRecord
  2
PHANTOM2
 70
     0
  3
Sdružená (.5x) ___ _ _ ___ _ _ ___ _ _ ___ _ _
 72
    65
 73
     6
 40
31.75
 49
15.875
 74
     0
 49
-3.174999999999999
 74
     0
 49
3.174999999999999
 74
     0
 49
-3.174999999999999
 74
     0
 49
3.174999999999999
 74
     0
 49
-3.174999999999999
 74
     0
  0
LTYPE
  5
11F7
330
5
100
AcDbSymbolTableRecord
100
AcDbLinetypeTableRecord
  2
CENTER
 70
     0
  3
Středová ____ _ ____ _ ____ _ ____ _ ____ _ ____
 72
    65
 73
     4
 40
50.8
 49
31.75
 74
     0
 49
-6.349999999999999
 74
     0
 49
6.349999999999999
 74
     0
 49
-6.349999999999999
 74
     0
  0
LTYPE
  5
123D
330
5
100
AcDbSymbolTableRecord
100
AcDbLinetypeTableRecord
  2
AM_ISO02W050
 70
     0
  3
__ __ __ __ __ __ __ __ __ __ __ __ __ __ __
 72
    65
 73
     2
 40
7.5
 49
6.0
 74
     0
 49
-1.5
 74
     0
  0
LTYPE
  5
123E
330
5
100
AcDbSymbolTableRecord
100
AcDbLinetypeTableRecord
  2
AM_ISO08W050
 70
     0
  3
____ . ____ . ____ . ____ . ____ . ____ . ____
 72
    65
 73
     4
 40
18.0
 49
12.0
 74
     0
 49
-1.5
 74
     0
 49
3.0
 74
     0
 49
-1.5
 74
     0
  0
LTYPE
  5
123F
330
5
100
AcDbSymbolTableRecord
100
AcDbLinetypeTableRecord
  2
AM_ISO09W050
 70
     0
  3
_____ . . _____ . . _____ . . ____ .. ____
 72
    65
 73
     6
 40
22.5
 49
12.0
 74
     0
 49
-1.5
 74
     0
 49
3.0
 74
     0
 49
-1.5
 74
     0
 49
3.0
 74
     0
 49
-1.5
 74
     0
  0
LTYPE
  5
1240
330
5
100
AcDbSymbolTableRecord
100
AcDbLinetypeTableRecord
  2
Amconstr
 70
     0
  3
_______________________
 72
    65
 73
     2
 40
9999.0
 49
9999.0
 74
     0
 49
0.0
 74
     0
  0
LTYPE
  5
1241
330
5
100
AcDbSymbolTableRecord
100
AcDbLinetypeTableRecord
  2
AM_ISO08W050x2
 70
     0
  3
__ . __ . __ . __ . __ . __
 72
    65
 73
     4
 40
9.0
 49
6.0
 74
     0
 49
-0.75
 74
     0
 49
1.5
 74
     0
 49
-0.75
 74
     0
  0
LTYPE
  5
1242
330
5
100
AcDbSymbolTableRecord
100
AcDbLinetypeTableRecord
  2
AM_ISO02W050x2
 70
     0
  3
 _ _ _ _ _ _ _ _ _ _ _ _
 72
    65
 73
     2
 40
3.75
 49
3.0
 74
     0
 49
-0.75
 74
     0
  0
LTYPE
  5
1245
330
5
100
AcDbSymbolTableRecord
100
AcDbLinetypeTableRecord
  2
Amzigzag
 70
     0
  3
/\/-/\/-/\/-/\/-/\/-/\/
 72
    65
 73
     2
 40
11.0001
 49
0.0001
 74
     4
 75
   136
340
1244
 46
0.04
 50
0.0
 44
0.0
 45
0.0
 49
-11.0
 74
     0
  0
LTYPE
  5
1254
330
5
100
AcDbSymbolTableRecord
100
AcDbLinetypeTableRecord
  2
ACISOWELD
 70
     0
  3
_ _ _ _ _
 72
    65
 73
     2
 40
2.0
 49
2.0
 74
     0
 49
-1.0
 74
     0
  0
LTYPE
  5
1255
330
5
100
AcDbSymbolTableRecord
100
AcDbLinetypeTableRecord
  2
ACISOTGB
 70
     0
  3
__ . . __ . .
 72
    65
 73
     6
 40
9.0
 49
4.0
 74
     0
 49
-1.0
 74
     0
 49
1.0
 74
     0
 49
-1.0
 74
     0
 49
1.0
 74
     0
 49
-1.0
 74
     0
  0
LTYPE
  5
1256
330
5
100
AcDbSymbolTableRecord
100
AcDbLinetypeTableRecord
  2
ACISOTGL
 70
     0
  3
_ _ _ _ _
 72
    65
 73
     2
 40
3.0
 49
2.0
 74
     0
 49
-1.0
 74
     0
  0
ENDTAB
  0
TABLE
  2
LAYER
  5
2
330
0
100
AcDbSymbolTable
 70
    17
  0
LAYER
  5
5F
330
2
100
AcDbSymbolTableRecord
100
AcDbLayerTableRecord
  2
0
 70
     0
 62
     7
  6
Continuous
370
    -3
390
F
  0
LAYER
  5
81
330
2
100
AcDbSymbolTableRecord
100
AcDbLayerTableRecord
  2
Čára řezu (ISO)
 70
     0
 62
     3
420
    65280
  6
Continuous
370
    18
390
F
  0
LAYER
  5
83
330
2
100
AcDbSymbolTableRecord
100
AcDbLayerTableRecord
  2
Geometrie náčrtu (ISO)
 70
     0
 62
     7
  6
Continuous
370
     9
390
F
  0
LAYER
  5
84
330
2
100
AcDbSymbolTableRecord
100
AcDbLayerTableRecord
  2
KOPF
 70
     0
 62
     8
420
  8421504
  6
Continuous
370
     9
390
F
  0
LAYER
  5
85
330
2
100
AcDbSymbolTableRecord
100
AcDbLayerTableRecord
  2
Kóta (ISO)
 70
     0
 62
     5
420
      255
  6
Continuous
370
     9
390
F
  0
LAYER
  5
86
330
2
100
AcDbSymbolTableRecord
100
AcDbLayerTableRecord
  2
Nadpis (ISO)
 70
     0
 62
     7
  6
Continuous
370
    18
390
F
  0
LAYER
  5
90
330
2
100
AcDbSymbolTableRecord
100
AcDbLayerTableRecord
  2
Rámeček (ISO)
 70
     0
 62
     7
  6
Continuous
370
    35
390
F
  0
LAYER
  5
93
330
2
100
AcDbSymbolTableRecord
100
AcDbLayerTableRecord
  2
Skrytá (ISO)
 70
     0
 62
   142
420
    32960
  6
Continuous
370
     9
390
F
  0
LAYER
  5
95
330
2
100
AcDbSymbolTableRecord
100
AcDbLayerTableRecord
  2
Šrafy (ISO)
 70
     0
 62
     6
420
 16711935
  6
Continuous
370
     9
390
F
  0
LAYER
  5
96
330
2
100
AcDbSymbolTableRecord
100
AcDbLayerTableRecord
  2
TEXT35
 70
     0
 62
    12
420
 13369344
  6
Continuous
370
    20
390
F
  0
LAYER
  5
97
330
2
100
AcDbSymbolTableRecord
100
AcDbLayerTableRecord
  2
TEXT50
 70
     0
 62
     7
  6
Continuous
370
    20
390
F
  0
LAYER
  5
98
330
2
100
AcDbSymbolTableRecord
100
AcDbLayerTableRecord
  2
Viditelná (ISO)
 70
     0
 62
     7
  6
Continuous
370
    35
390
F
  0
LAYER
  5
99
330
2
100
AcDbSymbolTableRecord
100
AcDbLayerTableRecord
  2
Viditelná tenká (ISO)
 70
     0
 62
     7
  6
Continuous
370
     9
390
F
  0
LAYER
  5
9A
330
2
100
AcDbSymbolTableRecord
100
AcDbLayerTableRecord
  2
Značka (ISO)
 70
     0
 62
     5
420
      255
  6
Continuous
370
     9
390
F
  0
LAYER
  5
4BB
330
2
100
AcDbSymbolTableRecord
100
AcDbLayerTableRecord
  2
Defpoints
 70
     0
 62
     7
  6
Continuous
290
     0
370
    -3
390
F
  0
LAYER
  5
127D
102
{ACAD_XDICTIONARY
360
127E
102
}
330
2
100
AcDbSymbolTableRecord
100
AcDbLayerTableRecord
  2
KOTY_GULLY
 70
     0
 62
   250
  6
Continuous
370
    -3
390
F
  0
LAYER
  5
12DE
102
{ACAD_XDICTIONARY
360
12DF
102
}
330
2
100
AcDbSymbolTableRecord
100
AcDbLayerTableRecord
  2
GULLY
 70
     0
 62
   250
  6
Continuous
370
    -3
390
F
  0
ENDTAB
  0
TABLE
  2
STYLE
  5
3
330
0
100
AcDbSymbolTable
 70
    21
  0
STYLE
  5
60
330
3
100
AcDbSymbolTableRecord
100
AcDbTextStyleTableRecord
  2
Standard
 70
     0
 40
0.0
 41
1.0
 50
0.0
 71
     0
 42
0.2
  3
TAHOMA.TTF
  4

1001
ACAD
1000
Tahoma
1071
      256
  0
STYLE
  5
65
330
3
100
AcDbSymbolTableRecord
100
AcDbTextStyleTableRecord
  2
Annotative
 70
     0
 40
0.0
 41
1.0
 50
0.0
 71
     0
 42
0.2
  3
txt
  4

1001
AcadAnnotative
1000
AnnotativeData
1002
{
1070
     1
1070
     1
1002
}
  0
STYLE
  5
9B
330
3
100
AcDbSymbolTableRecord
100
AcDbTextStyleTableRecord
  2
ITALICC8_57
 70
     0
 40
0.0
 41
1.0
 50
0.0
 71
     0
 42
0.2
  3
TAHOMA.TTF
  4

1001
ACAD
1000
Tahoma
1071
      256
  0
STYLE
  5
9C
330
3
100
AcDbSymbolTableRecord
100
AcDbTextStyleTableRecord
  2
kusovnik
 70
     0
 40
0.0
 41
1.0
 50
0.0
 71
     0
 42
0.2
  3
ARIAL.TTF
  4

1001
ACAD
1000
Arial
1071
      256
  0
STYLE
  5
9D
330
3
100
AcDbSymbolTableRecord
100
AcDbTextStyleTableRecord
  2
ROMANS8_69
 70
     0
 40
0.0
 41
1.0
 50
0.0
 71
     0
 42
0.2
  3
TAHOMA.TTF
  4

1001
ACAD
1000
Tahoma
1071
      256
  0
STYLE
  5
9E
330
3
100
AcDbSymbolTableRecord
100
AcDbTextStyleTableRecord
  2
Text popisu (ISO)
 70
     0
 40
0.0
 41
1.0
 50
0.0
 71
     0
 42
0.2
  3
TAHOMA.TTF
  4

1001
ACAD
1000
Tahoma
1071
      256
  0
STYLE
  5
9F
330
3
100
AcDbSymbolTableRecord
100
AcDbTextStyleTableRecord
  2
Text poznámky (DIN)
 70
     0
 40
0.0
 41
1.0
 50
0.0
 71
     0
 42
0.2
  3
isocpeur.ttf
  4

1001
ACAD
1000
ISOCPEUR
1071
      256
  0
STYLE
  5
A0
330
3
100
AcDbSymbolTableRecord
100
AcDbTextStyleTableRecord
  2
Text poznámky (ISO)
 70
     0
 40
0.0
 41
1.0
 50
0.0
 71
     0
 42
0.2
  3
TAHOMA.TTF
  4

1001
ACAD
1000
Tahoma
1071
      256
  0
STYLE
  5
A1
330
3
100
AcDbSymbolTableRecord
100
AcDbTextStyleTableRecord
  2
TEXT20_41
 70
     0
 40
0.0
 41
1.0
 50
0.0
 71
     0
 42
0.2
  3
TAHOMA.TTF
  4

1001
ACAD
1000
Tahoma
1071
      256
  0
STYLE
  5
A2
330
3
100
AcDbSymbolTableRecord
100
AcDbTextStyleTableRecord
  2
TEXT20_59
 70
     0
 40
0.0
 41
1.0
 50
0.0
 71
     0
 42
0.2
  3
TAHOMA.TTF
  4

1001
ACAD
1000
Tahoma
1071
      256
  0
STYLE
  5
1BC
330
3
100
AcDbSymbolTableRecord
100
AcDbTextStyleTableRecord
  2
Styl textu62
 70
     0
 40
0.0
 41
0.8000000119209289
 50
0.0
 71
     0
 42
0.2
  3
TAHOMA.TTF
  4

1001
ACAD
1000
Tahoma
1071
      256
  0
STYLE
  5
1C3
330
3
100
AcDbSymbolTableRecord
100
AcDbTextStyleTableRecord
  2
Styl textu58
 70
     0
 40
0.0
 41
0.8000000119209289
 50
0.0
 71
     0
 42
0.2
  3
TAHOMA.TTF
  4

1001
ACAD
1000
Tahoma
1071
      256
  0
STYLE
  5
1C5
330
3
100
AcDbSymbolTableRecord
100
AcDbTextStyleTableRecord
  2
Styl textu63
 70
     0
 40
0.0
 41
0.75
 50
0.0
 71
     0
 42
0.2
  3
TAHOMA.TTF
  4

1001
ACAD
1000
Tahoma
1071
      256
  0
STYLE
  5
1C8
330
3
100
AcDbSymbolTableRecord
100
AcDbTextStyleTableRecord
  2
Styl textu72
 70
     0
 40
0.0
 41
0.6999999880790711
 50
0.0
 71
     0
 42
0.2
  3
TAHOMA.TTF
  4

1001
ACAD
1000
Tahoma
1071
      256
  0
STYLE
  5
1CB
330
3
100
AcDbSymbolTableRecord
100
AcDbTextStyleTableRecord
  2
Styl textu75
 70
     0
 40
0.0
 41
0.8000000119209289
 50
0.0
 71
     0
 42
0.2
  3
TAHOMA.TTF
  4

1001
ACAD
1000
Tahoma
1071
      256
  0
STYLE
  5
1E2
330
3
100
AcDbSymbolTableRecord
100
AcDbTextStyleTableRecord
  2
Styl textu9
 70
     0
 40
0.0
 41
1.0
 50
0.0
 71
     0
 42
0.2
  3
ARIAL.TTF
  4

1001
ACAD
1000
Arial
1071
      256
  0
STYLE
  5
1E6
330
3
100
AcDbSymbolTableRecord
100
AcDbTextStyleTableRecord
  2
Styl textu40
 70
     0
 40
0.0
 41
1.0
 50
0.0
 71
     0
 42
0.2
  3
ARIAL.TTF
  4

1001
ACAD
1000
Arial
1071
      256
  0
STYLE
  5
1EB
330
3
100
AcDbSymbolTableRecord
100
AcDbTextStyleTableRecord
  2
Styl textu94
 70
     0
 40
0.0
 41
1.0
 50
0.0
 71
     0
 42
0.2
  3
TAHOMA.TTF
  4

1001
ACAD
1000
Tahoma
1071
      256
  0
STYLE
  5
1244
330
3
100
AcDbSymbolTableRecord
100
AcDbTextStyleTableRecord
  2

 70
     1
 40
0.0
 41
1.0
 50
0.0
 71
     0
 42
0.2
  3
genltshp.shx
  4

  0
STYLE
  5
1252
330
3
100
AcDbSymbolTableRecord
100
AcDbTextStyleTableRecord
  2
ACISOTS
 70
     0
 40
1.0
 41
1.0
 50
0.0
 71
     0
 42
0.2
  3
isocp.shx
  4

  0
STYLE
  5
1253
330
3
100
AcDbSymbolTableRecord
100
AcDbTextStyleTableRecord
  2
ACISOGDT
 70
     0
 40
0.0
 41
1.0
 50
0.0
 71
     0
 42
0.2
  3
amgdt.shx
  4

  0
ENDTAB
  0
TABLE
  2
VIEW
  5
6
330
0
100
AcDbSymbolTable
 70
     0
  0
ENDTAB
  0
TABLE
  2
UCS
  5
7
330
0
100
AcDbSymbolTable
 70
     0
  0
ENDTAB
  0
TABLE
  2
APPID
  5
9
330
0
100
AcDbSymbolTable
 70
    17
  0
APPID
  5
61
330
9
100
AcDbSymbolTableRecord
100
AcDbRegAppTableRecord
  2
ACAD
 70
     0
  0
APPID
  5
69
330
9
100
AcDbSymbolTableRecord
100
AcDbRegAppTableRecord
  2
AcadAnnotative
 70
     0
  0
APPID
  5
1E5
330
9
100
AcDbSymbolTableRecord
100
AcDbRegAppTableRecord
  2
AcadAnnoPO
 70
     0
  0
APPID
  5
1064
330
9
100
AcDbSymbolTableRecord
100
AcDbRegAppTableRecord
  2
ACAD_DSTYLE_DIMRADIAL_EXTENSION
 70
     0
  0
APPID
  5
11B0
330
9
100
AcDbSymbolTableRecord
100
AcDbRegAppTableRecord
  2
ACAD_MLEADERVER
 70
     0
  0
APPID
  5
11C6
330
9
100
AcDbSymbolTableRecord
100
AcDbRegAppTableRecord
  2
MCAD_NO_VIS
 70
     0
  0
APPID
  5
11C7
330
9
100
AcDbSymbolTableRecord
100
AcDbRegAppTableRecord
  2
ACAD_TEMP_GRAPHIC
 70
     0
  0
APPID
  5
11F9
330
9
100
AcDbSymbolTableRecord
100
AcDbRegAppTableRecord
  2
AD_DRAW
 70
     0
  0
APPID
  5
11FC
330
9
100
AcDbSymbolTableRecord
100
AcDbRegAppTableRecord
  2
ACATTRIBSERVICES
 70
     0
  0
APPID
  5
121D
330
9
100
AcDbSymbolTableRecord
100
AcDbRegAppTableRecord
  2
DESIGNERASSEMBLIES
 70
     0
  0
APPID
  5
1223
330
9
100
AcDbSymbolTableRecord
100
AcDbRegAppTableRecord
  2
ACADM_DIM_EDIT
 70
     0
  0
APPID
  5
1224
330
9
100
AcDbSymbolTableRecord
100
AcDbRegAppTableRecord
  2
AMDT_DM_ADJ
 70
     0
  0
APPID
  5
1281
330
9
100
AcDbSymbolTableRecord
100
AcDbRegAppTableRecord
  2
ACAD_DSTYLE_DIMINSPECT
 70
     0
  0
APPID
  5
135E
330
9
100
AcDbSymbolTableRecord
100
AcDbRegAppTableRecord
  2
ACAD_DSTYLE_DIMARC_LENGTH_SYMBOL
 70
     0
  0
APPID
  5
135F
330
9
100
AcDbSymbolTableRecord
100
AcDbRegAppTableRecord
  2
ACAD_DSTYLE_DIM_LINETYPE
 70
     0
  0
APPID
  5
1360
330
9
100
AcDbSymbolTableRecord
100
AcDbRegAppTableRecord
  2
ACAD_DSTYLE_DIM_EXT1_LINETYPE
 70
     0
  0
APPID
  5
1361
330
9
100
AcDbSymbolTableRecord
100
AcDbRegAppTableRecord
  2
ACAD_DSTYLE_DIM_EXT2_LINETYPE
 70
     0
  0
ENDTAB
  0
TABLE
  2
DIMSTYLE
  5
A
330
0
100
AcDbSymbolTable
 70
    25
100
AcDbDimStyleTable
 71
     3
340
123B
340
BB
340
63
  0
DIMSTYLE
105
63
330
A
100
AcDbSymbolTableRecord
100
AcDbDimStyleTableRecord
  2
Standard
 70
     0
340
60
  0
DIMSTYLE
105
64
330
A
100
AcDbSymbolTableRecord
100
AcDbDimStyleTableRecord
  2
Annotative
 70
     0
340
60
1001
AcadAnnotative
1000
AnnotativeData
1002
{
1070
     1
1070
     1
1002
}
  0
DIMSTYLE
105
B1
330
A
100
AcDbSymbolTableRecord
100
AcDbDimStyleTableRecord
  2
Různé objekty (ISO)
 70
     0
 40
1.5
 41
2.5
 42
0.0
 43
5.999999999999999
 44
1.0
 45
0.00000001
 46
10.0
 73
     0
 74
     0
 77
     1
 78
     8
 79
     2
140
5.25
143
0.03937
146
0.6676571709769112
147
0.762
171
     3
172
     1
176
   256
177
   256
178
   256
179
     2
271
     2
272
     2
274
     3
278
    44
284
     8
340
9E
341
A3
371
    -1
372
    -1
  0
DIMSTYLE
105
B2
330
A
100
AcDbSymbolTableRecord
100
AcDbDimStyleTableRecord
  2
Různé objekty (ISO)$7
 70
     0
 40
1.5
 41
5.0
 42
0.0
 43
5.999999999999999
 44
1.0
 45
0.00000001
 46
10.0
 73
     0
 74
     0
 77
     1
 78
     8
 79
     2
140
5.25
143
0.03937
146
0.6676571709769112
147
0.762
171
     3
172
     1
176
   256
177
   256
178
   256
179
     2
271
     2
272
     2
274
     3
278
    44
284
     8
340
9E
341
A3
371
    25
372
    -1
  0
DIMSTYLE
105
B3
330
A
100
AcDbSymbolTableRecord
100
AcDbDimStyleTableRecord
  2
Výchozí - Metoda 1b (ISO)
 70
     0
 40
1.5
 41
2.5
 42
0.0
 43
5.999999999999999
 44
1.0
 45
0.00000001
 46
10.0
 73
     0
 77
     1
 78
     8
 79
     2
140
3.5
143
0.03937
147
0.762
171
     3
172
     1
176
   256
177
   256
178
   256
179
     2
271
     2
272
     2
274
     3
278
    44
284
     8
286
     8
340
A0
371
    -1
372
    -1
  0
DIMSTYLE
105
B4
330
A
100
AcDbSymbolTableRecord
100
AcDbDimStyleTableRecord
  2
Výchozí - Metoda 1b (ISO)$7
 70
     0
 40
1.5
 41
2.5
 42
0.0
 43
5.999999999999999
 44
1.0
 45
0.00000001
 46
10.0
 73
     0
 77
     1
 78
     8
 79
     2
140
3.5
143
0.03937
147
0.762
171
     3
172
     1
176
   256
177
   256
178
   256
179
     2
271
     2
272
     2
274
     3
278
    44
284
     8
286
     8
340
A0
371
    -1
372
    -1
  0
DIMSTYLE
105
B5
330
A
100
AcDbSymbolTableRecord
100
AcDbDimStyleTableRecord
  2
Výchozí - Metoda 2a (ISO)
 70
     0
 40
1.5
 41
2.5
 42
0.0
 43
5.999999999999999
 44
1.0
 45
0.00000001
 46
10.0
 77
     1
 78
     8
 79
     2
140
3.5
143
0.03937
147
0.762
171
     3
172
     1
176
   256
177
   256
178
   256
179
     2
271
     2
272
     2
274
     3
278
    44
284
     8
286
     8
340
A0
371
    -1
372
    -1
  0
DIMSTYLE
105
B6
330
A
100
AcDbSymbolTableRecord
100
AcDbDimStyleTableRecord
  2
Výchozí - Metoda 2a (ISO)$7
 70
     0
 40
1.5
 41
2.5
 42
0.0
 43
5.999999999999999
 44
1.0
 45
0.00000001
 46
10.0
 77
     1
 78
     8
 79
     2
140
3.5
143
0.03937
147
0.762
171
     3
172
     1
176
   256
177
   256
178
   256
179
     2
271
     2
272
     2
274
     3
278
    44
284
     8
286
     8
340
A0
371
    -1
372
    -1
  0
DIMSTYLE
105
B7
330
A
100
AcDbSymbolTableRecord
100
AcDbDimStyleTableRecord
  2
Výchozí - Metoda 2b (ISO)
 70
     0
 40
1.5
 41
2.5
 42
0.0
 43
5.999999999999999
 44
1.0
 45
0.00000001
 46
10.0
 77
     1
 78
     8
 79
     2
140
3.5
143
0.03937
147
0.762
171
     3
172
     1
176
   256
177
   256
178
   256
179
     2
271
     2
272
     2
274
     3
278
    44
284
     8
286
     8
340
A0
371
    -1
372
    -1
  0
DIMSTYLE
105
B8
330
A
100
AcDbSymbolTableRecord
100
AcDbDimStyleTableRecord
  2
Výchozí - Metoda 2b (ISO)$7
 70
     0
 40
1.5
 41
2.5
 42
0.0
 43
5.999999999999999
 44
1.0
 45
0.00000001
 46
10.0
 77
     1
 78
     8
 79
     2
140
3.5
143
0.03937
147
0.762
171
     3
172
     1
176
   256
177
   256
178
   256
179
     2
271
     2
272
     2
274
     3
278
    44
284
     8
286
     8
340
A0
371
    -1
372
    -1
  0
DIMSTYLE
105
B9
330
A
100
AcDbSymbolTableRecord
100
AcDbDimStyleTableRecord
  2
Výchozí - mm [palce] (ISO)
 70
     0
  4
 in
 40
1.5
 41
2.5
 42
0.0
 43
5.999999999999999
 44
3.174999999999999
 45
0.00000001
 46
10.0
 73
     0
 74
     0
 77
     1
 78
     8
 79
     2
140
3.5
143
0.03937
147
0.762
170
     1
171
     3
172
     1
176
   256
177
   256
178
   256
179
     3
271
     3
272
     2
274
     3
275
     1
278
    44
284
     8
285
     8
286
     8
340
A0
371
    -1
372
    -1
  0
DIMSTYLE
105
BA
330
A
100
AcDbSymbolTableRecord
100
AcDbDimStyleTableRecord
  2
Výchozí - mm [palce] (ISO)$7
 70
     0
  4
 in
 40
1.5
 41
2.5
 42
0.0
 43
5.999999999999999
 44
3.174999999999999
 45
0.00000001
 46
10.0
 73
     0
 74
     0
 77
     1
 78
     8
 79
     2
140
3.5
143
0.03937
147
0.762
170
     1
171
     3
172
     1
176
   256
177
   256
178
   256
179
     3
271
     3
272
     2
274
     3
275
     1
278
    44
284
     8
285
     8
286
     8
340
A0
371
    -1
372
    -1
  0
DIMSTYLE
105
BB
330
A
100
AcDbSymbolTableRecord
100
AcDbDimStyleTableRecord
  2
Výchozí (ISO)
 70
     0
 40
1.5
 41
2.5
 42
0.0
 43
5.999999999999999
 44
1.0
 45
0.00000001
 46
10.0
 73
     0
 74
     0
 77
     1
 78
     8
 79
     2
140
3.5
143
0.03937
146
1.001485756465366
147
0.762
171
     3
172
     1
176
   256
177
   256
178
   256
179
     2
271
     2
272
     2
274
     3
278
    44
284
     8
340
A0
371
    -1
372
    -1
  0
DIMSTYLE
105
BC
330
A
100
AcDbSymbolTableRecord
100
AcDbDimStyleTableRecord
  2
Výchozí (ISO)$7
 70
     0
 40
1.5
 41
2.5
 42
0.0
 43
5.999999999999999
 44
1.0
 45
0.00000001
 46
10.0
 73
     0
 74
     0
 77
     1
 78
     8
 79
     2
140
3.5
143
0.03937
146
1.001485756465366
147
0.762
171
     3
172
     1
176
   256
177
   256
178
   256
179
     2
271
     2
272
     2
274
     3
278
    44
284
     8
340
A0
371
    -1
372
    -1
  0
DIMSTYLE
105
BD
330
A
100
AcDbSymbolTableRecord
100
AcDbDimStyleTableRecord
  2
Alternativní (ISO)
 70
     0
 40
1.5
 41
2.5
340
60
342
BE
  0
DIMSTYLE
105
CF
330
A
100
AcDbSymbolTableRecord
100
AcDbDimStyleTableRecord
  2
Základny (ISO)
 70
     0
 40
1.5
 41
2.5
340
60
342
BE
  0
DIMSTYLE
105
123B
102
{ACAD_REACTORS
330
122A
102
}
330
A
100
AcDbSymbolTableRecord
100
AcDbDimStyleTableRecord
  2
AM_ISO
 70
     0
  4
"
 41
3.5
 42
1.0
 43
10.0
 44
1.0
 47
0.1
 48
0.1
 73
     0
 74
     0
 77
     1
 78
     8
 79
     2
140
3.5
141
0.0
143
0.0393701
146
0.71
147
1.5
172
     1
176
   256
177
   256
178
   140
271
     2
272
     3
274
     4
283
     0
284
     8
340
60
371
    -1
372
    -1
1001
ACAD_DSTYLE_DIMARC_LENGTH_SYMBOL
1070
   379
1070
     1
1001
ACAD_DSTYLE_DIM_LINETYPE
1070
   380
1005
66
1001
ACAD_DSTYLE_DIM_EXT1_LINETYPE
1070
   381
1005
66
1001
ACAD_DSTYLE_DIM_EXT2_LINETYPE
1070
   382
1005
66
  0
DIMSTYLE
105
1246
330
A
100
AcDbSymbolTableRecord
100
AcDbDimStyleTableRecord
  2
AM_ISO$3
 70
     0
  4
"
 41
3.5
 42
1.0
 43
10.0
 44
1.0
 47
0.1
 48
0.1
 73
     0
 77
     1
 78
     8
 79
     2
140
3.5
141
0.0
143
0.0393701
146
0.71
147
1.5
176
   256
177
   256
178
   140
271
     2
272
     3
274
     4
283
     0
284
     8
288
     1
289
     0
340
60
371
    -1
372
    -1
1001
ACAD_DSTYLE_DIMARC_LENGTH_SYMBOL
1070
   379
1070
     1
1001
ACAD_DSTYLE_DIM_LINETYPE
1070
   380
1005
66
1001
ACAD_DSTYLE_DIM_EXT1_LINETYPE
1070
   381
1005
66
1001
ACAD_DSTYLE_DIM_EXT2_LINETYPE
1070
   382
1005
66
  0
DIMSTYLE
105
1247
330
A
100
AcDbSymbolTableRecord
100
AcDbDimStyleTableRecord
  2
AM_ISO$4
 70
     0
  4
"
 41
3.5
 42
1.0
 43
10.0
 44
1.0
 47
0.1
 48
0.1
 73
     0
 74
     0
 77
     1
 78
     8
 79
     2
140
3.5
141
0.0
143
0.0393701
146
0.71
147
1.5
172
     1
176
   256
177
   256
178
   140
271
     2
272
     3
274
     4
283
     0
284
     8
340
60
371
    -1
372
    -1
1001
ACAD_DSTYLE_DIMARC_LENGTH_SYMBOL
1070
   379
1070
     1
1001
ACAD_DSTYLE_DIM_LINETYPE
1070
   380
1005
66
1001
ACAD_DSTYLE_DIM_EXT1_LINETYPE
1070
   381
1005
66
1001
ACAD_DSTYLE_DIM_EXT2_LINETYPE
1070
   382
1005
66
  0
DIMSTYLE
105
1248
330
A
100
AcDbSymbolTableRecord
100
AcDbDimStyleTableRecord
  2
AM_ISO$6
 70
     0
  4
"
 41
3.5
 42
1.0
 43
10.0
 44
1.0
 47
0.1
 48
0.1
 73
     0
 74
     0
 78
     8
 79
     2
140
3.5
141
0.0
143
0.0393701
146
0.71
147
1.5
172
     1
176
   256
177
   256
178
   140
271
     2
272
     3
274
     4
283
     0
284
     8
340
60
371
    -1
372
    -1
1001
ACAD_DSTYLE_DIMARC_LENGTH_SYMBOL
1070
   379
1070
     1
1001
ACAD_DSTYLE_DIM_LINETYPE
1070
   380
1005
66
1001
ACAD_DSTYLE_DIM_EXT1_LINETYPE
1070
   381
1005
66
1001
ACAD_DSTYLE_DIM_EXT2_LINETYPE
1070
   382
1005
66
  0
DIMSTYLE
105
1249
330
A
100
AcDbSymbolTableRecord
100
AcDbDimStyleTableRecord
  2
AM_ISO$7
 70
     0
  4
"
 41
3.5
 42
1.0
 43
10.0
 44
1.0
 47
0.1
 48
0.1
 73
     0
 74
     0
 77
     1
 78
     8
 79
     2
140
3.5
141
0.0
143
0.0393701
146
0.71
147
1.5
172
     1
176
   256
177
   256
178
   140
271
     2
272
     3
274
     4
283
     0
284
     8
340
60
371
    -1
372
    -1
1001
ACAD_DSTYLE_DIMARC_LENGTH_SYMBOL
1070
   379
1070
     1
1001
ACAD_DSTYLE_DIM_LINETYPE
1070
   380
1005
66
1001
ACAD_DSTYLE_DIM_EXT1_LINETYPE
1070
   381
1005
66
1001
ACAD_DSTYLE_DIM_EXT2_LINETYPE
1070
   382
1005
66
  0
DIMSTYLE
105
124A
330
A
100
AcDbSymbolTableRecord
100
AcDbDimStyleTableRecord
  2
AM_ISO$SF
 70
     0
  4
"
 41
3.5
 42
1.0
 43
10.0
 44
1.0
 47
0.1
 48
0.1
 73
     0
 74
     0
 75
     1
 76
     1
 77
     1
 78
     8
 79
     2
140
3.5
141
0.0
143
0.0393701
146
0.71
147
1.5
172
     1
176
   256
177
   256
178
   140
271
     2
272
     3
274
     4
283
     0
284
     8
340
60
371
    -1
372
    -1
1001
ACAD_DSTYLE_DIMARC_LENGTH_SYMBOL
1070
   379
1070
     1
1001
ACAD_DSTYLE_DIM_LINETYPE
1070
   380
1005
66
1001
ACAD_DSTYLE_DIM_EXT1_LINETYPE
1070
   381
1005
66
1001
ACAD_DSTYLE_DIM_EXT2_LINETYPE
1070
   382
1005
66
  0
DIMSTYLE
105
124F
330
A
100
AcDbSymbolTableRecord
100
AcDbDimStyleTableRecord
  2
AM_ISO$SH
 70
     0
  4
"
 41
3.5
 42
1.0
 43
10.0
 44
1.0
 47
0.1
 48
0.1
 73
     0
 74
     0
 75
     1
 76
     1
 77
     1
 78
     8
 79
     2
140
3.5
141
0.0
143
0.0393701
144
2.0
146
0.71
147
1.5
172
     1
173
     1
176
   256
177
   256
178
   140
271
     2
272
     3
274
     4
283
     0
284
     8
340
60
343
124B
371
    -1
372
    -1
1001
ACAD_DSTYLE_DIMARC_LENGTH_SYMBOL
1070
   379
1070
     1
1001
ACAD_DSTYLE_DIM_LINETYPE
1070
   380
1005
66
1001
ACAD_DSTYLE_DIM_EXT1_LINETYPE
1070
   381
1005
66
1001
ACAD_DSTYLE_DIM_EXT2_LINETYPE
1070
   382
1005
66
  0
DIMSTYLE
105
127F
102
{ACAD_REACTORS
330
1284
330
128E
102
}
330
A
100
AcDbSymbolTableRecord
100
AcDbDimStyleTableRecord
  2
GULLY
 70
     0
 40
2.0
 41
1.5
 42
0.0
 43
5.999999999999999
 44
1.0
 45
0.00000001
 46
10.0
 47
1.0
 48
1.0
 73
     0
 74
     0
 77
     1
 78
     8
140
6.0
143
0.03937
146
1.001485756465366
147
0.762
171
     3
176
   256
177
   256
178
   256
279
     2
340
60
  0
DIMSTYLE
105
1280
102
{ACAD_REACTORS
330
1283
330
128D
102
}
330
A
100
AcDbSymbolTableRecord
100
AcDbDimStyleTableRecord
  2
GULLY 1
 70
     0
 40
2.0
 41
1.5
 42
0.0
 43
5.999999999999999
 44
1.0
 45
1.0
 46
10.0
 47
1.0
 48
1.0
 73
     0
 74
     0
 77
     1
 78
     8
140
6.0
143
0.03937
146
1.001485756465366
147
0.762
171
     3
176
   256
177
   256
178
   256
279
     2
284
     8
285
     8
286
     8
340
60
  0
ENDTAB
  0
TABLE
  2
BLOCK_RECORD
  5
1
330
0
100
AcDbSymbolTable
 70
    43
  0
BLOCK_RECORD
  5
77
330
1
100
AcDbSymbolTableRecord
100
AcDbBlockTableRecord
  2
*Model_Space
340
7A
  0
BLOCK_RECORD
  5
73
330
1
100
AcDbSymbolTableRecord
100
AcDbBlockTableRecord
  2
*Paper_Space
340
76
  0
BLOCK_RECORD
  5
7B
330
1
100
AcDbSymbolTableRecord
100
AcDbBlockTableRecord
  2
*Paper_Space0
340
7E
  0
BLOCK_RECORD
  5
A3
330
1
100
AcDbSymbolTableRecord
100
AcDbBlockTableRecord
  2
Filled-1
340
0
  0
BLOCK_RECORD
  5
BE
330
1
100
AcDbSymbolTableRecord
100
AcDbBlockTableRecord
  2
_Closed
340
0
  0
BLOCK_RECORD
  5
C5
330
1
100
AcDbSymbolTableRecord
100
AcDbBlockTableRecord
  2
DatumFilled45
340
0
  0
BLOCK_RECORD
  5
D0
330
1
100
AcDbSymbolTableRecord
100
AcDbBlockTableRecord
  2
WIG-svarovani
340
0
  0
BLOCK_RECORD
  5
D5
330
1
100
AcDbSymbolTableRecord
100
AcDbBlockTableRecord
  2
Popis kotvy_srouby
340
0
  0
BLOCK_RECORD
  5
D9
330
1
100
AcDbSymbolTableRecord
100
AcDbBlockTableRecord
  2
Mater. provedeni Art.
340
0
  0
BLOCK_RECORD
  5
FB
330
1
100
AcDbSymbolTableRecord
100
AcDbBlockTableRecord
  2
Art. s popisy
340
0
  0
BLOCK_RECORD
  5
11D
330
1
100
AcDbSymbolTableRecord
100
AcDbBlockTableRecord
  2
Tryskat
340
0
  0
BLOCK_RECORD
  5
121
330
1
100
AcDbSymbolTableRecord
100
AcDbBlockTableRecord
  2
Morit
340
0
  0
BLOCK_RECORD
  5
125
330
1
100
AcDbSymbolTableRecord
100
AcDbBlockTableRecord
  2
zinkovat
340
0
  0
BLOCK_RECORD
  5
129
330
1
100
AcDbSymbolTableRecord
100
AcDbBlockTableRecord
  2
Nater
340
0
  0
BLOCK_RECORD
  5
12D
330
1
100
AcDbSymbolTableRecord
100
AcDbBlockTableRecord
  2
Brus
340
0
  0
BLOCK_RECORD
  5
131
330
1
100
AcDbSymbolTableRecord
100
AcDbBlockTableRecord
  2
Elektroliticky lestit
340
0
  0
BLOCK_RECORD
  5
136
330
1
100
AcDbSymbolTableRecord
100
AcDbBlockTableRecord
  2
Rámečky Default Border
340
0
  0
BLOCK_RECORD
  5
17D
330
1
100
AcDbSymbolTableRecord
100
AcDbBlockTableRecord
  2
Rohová razítka ACO-razitko
340
0
  0
BLOCK_RECORD
  5
484
330
1
100
AcDbSymbolTableRecord
100
AcDbBlockTableRecord
  2
KUSOVNÍK
340
0
  0
BLOCK_RECORD
  5
4BC
330
1
100
AcDbSymbolTableRecord
100
AcDbBlockTableRecord
  2
*D17
340
0
  0
BLOCK_RECORD
  5
597
330
1
100
AcDbSymbolTableRecord
100
AcDbBlockTableRecord
  2
2dPrevedenyRez0
340
0
  0
BLOCK_RECORD
  5
67B
330
1
100
AcDbSymbolTableRecord
100
AcDbBlockTableRecord
  2
*D19
340
0
  0
BLOCK_RECORD
  5
75D
330
1
100
AcDbSymbolTableRecord
100
AcDbBlockTableRecord
  2
*D20
340
0
  0
BLOCK_RECORD
  5
84D
330
1
100
AcDbSymbolTableRecord
100
AcDbBlockTableRecord
  2
*D21
340
0
  0
BLOCK_RECORD
  5
930
330
1
100
AcDbSymbolTableRecord
100
AcDbBlockTableRecord
  2
*D22
340
0
  0
BLOCK_RECORD
  5
A12
330
1
100
AcDbSymbolTableRecord
100
AcDbBlockTableRecord
  2
*D23
340
0
  0
BLOCK_RECORD
  5
AFD
330
1
100
AcDbSymbolTableRecord
100
AcDbBlockTableRecord
  2
*D24
340
0
  0
BLOCK_RECORD
  5
BD9
330
1
100
AcDbSymbolTableRecord
100
AcDbBlockTableRecord
  2
*D25
340
0
  0
BLOCK_RECORD
  5
CBA
330
1
100
AcDbSymbolTableRecord
100
AcDbBlockTableRecord
  2
Pozice1
340
0
  0
BLOCK_RECORD
  5
CCC
330
1
100
AcDbSymbolTableRecord
100
AcDbBlockTableRecord
  2
Pozice2
340
0
  0
BLOCK_RECORD
  5
CDE
330
1
100
AcDbSymbolTableRecord
100
AcDbBlockTableRecord
  2
Pozice3
340
0
  0
BLOCK_RECORD
  5
CF1
330
1
100
AcDbSymbolTableRecord
100
AcDbBlockTableRecord
  2
*D29
340
0
  0
BLOCK_RECORD
  5
DEF
330
1
100
AcDbSymbolTableRecord
100
AcDbBlockTableRecord
  2
*D30
340
0
  0
BLOCK_RECORD
  5
ED1
330
1
100
AcDbSymbolTableRecord
100
AcDbBlockTableRecord
  2
*D31
340
0
  0
BLOCK_RECORD
  5
FCE
330
1
100
AcDbSymbolTableRecord
100
AcDbBlockTableRecord
  2
Identifikátor značky svaru1
340
0
  0
BLOCK_RECORD
  5
FE6
330
1
100
AcDbSymbolTableRecord
100
AcDbBlockTableRecord
  2
*D33
340
0
  0
BLOCK_RECORD
  5
1070
330
1
100
AcDbSymbolTableRecord
100
AcDbBlockTableRecord
  2
*D34
340
0
  0
BLOCK_RECORD
  5
124B
330
1
100
AcDbSymbolTableRecord
100
AcDbBlockTableRecord
  2
GENAXEH
340
0
  0
BLOCK_RECORD
  5
1265
330
1
100
AcDbSymbolTableRecord
100
AcDbBlockTableRecord
  2
*D37
340
0
  0
BLOCK_RECORD
  5
1271
330
1
100
AcDbSymbolTableRecord
100
AcDbBlockTableRecord
  2
*D38
340
0
  0
BLOCK_RECORD
  5
128F
330
1
100
AcDbSymbolTableRecord
100
AcDbBlockTableRecord
  2
*D40
340
0
  0
BLOCK_RECORD
  5
129B
330
1
100
AcDbSymbolTableRecord
100
AcDbBlockTableRecord
  2
*D41
340
0
  0
ENDTAB
  0
ENDSEC
  0
SECTION
  2
BLOCKS
  0
BLOCK
  5
78
330
77
100
AcDbEntity
  8
0
100
AcDbBlockBegin
  2
*Model_Space
 70
     0
 10
0.0
 20
0.0
 30
0.0
  3
*Model_Space
  1

  0
ENDBLK
  5
79
330
77
100
AcDbEntity
  8
0
100
AcDbBlockEnd
  0
BLOCK
  5
74
330
73
100
AcDbEntity
 67
     1
  8
0
100
AcDbBlockBegin
  2
*Paper_Space
 70
     0
 10
0.0
 20
0.0
 30
0.0
  3
*Paper_Space
  1

  0
ENDBLK
  5
75
330
73
100
AcDbEntity
 67
     1
  8
0
100
AcDbBlockEnd
  0
BLOCK
  5
7C
330
7B
100
AcDbEntity
 67
     1
  8
0
100
AcDbBlockBegin
  2
*Paper_Space0
 70
     0
 10
0.0
 20
0.0
 30
0.0
  3
*Paper_Space0
  1

  0
ENDBLK
  5
7D
330
7B
100
AcDbEntity
 67
     1
  8
0
100
AcDbBlockEnd
  0
BLOCK
  5
A4
330
A3
100
AcDbEntity
  8
0
100
AcDbBlockBegin
  2
Filled-1
 70
     0
 10
0.0
 20
0.0
 30
0.0
  3
Filled-1
  1

  0
LINE
  5
A6
330
A3
100
AcDbEntity
  8
0
 62
     0
100
AcDbLine
 10
-1.0
 20
0.0
 30
0.0
 11
0.0
 21
0.0
 31
0.0
  0
POLYLINE
  5
A7
330
A3
100
AcDbEntity
  8
0
 62
     0
100
AcDb2dPolyline
 66
     1
 10
0.0
 20
0.0
 30
0.0
 70
   128
  0
VERTEX
  5
A8
330
A7
100
AcDbEntity
  8
0
 62
     0
100
AcDbVertex
100
AcDb2dVertex
 10
-1.0
 20
-0.1
 30
0.0
  0
VERTEX
  5
A9
330
A7
100
AcDbEntity
  8
0
 62
     0
100
AcDbVertex
100
AcDb2dVertex
 10
0.0
 20
0.0
 30
0.0
  0
VERTEX
  5
AB
330
A7
100
AcDbEntity
  8
0
 62
     0
100
AcDbVertex
100
AcDb2dVertex
 10
-1.0
 20
0.1
 30
0.0
  0
VERTEX
  5
AC
330
A7
100
AcDbEntity
  8
0
 62
     0
100
AcDbVertex
100
AcDb2dVertex
 10
-1.0
 20
-0.1
 30
0.0
  0
SEQEND
  5
AA
330
A7
100
AcDbEntity
  8
0
 62
     0
  0
SOLID
  5
AD
330
A3
100
AcDbEntity
  8
0
 62
     0
100
AcDbTrace
 10
-1.0
 20
-0.1
 30
0.0
 11
0.0
 21
0.0
 31
0.0
 12
-1.0
 22
0.1
 32
0.0
 13
-1.0
 23
-0.1
 33
0.0
  0
LINE
  5
AE
330
A3
100
AcDbEntity
  8
0
 62
     0
100
AcDbLine
 10
-1.0
 20
-0.1
 30
0.0
 11
0.0
 21
0.0
 31
0.0
  0
LINE
  5
AF
330
A3
100
AcDbEntity
  8
0
 62
     0
100
AcDbLine
 10
0.0
 20
0.0
 30
0.0
 11
-1.0
 21
0.1
 31
0.0
  0
LINE
  5
B0
330
A3
100
AcDbEntity
  8
0
 62
     0
100
AcDbLine
 10
-1.0
 20
0.1
 30
0.0
 11
-1.0
 21
-0.1
 31
0.0
  0
ENDBLK
  5
A5
330
A3
100
AcDbEntity
  8
0
100
AcDbBlockEnd
  0
BLOCK
  5
C3
330
BE
100
AcDbEntity
  8
0
100
AcDbBlockBegin
  2
_Closed
 70
     0
 10
0.0
 20
0.0
 30
0.0
  3
_Closed
  1

  0
LINE
  5
BF
330
BE
100
AcDbEntity
  8
0
  6
ByBlock
 62
     0
370
    -2
100
AcDbLine
 10
-1.0
 20
0.1666666666666666
 30
0.0
 11
0.0
 21
0.0
 31
0.0
  0
LINE
  5
C0
330
BE
100
AcDbEntity
  8
0
  6
ByBlock
 62
     0
370
    -2
100
AcDbLine
 10
0.0
 20
0.0
 30
0.0
 11
-1.0
 21
-0.1666666666666666
 31
0.0
  0
LINE
  5
C1
330
BE
100
AcDbEntity
  8
0
  6
ByBlock
 62
     0
370
    -2
100
AcDbLine
 10
-1.0
 20
0.1666666666666666
 30
0.0
 11
-1.0
 21
-0.1666666666666666
 31
0.0
  0
LINE
  5
C2
330
BE
100
AcDbEntity
  8
0
  6
ByBlock
 62
     0
370
    -2
100
AcDbLine
 10
0.0
 20
0.0
 30
0.0
 11
-1.0
 21
0.0
 31
0.0
  0
ENDBLK
  5
C4
330
BE
100
AcDbEntity
  8
0
100
AcDbBlockEnd
  0
BLOCK
  5
C6
330
C5
100
AcDbEntity
  8
0
100
AcDbBlockBegin
  2
DatumFilled45
 70
     0
 10
0.0
 20
0.0
 30
0.0
  3
DatumFilled45
  1

  0
POLYLINE
  5
C8
330
C5
100
AcDbEntity
  8
0
 62
     0
100
AcDb2dPolyline
 66
     1
 10
0.0
 20
0.0
 30
0.0
 70
   128
  0
VERTEX
  5
C9
330
C8
100
AcDbEntity
  8
0
 62
     0
100
AcDbVertex
100
AcDb2dVertex
 10
0.0
 20
1.0
 30
0.0
  0
VERTEX
  5
CA
330
C8
100
AcDbEntity
  8
0
 62
     0
100
AcDbVertex
100
AcDb2dVertex
 10
0.0
 20
-1.0
 30
0.0
  0
VERTEX
  5
CC
330
C8
100
AcDbEntity
  8
0
 62
     0
100
AcDbVertex
100
AcDb2dVertex
 10
-1.0
 20
0.0
 30
0.0
  0
VERTEX
  5
CD
330
C8
100
AcDbEntity
  8
0
 62
     0
100
AcDbVertex
100
AcDb2dVertex
 10
0.0
 20
1.0
 30
0.0
  0
SEQEND
  5
CB
330
C8
100
AcDbEntity
  8
0
 62
     0
  0
SOLID
  5
CE
330
C5
100
AcDbEntity
  8
0
 62
     0
100
AcDbTrace
 10
0.0
 20
1.0
 30
0.0
 11
0.0
 21
-1.0
 31
0.0
 12
-1.0
 22
0.0
 32
0.0
 13
0.0
 23
1.0
 33
0.0
  0
ENDBLK
  5
C7
330
C5
100
AcDbEntity
  8
0
100
AcDbBlockEnd
  0
BLOCK
  5
D1
330
D0
100
AcDbEntity
  8
0
100
AcDbBlockBegin
  2
WIG-svarovani
 70
     0
 10
0.0
 20
0.0
 30
0.0
  3
WIG-svarovani
  1

  0
MTEXT
  5
D3
330
D0
100
AcDbEntity
  8
Značka (ISO)
100
AcDbMText
 10
-57.87338256835937
 20
16.31795931607484
 30
0.0
 40
3.499999940395355
 41
115.7467651367187
 71
     1
 72
     1
  3
WIG Schweisung, Nahte sauber geschliffen und poliert\PSichtstege geschliffen mit 240 Korn und abgeklebt.\P\fTahoma|b0|i0;\H3.0000; \P\fTahoma|b0|i0;\H3.5000;WIG svarovani- svary dle potreby zabrousit.\PPohledove plochy brousit (vel. brusnych zrn 240)
  1
\Pa polepit paskou
  7
Text poznámky (ISO)
 73
     1
 44
0.959658920764923
  0
ENDBLK
  5
D2
330
D0
100
AcDbEntity
  8
0
100
AcDbBlockEnd
  0
BLOCK
  5
D6
330
D5
100
AcDbEntity
  8
0
100
AcDbBlockBegin
  2
Popis kotvy_srouby
 70
     0
 10
0.0
 20
0.0
 30
0.0
  3
Popis kotvy_srouby
  1

  0
MTEXT
  5
D8
330
D5
100
AcDbEntity
  8
Značka (ISO)
100
AcDbMText
 10
-39.79761123657226
 20
21.84130281209946
 30
0.0
 40
3.499999940395355
 41
0.0
 71
     1
 72
     1
  1
Vzdalenost nivel. sroubu ca. 1500\PVzdalenost kotev ca. 400\PVzdalenost dist. koliku ca. 250\P\PAbstand der Nivellieschraben ca.1500\PAbstand der Maueranker ca.400\PAbstand der Distanzstege ca.250\P
  7
Text poznámky (ISO)
 73
     2
 44
0.9878841638565063
  0
ENDBLK
  5
D7
330
D5
100
AcDbEntity
  8
0
100
AcDbBlockEnd
  0
BLOCK
  5
DA
330
D9
100
AcDbEntity
  8
0
100
AcDbBlockBegin
  2
Mater. provedeni Art.
 70
     0
 10
0.0
 20
0.0
 30
0.0
  3
Mater. provedeni Art.
  1

  0
LINE
  5
DC
330
D9
100
AcDbEntity
  8
Geometrie náčrtu (ISO)
100
AcDbLine
 10
-35.0
 20
-22.5
 30
0.0
 11
35.0
 21
-22.5
 31
0.0
  0
LINE
  5
DD
330
D9
100
AcDbEntity
  8
Geometrie náčrtu (ISO)
100
AcDbLine
 10
35.0
 20
-22.5
 30
0.0
 11
34.99999999999996
 21
-13.49999999999998
 31
0.0
  0
LINE
  5
DE
330
D9
100
AcDbEntity
  8
Geometrie náčrtu (ISO)
100
AcDbLine
 10
34.99999999999996
 20
-13.49999999999998
 30
0.0
 11
-35.00000000000003
 21
-13.49999999999998
 31
0.0
  0
LINE
  5
DF
330
D9
100
AcDbEntity
  8
Geometrie náčrtu (ISO)
100
AcDbLine
 10
-35.00000000000003
 20
-13.49999999999998
 30
0.0
 11
-35.0
 21
-22.5
 31
0.0
  0
LINE
  5
E0
330
D9
100
AcDbEntity
  8
Geometrie náčrtu (ISO)
100
AcDbLine
 10
-35.00000000000003
 20
-13.49999999999998
 30
0.0
 11
34.99999999999996
 21
-13.49999999999998
 31
0.0
  0
LINE
  5
E1
330
D9
100
AcDbEntity
  8
Geometrie náčrtu (ISO)
100
AcDbLine
 10
34.99999999999996
 20
-13.49999999999998
 30
0.0
 11
34.99999999999996
 21
-4.499999999999992
 31
0.0
  0
LINE
  5
E2
330
D9
100
AcDbEntity
  8
Geometrie náčrtu (ISO)
100
AcDbLine
 10
34.99999999999996
 20
-4.499999999999992
 30
0.0
 11
-35.00000000000003
 21
-4.499999999999992
 31
0.0
  0
LINE
  5
E3
330
D9
100
AcDbEntity
  8
Geometrie náčrtu (ISO)
100
AcDbLine
 10
-35.00000000000003
 20
-4.499999999999992
 30
0.0
 11
-35.00000000000003
 21
-13.49999999999998
 31
0.0
  0
LINE
  5
E4
330
D9
100
AcDbEntity
  8
Geometrie náčrtu (ISO)
100
AcDbLine
 10
-35.00000000000003
 20
-4.499999999999992
 30
0.0
 11
34.99999999999996
 21
-4.499999999999992
 31
0.0
  0
LINE
  5
E5
330
D9
100
AcDbEntity
  8
Geometrie náčrtu (ISO)
100
AcDbLine
 10
34.99999999999996
 20
-4.499999999999992
 30
0.0
 11
34.99999999999996
 21
4.499999999999992
 31
0.0
  0
LINE
  5
E6
330
D9
100
AcDbEntity
  8
Geometrie náčrtu (ISO)
100
AcDbLine
 10
34.99999999999996
 20
4.499999999999992
 30
0.0
 11
-35.00000000000003
 21
4.499999999999992
 31
0.0
  0
LINE
  5
E7
330
D9
100
AcDbEntity
  8
Geometrie náčrtu (ISO)
100
AcDbLine
 10
-35.00000000000003
 20
4.499999999999992
 30
0.0
 11
-35.00000000000003
 21
-4.499999999999992
 31
0.0
  0
LINE
  5
E8
330
D9
100
AcDbEntity
  8
Geometrie náčrtu (ISO)
100
AcDbLine
 10
-35.00000000000003
 20
4.499999999999992
 30
0.0
 11
34.99999999999996
 21
4.499999999999992
 31
0.0
  0
LINE
  5
E9
330
D9
100
AcDbEntity
  8
Geometrie náčrtu (ISO)
100
AcDbLine
 10
34.99999999999996
 20
4.499999999999992
 30
0.0
 11
34.99999999999996
 21
13.50000000000001
 31
0.0
  0
LINE
  5
EA
330
D9
100
AcDbEntity
  8
Geometrie náčrtu (ISO)
100
AcDbLine
 10
34.99999999999996
 20
13.50000000000001
 30
0.0
 11
-35.00000000000003
 21
13.50000000000001
 31
0.0
  0
LINE
  5
EB
330
D9
100
AcDbEntity
  8
Geometrie náčrtu (ISO)
100
AcDbLine
 10
-35.00000000000003
 20
13.50000000000001
 30
0.0
 11
-35.00000000000003
 21
4.499999999999992
 31
0.0
  0
LINE
  5
EC
330
D9
100
AcDbEntity
  8
Geometrie náčrtu (ISO)
100
AcDbLine
 10
-35.00000000000003
 20
13.50000000000001
 30
0.0
 11
34.99999999999996
 21
13.50000000000001
 31
0.0
  0
LINE
  5
ED
330
D9
100
AcDbEntity
  8
Geometrie náčrtu (ISO)
100
AcDbLine
 10
34.99999999999996
 20
13.50000000000001
 30
0.0
 11
34.99999999999996
 21
22.5
 31
0.0
  0
LINE
  5
EE
330
D9
100
AcDbEntity
  8
Geometrie náčrtu (ISO)
100
AcDbLine
 10
34.99999999999996
 20
22.5
 30
0.0
 11
-35.00000000000003
 21
22.5
 31
0.0
  0
LINE
  5
EF
330
D9
100
AcDbEntity
  8
Geometrie náčrtu (ISO)
100
AcDbLine
 10
-35.00000000000003
 20
22.5
 30
0.0
 11
-35.00000000000003
 21
13.50000000000001
 31
0.0
  0
LINE
  5
F0
330
D9
100
AcDbEntity
  8
Geometrie náčrtu (ISO)
100
AcDbLine
 10
-6.999999999999992
 20
22.5
 30
0.0
 11
-6.999999999999992
 21
-22.5
 31
0.0
  0
MTEXT
  5
F1
330
D9
100
AcDbEntity
  8
Značka (ISO)
100
AcDbMText
 10
-5.126613448311374
 20
11.7684641726084
 30
0.0
 40
5.0
 41
0.0
 71
     1
 72
     1
  1
\fTahoma|b0|i0;\H5.0000;xxxxxxxxxxx
  7
Text poznámky (ISO)
 73
     1
 44
1.0
  0
MTEXT
  5
F2
330
D9
100
AcDbEntity
  8
Značka (ISO)
100
AcDbMText
 10
-33.0130165251342
 20
11.7684641726084
 30
0.0
 40
5.0
 41
20.42139291763306
 71
     1
 72
     1
  1
\fTahoma|b0|i0;\H5.0000;xxxxxx
  7
Text poznámky (ISO)
 73
     1
 44
1.0
  0
MTEXT
  5
F3
330
D9
100
AcDbEntity
  8
Značka (ISO)
100
AcDbMText
 10
-32.07756235018873
 20
20.30710993714994
 30
0.0
 40
5.0
 41
13.92583036716939
 71
     1
 72
     1
  1
\fTahoma|b0|i0;\H5.0000;Art.
  7
Text poznámky (ISO)
 73
     1
 44
1.0
  0
MTEXT
  5
F4
330
D9
100
AcDbEntity
  8
Značka (ISO)
100
AcDbMText
 10
4.291672002492319
 20
20.30710993714994
 30
0.0
 40
5.0
 41
0.0
 71
     1
 72
     1
  1
\fTahoma|b0|i0;\H5.0000;Mat.
  7
Text poznámky (ISO)
 73
     1
 44
1.0
  0
MTEXT
  5
F5
330
D9
100
AcDbEntity
  8
Značka (ISO)
100
AcDbMText
 10
-33.0130165251342
 20
2.473781856899819
 30
0.0
 40
5.0
 41
20.42139291763306
 71
     1
 72
     1
  1
\fTahoma|b0|i0;\H5.0000;xxxxxx
  7
Text poznámky (ISO)
 73
     1
 44
1.0
  0
MTEXT
  5
F6
330
D9
100
AcDbEntity
  8
Značka (ISO)
100
AcDbMText
 10
-5.126613448311374
 20
2.473781856899819
 30
0.0
 40
5.0
 41
0.0
 71
     1
 72
     1
  1
\fTahoma|b0|i0;\H5.0000;xxxxxxxxxxx
  7
Text poznámky (ISO)
 73
     1
 44
1.0
  0
MTEXT
  5
F7
330
D9
100
AcDbEntity
  8
Značka (ISO)
100
AcDbMText
 10
-33.0130165251342
 20
-6.862452441171491
 30
0.0
 40
5.0
 41
20.42139291763306
 71
     1
 72
     1
  1
\fTahoma|b0|i0;\H5.0000;xxxxxx
  7
Text poznámky (ISO)
 73
     1
 44
1.0
  0
MTEXT
  5
F8
330
D9
100
AcDbEntity
  8
Značka (ISO)
100
AcDbMText
 10
-5.126613448311374
 20
-6.862452441171491
 30
0.0
 40
5.0
 41
0.0
 71
     1
 72
     1
  1
\fTahoma|b0|i0;\H5.0000;xxxxxxxxxxx
  7
Text poznámky (ISO)
 73
     1
 44
1.0
  0
MTEXT
  5
F9
330
D9
100
AcDbEntity
  8
Značka (ISO)
100
AcDbMText
 10
-33.0130165251342
 20
-15.52177565039578
 30
0.0
 40
5.0
 41
20.42139291763306
 71
     1
 72
     1
  1
\fTahoma|b0|i0;\H5.0000;xxxxxx
  7
Text poznámky (ISO)
 73
     1
 44
1.0
  0
MTEXT
  5
FA
330
D9
100
AcDbEntity
  8
Značka (ISO)
100
AcDbMText
 10
-5.126613448311374
 20
-15.52177565039578
 30
0.0
 40
5.0
 41
0.0
 71
     1
 72
     1
  1
\fTahoma|b0|i0;\H5.0000;xxxxxxxxxxx
  7
Text poznámky (ISO)
 73
     1
 44
1.0
  0
ENDBLK
  5
DB
330
D9
100
AcDbEntity
  8
0
100
AcDbBlockEnd
  0
BLOCK
  5
FC
330
FB
100
AcDbEntity
  8
0
100
AcDbBlockBegin
  2
Art. s popisy
 70
     0
 10
0.0
 20
0.0
 30
0.0
  3
Art. s popisy
  1

  0
LINE
  5
FE
330
FB
100
AcDbEntity
  8
Geometrie náčrtu (ISO)
100
AcDbLine
 10
-60.00000000000081
 20
-22.5
 30
0.0
 11
59.99999999999911
 21
-22.5
 31
0.0
  0
LINE
  5
FF
330
FB
100
AcDbEntity
  8
Geometrie náčrtu (ISO)
100
AcDbLine
 10
59.99999999999911
 20
-22.5
 30
0.0
 11
60.00000000000081
 21
-13.50000000000001
 31
0.0
  0
LINE
  5
100
330
FB
100
AcDbEntity
  8
Geometrie náčrtu (ISO)
100
AcDbLine
 10
60.00000000000081
 20
-13.50000000000001
 30
0.0
 11
-60.00000000000081
 21
-13.49999999999998
 31
0.0
  0
LINE
  5
101
330
FB
100
AcDbEntity
  8
Geometrie náčrtu (ISO)
100
AcDbLine
 10
-60.00000000000081
 20
-13.49999999999998
 30
0.0
 11
-60.00000000000081
 21
-22.5
 31
0.0
  0
LINE
  5
102
330
FB
100
AcDbEntity
  8
Geometrie náčrtu (ISO)
100
AcDbLine
 10
-60.00000000000081
 20
-13.49999999999998
 30
0.0
 11
60.00000000000081
 21
-13.50000000000001
 31
0.0
  0
LINE
  5
103
330
FB
100
AcDbEntity
  8
Geometrie náčrtu (ISO)
100
AcDbLine
 10
60.00000000000081
 20
-13.50000000000001
 30
0.0
 11
59.99999999999911
 21
-4.500000000000028
 31
0.0
  0
LINE
  5
104
330
FB
100
AcDbEntity
  8
Geometrie náčrtu (ISO)
100
AcDbLine
 10
59.99999999999911
 20
-4.500000000000028
 30
0.0
 11
-60.00000000000081
 21
-4.499999999999992
 31
0.0
  0
LINE
  5
105
330
FB
100
AcDbEntity
  8
Geometrie náčrtu (ISO)
100
AcDbLine
 10
-60.00000000000081
 20
-4.499999999999992
 30
0.0
 11
-60.00000000000081
 21
-13.49999999999998
 31
0.0
  0
LINE
  5
106
330
FB
100
AcDbEntity
  8
Geometrie náčrtu (ISO)
100
AcDbLine
 10
-60.00000000000081
 20
-4.499999999999992
 30
0.0
 11
59.99999999999911
 21
-4.500000000000028
 31
0.0
  0
LINE
  5
107
330
FB
100
AcDbEntity
  8
Geometrie náčrtu (ISO)
100
AcDbLine
 10
59.99999999999911
 20
-4.500000000000028
 30
0.0
 11
59.99999999999911
 21
4.499999999999957
 31
0.0
  0
LINE
  5
108
330
FB
100
AcDbEntity
  8
Geometrie náčrtu (ISO)
100
AcDbLine
 10
59.99999999999911
 20
4.499999999999957
 30
0.0
 11
-60.00000000000081
 21
4.499999999999992
 31
0.0
  0
LINE
  5
109
330
FB
100
AcDbEntity
  8
Geometrie náčrtu (ISO)
100
AcDbLine
 10
-60.00000000000081
 20
4.499999999999992
 30
0.0
 11
-60.00000000000081
 21
-4.499999999999992
 31
0.0
  0
LINE
  5
10A
330
FB
100
AcDbEntity
  8
Geometrie náčrtu (ISO)
100
AcDbLine
 10
-60.00000000000081
 20
4.499999999999992
 30
0.0
 11
59.99999999999911
 21
4.499999999999957
 31
0.0
  0
LINE
  5
10B
330
FB
100
AcDbEntity
  8
Geometrie náčrtu (ISO)
100
AcDbLine
 10
59.99999999999911
 20
4.499999999999957
 30
0.0
 11
59.99999999999911
 21
13.49999999999998
 31
0.0
  0
LINE
  5
10C
330
FB
100
AcDbEntity
  8
Geometrie náčrtu (ISO)
100
AcDbLine
 10
59.99999999999911
 20
13.49999999999998
 30
0.0
 11
-60.00000000000081
 21
13.50000000000001
 31
0.0
  0
LINE
  5
10D
330
FB
100
AcDbEntity
  8
Geometrie náčrtu (ISO)
100
AcDbLine
 10
-60.00000000000081
 20
13.50000000000001
 30
0.0
 11
-60.00000000000081
 21
4.499999999999992
 31
0.0
  0
LINE
  5
10E
330
FB
100
AcDbEntity
  8
Geometrie náčrtu (ISO)
100
AcDbLine
 10
-60.00000000000081
 20
13.50000000000001
 30
0.0
 11
59.99999999999911
 21
13.49999999999998
 31
0.0
  0
LINE
  5
10F
330
FB
100
AcDbEntity
  8
Geometrie náčrtu (ISO)
100
AcDbLine
 10
59.99999999999911
 20
13.49999999999998
 30
0.0
 11
59.99999999999911
 21
22.49999999999996
 31
0.0
  0
LINE
  5
110
330
FB
100
AcDbEntity
  8
Geometrie náčrtu (ISO)
100
AcDbLine
 10
59.99999999999911
 20
22.49999999999996
 30
0.0
 11
-60.00000000000081
 21
22.5
 31
0.0
  0
LINE
  5
111
330
FB
100
AcDbEntity
  8
Geometrie náčrtu (ISO)
100
AcDbLine
 10
-60.00000000000081
 20
22.5
 30
0.0
 11
-60.00000000000081
 21
13.50000000000001
 31
0.0
  0
LINE
  5
112
330
FB
100
AcDbEntity
  8
Geometrie náčrtu (ISO)
100
AcDbLine
 10
-32.00000000000081
 20
22.5
 30
0.0
 11
-32.00000000000081
 21
-22.5
 31
0.0
  0
MTEXT
  5
113
330
FB
100
AcDbEntity
  8
Značka (ISO)
100
AcDbMText
 10
-27.63552601875791
 20
11.7684641726084
 30
0.0
 40
5.0
 41
0.0
 71
     1
 72
     1
  1
\fTahoma|b0|i0;\H5.0000;xxxxxxxxxxx
  7
Text poznámky (ISO)
 73
     1
 44
1.0
  0
MTEXT
  5
114
330
FB
100
AcDbEntity
  8
Značka (ISO)
100
AcDbMText
 10
-55.52192909558073
 20
11.7684641726084
 30
0.0
 40
5.0
 41
20.42139291763306
 71
     1
 72
     1
  1
\fTahoma|b0|i0;\H5.0000;xxxxxx
  7
Text poznámky (ISO)
 73
     1
 44
1.0
  0
MTEXT
  5
115
330
FB
100
AcDbEntity
  8
Značka (ISO)
100
AcDbMText
 10
-54.58647492063526
 20
20.30710993714994
 30
0.0
 40
5.0
 41
13.92583036716939
 71
     1
 72
     1
  1
\fTahoma|b0|i0;\H5.0000;Art.
  7
Text poznámky (ISO)
 73
     1
 44
1.0
  0
MTEXT
  5
116
330
FB
100
AcDbEntity
  8
Značka (ISO)
100
AcDbMText
 10
-18.21724056795421
 20
20.30710993714994
 30
0.0
 40
5.0
 41
0.0
 71
     1
 72
     1
  1
\fTahoma|b0|i0;\H5.0000;Popis.
  7
Text poznámky (ISO)
 73
     1
 44
1.0
  0
MTEXT
  5
117
330
FB
100
AcDbEntity
  8
Značka (ISO)
100
AcDbMText
 10
-55.52192909558073
 20
2.473781856899819
 30
0.0
 40
5.0
 41
20.42139291763306
 71
     1
 72
     1
  1
\fTahoma|b0|i0;\H5.0000;xxxxxx
  7
Text poznámky (ISO)
 73
     1
 44
1.0
  0
MTEXT
  5
118
330
FB
100
AcDbEntity
  8
Značka (ISO)
100
AcDbMText
 10
-27.63552601875791
 20
2.473781856899819
 30
0.0
 40
5.0
 41
0.0
 71
     1
 72
     1
  1
\fTahoma|b0|i0;\H5.0000;xxxxxxxxxxx
  7
Text poznámky (ISO)
 73
     1
 44
1.0
  0
MTEXT
  5
119
330
FB
100
AcDbEntity
  8
Značka (ISO)
100
AcDbMText
 10
-55.52192909558073
 20
-6.862452441171491
 30
0.0
 40
5.0
 41
20.42139291763306
 71
     1
 72
     1
  1
\fTahoma|b0|i0;\H5.0000;xxxxxx
  7
Text poznámky (ISO)
 73
     1
 44
1.0
  0
MTEXT
  5
11A
330
FB
100
AcDbEntity
  8
Značka (ISO)
100
AcDbMText
 10
-27.63552601875791
 20
-6.862452441171491
 30
0.0
 40
5.0
 41
0.0
 71
     1
 72
     1
  1
\fTahoma|b0|i0;\H5.0000;xxxxxxxxxxx
  7
Text poznámky (ISO)
 73
     1
 44
1.0
  0
MTEXT
  5
11B
330
FB
100
AcDbEntity
  8
Značka (ISO)
100
AcDbMText
 10
-55.52192909558073
 20
-15.52177565039578
 30
0.0
 40
5.0
 41
20.42139291763306
 71
     1
 72
     1
  1
\fTahoma|b0|i0;\H5.0000;xxxxxx
  7
Text poznámky (ISO)
 73
     1
 44
1.0
  0
MTEXT
  5
11C
330
FB
100
AcDbEntity
  8
Značka (ISO)
100
AcDbMText
 10
-27.63552601875791
 20
-15.52177565039578
 30
0.0
 40
5.0
 41
0.0
 71
     1
 72
     1
  1
\fTahoma|b0|i0;\H5.0000;xxxxxxxxxxx
  7
Text poznámky (ISO)
 73
     1
 44
1.0
  0
ENDBLK
  5
FD
330
FB
100
AcDbEntity
  8
0
100
AcDbBlockEnd
  0
BLOCK
  5
11E
330
11D
100
AcDbEntity
  8
0
100
AcDbBlockBegin
  2
Tryskat
 70
     0
 10
0.0
 20
0.0
 30
0.0
  3
Tryskat
  1

  0
MTEXT
  5
120
330
11D
100
AcDbEntity
  8
Značka (ISO)
100
AcDbMText
 10
-30.20239114761352
 20
5.036920197308063
 30
0.0
 40
3.499999940395355
 41
0.0
 71
     1
 72
     1
  1
Tryskat \P( Blasted , Glasperlstrahken)
  7
Text poznámky (ISO)
 73
     2
 44
0.9878841638565063
  0
ENDBLK
  5
11F
330
11D
100
AcDbEntity
  8
0
100
AcDbBlockEnd
  0
BLOCK
  5
122
330
121
100
AcDbEntity
  8
0
100
AcDbBlockBegin
  2
Morit
 70
     0
 10
0.0
 20
0.0
 30
0.0
  3
Morit
  1

  0
MTEXT
  5
124
330
121
100
AcDbEntity
  8
Značka (ISO)
100
AcDbMText
 10
-19.08124089241028
 20
5.11633675545454
 30
0.0
 40
3.499999940395355
 41
0.0
 71
     1
 72
     1
  1
Morit a pasivovat\P(Pickled, gebeitzt)
  7
Text poznámky (ISO)
 73
     2
 44
0.9878841638565063
  0
ENDBLK
  5
123
330
121
100
AcDbEntity
  8
0
100
AcDbBlockEnd
  0
BLOCK
  5
126
330
125
100
AcDbEntity
  8
0
100
AcDbBlockBegin
  2
zinkovat
 70
     0
 10
0.0
 20
0.0
 30
0.0
  3
zinkovat
  1

  0
MTEXT
  5
128
330
125
100
AcDbEntity
  8
Značka (ISO)
100
AcDbMText
 10
-27.74189710617065
 20
5.049683563411235
 30
0.0
 40
3.499999940395355
 41
0.0
 71
     1
 72
     1
  1
Zarove zinkovat\P(hot galvanized, verzinkt )
  7
Text poznámky (ISO)
 73
     2
 44
0.9878841638565063
  0
ENDBLK
  5
127
330
125
100
AcDbEntity
  8
0
100
AcDbBlockEnd
  0
BLOCK
  5
12A
330
129
100
AcDbEntity
  8
0
100
AcDbBlockBegin
  2
Nater
 70
     0
 10
0.0
 20
0.0
 30
0.0
  3
Nater
  1

  0
MTEXT
  5
12C
330
129
100
AcDbEntity
  8
Značka (ISO)
100
AcDbMText
 10
-25.88411808013916
 20
1.864870421122759
 30
0.0
 40
3.499999940395355
 41
0.0
 71
     1
 72
     1
  1
Lackiert Farbe RAL 5002
  7
Text poznámky (ISO)
 73
     1
 44
1.0
  0
ENDBLK
  5
12B
330
129
100
AcDbEntity
  8
0
100
AcDbBlockEnd
  0
BLOCK
  5
12E
330
12D
100
AcDbEntity
  8
0
100
AcDbBlockBegin
  2
Brus
 70
     0
 10
0.0
 20
0.0
 30
0.0
  3
Brus
  1

  0
MTEXT
  5
130
330
12D
100
AcDbEntity
  8
Značka (ISO)
100
AcDbMText
 10
-23.46616744995117
 20
5.11633675545454
 30
0.0
 40
3.499999940395355
 41
0.0
 71
     1
 72
     1
  1
Brousit\P(geburstet , brushed )
  7
Text poznámky (ISO)
 73
     2
 44
0.9878841638565063
  0
ENDBLK
  5
12F
330
12D
100
AcDbEntity
  8
0
100
AcDbBlockEnd
  0
BLOCK
  5
132
330
131
100
AcDbEntity
  8
0
100
AcDbBlockBegin
  2
Elektroliticky lestit
 70
     0
 10
0.0
 20
0.0
 30
0.0
  3
Elektroliticky lestit
  1

  0
MTEXT
  5
134
330
131
100
AcDbEntity
  8
Značka (ISO)
100
AcDbMText
 10
-18.68841171264648
 20
5.036920197308063
 30
0.0
 40
3.499999940395355
 41
0.0
 71
     1
 72
     1
  1
Elektrolit. lestit\P(Elektropolished )
  7
Text poznámky (ISO)
 73
     2
 44
0.9878841638565063
  0
ENDBLK
  5
133
330
131
100
AcDbEntity
  8
0
100
AcDbBlockEnd
  0
BLOCK
  5
137
330
136
100
AcDbEntity
  8
0
100
AcDbBlockBegin
  2
Rámečky Default Border
 70
     0
 10
0.0
 20
0.0
 30
0.0
  3
Rámečky Default Border
  1

  0
POLYLINE
  5
139
330
136
100
AcDbEntity
  8
Rámeček (ISO)
100
AcDb2dPolyline
 66
     1
 10
0.0
 20
0.0
 30
0.0
 70
   128
  0
VERTEX
  5
13A
330
139
100
AcDbEntity
  8
Rámeček (ISO)
100
AcDbVertex
100
AcDb2dVertex
 10
10.0
 20
10.0
 30
0.0
  0
VERTEX
  5
13B
330
139
100
AcDbEntity
  8
Rámeček (ISO)
100
AcDbVertex
100
AcDb2dVertex
 10
10.0
 20
287.0000076293946
 30
0.0
  0
VERTEX
  5
13D
330
139
100
AcDbEntity
  8
Rámeček (ISO)
100
AcDbVertex
100
AcDb2dVertex
 10
410.0
 20
287.0000076293946
 30
0.0
  0
VERTEX
  5
13E
330
139
100
AcDbEntity
  8
Rámeček (ISO)
100
AcDbVertex
100
AcDb2dVertex
 10
410.0
 20
10.0
 30
0.0
  0
VERTEX
  5
13F
330
139
100
AcDbEntity
  8
Rámeček (ISO)
100
AcDbVertex
100
AcDb2dVertex
 10
10.0
 20
10.0
 30
0.0
  0
SEQEND
  5
13C
330
139
100
AcDbEntity
  8
Rámeček (ISO)
  0
POLYLINE
  5
140
330
136
100
AcDbEntity
  8
Rámeček (ISO)
100
AcDb2dPolyline
 66
     1
 10
0.0
 20
0.0
 30
0.0
 70
   128
  0
VERTEX
  5
141
330
140
100
AcDbEntity
  8
Rámeček (ISO)
100
AcDbVertex
100
AcDb2dVertex
 10
210.0
 20
0.0
 30
0.0
  0
VERTEX
  5
142
330
140
100
AcDbEntity
  8
Rámeček (ISO)
100
AcDbVertex
100
AcDb2dVertex
 10
210.0
 20
10.0
 30
0.0
  0
VERTEX
  5
144
330
140
100
AcDbEntity
  8
Rámeček (ISO)
100
AcDbVertex
100
AcDb2dVertex
 10
207.1132469177246
 20
5.0
 30
0.0
  0
VERTEX
  5
145
330
140
100
AcDbEntity
  8
Rámeček (ISO)
100
AcDbVertex
100
AcDb2dVertex
 10
212.8867530822754
 20
5.0
 30
0.0
  0
VERTEX
  5
146
330
140
100
AcDbEntity
  8
Rámeček (ISO)
100
AcDbVertex
100
AcDb2dVertex
 10
210.0
 20
10.0
 30
0.0
  0
SEQEND
  5
143
330
140
100
AcDbEntity
  8
Rámeček (ISO)
  0
POLYLINE
  5
147
330
136
100
AcDbEntity
  8
Rámeček (ISO)
100
AcDb2dPolyline
 66
     1
 10
0.0
 20
0.0
 30
0.0
 70
   128
  0
VERTEX
  5
148
330
147
100
AcDbEntity
  8
Rámeček (ISO)
100
AcDbVertex
100
AcDb2dVertex
 10
210.0
 20
297.0000076293946
 30
0.0
  0
VERTEX
  5
149
330
147
100
AcDbEntity
  8
Rámeček (ISO)
100
AcDbVertex
100
AcDb2dVertex
 10
210.0
 20
287.0000076293946
 30
0.0
  0
VERTEX
  5
14B
330
147
100
AcDbEntity
  8
Rámeček (ISO)
100
AcDbVertex
100
AcDb2dVertex
 10
207.1132469177246
 20
292.0000076293945
 30
0.0
  0
VERTEX
  5
14C
330
147
100
AcDbEntity
  8
Rámeček (ISO)
100
AcDbVertex
100
AcDb2dVertex
 10
212.8867530822754
 20
292.0000076293945
 30
0.0
  0
VERTEX
  5
14D
330
147
100
AcDbEntity
  8
Rámeček (ISO)
100
AcDbVertex
100
AcDb2dVertex
 10
210.0
 20
287.0000076293946
 30
0.0
  0
SEQEND
  5
14A
330
147
100
AcDbEntity
  8
Rámeček (ISO)
  0
POLYLINE
  5
14E
330
136
100
AcDbEntity
  8
Rámeček (ISO)
100
AcDb2dPolyline
 66
     1
 10
0.0
 20
0.0
 30
0.0
 70
   128
  0
VERTEX
  5
14F
330
14E
100
AcDbEntity
  8
Rámeček (ISO)
100
AcDbVertex
100
AcDb2dVertex
 10
0.0
 20
148.5000038146973
 30
0.0
  0
VERTEX
  5
150
330
14E
100
AcDbEntity
  8
Rámeček (ISO)
100
AcDbVertex
100
AcDb2dVertex
 10
10.0
 20
148.5000038146973
 30
0.0
  0
VERTEX
  5
152
330
14E
100
AcDbEntity
  8
Rámeček (ISO)
100
AcDbVertex
100
AcDb2dVertex
 10
5.0
 20
151.3867473602295
 30
0.0
  0
VERTEX
  5
153
330
14E
100
AcDbEntity
  8
Rámeček (ISO)
100
AcDbVertex
100
AcDb2dVertex
 10
5.0
 20
145.6132507324219
 30
0.0
  0
VERTEX
  5
154
330
14E
100
AcDbEntity
  8
Rámeček (ISO)
100
AcDbVertex
100
AcDb2dVertex
 10
10.0
 20
148.5000038146973
 30
0.0
  0
SEQEND
  5
151
330
14E
100
AcDbEntity
  8
Rámeček (ISO)
  0
POLYLINE
  5
155
330
136
100
AcDbEntity
  8
Rámeček (ISO)
100
AcDb2dPolyline
 66
     1
 10
0.0
 20
0.0
 30
0.0
 70
   128
  0
VERTEX
  5
156
330
155
100
AcDbEntity
  8
Rámeček (ISO)
100
AcDbVertex
100
AcDb2dVertex
 10
420.0
 20
148.5000038146973
 30
0.0
  0
VERTEX
  5
157
330
155
100
AcDbEntity
  8
Rámeček (ISO)
100
AcDbVertex
100
AcDb2dVertex
 10
410.0
 20
148.5000038146973
 30
0.0
  0
VERTEX
  5
159
330
155
100
AcDbEntity
  8
Rámeček (ISO)
100
AcDbVertex
100
AcDb2dVertex
 10
415.0
 20
151.3867473602295
 30
0.0
  0
VERTEX
  5
15A
330
155
100
AcDbEntity
  8
Rámeček (ISO)
100
AcDbVertex
100
AcDb2dVertex
 10
415.0
 20
145.6132507324219
 30
0.0
  0
VERTEX
  5
15B
330
155
100
AcDbEntity
  8
Rámeček (ISO)
100
AcDbVertex
100
AcDb2dVertex
 10
410.0
 20
148.5000038146973
 30
0.0
  0
SEQEND
  5
158
330
155
100
AcDbEntity
  8
Rámeček (ISO)
  0
LINE
  5
15C
330
136
100
AcDbEntity
  8
Rámeček (ISO)
100
AcDbLine
 10
70.0
 20
10.0
 30
0.0
 11
70.0
 21
6.100000143051147
 31
0.0
  0
LINE
  5
15D
330
136
100
AcDbEntity
  8
Rámeček (ISO)
100
AcDbLine
 10
70.0
 20
287.0000076293946
 30
0.0
 11
70.0
 21
290.9000015258789
 31
0.0
  0
LINE
  5
15E
330
136
100
AcDbEntity
  8
Rámeček (ISO)
100
AcDbLine
 10
140.0
 20
10.0
 30
0.0
 11
140.0
 21
6.100000143051147
 31
0.0
  0
LINE
  5
15F
330
136
100
AcDbEntity
  8
Rámeček (ISO)
100
AcDbLine
 10
140.0
 20
287.0000076293946
 30
0.0
 11
140.0
 21
290.9000015258789
 31
0.0
  0
LINE
  5
160
330
136
100
AcDbEntity
  8
Rámeček (ISO)
100
AcDbLine
 10
280.0
 20
10.0
 30
0.0
 11
280.0
 21
6.100000143051147
 31
0.0
  0
LINE
  5
161
330
136
100
AcDbEntity
  8
Rámeček (ISO)
100
AcDbLine
 10
280.0
 20
287.0000076293946
 30
0.0
 11
280.0
 21
290.9000015258789
 31
0.0
  0
LINE
  5
162
330
136
100
AcDbEntity
  8
Rámeček (ISO)
100
AcDbLine
 10
350.0
 20
10.0
 30
0.0
 11
350.0
 21
6.100000143051147
 31
0.0
  0
LINE
  5
163
330
136
100
AcDbEntity
  8
Rámeček (ISO)
100
AcDbLine
 10
350.0
 20
287.0000076293946
 30
0.0
 11
350.0
 21
290.9000015258789
 31
0.0
  0
MTEXT
  5
164
330
136
100
AcDbEntity
  8
Rámeček (ISO)
100
AcDbMText
 10
384.2103922448459
 20
287.4
 30
0.0
 40
3.499999940395355
 41
0.0
 71
     7
 72
     1
  1
1
  7
Text poznámky (ISO)
 73
     1
 44
1.0
  0
MTEXT
  5
165
330
136
100
AcDbEntity
  8
Rámeček (ISO)
100
AcDbMText
 10
384.2103922448459
 20
6.100000059604644
 30
0.0
 40
3.499999940395355
 41
0.0
 71
     7
 72
     1
  1
1
  7
Text poznámky (ISO)
 73
     1
 44
1.0
  0
MTEXT
  5
166
330
136
100
AcDbEntity
  8
Rámeček (ISO)
100
AcDbMText
 10
313.9387915541735
 20
287.4
 30
0.0
 40
3.499999940395355
 41
0.0
 71
     7
 72
     1
  1
2
  7
Text poznámky (ISO)
 73
     1
 44
1.0
  0
MTEXT
  5
167
330
136
100
AcDbEntity
  8
Rámeček (ISO)
100
AcDbMText
 10
313.9387915541735
 20
6.100000059604644
 30
0.0
 40
3.499999940395355
 41
0.0
 71
     7
 72
     1
  1
2
  7
Text poznámky (ISO)
 73
     1
 44
1.0
  0
MTEXT
  5
168
330
136
100
AcDbEntity
  8
Rámeček (ISO)
100
AcDbMText
 10
243.9107914829702
 20
287.3262560764327
 30
0.0
 40
3.499999940395355
 41
0.0
 71
     7
 72
     1
  1
3
  7
Text poznámky (ISO)
 73
     1
 44
1.0
  0
MTEXT
  5
169
330
136
100
AcDbEntity
  8
Rámeček (ISO)
100
AcDbMText
 10
243.9107914829702
 20
6.026256136037408
 30
0.0
 40
3.499999940395355
 41
0.0
 71
     7
 72
     1
  1
3
  7
Text poznámky (ISO)
 73
     1
 44
1.0
  0
MTEXT
  5
16A
330
136
100
AcDbEntity
  8
Rámeček (ISO)
100
AcDbMText
 10
173.7791911483144
 20
287.4
 30
0.0
 40
3.499999940395355
 41
0.0
 71
     7
 72
     1
  1
4
  7
Text poznámky (ISO)
 73
     1
 44
1.0
  0
MTEXT
  5
16B
330
136
100
AcDbEntity
  8
Rámeček (ISO)
100
AcDbMText
 10
173.7791911483144
 20
6.100000059604644
 30
0.0
 40
3.499999940395355
 41
0.0
 71
     7
 72
     1
  1
4
  7
Text poznámky (ISO)
 73
     1
 44
1.0
  0
MTEXT
  5
16C
330
136
100
AcDbEntity
  8
Rámeček (ISO)
100
AcDbMText
 10
103.9751916467378
 20
287.3262560764327
 30
0.0
 40
3.499999940395355
 41
0.0
 71
     7
 72
     1
  1
5
  7
Text poznámky (ISO)
 73
     1
 44
1.0
  0
MTEXT
  5
16D
330
136
100
AcDbEntity
  8
Rámeček (ISO)
100
AcDbMText
 10
103.9751916467378
 20
6.026256136037408
 30
0.0
 40
3.499999940395355
 41
0.0
 71
     7
 72
     1
  1
5
  7
Text poznámky (ISO)
 73
     1
 44
1.0
  0
MTEXT
  5
16E
330
136
100
AcDbEntity
  8
Rámeček (ISO)
100
AcDbMText
 10
33.88279141176685
 20
287.3262560764327
 30
0.0
 40
3.499999940395355
 41
0.0
 71
     7
 72
     1
  1
6
  7
Text poznámky (ISO)
 73
     1
 44
1.0
  0
MTEXT
  5
16F
330
136
100
AcDbEntity
  8
Rámeček (ISO)
100
AcDbMText
 10
33.88279141176685
 20
6.026256136037408
 30
0.0
 40
3.499999940395355
 41
0.0
 71
     7
 72
     1
  1
6
  7
Text poznámky (ISO)
 73
     1
 44
1.0
  0
LINE
  5
170
330
136
100
AcDbEntity
  8
Rámeček (ISO)
100
AcDbLine
 10
10.0
 20
74.25000190734863
 30
0.0
 11
6.100000143051147
 21
74.25000190734863
 31
0.0
  0
LINE
  5
171
330
136
100
AcDbEntity
  8
Rámeček (ISO)
100
AcDbLine
 10
410.0
 20
74.25000190734863
 30
0.0
 11
413.8999938964843
 21
74.25000190734863
 31
0.0
  0
LINE
  5
172
330
136
100
AcDbEntity
  8
Rámeček (ISO)
100
AcDbLine
 10
10.0
 20
222.7499961853027
 30
0.0
 11
6.100000143051147
 21
222.7499961853027
 31
0.0
  0
LINE
  5
173
330
136
100
AcDbEntity
  8
Rámeček (ISO)
100
AcDbLine
 10
410.0
 20
222.7499961853027
 30
0.0
 11
413.8999938964843
 21
222.7499961853027
 31
0.0
  0
MTEXT
  5
174
330
136
100
AcDbEntity
  8
Rámeček (ISO)
100
AcDbMText
 10
6.361230343933396
 20
35.37500002980233
 30
0.0
 40
3.499999940395355
 41
0.0
 71
     7
 72
     1
  1
A
  7
Text poznámky (ISO)
 73
     1
 44
1.0
  0
MTEXT
  5
175
330
136
100
AcDbEntity
  8
Rámeček (ISO)
100
AcDbMText
 10
410.6612302843287
 20
35.37500002980233
 30
0.0
 40
3.499999940395355
 41
0.0
 71
     7
 72
     1
  1
A
  7
Text poznámky (ISO)
 73
     1
 44
1.0
  0
MTEXT
  5
176
330
136
100
AcDbEntity
  8
Rámeček (ISO)
100
AcDbMText
 10
6.781848468328938
 20
109.6250000298023
 30
0.0
 40
3.499999940395355
 41
0.0
 71
     7
 72
     1
  1
B
  7
Text poznámky (ISO)
 73
     1
 44
1.0
  0
MTEXT
  5
177
330
136
100
AcDbEntity
  8
Rámeček (ISO)
100
AcDbMText
 10
411.0818484087242
 20
109.6250000298023
 30
0.0
 40
3.499999940395355
 41
0.0
 71
     7
 72
     1
  1
B
  7
Text poznámky (ISO)
 73
     1
 44
1.0
  0
MTEXT
  5
178
330
136
100
AcDbEntity
  8
Rámeček (ISO)
100
AcDbMText
 10
6.558903094188359
 20
183.8126013241708
 30
0.0
 40
3.499999940395355
 41
0.0
 71
     7
 72
     1
  1
C
  7
Text poznámky (ISO)
 73
     1
 44
1.0
  0
MTEXT
  5
179
330
136
100
AcDbEntity
  8
Rámeček (ISO)
100
AcDbMText
 10
410.8589030345837
 20
183.8126013241708
 30
0.0
 40
3.499999940395355
 41
0.0
 71
     7
 72
     1
  1
C
  7
Text poznámky (ISO)
 73
     1
 44
1.0
  0
MTEXT
  5
17A
330
136
100
AcDbEntity
  8
Rámeček (ISO)
100
AcDbMText
 10
6.56770745709084
 20
258.1250000298023
 30
0.0
 40
3.499999940395355
 41
0.0
 71
     7
 72
     1
  1
D
  7
Text poznámky (ISO)
 73
     1
 44
1.0
  0
MTEXT
  5
17B
330
136
100
AcDbEntity
  8
Rámeček (ISO)
100
AcDbMText
 10
410.8677073974861
 20
258.1250000298023
 30
0.0
 40
3.499999940395355
 41
0.0
 71
     7
 72
     1
  1
D
  7
Text poznámky (ISO)
 73
     1
 44
1.0
  0
ENDBLK
  5
138
330
136
100
AcDbEntity
  8
0
100
AcDbBlockEnd
  0
BLOCK
  5
17E
330
17D
100
AcDbEntity
  8
0
100
AcDbBlockBegin
  2
Rohová razítka ACO-razitko
 70
     2
 10
0.0
 20
0.0
 30
0.0
  3
Rohová razítka ACO-razitko
  1

  0
LINE
  5
180
330
17D
100
AcDbEntity
  8
KOPF
  6
Continuous
370
    25
100
AcDbLine
 10
264.0
 20
94.01203200000001
 30
0.0
 11
264.0
 21
74.00000000000003
 31
0.0
  0
LINE
  5
181
330
17D
100
AcDbEntity
  8
KOPF
  6
Continuous
370
    25
100
AcDbLine
 10
264.0
 20
94.01203200000001
 30
0.0
 11
264.0
 21
74.00000000000003
 31
0.0
  0
CIRCLE
  5
182
330
17D
100
AcDbEntity
  8
TEXT50
  6
Continuous
370
    25
100
AcDbCircle
 10
247.5054493575618
 20
83.04852954632861
 30
0.0
 40
1.979948192651899
  0
LINE
  5
183
330
17D
100
AcDbEntity
  8
TEXT50
  6
Continuous
370
    25
100
AcDbLine
 10
262.4910595621649
 20
85.02847773898061
 30
0.0
 11
262.4910595621649
 21
81.06858135367653
 31
0.0
  0
LINE
  5
184
330
17D
100
AcDbEntity
  8
TEXT50
  6
Continuous
370
    25
100
AcDbLine
 10
253.9413433929653
 20
87.07146289795376
 30
0.0
 11
253.9413433929653
 21
79.02559619470344
 31
0.0
  0
LINE
  5
185
330
17D
100
AcDbEntity
  8
TEXT50
  6
Continuous
370
    25
100
AcDbLine
 10
262.4910595621649
 20
85.02847773898061
 30
0.0
 11
253.9413433929653
 21
87.07146289795376
 31
0.0
  0
CIRCLE
  5
186
330
17D
100
AcDbEntity
  8
TEXT50
  6
Continuous
370
    25
100
AcDbCircle
 10
247.5054493575618
 20
83.04852954632861
 30
0.0
 40
4.022933351625178
  0
LINE
  5
187
330
17D
100
AcDbEntity
  8
TEXT50
  6
Continuous
370
    25
100
AcDbLine
 10
253.9413433929653
 20
79.02559619470344
 30
0.0
 11
262.4910595621649
 21
81.06858135367653
 31
0.0
  0
CIRCLE
  5
188
330
17D
100
AcDbEntity
  8
TEXT35
  6
Continuous
370
    25
100
AcDbCircle
 10
221.0936673107637
 20
101.9131972309053
 30
0.0
 40
2.281499999999998
  0
CIRCLE
  5
189
330
17D
100
AcDbEntity
  8
TEXT35
  6
Continuous
370
    25
100
AcDbCircle
 10
221.0936673107637
 20
101.9131972309053
 30
0.0
 40
1.579499999999999
  0
ARC
  5
18A
330
17D
100
AcDbEntity
  8
TEXT35
  6
Continuous
370
    25
100
AcDbCircle
 10
214.6291610736662
 20
101.9131972309054
 30
0.0
 40
1.579500000000072
100
AcDbArc
 50
31.05580049908738
 51
329.9999999999987
  0
LINE
  5
18B
330
17D
100
AcDbEntity
  8
TEXT35
  6
Continuous
370
    25
100
AcDbLine
 10
215.9822639109751
 20
102.7280180465864
 30
0.0
 11
216.5902852082589
 21
103.0790593062462
 31
0.0
  0
ARC
  5
18C
330
17D
100
AcDbEntity
  8
TEXT35
  6
Continuous
370
    25
100
AcDbCircle
 10
214.6291610736662
 20
101.9131972309052
 30
0.0
 40
2.281500000000015
100
AcDbArc
 50
30.73091726592628
 51
330.0000000000016
  0
LINE
  5
18D
330
17D
100
AcDbEntity
  8
TEXT35
  6
Continuous
370
    25
100
AcDbLine
 10
216.6049980324005
 20
100.7724472309053
 30
0.0
 11
215.9970481989438
 21
101.1234472309053
 31
0.0
  0
LINE
  5
18E
330
17D
100
AcDbEntity
  8
TEXT35
  6
Continuous
370
    25
100
AcDbLine
 10
211.8347763192409
 20
111.6789659312995
 30
0.0
 11
211.8347763192409
 21
98.44416361029551
 31
0.0
  0
LINE
  5
18F
330
17D
100
AcDbEntity
  8
TEXT35
  6
Continuous
370
    25
100
AcDbLine
 10
211.8347763192409
 20
98.44416361029551
 30
0.0
 11
217.4235458280916
 21
98.44416361029551
 31
0.0
  0
LINE
  5
190
330
17D
100
AcDbEntity
  8
TEXT35
  6
Continuous
370
    25
100
AcDbLine
 10
217.4235458280916
 20
98.44416361029551
 30
0.0
 11
217.4235458280916
 21
111.6789659312995
 31
0.0
  0
LINE
  5
191
330
17D
100
AcDbEntity
  8
TEXT35
  6
Continuous
370
    25
100
AcDbLine
 10
217.4235458280916
 20
111.6789659312995
 30
0.0
 11
211.8347763192409
 21
111.6789659312995
 31
0.0
  0
LINE
  5
192
330
17D
100
AcDbEntity
  8
TEXT35
  6
Continuous
370
    25
100
AcDbLine
 10
223.888052065189
 20
111.6789659312995
 30
0.0
 11
223.888052065189
 21
98.44416361029551
 31
0.0
  0
LINE
  5
193
330
17D
100
AcDbEntity
  8
TEXT35
  6
Continuous
370
    25
100
AcDbLine
 10
223.888052065189
 20
98.44416361029551
 30
0.0
 11
218.2992825563384
 21
98.44416361029551
 31
0.0
  0
LINE
  5
194
330
17D
100
AcDbEntity
  8
TEXT35
  6
Continuous
370
    25
100
AcDbLine
 10
218.2992825563384
 20
98.44416361029551
 30
0.0
 11
218.2992825563384
 21
111.6789659312995
 31
0.0
  0
LINE
  5
195
330
17D
100
AcDbEntity
  8
TEXT35
  6
Continuous
370
    25
100
AcDbLine
 10
218.2992825563384
 20
111.6789659312995
 30
0.0
 11
223.888052065189
 21
111.6789659312995
 31
0.0
  0
ARC
  5
196
330
17D
100
AcDbEntity
  8
TEXT35
  6
Continuous
370
    25
100
AcDbCircle
 10
211.499154836569
 20
99.57623034270236
 30
0.0
 40
4.914000000000251
100
AcDbArc
 50
172.305837035409
 51
179.7113029220757
  0
LINE
  5
197
330
17D
100
AcDbEntity
  8
TEXT35
  6
Continuous
370
    25
100
AcDbLine
 10
206.6293963427935
 20
100.2341423522474
 30
0.0
 11
209.6999133303443
 21
100.2341423522474
 31
0.0
  0
ARC
  5
198
330
17D
100
AcDbEntity
  8
TEXT35
  6
Continuous
370
    25
100
AcDbCircle
 10
204.8301548365688
 20
99.57623034270325
 30
0.0
 40
4.914000000000133
100
AcDbArc
 50
0.2886970779141535
 51
7.694162964580896
  0
LINE
  5
199
330
17D
100
AcDbEntity
  8
TEXT35
  6
Continuous
370
    25
100
AcDbLine
 10
209.7440924568018
 20
99.600990481233
 30
0.0
 11
210.4461002543538
 21
99.600990481233
 31
0.0
  0
ARC
  5
19A
330
17D
100
AcDbEntity
  8
TEXT35
  6
Continuous
370
    25
100
AcDbCircle
 10
204.8301548365688
 20
99.5762303427033
 30
0.0
 40
5.616000000000016
100
AcDbArc
 50
0.2526096926473688
 51
53.57642635766914
  0
ARC
  5
19B
330
17D
100
AcDbEntity
  8
TEXT35
  6
Continuous
370
    25
100
AcDbCircle
 10
211.4991548365688
 20
99.57623034270325
 30
0.0
 40
5.616000000000024
100
AcDbArc
 50
126.4235736423304
 51
179.7473903073512
  0
LINE
  5
19C
330
17D
100
AcDbEntity
  8
TEXT35
  6
Continuous
370
    25
100
AcDbLine
 10
205.8832094187838
 20
99.600990481233
 30
0.0
 11
206.5852172163358
 21
99.600990481233
 31
0.0
  0
LINE
  5
19D
330
17D
100
AcDbEntity
  8
TEXT35
  6
Continuous
370
    25
100
AcDbLine
 10
205.3702700821435
 20
111.6789659312995
 30
0.0
 11
205.3702700821435
 21
98.44416361029551
 31
0.0
  0
LINE
  5
19E
330
17D
100
AcDbEntity
  8
TEXT35
  6
Continuous
370
    25
100
AcDbLine
 10
205.3702700821435
 20
98.44416361029551
 30
0.0
 11
210.9590395909941
 21
98.44416361029551
 31
0.0
  0
LINE
  5
19F
330
17D
100
AcDbEntity
  8
TEXT35
  6
Continuous
370
    25
100
AcDbLine
 10
210.9590395909941
 20
98.44416361029551
 30
0.0
 11
210.9590395909941
 21
111.6789659312995
 31
0.0
  0
LINE
  5
1A0
330
17D
100
AcDbEntity
  8
TEXT35
  6
Continuous
370
    25
100
AcDbLine
 10
210.9590395909941
 20
111.6789659312995
 30
0.0
 11
205.3702700821435
 21
111.6789659312995
 31
0.0
  0
ARC
  5
1A1
330
17D
100
AcDbEntity
  8
TEXT35
  6
Continuous
370
    25
100
AcDbCircle
 10
204.830154836569
 20
99.57623034270341
 30
0.0
 40
4.913999999999818
100
AcDbArc
 50
16.0658750272321
 51
47.26788995739759
  0
LINE
  5
1A2
330
17D
100
AcDbEntity
  8
TEXT35
  6
Continuous
370
    25
100
AcDbLine
 10
209.5522343918387
 20
100.9361423522474
 30
0.0
 11
206.7770752812989
 21
100.9361423522474
 31
0.0
  0
ARC
  5
1A3
330
17D
100
AcDbEntity
  8
TEXT35
  6
Continuous
370
    25
100
AcDbCircle
 10
211.4991548365683
 20
99.57623034270339
 30
0.0
 40
4.913999999999566
100
AcDbArc
 50
132.7321100425983
 51
163.9341249727667
  0
LINE
  5
1A4
330
17D
100
AcDbEntity
  8
Nadpis (ISO)
100
AcDbLine
 10
299.0
 20
114.0
 30
0.0
 11
299.0
 21
45.0
 31
0.0
  0
LINE
  5
1A5
330
17D
100
AcDbEntity
  8
Nadpis (ISO)
100
AcDbLine
 10
299.0
 20
45.0
 30
0.0
 11
117.0
 21
44.99999999999999
 31
0.0
  0
LINE
  5
1A6
330
17D
100
AcDbEntity
  8
Nadpis (ISO)
100
AcDbLine
 10
117.0
 20
44.99999999999999
 30
0.0
 11
117.0
 21
114.0
 31
0.0
  0
LINE
  5
1A7
330
17D
100
AcDbEntity
  8
Nadpis (ISO)
100
AcDbLine
 10
117.0
 20
114.0
 30
0.0
 11
299.0
 21
114.0
 31
0.0
  0
LINE
  5
1A8
330
17D
100
AcDbEntity
  8
Nadpis (ISO)
100
AcDbLine
 10
199.0
 20
114.0
 30
0.0
 11
199.0
 21
93.99999999999998
 31
0.0
  0
LINE
  5
1A9
330
17D
100
AcDbEntity
  8
KOPF
100
AcDbLine
 10
199.0
 20
104.0
 30
0.0
 11
117.0
 21
104.0
 31
0.0
  0
LINE
  5
1AA
330
17D
100
AcDbEntity
  8
Nadpis (ISO)
100
AcDbLine
 10
199.0
 20
93.99999999999998
 30
0.0
 11
117.0
 21
93.99999999999996
 31
0.0
  0
LINE
  5
1AB
330
17D
100
AcDbEntity
  8
KOPF
100
AcDbLine
 10
158.0
 20
93.99999999999998
 30
0.0
 11
158.0
 21
114.0
 31
0.0
  0
LINE
  5
1AC
330
17D
100
AcDbEntity
  8
Nadpis (ISO)
100
AcDbLine
 10
199.0
 20
93.99999999999998
 30
0.0
 11
299.0
 21
93.99999999999998
 31
0.0
  0
LINE
  5
1AD
330
17D
100
AcDbEntity
  8
Nadpis (ISO)
100
AcDbLine
 10
216.0
 20
94.00000000000003
 30
0.0
 11
216.0
 21
44.99999999999999
 31
0.0
  0
LINE
  5
1AE
330
17D
100
AcDbEntity
  8
Nadpis (ISO)
100
AcDbLine
 10
299.0
 20
74.00000000000004
 30
0.0
 11
117.0
 21
73.99999999999998
 31
0.0
  0
LINE
  5
1AF
330
17D
100
AcDbEntity
  8
Nadpis (ISO)
100
AcDbLine
 10
186.0
 20
94.0
 30
0.0
 11
186.0
 21
74.00000000000002
 31
0.0
  0
LINE
  5
1B0
330
17D
100
AcDbEntity
  8
KOPF
100
AcDbLine
 10
137.0
 20
93.99999999999998
 30
0.0
 11
137.0
 21
74.0
 31
0.0
  0
LINE
  5
1B1
330
17D
100
AcDbEntity
  8
KOPF
100
AcDbLine
 10
162.0
 20
93.99999999999998
 30
0.0
 11
162.0
 21
74.0
 31
0.0
  0
LINE
  5
1B2
330
17D
100
AcDbEntity
  8
KOPF
100
AcDbLine
 10
186.0
 20
84.0
 30
0.0
 11
117.0
 21
83.99999999999996
 31
0.0
  0
LINE
  5
1B3
330
17D
100
AcDbEntity
  8
KOPF
100
AcDbLine
 10
186.0
 20
79.0
 30
0.0
 11
117.0
 21
78.99999999999997
 31
0.0
  0
LINE
  5
1B4
330
17D
100
AcDbEntity
  8
KOPF
100
AcDbLine
 10
186.0
 20
89.0
 30
0.0
 11
117.0
 21
88.99999999999996
 31
0.0
  0
LINE
  5
1B5
330
17D
100
AcDbEntity
  8
KOPF
100
AcDbLine
 10
216.0
 20
50.0
 30
0.0
 11
299.0
 21
50.0
 31
0.0
  0
LINE
  5
1B6
330
17D
100
AcDbEntity
  8
Nadpis (ISO)
100
AcDbLine
 10
216.0
 20
55.0
 30
0.0
 11
299.0
 21
55.0
 31
0.0
  0
LINE
  5
1B7
330
17D
100
AcDbEntity
  8
KOPF
100
AcDbLine
 10
238.0000000000001
 20
93.99999999999998
 30
0.0
 11
238.0000000000001
 21
74.00000000000003
 31
0.0
  0
LINE
  5
1B8
330
17D
100
AcDbEntity
  8
KOPF
100
AcDbLine
 10
238.0000000000001
 20
84.00000000000003
 30
0.0
 11
216.0
 21
84.00000000000003
 31
0.0
  0
LINE
  5
1B9
330
17D
100
AcDbEntity
  8
Nadpis (ISO)
100
AcDbLine
 10
287.0
 20
74.00000000000004
 30
0.0
 11
287.0
 21
55.0
 31
0.0
  0
LINE
  5
1BA
330
17D
100
AcDbEntity
  8
KOPF
100
AcDbLine
 10
289.0
 20
50.0
 30
0.0
 11
289.0
 21
45.0
 31
0.0
  0
LINE
  5
1BB
330
17D
100
AcDbEntity
  8
Nadpis (ISO)
100
AcDbLine
 10
260.9160465310349
 20
50.0
 30
0.0
 11
260.9160465310349
 21
45.0
 31
0.0
  0
TEXT
  5
1BD
330
17D
100
AcDbEntity
  8
Viditelná tenká (ISO)
100
AcDbText
 10
266.0
 20
84.97994933403729
 30
0.0
 40
1.539999991655349
  1
zum Zweck anderweitiger Benutzung
 41
0.7999999523162842
  7
Styl textu62
100
AcDbText
  0
TEXT
  5
1BF
330
17D
100
AcDbEntity
  8
Viditelná tenká (ISO)
100
AcDbText
 10
266.0
 20
82.63814072439632
 30
0.0
 40
1.539999991655349
  1
mitgeteilt werden und bleibt unser
 41
0.7999999523162842
  7
Styl textu62
100
AcDbText
  0
TEXT
  5
1C0
330
17D
100
AcDbEntity
  8
Viditelná tenká (ISO)
100
AcDbText
 10
266.0
 20
87.26106040199921
 30
0.0
 40
1.539999991655349
  1
noch dritten Personen, insbesondere
 41
0.7999999523162842
  7
Styl textu62
100
AcDbText
  0
TEXT
  5
1C1
330
17D
100
AcDbEntity
  8
Viditelná tenká (ISO)
100
AcDbText
 10
266.0
 20
89.6282322587214
 30
0.0
 40
1.539999991655349
  1
Diese Zeichnung darf weder kopiert
 41
0.7999999523162842
  7
Styl textu62
100
AcDbText
  0
TEXT
  5
1C2
330
17D
100
AcDbEntity
  8
Viditelná tenká (ISO)
100
AcDbText
 10
266.0
 20
80.37532604459599
 30
0.0
 40
1.539999991655349
  1
Eigentum.
 41
0.7999999523162842
  7
Styl textu62
100
AcDbText
  0
TEXT
  5
1C4
330
17D
100
AcDbEntity
  8
Viditelná tenká (ISO)
100
AcDbText
 10
241.877559521167
 20
90.82431699999998
 30
0.0
 40
2.000000029802322
  1
Projektion: ISO-E
 41
0.7999999523162842
  7
Styl textu58
100
AcDbText
  0
TEXT
  5
1C6
330
17D
100
AcDbEntity
  8
Viditelná tenká (ISO)
100
AcDbText
 10
266.0
 20
77.30982488917627
 30
0.0
 40
1.539999991655349
  1
Schutzvermerk nach DIN 34 beachten
 41
0.75
  7
Styl textu63
100
AcDbText
  0
TEXT
  5
1C7
330
17D
100
AcDbEntity
  8
Viditelná tenká (ISO)
100
AcDbText
 10
236.2487793316645
 20
99.38243367792949
 30
0.0
 40
2.000000029802322
  1
582 22 Přibyslav
 41
0.7999999523162842
  7
Styl textu58
100
AcDbText
  0
TEXT
  5
1C9
330
17D
100
AcDbEntity
  8
Viditelná tenká (ISO)
100
AcDbText
 10
261.6984261202779
 20
99.57784645000474
 30
0.0
 40
2.09999993443489
  1
Fax: 0451 / 482529
 41
0.7000000476837159
  7
Styl textu72
100
AcDbText
  0
TEXT
  5
1CA
330
17D
100
AcDbEntity
  8
Viditelná tenká (ISO)
100
AcDbText
 10
236.5351154208068
 20
103.0087314099309
 30
0.0
 40
2.000000029802322
  1
Havličkova 260
 41
0.7999999523162842
  7
Styl textu58
100
AcDbText
  0
TEXT
  5
1CC
330
17D
100
AcDbEntity
  8
TEXT35
100
AcDbText
 10
235.9801354774567
 20
108.2018007493417
 30
0.0
 40
3.000000119209289
  1
ACO Industries
 41
0.7999999523162842
  7
Styl textu75
100
AcDbText
  0
TEXT
  5
1CD
330
17D
100
AcDbEntity
  8
Viditelná tenká (ISO)
100
AcDbText
 10
261.6456899832647
 20
102.9064533471121
 30
0.0
 40
2.09999993443489
  1
Tel.: 0451 / 491660
 41
0.7000000476837159
  7
Styl textu72
100
AcDbText
  0
MTEXT
  5
1CE
330
17D
100
AcDbEntity
  8
Viditelná tenká (ISO)
100
AcDbMText
 10
217.3570092483237
 20
73.27889989032858
 30
0.0
 40
2.000000029802322
 41
0.0
 71
     1
 72
     1
  1
\fArial|b0|i0;\H2.0000;Zeichnung Nr.
  7
Text poznámky (ISO)
 73
     1
 44
1.0
  0
MTEXT
  5
1CF
330
17D
100
AcDbEntity
  8
Viditelná tenká (ISO)
100
AcDbMText
 10
287.9433731401013
 20
72.84063462326733
 30
0.0
 40
2.000000029802322
 41
0.0
 71
     1
 72
     1
  1
\fArial|b0|i0;\H2.0000;Index
  7
Text poznámky (ISO)
 73
     1
 44
1.0
  0
MTEXT
  5
1D0
330
17D
100
AcDbEntity
  8
Viditelná tenká (ISO)
100
AcDbMText
 10
217.1230582952341
 20
52.63510416823109
 30
0.0
 40
2.000000029802322
 41
0.0
 71
     1
 72
     1
  1
\fArial|b0|i0;\H2.0000;Ersatz fur\PErsatz durch
  7
Text poznámky (ISO)
 73
     2
 44
0.9442214369773864
  0
MTEXT
  5
1D1
330
17D
100
AcDbEntity
  8
Viditelná tenká (ISO)
100
AcDbMText
 10
188.916108134284
 20
93.0
 30
0.0
 40
2.000000029802322
 41
0.0
 71
     1
 72
     1
  1
\fArial|b0|i0;\H2.0000;Massstab
  7
Text poznámky (ISO)
 73
     1
 44
1.0
  0
MTEXT
  5
1D2
330
17D
100
AcDbEntity
  8
Viditelná tenká (ISO)
100
AcDbMText
 10
217.0
 20
93.0
 30
0.0
 40
2.000000029802322
 41
0.0
 71
     1
 72
     1
  1
\fArial|b0|i0;\H2.0000;Masseinheit
  7
Text poznámky (ISO)
 73
     1
 44
1.0
  0
MTEXT
  5
1D3
330
17D
100
AcDbEntity
  8
Viditelná tenká (ISO)
100
AcDbMText
 10
118.0
 20
113.0
 30
0.0
 40
2.000000029802322
 41
0.0
 71
     1
 72
     1
  1
\fArial|b0|i0;\H2.0000;Werkstoff.
  7
Text poznámky (ISO)
 73
     1
 44
1.0
  0
MTEXT
  5
1D4
330
17D
100
AcDbEntity
  8
Viditelná tenká (ISO)
100
AcDbMText
 10
159.0
 20
113.0
 30
0.0
 40
2.000000029802322
 41
0.0
 71
     1
 72
     1
  1
\fArial|b0|i0;\H2.0000;Hmotnost
  7
Text poznámky (ISO)
 73
     1
 44
1.0
  0
MTEXT
  5
1D5
330
17D
100
AcDbEntity
  8
Viditelná tenká (ISO)
100
AcDbMText
 10
118.0
 20
103.0
 30
0.0
 40
2.000000029802322
 41
0.0
 71
     1
 72
     1
  1
\fArial|b0|i0;\H2.0000;zul.Abweich.
  7
Text poznámky (ISO)
 73
     1
 44
1.0
  0
MTEXT
  5
1D6
330
17D
100
AcDbEntity
  8
Viditelná tenká (ISO)
100
AcDbMText
 10
159.0
 20
103.0
 30
0.0
 40
2.000000029802322
 41
0.0
 71
     1
 72
     1
  1
\fArial|b0|i0;\H2.0000;Oberflache
  7
Text poznámky (ISO)
 73
     1
 44
1.0
  0
MTEXT
  5
1D7
330
17D
100
AcDbEntity
  8
Viditelná tenká (ISO)
100
AcDbMText
 10
118.2064366962235
 20
87.52498463872976
 30
0.0
 40
2.000000029802322
 41
0.0
 71
     1
 72
     1
  1
\fArial|b0|i0;\H2.0000;Gezeichnet
  7
Text poznámky (ISO)
 73
     1
 44
1.0
  0
MTEXT
  5
1D8
330
17D
100
AcDbEntity
  8
Viditelná tenká (ISO)
100
AcDbMText
 10
118.2064366962235
 20
82.79398756785594
 30
0.0
 40
2.000000029802322
 41
0.0
 71
     1
 72
     1
  1
\fArial|b0|i0;\H2.0000;Gepruft
  7
Text poznámky (ISO)
 73
     1
 44
1.0
  0
MTEXT
  5
1D9
330
17D
100
AcDbEntity
  8
Viditelná tenká (ISO)
100
AcDbMText
 10
118.2064366962235
 20
77.59713566222233
 30
0.0
 40
2.000000029802322
 41
0.0
 71
     1
 72
     1
  1
\fArial|b0|i0;\H2.0000;Update
  7
Text poznámky (ISO)
 73
     1
 44
1.0
  0
MTEXT
  5
1DA
330
17D
100
AcDbEntity
  8
Viditelná tenká (ISO)
100
AcDbMText
 10
143.0
 20
93.0
 30
0.0
 40
2.000000029802322
 41
0.0
 71
     1
 72
     1
  1
\fArial|b0|i0;\H2.0000;Datum
  7
Text poznámky (ISO)
 73
     1
 44
1.0
  0
MTEXT
  5
1DB
330
17D
100
AcDbEntity
  8
Viditelná tenká (ISO)
100
AcDbMText
 10
170.0
 20
93.0
 30
0.0
 40
2.000000029802322
 41
0.0
 71
     1
 72
     1
  1
\fArial|b0|i0;\H2.0000;Name
  7
Text poznámky (ISO)
 73
     1
 44
1.0
  0
MTEXT
  5
1DC
102
{ACAD_XDICTIONARY
360
1350
102
}
330
17D
100
AcDbEntity
  8
Nadpis (ISO)
100
AcDbMText
 10
118.0
 20
71.0
 30
0.0
 40
3.499999940395355
 41
0.0
 71
     1
 72
     1
  1
Ro\U+0161t heelsafe 168x168-25
  7
Text poznámky (ISO)
 73
     1
 44
1.0
  0
MTEXT
  5
1DD
330
17D
100
AcDbEntity
  8
Nadpis (ISO)
100
AcDbMText
 10
138.6542642016321
 20
87.78242706242743
 30
0.0
 40
2.000000029802322
 41
0.0
 71
     1
 72
     1
  1
\fTahoma|b0|i0;\H2.0000;27.10.2010
  7
Text poznámky (ISO)
 73
     1
 44
1.0
  0
MTEXT
  5
1DE
330
17D
100
AcDbEntity
  8
Nadpis (ISO)
100
AcDbMText
 10
118.9147684950603
 20
98.79632878646518
 30
0.0
 40
3.499999940395355
 41
0.0
 71
     1
 72
     1
  1
ISO 2768-m
  7
Text poznámky (ISO)
 73
     1
 44
1.0
  0
MTEXT
  5
1DF
330
17D
100
AcDbEntity
  8
Nadpis (ISO)
100
AcDbMText
 10
162.5831033854
 20
99.20167780246005
 30
0.0
 40
3.499999940395355
 41
0.0
 71
     1
 72
     1
  1
DIN ISO 1302
  7
Text poznámky (ISO)
 73
     1
 44
1.0
  0
MTEXT
  5
1E0
330
17D
100
AcDbEntity
  8
Nadpis (ISO)
100
AcDbMText
 10
262.4743825961981
 20
49.17778241269704
 30
0.0
 40
3.499999940395355
 41
0.0
 71
     1
 72
     1
  1
\fArial|b0|i0;\H3.5000;List:\fArial|b0|i0;\H3.5000;1 \fArial|b0|i0;\H3.5000;/\fArial|b0|i0;\H3.5000;1 
  7
Text poznámky (ISO)
 73
     1
 44
1.0
  0
MTEXT
  5
1E1
102
{ACAD_XDICTIONARY
360
1352
102
}
330
17D
100
AcDbEntity
  8
Nadpis (ISO)
100
AcDbMText
 10
159.4396788094336
 20
109.6756657996811
 30
0.0
 40
3.499999940395355
 41
29.10098367733216
 71
     1
 72
     1
  1
nen\U+00ED
  7
Text poznámky (ISO)
 73
     1
 44
1.0
  0
ATTDEF
  5
1E3
102
{ACAD_XDICTIONARY
360
1153
102
}
330
17D
100
AcDbEntity
  8
Nadpis (ISO)
100
AcDbText
 10
287.4393862219839
 20
62.4856753668063
 30
0.0
 40
3.499999940395355
  1
000
  7
Styl textu9
100
AcDbAttributeDefinition
  3
ČÍSLO REVIZE
  2
ČÍSLO_REVIZE_001
 70
     0
  0
ATTDEF
  5
1E7
102
{ACAD_XDICTIONARY
360
1156
102
}
330
17D
100
AcDbEntity
  8
Nadpis (ISO)
100
AcDbText
 10
289.7753402652471
 20
46.32882590415591
 30
0.0
 40
2.000000029802322
  1
A3
  7
Styl textu40
100
AcDbAttributeDefinition
  3
Sheet Size
  2
Sheet_Size_001
 70
     0
  0
ATTDEF
  5
1E8
102
{ACAD_XDICTIONARY
360
1159
102
}
330
17D
100
AcDbEntity
  8
Nadpis (ISO)
100
AcDbText
 10
230.1305737493188
 20
51.10091360311345
 30
0.0
 40
2.000000029802322
  1
C:\Inventor_DATA\Projekty\FloorDrain B\Rošty\Rošty InDrain pro Guly\Rošt heelsafe\Rošt heelsafe 168x168-25 V2A.iam
  7
Styl textu40
100
AcDbAttributeDefinition
  3
FILENAME AND PATH
  2
FILENAME_AND_PATH_001
 70
     0
  0
ATTDEF
  5
1E9
102
{ACAD_XDICTIONARY
360
115C
102
}
330
17D
100
AcDbEntity
  8
Nadpis (ISO)
100
AcDbText
 10
217.9059771674843
 20
62.42008065196634
 30
0.0
 40
3.499999940395355
  1
408022
  7
Text poznámky (ISO)
100
AcDbAttributeDefinition
  3
PART NUMBER
  2
PART_NUMBER_001
 70
     0
  0
ATTDEF
  5
1EA
102
{ACAD_XDICTIONARY
360
115F
102
}
330
17D
100
AcDbEntity
  8
Nadpis (ISO)
100
AcDbText
 10
118.0
 20
56.50000005960464
 30
0.0
 40
3.499999940395355
  1

  7
Text poznámky (ISO)
 11
118.0
 21
60.0
 31
0.0
100
AcDbAttributeDefinition
  3
PROJECT
  2
PROJECT
 70
     0
 74
     3
  0
ATTDEF
  5
1EC
102
{ACAD_XDICTIONARY
360
1162
102
}
330
17D
100
AcDbEntity
  8
Nadpis (ISO)
100
AcDbText
 10
117.8119543349687
 20
47.73407435882506
 30
0.0
 40
6.99999988079071
  1
408022
  7
Styl textu94
100
AcDbAttributeDefinition
  3
SKLADOVÉ ČÍSLO
  2
SKLADOVÉ_ČÍSLO_001
 70
     0
  0
ATTDEF
  5
1ED
102
{ACAD_XDICTIONARY
360
1165
102
}
330
17D
100
AcDbEntity
  8
Nadpis (ISO)
100
AcDbText
 10
117.5939056808251
 20
105.1756658592858
 30
0.0
 40
3.499999940395355
  1

  7
Text poznámky (ISO)
 11
117.5939056808251
 21
108.6756657996811
 31
0.0
100
AcDbAttributeDefinition
  3
MATERIAL
  2
MATERIAL
 70
     0
 74
     3
  0
ATTDEF
  5
1EE
102
{ACAD_XDICTIONARY
360
1168
102
}
330
17D
100
AcDbEntity
  8
Nadpis (ISO)
100
AcDbText
 10
165.1384565388202
 20
85.7824270326251
 30
0.0
 40
2.000000029802322
  1
onovak
  7
Styl textu40
100
AcDbAttributeDefinition
  3
AUTHOR
  2
AUTHOR_001
 70
     0
  0
ATTDEF
  5
1EF
102
{ACAD_XDICTIONARY
360
116B
102
}
330
17D
100
AcDbEntity
  8
Nadpis (ISO)
100
AcDbText
 10
189.1855699863978
 20
82.50038826992806
 30
0.0
 40
3.499999940395355
  1

  7
Text poznámky (ISO)
 11
189.1855699863978
 21
86.00038821032342
 31
0.0
100
AcDbAttributeDefinition
  3
VS_First
  2
VS_First
 70
     0
 74
     3
  0
ENDBLK
  5
17F
330
17D
100
AcDbEntity
  8
0
100
AcDbBlockEnd
  0
BLOCK
  5
485
330
484
100
AcDbEntity
  8
0
100
AcDbBlockBegin
  2
KUSOVNÍK
 70
     0
 10
0.0
 20
0.0
 30
0.0
  3
KUSOVNÍK
  1

  0
LINE
  5
487
330
484
100
AcDbEntity
  8
Značka (ISO)
100
AcDbLine
 10
410.0
 20
123.4409083783627
 30
0.0
 11
228.0346930119153
 21
123.4409083783627
 31
0.0
  0
LINE
  5
488
330
484
100
AcDbEntity
  8
Značka (ISO)
100
AcDbLine
 10
410.0
 20
123.4409083783627
 30
0.0
 11
410.0
 21
117.0922071814537
 31
0.0
  0
LINE
  5
489
330
484
100
AcDbEntity
  8
Značka (ISO)
100
AcDbLine
 10
228.0346930119153
 20
123.4409083783627
 30
0.0
 11
228.0346930119153
 21
117.0922071814537
 31
0.0
  0
MTEXT
  5
48A
102
{ACAD_XDICTIONARY
360
1354
102
}
330
484
100
AcDbEntity
  8
Značka (ISO)
100
AcDbMText
 10
308.4739680944271
 20
117.8168824285269
 30
0.0
 40
3.499999940395355
 41
0.0
 71
     7
 72
     1
  1
KUSOVN\U+00CDK
  7
Text poznámky (DIN)
 73
     1
 44
1.0
  0
LINE
  5
48C
330
484
100
AcDbEntity
  8
Značka (ISO)
100
AcDbLine
 10
410.0
 20
117.0922071814537
 30
0.0
 11
228.0346930119153
 21
117.0922071814537
 31
0.0
  0
LINE
  5
48D
330
484
100
AcDbEntity
  8
Značka (ISO)
100
AcDbLine
 10
410.0
 20
117.0922071814537
 30
0.0
 11
410.0
 21
110.7435059845448
 31
0.0
  0
MTEXT
  5
48E
102
{ACAD_XDICTIONARY
360
1356
102
}
330
484
100
AcDbEntity
  8
Značka (ISO)
100
AcDbMText
 10
387.1072709453114
 20
111.468181231618
 30
0.0
 40
3.499999940395355
 41
0.0
 71
     7
 72
     1
  1
MATERI\U+00C1L
  7
Text poznámky (DIN)
 73
     1
 44
1.0
  0
LINE
  5
48F
330
484
100
AcDbEntity
  8
Značka (ISO)
100
AcDbLine
 10
384.6
 20
117.0922071814537
 30
0.0
 11
384.6
 21
110.7435059845448
 31
0.0
  0
MTEXT
  5
490
330
484
100
AcDbEntity
  8
Značka (ISO)
100
AcDbMText
 10
360.83227118373
 20
112.1678566128016
 30
0.0
 40
3.499999940395355
 41
0.0
 71
     7
 72
     1
  1
HMOTNOST
  7
Text poznámky (DIN)
 73
     1
 44
1.0
  0
LINE
  5
491
330
484
100
AcDbEntity
  8
Značka (ISO)
100
AcDbLine
 10
359.2
 20
117.0922071814537
 30
0.0
 11
359.2
 21
110.7435059845448
 31
0.0
  0
MTEXT
  5
492
102
{ACAD_XDICTIONARY
360
1358
102
}
330
484
100
AcDbEntity
  8
Značka (ISO)
100
AcDbMText
 10
307.4817957949337
 20
111.468181231618
 30
0.0
 40
3.499999940395355
 41
0.0
 71
     7
 72
     1
  1
SKLADOV\U+00C9 \U+010C\U+00CDSLO
  7
Text poznámky (DIN)
 73
     1
 44
1.0
  0
LINE
  5
493
330
484
100
AcDbEntity
  8
Značka (ISO)
100
AcDbLine
 10
291.8925556539869
 20
117.0922071814537
 30
0.0
 11
291.8925556539869
 21
110.7435059845448
 31
0.0
  0
MTEXT
  5
494
330
484
100
AcDbEntity
  8
Značka (ISO)
100
AcDbMText
 10
265.9134277341836
 20
112.1678566128016
 30
0.0
 40
3.499999940395355
 41
0.0
 71
     7
 72
     1
  1
POPIS
  7
Text poznámky (DIN)
 73
     1
 44
1.0
  0
LINE
  5
495
330
484
100
AcDbEntity
  8
Značka (ISO)
100
AcDbLine
 10
251.573003992712
 20
117.0922071814537
 30
0.0
 11
251.573003992712
 21
110.7435059845448
 31
0.0
  0
MTEXT
  5
496
330
484
100
AcDbEntity
  8
Značka (ISO)
100
AcDbMText
 10
245.3780023082856
 20
112.1678566128016
 30
0.0
 40
3.499999940395355
 41
0.0
 71
     7
 72
     1
  1
KS
  7
Text poznámky (DIN)
 73
     1
 44
1.0
  0
LINE
  5
497
330
484
100
AcDbEntity
  8
Značka (ISO)
100
AcDbLine
 10
244.1756015392895
 20
117.0922071814537
 30
0.0
 11
244.1756015392895
 21
110.7435059845448
 31
0.0
  0
MTEXT
  5
498
330
484
100
AcDbEntity
  8
Značka (ISO)
100
AcDbMText
 10
229.2370937809113
 20
112.1678566128016
 30
0.0
 40
3.499999940395355
 41
0.0
 71
     7
 72
     1
  1
POZICE
  7
Text poznámky (DIN)
 73
     1
 44
1.0
  0
LINE
  5
499
330
484
100
AcDbEntity
  8
Značka (ISO)
100
AcDbLine
 10
228.0346930119153
 20
117.0922071814537
 30
0.0
 11
228.0346930119153
 21
110.7435059845448
 31
0.0
  0
MTEXT
  5
49A
330
484
100
AcDbEntity
  8
Značka (ISO)
100
AcDbMText
 10
385.8024007689961
 20
105.8191554158926
 30
0.0
 40
3.499999940395355
 41
0.0
 71
     7
 72
     1
  1
AISI 304
  7
Text poznámky (DIN)
 73
     1
 44
1.0
  0
MTEXT
  5
49B
330
484
100
AcDbEntity
  8
Značka (ISO)
100
AcDbMText
 10
360.4024007689961
 20
104.770454159379
 30
0.0
 40
3.499999940395355
 41
0.0
 71
     7
 72
     1
  1
0,194 kg
  7
Text poznámky (DIN)
 73
     1
 44
1.0
  0
MTEXT
  5
49C
330
484
100
AcDbEntity
  8
Značka (ISO)
100
AcDbMText
 10
293.094956422983
 20
105.8191554158926
 30
0.0
 40
3.499999940395355
 41
0.0
 71
     7
 72
     1
  1
E53999
  7
Text poznámky (DIN)
 73
     1
 44
1.0
  0
MTEXT
  5
49D
102
{ACAD_XDICTIONARY
360
135A
102
}
330
484
100
AcDbEntity
  8
Značka (ISO)
100
AcDbMText
 10
252.7754047617082
 20
104.5967528134585
 30
0.0
 40
3.499999940395355
 41
0.0
 71
     7
 72
     1
  1
Lemovac\U+00ED p\U+0159\U+00ED\U+010Dka 
  7
Text poznámky (DIN)
 73
     1
 44
1.0
  0
MTEXT
  5
49E
330
484
100
AcDbEntity
  8
Značka (ISO)
100
AcDbMText
 10
252.7754047617082
 20
99.2967529505492
 30
0.0
 40
3.499999940395355
 41
0.0
 71
     7
 72
     1
  1
U 84x168x84-25
  7
Text poznámky (DIN)
 73
     1
 44
1.0
  0
MTEXT
  5
49F
330
484
100
AcDbEntity
  8
Značka (ISO)
100
AcDbMText
 10
246.9526776000623
 20
105.8191554158926
 30
0.0
 40
3.499999940395355
 41
0.0
 71
     7
 72
     1
  1
2
  7
Text poznámky (DIN)
 73
     1
 44
1.0
  0
MTEXT
  5
4A0
330
484
100
AcDbEntity
  8
Značka (ISO)
100
AcDbMText
 10
235.5297480523793
 20
105.8191554158926
 30
0.0
 40
3.499999940395355
 41
0.0
 71
     7
 72
     1
  1
1
  7
Text poznámky (DIN)
 73
     1
 44
1.0
  0
LINE
  5
4A1
330
484
100
AcDbEntity
  8
Značka (ISO)
100
AcDbLine
 10
410.0
 20
110.7435059845448
 30
0.0
 11
228.0346930119153
 21
110.7435059845448
 31
0.0
  0
MTEXT
  5
4A2
330
484
100
AcDbEntity
  8
Značka (ISO)
100
AcDbMText
 10
385.8024007689961
 20
93.12175302207476
 30
0.0
 40
3.499999940395355
 41
0.0
 71
     7
 72
     1
  1
AISI 304
  7
Text poznámky (DIN)
 73
     1
 44
1.0
  0
MTEXT
  5
4A3
330
484
100
AcDbEntity
  8
Značka (ISO)
100
AcDbMText
 10
360.4024007689961
 20
92.07305176556117
 30
0.0
 40
3.499999940395355
 41
0.0
 71
     7
 72
     1
  1
0,077 kg
  7
Text poznámky (DIN)
 73
     1
 44
1.0
  0
MTEXT
  5
4A4
330
484
100
AcDbEntity
  8
Značka (ISO)
100
AcDbMText
 10
293.094956422983
 20
93.12175302207476
 30
0.0
 40
3.499999940395355
 41
0.0
 71
     7
 72
     1
  1
HN-20-3-161-A2
  7
Text poznámky (DIN)
 73
     1
 44
1.0
  0
MTEXT
  5
4A5
102
{ACAD_XDICTIONARY
360
135C
102
}
330
484
100
AcDbEntity
  8
Značka (ISO)
100
AcDbMText
 10
252.7754047617082
 20
91.8993504196406
 30
0.0
 40
3.499999940395355
 41
0.0
 71
     7
 72
     1
  1
Nosn\U+00E1 p\U+0159\U+00ED\U+010Dka 
  7
Text poznámky (DIN)
 73
     1
 44
1.0
  0
MTEXT
  5
4A6
330
484
100
AcDbEntity
  8
Značka (ISO)
100
AcDbMText
 10
252.7754047617082
 20
86.59935055673129
 30
0.0
 40
3.499999940395355
 41
0.0
 71
     7
 72
     1
  1
20x3-162
  7
Text poznámky (DIN)
 73
     1
 44
1.0
  0
MTEXT
  5
4A7
330
484
100
AcDbEntity
  8
Značka (ISO)
100
AcDbMText
 10
246.9526776000623
 20
93.12175302207476
 30
0.0
 40
3.499999940395355
 41
0.0
 71
     7
 72
     1
  1
3
  7
Text poznámky (DIN)
 73
     1
 44
1.0
  0
MTEXT
  5
4A8
330
484
100
AcDbEntity
  8
Značka (ISO)
100
AcDbMText
 10
235.1835221096639
 20
93.12175302207476
 30
0.0
 40
3.499999940395355
 41
0.0
 71
     7
 72
     1
  1
2
  7
Text poznámky (DIN)
 73
     1
 44
1.0
  0
LINE
  5
4A9
330
484
100
AcDbEntity
  8
Značka (ISO)
100
AcDbLine
 10
410.0
 20
98.04610359072691
 30
0.0
 11
228.0346930119153
 21
98.04610359072691
 31
0.0
  0
MTEXT
  5
4AA
330
484
100
AcDbEntity
  8
Značka (ISO)
100
AcDbMText
 10
385.8024007689961
 20
80.42435062825687
 30
0.0
 40
3.499999940395355
 41
0.0
 71
     7
 72
     1
  1
AISI 304
  7
Text poznámky (DIN)
 73
     1
 44
1.0
  0
MTEXT
  5
4AB
330
484
100
AcDbEntity
  8
Značka (ISO)
100
AcDbMText
 10
360.4024007689961
 20
79.37564937174328
 30
0.0
 40
3.499999940395355
 41
0.0
 71
     7
 72
     1
  1
0,027 kg
  7
Text poznámky (DIN)
 73
     1
 44
1.0
  0
MTEXT
  5
4AC
330
484
100
AcDbEntity
  8
Značka (ISO)
100
AcDbMText
 10
293.094956422983
 20
80.42435062825687
 30
0.0
 40
3.499999940395355
 41
0.0
 71
     7
 72
     1
  1
HT-7-161-A2
  7
Text poznámky (DIN)
 73
     1
 44
1.0
  0
MTEXT
  5
4AD
330
484
100
AcDbEntity
  8
Značka (ISO)
100
AcDbMText
 10
252.7754047617082
 20
79.37564937174328
 30
0.0
 40
3.499999940395355
 41
0.0
 71
     7
 72
     1
  1
Triangl 7x7x7-162
  7
Text poznámky (DIN)
 73
     1
 44
1.0
  0
MTEXT
  5
4AE
330
484
100
AcDbEntity
  8
Značka (ISO)
100
AcDbMText
 10
246.0748775333373
 20
80.42435062825687
 30
0.0
 40
3.499999940395355
 41
0.0
 71
     7
 72
     1
  1
12
  7
Text poznámky (DIN)
 73
     1
 44
1.0
  0
MTEXT
  5
4AF
330
484
100
AcDbEntity
  8
Značka (ISO)
100
AcDbMText
 10
235.1835221096639
 20
80.42435062825687
 30
0.0
 40
3.499999940395355
 41
0.0
 71
     7
 72
     1
  1
3
  7
Text poznámky (DIN)
 73
     1
 44
1.0
  0
LINE
  5
4B0
330
484
100
AcDbEntity
  8
Značka (ISO)
100
AcDbLine
 10
410.0
 20
85.34870119690902
 30
0.0
 11
228.0346930119153
 21
85.34870119690902
 31
0.0
  0
LINE
  5
4B1
330
484
100
AcDbEntity
  8
Značka (ISO)
100
AcDbLine
 10
410.0
 20
79.00000000000007
 30
0.0
 11
228.0346930119153
 21
79.00000000000007
 31
0.0
  0
LINE
  5
4B2
330
484
100
AcDbEntity
  8
Značka (ISO)
100
AcDbLine
 10
410.0
 20
110.7435059845448
 30
0.0
 11
410.0
 21
79.00000000000007
 31
0.0
  0
LINE
  5
4B3
330
484
100
AcDbEntity
  8
Značka (ISO)
100
AcDbLine
 10
384.6
 20
110.7435059845448
 30
0.0
 11
384.6
 21
79.00000000000007
 31
0.0
  0
LINE
  5
4B4
330
484
100
AcDbEntity
  8
Značka (ISO)
100
AcDbLine
 10
359.2
 20
110.7435059845448
 30
0.0
 11
359.2
 21
79.00000000000007
 31
0.0
  0
LINE
  5
4B5
330
484
100
AcDbEntity
  8
Značka (ISO)
100
AcDbLine
 10
291.8925556539869
 20
110.7435059845448
 30
0.0
 11
291.8925556539869
 21
79.00000000000007
 31
0.0
  0
LINE
  5
4B6
330
484
100
AcDbEntity
  8
Značka (ISO)
100
AcDbLine
 10
251.573003992712
 20
110.7435059845448
 30
0.0
 11
251.573003992712
 21
79.00000000000007
 31
0.0
  0
LINE
  5
4B7
330
484
100
AcDbEntity
  8
Značka (ISO)
100
AcDbLine
 10
244.1756015392895
 20
110.7435059845448
 30
0.0
 11
244.1756015392895
 21
79.00000000000007
 31
0.0
  0
LINE
  5
4B8
330
484
100
AcDbEntity
  8
Značka (ISO)
100
AcDbLine
 10
228.0346930119153
 20
110.7435059845448
 30
0.0
 11
228.0346930119153
 21
79.00000000000007
 31
0.0
  0
ENDBLK
  5
486
330
484
100
AcDbEntity
  8
0
100
AcDbBlockEnd
  0
BLOCK
  5
4BD
330
4BC
100
AcDbEntity
  8
0
100
AcDbBlockBegin
  2
*D17
 70
     1
 10
0.0
 20
0.0
 30
0.0
  3
*D17
  1

  0
LINE
  5
58E
330
4BC
100
AcDbEntity
  8
Kóta (ISO)
100
AcDbLine
 10
92.18964236299283
 20
394.3181000945461
 30
0.0
 11
92.18964236299283
 21
412.1522443755264
 31
0.0
  0
LINE
  5
58F
330
4BC
100
AcDbEntity
  8
Kóta (ISO)
100
AcDbLine
 10
260.1896423629928
 20
394.3181000945461
 30
0.0
 11
260.1896423629928
 21
412.1522443755264
 31
0.0
  0
LINE
  5
590
330
4BC
100
AcDbEntity
  8
Kóta (ISO)
100
AcDbLine
 10
95.93964236299283
 20
410.6522443755264
 30
0.0
 11
256.4396423629929
 21
410.6522443755264
 31
0.0
  0
SOLID
  5
591
330
4BC
100
AcDbEntity
  8
Kóta (ISO)
100
AcDbTrace
 10
95.93964236299283
 20
411.2772443755264
 30
0.0
 11
95.93964236299283
 21
410.0272443755264
 31
0.0
 12
92.18964236299283
 22
410.6522443755264
 32
0.0
 13
92.18964236299283
 23
410.6522443755264
 33
0.0
  0
SOLID
  5
592
330
4BC
100
AcDbEntity
  8
Kóta (ISO)
100
AcDbTrace
 10
256.4396423629929
 20
411.2772443755264
 30
0.0
 11
256.4396423629929
 21
410.0272443755264
 31
0.0
 12
260.1896423629928
 22
410.6522443755264
 32
0.0
 13
260.1896423629928
 23
410.6522443755264
 33
0.0
  0
MTEXT
  5
593
330
4BC
100
AcDbEntity
  8
Kóta (ISO)
100
AcDbMText
 10
167.6852770171231
 20
417.2850026025243
 30
0.0
 40
5.25
 41
0.0
 71
     1
 72
     1
  1
\A1;168{-1}
  7
Text poznámky (ISO)
 73
     1
 44
1.0
  0
POINT
  5
594
330
4BC
100
AcDbEntity
  8
Defpoints
 62
     0
100
AcDbPoint
 10
92.18964236299283
 20
394.3181000945461
 30
0.0
  0
POINT
  5
595
330
4BC
100
AcDbEntity
  8
Defpoints
 62
     0
100
AcDbPoint
 10
260.1896423629928
 20
394.3181000945461
 30
0.0
  0
POINT
  5
596
330
4BC
100
AcDbEntity
  8
Defpoints
 62
     0
100
AcDbPoint
 10
260.1896423629928
 20
410.6522443755264
 30
0.0
  0
ENDBLK
  5
4BE
330
4BC
100
AcDbEntity
  8
0
100
AcDbBlockEnd
  0
BLOCK
  5
598
330
597
100
AcDbEntity
  8
0
100
AcDbBlockBegin
  2
2dPrevedenyRez0
 70
     0
 10
0.0
 20
0.0
 30
0.0
  3
2dPrevedenyRez0
  1

  0
LINE
  5
59A
330
597
100
AcDbEntity
  8
Čára řezu (ISO)
  6
Continuous
100
AcDbLine
 10
145.9896521882441
 20
109.1507718145355
 30
0.0
 11
145.9896521882442
 21
232.6303378878005
 31
0.0
  0
LINE
  5
59B
330
597
100
AcDbEntity
  8
Čára řezu (ISO)
  6
Continuous
370
    35
100
AcDbLine
 10
145.9896521882441
 20
109.1507718145355
 30
0.0
 11
145.9896521882441
 21
112.0183430584412
 31
0.0
  0
LINE
  5
59C
330
597
100
AcDbEntity
  8
Čára řezu (ISO)
  6
Continuous
370
    35
100
AcDbLine
 10
145.9896521882442
 20
229.7627666438948
 30
0.0
 11
145.9896521882442
 21
232.6303378878005
 31
0.0
  0
LINE
  5
59D
330
597
100
AcDbEntity
  8
Čára řezu (ISO)
  6
Continuous
100
AcDbLine
 10
143.4896521882441
 20
110.5845574364883
 30
0.0
 11
145.9896521882441
 21
110.5845574364883
 31
0.0
  0
POLYLINE
  5
59E
330
597
100
AcDbEntity
  8
Čára řezu (ISO)
  6
Continuous
100
AcDb2dPolyline
 66
     1
 10
0.0
 20
0.0
 30
0.0
 70
   128
  0
VERTEX
  5
59F
330
59E
100
AcDbEntity
  8
Čára řezu (ISO)
  6
Continuous
100
AcDbVertex
100
AcDb2dVertex
 10
143.4896519536175
 20
110.0845603180131
 30
0.0
  0
VERTEX
  5
5A0
330
59E
100
AcDbEntity
  8
Čára řezu (ISO)
  6
Continuous
100
AcDbVertex
100
AcDb2dVertex
 10
145.9896535430747
 20
110.5845590464473
 30
0.0
  0
VERTEX
  5
5A2
330
59E
100
AcDbEntity
  8
Čára řezu (ISO)
  6
Continuous
100
AcDbVertex
100
AcDb2dVertex
 10
143.4896519536175
 20
111.0845577748815
 30
0.0
  0
VERTEX
  5
5A3
330
59E
100
AcDbEntity
  8
Čára řezu (ISO)
  6
Continuous
100
AcDbVertex
100
AcDb2dVertex
 10
143.4896519536175
 20
110.0845603180131
 30
0.0
  0
SEQEND
  5
5A1
330
59E
100
AcDbEntity
  8
Čára řezu (ISO)
  6
Continuous
  0
SOLID
  5
5A4
330
597
100
AcDbEntity
  8
Čára řezu (ISO)
100
AcDbTrace
 10
143.4896519536175
 20
110.0845603180131
 30
0.0
 11
145.9896535430747
 21
110.5845590464473
 31
0.0
 12
143.4896519536175
 22
111.0845577748815
 32
0.0
 13
143.4896519536175
 23
110.0845603180131
 33
0.0
  0
LINE
  5
5A5
330
597
100
AcDbEntity
  8
Čára řezu (ISO)
  6
Continuous
100
AcDbLine
 10
143.4896521882441
 20
110.0845574364883
 30
0.0
 11
145.9896521882441
 21
110.5845574364883
 31
0.0
  0
LINE
  5
5A6
330
597
100
AcDbEntity
  8
Čára řezu (ISO)
  6
Continuous
100
AcDbLine
 10
145.9896521882441
 20
110.5845574364883
 30
0.0
 11
143.4896521882441
 21
111.0845574364883
 31
0.0
  0
LINE
  5
5A7
330
597
100
AcDbEntity
  8
Čára řezu (ISO)
  6
Continuous
100
AcDbLine
 10
143.4896521882441
 20
111.0845574364883
 30
0.0
 11
143.4896521882441
 21
110.0845574364883
 31
0.0
  0
LINE
  5
5A8
330
597
100
AcDbEntity
  8
Čára řezu (ISO)
  6
Continuous
100
AcDbLine
 10
140.7881388306031
 20
110.5845574364883
 30
0.0
 11
143.4896521882441
 21
110.5845574364883
 31
0.0
  0
LINE
  5
5A9
330
597
100
AcDbEntity
  8
Čára řezu (ISO)
  6
Continuous
100
AcDbLine
 10
143.4896521882442
 20
231.1965522658476
 30
0.0
 11
145.9896521882442
 21
231.1965522658476
 31
0.0
  0
POLYLINE
  5
5AA
330
597
100
AcDbEntity
  8
Čára řezu (ISO)
  6
Continuous
100
AcDb2dPolyline
 66
     1
 10
0.0
 20
0.0
 30
0.0
 70
   128
  0
VERTEX
  5
5AB
330
5AA
100
AcDbEntity
  8
Čára řezu (ISO)
  6
Continuous
100
AcDbVertex
100
AcDb2dVertex
 10
143.4896519536175
 20
230.6965522003373
 30
0.0
  0
VERTEX
  5
5AC
330
5AA
100
AcDbEntity
  8
Čára řezu (ISO)
  6
Continuous
100
AcDbVertex
100
AcDb2dVertex
 10
145.9896535430747
 20
231.1965509287715
 30
0.0
  0
VERTEX
  5
5AE
330
5AA
100
AcDbEntity
  8
Čára řezu (ISO)
  6
Continuous
100
AcDbVertex
100
AcDb2dVertex
 10
143.4896519536175
 20
231.6965496572058
 30
0.0
  0
VERTEX
  5
5AF
330
5AA
100
AcDbEntity
  8
Čára řezu (ISO)
  6
Continuous
100
AcDbVertex
100
AcDb2dVertex
 10
143.4896519536175
 20
230.6965522003373
 30
0.0
  0
SEQEND
  5
5AD
330
5AA
100
AcDbEntity
  8
Čára řezu (ISO)
  6
Continuous
  0
SOLID
  5
5B0
330
597
100
AcDbEntity
  8
Čára řezu (ISO)
100
AcDbTrace
 10
143.4896519536175
 20
230.6965522003373
 30
0.0
 11
145.9896535430747
 21
231.1965509287715
 31
0.0
 12
143.4896519536175
 22
231.6965496572058
 32
0.0
 13
143.4896519536175
 23
230.6965522003373
 33
0.0
  0
LINE
  5
5B1
330
597
100
AcDbEntity
  8
Čára řezu (ISO)
  6
Continuous
100
AcDbLine
 10
143.4896521882442
 20
230.6965522658476
 30
0.0
 11
145.9896521882442
 21
231.1965522658476
 31
0.0
  0
LINE
  5
5B2
330
597
100
AcDbEntity
  8
Čára řezu (ISO)
  6
Continuous
100
AcDbLine
 10
145.9896521882442
 20
231.1965522658476
 30
0.0
 11
143.4896521882442
 21
231.6965522658476
 31
0.0
  0
LINE
  5
5B3
330
597
100
AcDbEntity
  8
Čára řezu (ISO)
  6
Continuous
100
AcDbLine
 10
143.4896521882442
 20
231.6965522658476
 30
0.0
 11
143.4896521882442
 21
230.6965522658476
 31
0.0
  0
LINE
  5
5B4
330
597
100
AcDbEntity
  8
Čára řezu (ISO)
  6
Continuous
100
AcDbLine
 10
140.7881388306031
 20
231.1965522658476
 30
0.0
 11
143.4896521882442
 21
231.1965522658476
 31
0.0
  0
MTEXT
  5
5B5
330
597
100
AcDbEntity
  8
Čára řezu (ISO)
100
AcDbMText
 10
133.7601967499065
 20
107.9595575556976
 30
0.0
 40
5.24999976158142
 41
0.0
 71
     7
 72
     1
  1
B
  7
Text popisu (ISO)
 73
     1
 44
1.0
  0
MTEXT
  5
5B6
330
597
100
AcDbEntity
  8
Čára řezu (ISO)
100
AcDbMText
 10
133.7601967499066
 20
228.5715523850569
 30
0.0
 40
5.24999976158142
 41
0.0
 71
     7
 72
     1
  1
B
  7
Text popisu (ISO)
 73
     1
 44
1.0
  0
ENDBLK
  5
599
330
597
100
AcDbEntity
  8
0
100
AcDbBlockEnd
  0
BLOCK
  5
67C
330
67B
100
AcDbEntity
  8
0
100
AcDbBlockBegin
  2
*D19
 70
     1
 10
0.0
 20
0.0
 30
0.0
  3
*D19
  1

  0
LINE
  5
753
330
67B
100
AcDbEntity
  8
Kóta (ISO)
100
AcDbLine
 10
41.3783995172667
 20
60.01388396975763
 30
0.0
 11
41.3783995172667
 21
85.51388396975763
 31
0.0
  0
LINE
  5
754
330
67B
100
AcDbEntity
  8
Kóta (ISO)
100
AcDbLine
 10
178.8783995172667
 20
60.01388396975753
 30
0.0
 11
178.8783995172667
 21
85.51388396975763
 31
0.0
  0
LINE
  5
755
330
67B
100
AcDbEntity
  8
Kóta (ISO)
100
AcDbLine
 10
45.1283995172667
 20
84.01388396975763
 30
0.0
 11
175.1283995172667
 21
84.01388396975763
 31
0.0
  0
SOLID
  5
756
330
67B
100
AcDbEntity
  8
Kóta (ISO)
100
AcDbTrace
 10
45.1283995172667
 20
84.63888396975763
 30
0.0
 11
45.1283995172667
 21
83.38888396975763
 31
0.0
 12
41.3783995172667
 22
84.01388396975763
 32
0.0
 13
41.3783995172667
 23
84.01388396975763
 33
0.0
  0
SOLID
  5
757
330
67B
100
AcDbEntity
  8
Kóta (ISO)
100
AcDbTrace
 10
175.1283995172667
 20
84.63888396975763
 30
0.0
 11
175.1283995172667
 21
83.38888396975763
 31
0.0
 12
178.8783995172667
 22
84.01388396975763
 32
0.0
 13
178.8783995172667
 23
84.01388396975763
 33
0.0
  0
MTEXT
  5
758
330
67B
100
AcDbEntity
  8
Kóta (ISO)
100
AcDbMText
 10
86.37646869120894
 20
91.82075233778986
 30
0.0
 40
5.25
 41
0.0
 71
     1
 72
     1
  1
\A1;{11x12,5=}137,5
  7
Text poznámky (ISO)
 73
     1
 44
1.0
  0
POINT
  5
759
330
67B
100
AcDbEntity
  8
Defpoints
 62
     0
100
AcDbPoint
 10
41.3783995172667
 20
60.01388396975763
 30
0.0
  0
POINT
  5
75A
330
67B
100
AcDbEntity
  8
Defpoints
 62
     0
100
AcDbPoint
 10
178.8783995172667
 20
60.01388396975753
 30
0.0
  0
POINT
  5
75B
330
67B
100
AcDbEntity
  8
Defpoints
 62
     0
100
AcDbPoint
 10
178.8783995172667
 20
84.01388396975763
 30
0.0
  0
ENDBLK
  5
67D
330
67B
100
AcDbEntity
  8
0
100
AcDbBlockEnd
  0
BLOCK
  5
75E
330
75D
100
AcDbEntity
  8
0
100
AcDbBlockBegin
  2
*D20
 70
     1
 10
0.0
 20
0.0
 30
0.0
  3
*D20
  1

  0
LINE
  5
842
330
75D
100
AcDbEntity
  8
Kóta (ISO)
100
AcDbLine
 10
178.8783995172667
 20
60.01388396975753
 30
0.0
 11
178.8783995172667
 21
85.43994725098391
 31
0.0
  0
LINE
  5
843
330
75D
100
AcDbEntity
  8
Kóta (ISO)
100
AcDbLine
 10
194.128399517267
 20
65.87606179624858
 30
0.0
 11
194.128399517267
 21
85.43994725098391
 31
0.0
  0
LINE
  5
844
330
75D
100
AcDbEntity
  8
Kóta (ISO)
100
AcDbLine
 10
182.6283995172667
 20
83.93994725098391
 30
0.0
 11
190.378399517267
 21
83.93994725098391
 31
0.0
  0
LINE
  5
845
330
75D
100
AcDbEntity
  8
Kóta (ISO)
100
AcDbLine
 10
194.128399517267
 20
83.93994725098391
 30
0.0
 11
216.9439495508466
 21
83.93994725098391
 31
0.0
  0
SOLID
  5
846
330
75D
100
AcDbEntity
  8
Kóta (ISO)
100
AcDbTrace
 10
182.6283995172667
 20
84.56494725098391
 30
0.0
 11
182.6283995172667
 21
83.31494725098391
 31
0.0
 12
178.8783995172667
 22
83.93994725098391
 32
0.0
 13
178.8783995172667
 23
83.93994725098391
 33
0.0
  0
SOLID
  5
847
330
75D
100
AcDbEntity
  8
Kóta (ISO)
100
AcDbTrace
 10
190.378399517267
 20
84.56494725098391
 30
0.0
 11
190.378399517267
 21
83.31494725098391
 31
0.0
 12
194.128399517267
 22
83.93994725098391
 32
0.0
 13
194.128399517267
 23
83.93994725098391
 33
0.0
  0
MTEXT
  5
848
330
75D
100
AcDbEntity
  8
Kóta (ISO)
100
AcDbMText
 10
199.021399517267
 20
91.74681561901614
 30
0.0
 40
5.25
 41
0.0
 71
     1
 72
     1
  1
\A1;15,25
  7
Text poznámky (ISO)
 73
     1
 44
1.0
  0
POINT
  5
849
330
75D
100
AcDbEntity
  8
Defpoints
 62
     0
100
AcDbPoint
 10
178.8783995172667
 20
60.01388396975753
 30
0.0
  0
POINT
  5
84A
330
75D
100
AcDbEntity
  8
Defpoints
 62
     0
100
AcDbPoint
 10
194.128399517267
 20
65.87606179624858
 30
0.0
  0
POINT
  5
84B
330
75D
100
AcDbEntity
  8
Defpoints
 62
     0
100
AcDbPoint
 10
194.128399517267
 20
83.93994725098391
 30
0.0
  0
ENDBLK
  5
75F
330
75D
100
AcDbEntity
  8
0
100
AcDbBlockEnd
  0
BLOCK
  5
84E
330
84D
100
AcDbEntity
  8
0
100
AcDbBlockBegin
  2
*D21
 70
     1
 10
0.0
 20
0.0
 30
0.0
  3
*D21
  1

  0
LINE
  5
926
330
84D
100
AcDbEntity
  8
Kóta (ISO)
100
AcDbLine
 10
53.87839951726672
 20
60.01388396975762
 30
0.0
 11
53.87839951726672
 21
72.46918545969773
 31
0.0
  0
LINE
  5
927
330
84D
100
AcDbEntity
  8
Kóta (ISO)
100
AcDbLine
 10
66.37839951726673
 20
60.01388396975761
 30
0.0
 11
66.37839951726673
 21
72.46918545969773
 31
0.0
  0
LINE
  5
928
330
84D
100
AcDbEntity
  8
Kóta (ISO)
100
AcDbLine
 10
57.62839951726672
 20
70.96918545969773
 30
0.0
 11
62.62839951726673
 21
70.96918545969773
 31
0.0
  0
SOLID
  5
929
330
84D
100
AcDbEntity
  8
Kóta (ISO)
100
AcDbTrace
 10
57.62839951726672
 20
71.59418545969773
 30
0.0
 11
57.62839951726672
 21
70.34418545969773
 31
0.0
 12
53.87839951726672
 22
70.96918545969773
 32
0.0
 13
53.87839951726672
 23
70.96918545969773
 33
0.0
  0
SOLID
  5
92A
330
84D
100
AcDbEntity
  8
Kóta (ISO)
100
AcDbTrace
 10
62.62839951726673
 20
71.59418545969773
 30
0.0
 11
62.62839951726673
 21
70.34418545969773
 31
0.0
 12
66.37839951726673
 22
70.96918545969773
 32
0.0
 13
66.37839951726673
 23
70.96918545969773
 33
0.0
  0
MTEXT
  5
92B
330
84D
100
AcDbEntity
  8
Kóta (ISO)
100
AcDbMText
 10
53.70957816065155
 20
78.77605382772997
 30
0.0
 40
5.25
 41
0.0
 71
     1
 72
     1
  1
\A1;12,5
  7
Text poznámky (ISO)
 73
     1
 44
1.0
  0
POINT
  5
92C
330
84D
100
AcDbEntity
  8
Defpoints
 62
     0
100
AcDbPoint
 10
53.87839951726672
 20
60.01388396975762
 30
0.0
  0
POINT
  5
92D
330
84D
100
AcDbEntity
  8
Defpoints
 62
     0
100
AcDbPoint
 10
66.37839951726673
 20
60.01388396975761
 30
0.0
  0
POINT
  5
92E
330
84D
100
AcDbEntity
  8
Defpoints
 62
     0
100
AcDbPoint
 10
66.37839951726673
 20
70.96918545969773
 30
0.0
  0
ENDBLK
  5
84F
330
84D
100
AcDbEntity
  8
0
100
AcDbBlockEnd
  0
BLOCK
  5
931
330
930
100
AcDbEntity
  8
0
100
AcDbBlockBegin
  2
*D22
 70
     1
 10
0.0
 20
0.0
 30
0.0
  3
*D22
  1

  0
LINE
  5
A08
330
930
100
AcDbEntity
  8
Kóta (ISO)
100
AcDbLine
 10
92.18964236295185
 20
178.1193770218194
 30
0.0
 11
92.18964236295185
 21
152.6193770218194
 31
0.0
  0
LINE
  5
A09
330
930
100
AcDbEntity
  8
Kóta (ISO)
100
AcDbLine
 10
124.6896423629516
 20
175.1193770218193
 30
0.0
 11
124.6896423629516
 21
152.6193770218194
 31
0.0
  0
LINE
  5
A0A
330
930
100
AcDbEntity
  8
Kóta (ISO)
100
AcDbLine
 10
95.93964236295185
 20
154.1193770218194
 30
0.0
 11
120.9396423629516
 21
154.1193770218194
 31
0.0
  0
SOLID
  5
A0B
330
930
100
AcDbEntity
  8
Kóta (ISO)
100
AcDbTrace
 10
95.93964236295185
 20
154.7443770218194
 30
0.0
 11
95.93964236295185
 21
153.4943770218194
 31
0.0
 12
92.18964236295185
 22
154.1193770218194
 32
0.0
 13
92.18964236295185
 23
154.1193770218194
 33
0.0
  0
SOLID
  5
A0C
330
930
100
AcDbEntity
  8
Kóta (ISO)
100
AcDbTrace
 10
120.9396423629516
 20
154.7443770218194
 30
0.0
 11
120.9396423629516
 21
153.4943770218194
 31
0.0
 12
124.6896423629516
 22
154.1193770218194
 32
0.0
 13
124.6896423629516
 23
154.1193770218194
 33
0.0
  0
MTEXT
  5
A0D
330
930
100
AcDbEntity
  8
Kóta (ISO)
100
AcDbMText
 10
101.7934032763164
 20
161.9262453898516
 30
0.0
 40
5.25
 41
0.0
 71
     1
 72
     1
  1
\A1;32,5
  7
Text poznámky (ISO)
 73
     1
 44
1.0
  0
POINT
  5
A0E
330
930
100
AcDbEntity
  8
Defpoints
 62
     0
100
AcDbPoint
 10
92.18964236295185
 20
178.1193770218194
 30
0.0
  0
POINT
  5
A0F
330
930
100
AcDbEntity
  8
Defpoints
 62
     0
100
AcDbPoint
 10
124.6896423629516
 20
175.1193770218193
 30
0.0
  0
POINT
  5
A10
330
930
100
AcDbEntity
  8
Defpoints
 62
     0
100
AcDbPoint
 10
124.6896423629516
 20
154.1193770218194
 30
0.0
  0
ENDBLK
  5
932
330
930
100
AcDbEntity
  8
0
100
AcDbBlockEnd
  0
BLOCK
  5
A13
330
A12
100
AcDbEntity
  8
0
100
AcDbBlockBegin
  2
*D23
 70
     1
 10
0.0
 20
0.0
 30
0.0
  3
*D23
  1

  0
LINE
  5
AEA
330
A12
100
AcDbEntity
  8
Kóta (ISO)
100
AcDbLine
 10
124.6896423629516
 20
175.1193770218193
 30
0.0
 11
124.6896423629516
 21
152.6868429883987
 31
0.0
  0
LINE
  5
AEB
330
A12
100
AcDbEntity
  8
Kóta (ISO)
100
AcDbLine
 10
174.6896423629516
 20
175.1193770218193
 30
0.0
 11
174.6896423629516
 21
152.6868429883987
 31
0.0
  0
LINE
  5
AEC
330
A12
100
AcDbEntity
  8
Kóta (ISO)
100
AcDbLine
 10
128.4396423629516
 20
154.1868429883987
 30
0.0
 11
170.9396423629516
 21
154.1868429883987
 31
0.0
  0
SOLID
  5
AED
330
A12
100
AcDbEntity
  8
Kóta (ISO)
100
AcDbTrace
 10
128.4396423629516
 20
154.8118429883987
 30
0.0
 11
128.4396423629516
 21
153.5618429883987
 31
0.0
 12
124.6896423629516
 22
154.1868429883987
 32
0.0
 13
124.6896423629516
 23
154.1868429883987
 33
0.0
  0
SOLID
  5
AEE
330
A12
100
AcDbEntity
  8
Kóta (ISO)
100
AcDbTrace
 10
170.9396423629516
 20
154.8118429883987
 30
0.0
 11
170.9396423629516
 21
153.5618429883987
 31
0.0
 12
174.6896423629516
 22
154.1868429883987
 32
0.0
 13
174.6896423629516
 23
154.1868429883987
 33
0.0
  0
MTEXT
  5
AEF
330
A12
100
AcDbEntity
  8
Kóta (ISO)
100
AcDbMText
 10
146.1126611675184
 20
160.794920221441
 30
0.0
 40
5.25
 41
0.0
 71
     1
 72
     1
  1
\A1;50
  7
Text poznámky (ISO)
 73
     1
 44
1.0
  0
POINT
  5
AF0
330
A12
100
AcDbEntity
  8
Defpoints
 62
     0
100
AcDbPoint
 10
124.6896423629516
 20
175.1193770218193
 30
0.0
  0
POINT
  5
AF1
330
A12
100
AcDbEntity
  8
Defpoints
 62
     0
100
AcDbPoint
 10
174.6896423629516
 20
175.1193770218193
 30
0.0
  0
POINT
  5
AF2
330
A12
100
AcDbEntity
  8
Defpoints
 62
     0
100
AcDbPoint
 10
174.6896423629516
 20
154.1868429883987
 30
0.0
  0
ENDBLK
  5
A14
330
A12
100
AcDbEntity
  8
0
100
AcDbBlockEnd
  0
BLOCK
  5
AFE
330
AFD
100
AcDbEntity
  8
0
100
AcDbBlockBegin
  2
*D24
 70
     1
 10
0.0
 20
0.0
 30
0.0
  3
*D24
  1

  0
LINE
  5
BCF
330
AFD
100
AcDbEntity
  8
Kóta (ISO)
100
AcDbLine
 10
194.128399517267
 20
65.87606179624858
 30
0.0
 11
194.128399517267
 21
101.3980147697979
 31
0.0
  0
LINE
  5
BD0
330
AFD
100
AcDbEntity
  8
Kóta (ISO)
100
AcDbLine
 10
26.12839951726709
 20
65.8760617962487
 30
0.0
 11
26.12839951726709
 21
101.3980147697979
 31
0.0
  0
LINE
  5
BD1
330
AFD
100
AcDbEntity
  8
Kóta (ISO)
100
AcDbLine
 10
190.378399517267
 20
99.8980147697979
 30
0.0
 11
29.87839951726709
 21
99.8980147697979
 31
0.0
  0
SOLID
  5
BD2
330
AFD
100
AcDbEntity
  8
Kóta (ISO)
100
AcDbTrace
 10
190.378399517267
 20
100.5230147697979
 30
0.0
 11
190.378399517267
 21
99.2730147697979
 31
0.0
 12
194.128399517267
 22
99.8980147697979
 32
0.0
 13
194.128399517267
 23
99.8980147697979
 33
0.0
  0
SOLID
  5
BD3
330
AFD
100
AcDbEntity
  8
Kóta (ISO)
100
AcDbTrace
 10
29.87839951726709
 20
100.5230147697979
 30
0.0
 11
29.87839951726709
 21
99.2730147697979
 31
0.0
 12
26.12839951726709
 22
99.8980147697979
 32
0.0
 13
26.12839951726709
 23
99.8980147697979
 33
0.0
  0
MTEXT
  5
BD4
330
AFD
100
AcDbEntity
  8
Kóta (ISO)
100
AcDbMText
 10
101.6240341713974
 20
106.5307729967959
 30
0.0
 40
5.25
 41
0.0
 71
     1
 72
     1
  1
\A1;168{-1}
  7
Text poznámky (ISO)
 73
     1
 44
1.0
  0
POINT
  5
BD5
330
AFD
100
AcDbEntity
  8
Defpoints
 62
     0
100
AcDbPoint
 10
194.128399517267
 20
65.87606179624858
 30
0.0
  0
POINT
  5
BD6
330
AFD
100
AcDbEntity
  8
Defpoints
 62
     0
100
AcDbPoint
 10
26.12839951726709
 20
65.8760617962487
 30
0.0
  0
POINT
  5
BD7
330
AFD
100
AcDbEntity
  8
Defpoints
 62
     0
100
AcDbPoint
 10
26.12839951726709
 20
99.8980147697979
 30
0.0
  0
ENDBLK
  5
AFF
330
AFD
100
AcDbEntity
  8
0
100
AcDbBlockEnd
  0
BLOCK
  5
BDA
330
BD9
100
AcDbEntity
  8
0
100
AcDbBlockBegin
  2
*D25
 70
     1
 10
0.0
 20
0.0
 30
0.0
  3
*D25
  1

  0
LINE
  5
CB1
330
BD9
100
AcDbEntity
  8
Kóta (ISO)
100
AcDbLine
 10
176.1896423629928
 20
369.3181000945443
 30
0.0
 11
176.1896423629928
 21
355.2328046444336
 31
0.0
  0
LINE
  5
CB2
330
BD9
100
AcDbEntity
  8
Kóta (ISO)
100
AcDbLine
 10
92.18964236299283
 20
369.3181000945461
 30
0.0
 11
92.18964236299283
 21
355.2328046444336
 31
0.0
  0
LINE
  5
CB3
330
BD9
100
AcDbEntity
  8
Kóta (ISO)
100
AcDbLine
 10
172.4396423629928
 20
356.7328046444336
 30
0.0
 11
95.93964236299283
 21
356.7328046444336
 31
0.0
  0
SOLID
  5
CB4
330
BD9
100
AcDbEntity
  8
Kóta (ISO)
100
AcDbTrace
 10
172.4396423629928
 20
357.3578046444336
 30
0.0
 11
172.4396423629928
 21
356.1078046444336
 31
0.0
 12
176.1896423629928
 22
356.7328046444336
 32
0.0
 13
176.1896423629928
 23
356.7328046444336
 33
0.0
  0
SOLID
  5
CB5
330
BD9
100
AcDbEntity
  8
Kóta (ISO)
100
AcDbTrace
 10
95.93964236299283
 20
357.3578046444336
 30
0.0
 11
95.93964236299283
 21
356.1078046444336
 31
0.0
 12
92.18964236299283
 22
356.7328046444336
 32
0.0
 13
92.18964236299283
 23
356.7328046444336
 33
0.0
  0
MTEXT
  5
CB6
330
BD9
100
AcDbEntity
  8
Kóta (ISO)
100
AcDbMText
 10
130.468101060105
 20
363.3655628714316
 30
0.0
 40
5.25
 41
0.0
 71
     1
 72
     1
  1
\A1;84
  7
Text poznámky (ISO)
 73
     1
 44
1.0
  0
POINT
  5
CB7
330
BD9
100
AcDbEntity
  8
Defpoints
 62
     0
100
AcDbPoint
 10
176.1896423629928
 20
369.3181000945443
 30
0.0
  0
POINT
  5
CB8
330
BD9
100
AcDbEntity
  8
Defpoints
 62
     0
100
AcDbPoint
 10
92.18964236299283
 20
369.3181000945461
 30
0.0
  0
POINT
  5
CB9
330
BD9
100
AcDbEntity
  8
Defpoints
 62
     0
100
AcDbPoint
 10
92.18964236299283
 20
356.7328046444336
 30
0.0
  0
ENDBLK
  5
BDB
330
BD9
100
AcDbEntity
  8
0
100
AcDbBlockEnd
  0
BLOCK
  5
CBB
330
CBA
100
AcDbEntity
  8
0
100
AcDbBlockBegin
  2
Pozice1
 70
     0
 10
0.0
 20
0.0
 30
0.0
  3
Pozice1
  1

  0
LINE
  5
CBD
330
CBA
100
AcDbEntity
  8
Značka (ISO)
100
AcDbLine
 10
59.45014036316391
 20
191.6416103376911
 30
0.0
 11
61.45976157530132
 21
193.1286956021354
 31
0.0
  0
POLYLINE
  5
CBE
330
CBA
100
AcDbEntity
  8
Značka (ISO)
100
AcDb2dPolyline
 66
     1
 10
0.0
 20
0.0
 30
0.0
 70
   128
  0
VERTEX
  5
CBF
330
CBE
100
AcDbEntity
  8
Značka (ISO)
100
AcDbVertex
100
AcDb2dVertex
 10
59.74755764007568
 20
191.2396812438965
 30
0.0
  0
VERTEX
  5
CC0
330
CBE
100
AcDbEntity
  8
Značka (ISO)
100
AcDbVertex
100
AcDb2dVertex
 10
61.45976066589355
 20
193.1287002563476
 30
0.0
  0
VERTEX
  5
CC2
330
CBE
100
AcDbEntity
  8
Značka (ISO)
100
AcDbVertex
100
AcDb2dVertex
 10
59.15272235870361
 20
192.0435333251953
 30
0.0
  0
VERTEX
  5
CC3
330
CBE
100
AcDbEntity
  8
Značka (ISO)
100
AcDbVertex
100
AcDb2dVertex
 10
59.74755764007568
 20
191.2396812438965
 30
0.0
  0
SEQEND
  5
CC1
330
CBE
100
AcDbEntity
  8
Značka (ISO)
  0
SOLID
  5
CC4
330
CBA
100
AcDbEntity
  8
Značka (ISO)
100
AcDbTrace
 10
59.74755764007568
 20
191.2396812438965
 30
0.0
 11
61.45976066589355
 21
193.1287002563476
 31
0.0
 12
59.15272235870361
 22
192.0435333251953
 32
0.0
 13
59.74755764007568
 23
191.2396812438965
 33
0.0
  0
LINE
  5
CC5
330
CBA
100
AcDbEntity
  8
Značka (ISO)
100
AcDbLine
 10
59.74755741605278
 20
191.2396860952636
 30
0.0
 11
61.45976157530132
 21
193.1286956021354
 31
0.0
  0
LINE
  5
CC6
330
CBA
100
AcDbEntity
  8
Značka (ISO)
100
AcDbLine
 10
61.45976157530132
 20
193.1286956021354
 30
0.0
 11
59.15272331027505
 21
192.0435345801186
 31
0.0
  0
LINE
  5
CC7
330
CBA
100
AcDbEntity
  8
Značka (ISO)
100
AcDbLine
 10
59.15272331027505
 20
192.0435345801186
 30
0.0
 11
59.74755741605278
 21
191.2396860952636
 31
0.0
  0
LINE
  5
CC8
330
CBA
100
AcDbEntity
  8
Značka (ISO)
100
AcDbLine
 10
59.45014036316391
 20
191.6416103376911
 30
0.0
 11
54.21328577679822
 21
187.7664276712327
 31
0.0
  0
MTEXT
  5
CC9
330
CBA
100
AcDbEntity
  8
Značka (ISO)
100
AcDbMText
 10
46.33828613442608
 20
194.3374362342743
 30
0.0
 40
5.24999976158142
 41
0.0
 71
     5
 72
     1
  1
1
  7
Text popisu (ISO)
 73
     1
 44
1.0
  0
LINE
  5
CCA
330
CBA
100
AcDbEntity
  8
Značka (ISO)
100
AcDbLine
 10
54.21328577679822
 20
187.7664276712327
 30
0.0
 11
38.46328649205395
 21
187.7664276712327
 31
0.0
  0
ENDBLK
  5
CBC
330
CBA
100
AcDbEntity
  8
0
100
AcDbBlockEnd
  0
BLOCK
  5
CCD
330
CCC
100
AcDbEntity
  8
0
100
AcDbBlockBegin
  2
Pozice2
 70
     0
 10
0.0
 20
0.0
 30
0.0
  3
Pozice2
  1

  0
LINE
  5
CCF
330
CCC
100
AcDbEntity
  8
Značka (ISO)
100
AcDbLine
 10
80.96136473250654
 20
186.1891266499066
 30
0.0
 11
83.12642824196776
 21
187.4391266499064
 31
0.0
  0
POLYLINE
  5
CD0
330
CCC
100
AcDbEntity
  8
Značka (ISO)
100
AcDb2dPolyline
 66
     1
 10
0.0
 20
0.0
 30
0.0
 70
   128
  0
VERTEX
  5
CD1
330
CD0
100
AcDbEntity
  8
Značka (ISO)
100
AcDbVertex
100
AcDb2dVertex
 10
81.21136665344238
 20
185.7561111450195
 30
0.0
  0
VERTEX
  5
CD2
330
CD0
100
AcDbEntity
  8
Značka (ISO)
100
AcDbVertex
100
AcDb2dVertex
 10
83.1264305114746
 20
187.4391174316406
 30
0.0
  0
VERTEX
  5
CD4
330
CD0
100
AcDbEntity
  8
Značka (ISO)
100
AcDbVertex
100
AcDb2dVertex
 10
80.71136474609375
 20
186.622142791748
 30
0.0
  0
VERTEX
  5
CD5
330
CD0
100
AcDbEntity
  8
Značka (ISO)
100
AcDbVertex
100
AcDb2dVertex
 10
81.21136665344238
 20
185.7561111450195
 30
0.0
  0
SEQEND
  5
CD3
330
CD0
100
AcDbEntity
  8
Značka (ISO)
  0
SOLID
  5
CD6
330
CCC
100
AcDbEntity
  8
Značka (ISO)
100
AcDbTrace
 10
81.21136665344238
 20
185.7561111450195
 30
0.0
 11
83.1264305114746
 21
187.4391174316406
 31
0.0
 12
80.71136474609375
 22
186.622142791748
 32
0.0
 13
81.21136665344238
 23
185.7561111450195
 33
0.0
  0
LINE
  5
CD7
330
CCC
100
AcDbEntity
  8
Značka (ISO)
100
AcDbLine
 10
81.21136473250651
 20
185.7561139480144
 30
0.0
 11
83.12642824196776
 21
187.4391266499064
 31
0.0
  0
LINE
  5
CD8
330
CCC
100
AcDbEntity
  8
Značka (ISO)
100
AcDbLine
 10
83.12642824196776
 20
187.4391266499064
 30
0.0
 11
80.71136473250659
 21
186.6221393517989
 31
0.0
  0
LINE
  5
CD9
330
CCC
100
AcDbEntity
  8
Značka (ISO)
100
AcDbLine
 10
80.71136473250659
 20
186.6221393517989
 30
0.0
 11
81.21136473250651
 21
185.7561139480144
 31
0.0
  0
LINE
  5
CDA
330
CCC
100
AcDbEntity
  8
Značka (ISO)
100
AcDbLine
 10
80.96136473250654
 20
186.1891266499066
 30
0.0
 11
54.21328577679822
 21
170.7461160645266
 31
0.0
  0
MTEXT
  5
CDB
330
CCC
100
AcDbEntity
  8
Značka (ISO)
100
AcDbMText
 10
46.33828613442608
 20
177.3639235124369
 30
0.0
 40
5.24999976158142
 41
0.0
 71
     5
 72
     1
  1
2
  7
Text popisu (ISO)
 73
     1
 44
1.0
  0
LINE
  5
CDC
330
CCC
100
AcDbEntity
  8
Značka (ISO)
100
AcDbLine
 10
54.21328577679822
 20
170.7461160645266
 30
0.0
 11
38.46328649205395
 21
170.7461160645266
 31
0.0
  0
ENDBLK
  5
CCE
330
CCC
100
AcDbEntity
  8
0
100
AcDbBlockEnd
  0
BLOCK
  5
CDF
330
CDE
100
AcDbEntity
  8
0
100
AcDbBlockBegin
  2
Pozice3
 70
     0
 10
0.0
 20
0.0
 30
0.0
  3
Pozice3
  1

  0
LINE
  5
CE1
330
CDE
100
AcDbEntity
  8
Značka (ISO)
100
AcDbLine
 10
66.66529807839442
 20
162.9740497515323
 30
0.0
 11
68.75661943762837
 21
164.3438581222221
 31
0.0
  0
POLYLINE
  5
CE2
330
CDE
100
AcDbEntity
  8
Značka (ISO)
100
AcDb2dPolyline
 66
     1
 10
0.0
 20
0.0
 30
0.0
 70
   128
  0
VERTEX
  5
CE3
330
CE2
100
AcDbEntity
  8
Značka (ISO)
100
AcDbVertex
100
AcDb2dVertex
 10
66.93925857543945
 20
162.5557899475097
 30
0.0
  0
VERTEX
  5
CE4
330
CE2
100
AcDbEntity
  8
Značka (ISO)
100
AcDbVertex
100
AcDb2dVertex
 10
68.75661849975585
 20
164.3438529968261
 30
0.0
  0
VERTEX
  5
CE6
330
CE2
100
AcDbEntity
  8
Značka (ISO)
100
AcDbVertex
100
AcDb2dVertex
 10
66.3913345336914
 20
163.3923149108887
 30
0.0
  0
VERTEX
  5
CE7
330
CE2
100
AcDbEntity
  8
Značka (ISO)
100
AcDbVertex
100
AcDb2dVertex
 10
66.93925857543945
 20
162.5557899475097
 30
0.0
  0
SEQEND
  5
CE5
330
CE2
100
AcDbEntity
  8
Značka (ISO)
  0
SOLID
  5
CE8
330
CDE
100
AcDbEntity
  8
Značka (ISO)
100
AcDbTrace
 10
66.93925857543945
 20
162.5557899475097
 30
0.0
 11
68.75661849975585
 21
164.3438529968261
 31
0.0
 12
66.3913345336914
 22
163.3923149108887
 32
0.0
 13
66.93925857543945
 23
162.5557899475097
 33
0.0
  0
LINE
  5
CE9
330
CDE
100
AcDbEntity
  8
Značka (ISO)
100
AcDbLine
 10
66.93925975253238
 20
162.5557854796855
 30
0.0
 11
68.75661943762837
 21
164.3438581222221
 31
0.0
  0
LINE
  5
CEA
330
CDE
100
AcDbEntity
  8
Značka (ISO)
100
AcDbLine
 10
68.75661943762837
 20
164.3438581222221
 30
0.0
 11
66.39133640425646
 21
163.3923140233791
 31
0.0
  0
LINE
  5
CEB
330
CDE
100
AcDbEntity
  8
Značka (ISO)
100
AcDbLine
 10
66.39133640425646
 20
163.3923140233791
 30
0.0
 11
66.93925975253238
 21
162.5557854796855
 31
0.0
  0
LINE
  5
CEC
330
CDE
100
AcDbEntity
  8
Značka (ISO)
100
AcDbLine
 10
66.66529807839442
 20
162.9740497515323
 30
0.0
 11
54.21328577679824
 21
154.8180240851056
 31
0.0
  0
MTEXT
  5
CED
330
CDE
100
AcDbEntity
  8
Značka (ISO)
100
AcDbMText
 10
46.33828613442611
 20
161.6017553435799
 30
0.0
 40
5.24999976158142
 41
0.0
 71
     5
 72
     1
  1
3
  7
Text popisu (ISO)
 73
     1
 44
1.0
  0
LINE
  5
CEE
330
CDE
100
AcDbEntity
  8
Značka (ISO)
100
AcDbLine
 10
54.21328577679824
 20
154.8180240851056
 30
0.0
 11
38.46328649205398
 21
154.8180240851056
 31
0.0
  0
ENDBLK
  5
CE0
330
CDE
100
AcDbEntity
  8
0
100
AcDbBlockEnd
  0
BLOCK
  5
CF2
330
CF1
100
AcDbEntity
  8
0
100
AcDbBlockBegin
  2
*D29
 70
     1
 10
0.0
 20
0.0
 30
0.0
  3
*D29
  1

  0
LINE
  5
DE3
330
CF1
100
AcDbEntity
  8
Kóta (ISO)
100
AcDbLine
 10
191.128399517267
 20
40.87606179624858
 30
0.0
 11
191.128399517267
 21
25.14485220494159
 31
0.0
  0
LINE
  5
DE4
330
CF1
100
AcDbEntity
  8
Kóta (ISO)
100
AcDbLine
 10
194.128399517267
 20
40.87606179624858
 30
0.0
 11
194.128399517267
 21
25.14485220494159
 31
0.0
  0
LINE
  5
DE5
330
CF1
100
AcDbEntity
  8
Kóta (ISO)
100
AcDbLine
 10
187.378399517267
 20
26.64485220494159
 30
0.0
 11
183.628399517267
 21
26.64485220494159
 31
0.0
  0
LINE
  5
DE6
330
CF1
100
AcDbEntity
  8
Kóta (ISO)
100
AcDbLine
 10
197.878399517267
 20
26.64485220494159
 30
0.0
 11
207.1052994501079
 21
26.64485220494159
 31
0.0
  0
LINE
  5
DE7
330
CF1
100
AcDbEntity
  8
Kóta (ISO)
100
AcDbLine
 10
191.128399517267
 20
26.64485220494159
 30
0.0
 11
194.128399517267
 21
26.64485220494159
 31
0.0
  0
SOLID
  5
DE8
330
CF1
100
AcDbEntity
  8
Kóta (ISO)
100
AcDbTrace
 10
187.378399517267
 20
27.26985220494159
 30
0.0
 11
187.378399517267
 21
26.01985220494159
 31
0.0
 12
191.128399517267
 22
26.64485220494159
 32
0.0
 13
191.128399517267
 23
26.64485220494159
 33
0.0
  0
SOLID
  5
DE9
330
CF1
100
AcDbEntity
  8
Kóta (ISO)
100
AcDbTrace
 10
197.878399517267
 20
27.26985220494159
 30
0.0
 11
197.878399517267
 21
26.01985220494159
 31
0.0
 12
194.128399517267
 22
26.64485220494159
 32
0.0
 13
194.128399517267
 23
26.64485220494159
 33
0.0
  0
MTEXT
  5
DEA
330
CF1
100
AcDbEntity
  8
Kóta (ISO)
100
AcDbMText
 10
202.771399517267
 20
33.25645529426328
 30
0.0
 40
5.25
 41
0.0
 71
     1
 72
     1
  1
\A1;3
  7
Text poznámky (ISO)
 73
     1
 44
1.0
  0
POINT
  5
DEB
330
CF1
100
AcDbEntity
  8
Defpoints
 62
     0
100
AcDbPoint
 10
191.128399517267
 20
40.87606179624858
 30
0.0
  0
POINT
  5
DEC
330
CF1
100
AcDbEntity
  8
Defpoints
 62
     0
100
AcDbPoint
 10
194.128399517267
 20
40.87606179624858
 30
0.0
  0
POINT
  5
DED
330
CF1
100
AcDbEntity
  8
Defpoints
 62
     0
100
AcDbPoint
 10
194.128399517267
 20
26.64485220494159
 30
0.0
  0
ENDBLK
  5
CF3
330
CF1
100
AcDbEntity
  8
0
100
AcDbBlockEnd
  0
BLOCK
  5
DF0
330
DEF
100
AcDbEntity
  8
0
100
AcDbBlockBegin
  2
*D30
 70
     1
 10
0.0
 20
0.0
 30
0.0
  3
*D30
  1

  0
LINE
  5
EC7
330
DEF
100
AcDbEntity
  8
Kóta (ISO)
100
AcDbLine
 10
124.6896423629516
 20
175.1193770218193
 30
0.0
 11
124.6896423629516
 21
135.190270636449
 31
0.0
  0
LINE
  5
EC8
330
DEF
100
AcDbEntity
  8
Kóta (ISO)
100
AcDbLine
 10
224.6896423629516
 20
175.1193770218193
 30
0.0
 11
224.6896423629516
 21
135.190270636449
 31
0.0
  0
LINE
  5
EC9
330
DEF
100
AcDbEntity
  8
Kóta (ISO)
100
AcDbLine
 10
128.4396423629516
 20
136.690270636449
 30
0.0
 11
220.9396423629516
 21
136.690270636449
 31
0.0
  0
SOLID
  5
ECA
330
DEF
100
AcDbEntity
  8
Kóta (ISO)
100
AcDbTrace
 10
128.4396423629516
 20
137.315270636449
 30
0.0
 11
128.4396423629516
 21
136.065270636449
 31
0.0
 12
124.6896423629516
 22
136.690270636449
 32
0.0
 13
124.6896423629516
 23
136.690270636449
 33
0.0
  0
SOLID
  5
ECB
330
DEF
100
AcDbEntity
  8
Kóta (ISO)
100
AcDbTrace
 10
220.9396423629516
 20
137.315270636449
 30
0.0
 11
220.9396423629516
 21
136.065270636449
 31
0.0
 12
224.6896423629516
 22
136.690270636449
 32
0.0
 13
224.6896423629516
 23
136.690270636449
 33
0.0
  0
MTEXT
  5
ECC
330
DEF
100
AcDbEntity
  8
Kóta (ISO)
100
AcDbMText
 10
158.7880305429381
 20
143.3018737257707
 30
0.0
 40
5.25
 41
0.0
 71
     1
 72
     1
  1
\A1;{2x50=}100
  7
Text poznámky (ISO)
 73
     1
 44
1.0
  0
POINT
  5
ECD
330
DEF
100
AcDbEntity
  8
Defpoints
 62
     0
100
AcDbPoint
 10
124.6896423629516
 20
175.1193770218193
 30
0.0
  0
POINT
  5
ECE
330
DEF
100
AcDbEntity
  8
Defpoints
 62
     0
100
AcDbPoint
 10
224.6896423629516
 20
175.1193770218193
 30
0.0
  0
POINT
  5
ECF
330
DEF
100
AcDbEntity
  8
Defpoints
 62
     0
100
AcDbPoint
 10
224.6896423629516
 20
136.690270636449
 30
0.0
  0
ENDBLK
  5
DF1
330
DEF
100
AcDbEntity
  8
0
100
AcDbBlockEnd
  0
BLOCK
  5
ED2
330
ED1
100
AcDbEntity
  8
0
100
AcDbBlockBegin
  2
*D31
 70
     1
 10
0.0
 20
0.0
 30
0.0
  3
*D31
  1

  0
LINE
  5
FC3
330
ED1
100
AcDbEntity
  8
Kóta (ISO)
100
AcDbLine
 10
224.6896423629516
 20
175.1193770218193
 30
0.0
 11
224.6896423629516
 21
154.6786842403502
 31
0.0
  0
LINE
  5
FC4
330
ED1
100
AcDbEntity
  8
Kóta (ISO)
100
AcDbLine
 10
227.6896423629516
 20
175.1193770218193
 30
0.0
 11
227.6896423629516
 21
154.6786842403502
 31
0.0
  0
LINE
  5
FC5
330
ED1
100
AcDbEntity
  8
Kóta (ISO)
100
AcDbLine
 10
220.9396423629516
 20
156.1786842403502
 30
0.0
 11
217.1896423629516
 21
156.1786842403502
 31
0.0
  0
LINE
  5
FC6
330
ED1
100
AcDbEntity
  8
Kóta (ISO)
100
AcDbLine
 10
231.4396423629516
 20
156.1786842403502
 30
0.0
 11
240.6665422957924
 21
156.1786842403502
 31
0.0
  0
LINE
  5
FC7
330
ED1
100
AcDbEntity
  8
Kóta (ISO)
100
AcDbLine
 10
224.6896423629516
 20
156.1786842403502
 30
0.0
 11
227.6896423629516
 21
156.1786842403502
 31
0.0
  0
SOLID
  5
FC8
330
ED1
100
AcDbEntity
  8
Kóta (ISO)
100
AcDbTrace
 10
220.9396423629516
 20
156.8036842403502
 30
0.0
 11
220.9396423629516
 21
155.5536842403502
 31
0.0
 12
224.6896423629516
 22
156.1786842403502
 32
0.0
 13
224.6896423629516
 23
156.1786842403502
 33
0.0
  0
SOLID
  5
FC9
330
ED1
100
AcDbEntity
  8
Kóta (ISO)
100
AcDbTrace
 10
231.4396423629516
 20
156.8036842403502
 30
0.0
 11
231.4396423629516
 21
155.5536842403502
 31
0.0
 12
227.6896423629516
 22
156.1786842403502
 32
0.0
 13
227.6896423629516
 23
156.1786842403502
 33
0.0
  0
MTEXT
  5
FCA
330
ED1
100
AcDbEntity
  8
Kóta (ISO)
100
AcDbMText
 10
236.3326423629516
 20
162.7902873296718
 30
0.0
 40
5.25
 41
0.0
 71
     1
 72
     1
  1
\A1;3
  7
Text poznámky (ISO)
 73
     1
 44
1.0
  0
POINT
  5
FCB
330
ED1
100
AcDbEntity
  8
Defpoints
 62
     0
100
AcDbPoint
 10
224.6896423629516
 20
175.1193770218193
 30
0.0
  0
POINT
  5
FCC
330
ED1
100
AcDbEntity
  8
Defpoints
 62
     0
100
AcDbPoint
 10
227.6896423629516
 20
175.1193770218193
 30
0.0
  0
POINT
  5
FCD
330
ED1
100
AcDbEntity
  8
Defpoints
 62
     0
100
AcDbPoint
 10
227.6896423629516
 20
156.1786842403502
 30
0.0
  0
ENDBLK
  5
ED3
330
ED1
100
AcDbEntity
  8
0
100
AcDbBlockEnd
  0
BLOCK
  5
FCF
330
FCE
100
AcDbEntity
  8
0
100
AcDbBlockBegin
  2
Identifikátor značky svaru1
 70
     0
 10
0.0
 20
0.0
 30
0.0
  3
Identifikátor značky svaru1
  1

  0
LINE
  5
FD1
330
FCE
100
AcDbEntity
  8
Značka (ISO)
100
AcDbLine
 10
154.0355345227355
 20
249.4197978926323
 30
0.0
 11
151.7930949086617
 21
250.5249967784591
 31
0.0
  0
POLYLINE
  5
FD2
330
FCE
100
AcDbEntity
  8
Značka (ISO)
100
AcDb2dPolyline
 66
     1
 10
0.0
 20
0.0
 30
0.0
 70
   128
  0
VERTEX
  5
FD3
330
FD2
100
AcDbEntity
  8
Značka (ISO)
100
AcDbVertex
100
AcDb2dVertex
 10
154.2565727233887
 20
249.868278503418
 30
0.0
  0
VERTEX
  5
FD4
330
FD2
100
AcDbEntity
  8
Značka (ISO)
100
AcDbVertex
100
AcDb2dVertex
 10
151.793098449707
 20
250.5249977111816
 30
0.0
  0
VERTEX
  5
FD6
330
FD2
100
AcDbEntity
  8
Značka (ISO)
100
AcDbVertex
100
AcDb2dVertex
 10
153.8144969940185
 20
248.9713096618652
 30
0.0
  0
VERTEX
  5
FD7
330
FD2
100
AcDbEntity
  8
Značka (ISO)
100
AcDbVertex
100
AcDb2dVertex
 10
154.2565727233887
 20
249.868278503418
 30
0.0
  0
SEQEND
  5
FD5
330
FD2
100
AcDbEntity
  8
Značka (ISO)
  0
SOLID
  5
FD8
330
FCE
100
AcDbEntity
  8
Značka (ISO)
100
AcDbTrace
 10
154.2565727233887
 20
249.868278503418
 30
0.0
 11
151.793098449707
 21
250.5249977111816
 31
0.0
 12
153.8144969940185
 22
248.9713096618652
 32
0.0
 13
154.2565727233887
 23
249.868278503418
 33
0.0
  0
LINE
  5
FD9
330
FCE
100
AcDbEntity
  8
Značka (ISO)
100
AcDbLine
 10
154.2565742999008
 20
249.8682858154471
 30
0.0
 11
151.7930949086617
 21
250.5249967784591
 31
0.0
  0
LINE
  5
FDA
330
FCE
100
AcDbEntity
  8
Značka (ISO)
100
AcDbLine
 10
151.7930949086617
 20
250.5249967784591
 30
0.0
 11
153.8144947455701
 21
248.9713099698176
 31
0.0
  0
LINE
  5
FDB
330
FCE
100
AcDbEntity
  8
Značka (ISO)
100
AcDbLine
 10
153.8144947455701
 20
248.9713099698176
 30
0.0
 11
154.2565742999008
 21
249.8682858154471
 31
0.0
  0
LINE
  5
FDC
330
FCE
100
AcDbEntity
  8
Značka (ISO)
100
AcDbLine
 10
154.0355345227355
 20
249.4197978926323
 30
0.0
 11
173.4995604637784
 21
239.8268440183187
 31
0.0
  0
LINE
  5
FDD
330
FCE
100
AcDbEntity
  8
Značka (ISO)
100
AcDbLine
 10
179.4995604652784
 20
239.8268440183187
 30
0.0
 11
185.499560703697
 21
239.8268440183187
 31
0.0
  0
LINE
  5
FDE
330
FCE
100
AcDbEntity
  8
Značka (ISO)
100
AcDbLine
 10
185.499560703697
 20
239.8268440183187
 30
0.0
 11
179.4995604652784
 21
245.8268442567373
 31
0.0
  0
LINE
  5
FDF
330
FCE
100
AcDbEntity
  8
Značka (ISO)
100
AcDbLine
 10
179.4995604652784
 20
245.8268442567373
 30
0.0
 11
179.4995604652784
 21
239.8268440183187
 31
0.0
  0
LINE
  5
FE0
330
FCE
100
AcDbEntity
  8
Značka (ISO)
100
AcDbLine
 10
179.4995604652784
 20
239.8268440183187
 30
0.0
 11
185.499560703697
 21
239.8268440183187
 31
0.0
  0
LINE
  5
FE1
330
FCE
100
AcDbEntity
  8
Značka (ISO)
100
AcDbLine
 10
185.499560703697
 20
239.8268440183187
 30
0.0
 11
179.4995604652784
 21
233.8268437799001
 31
0.0
  0
LINE
  5
FE2
330
FCE
100
AcDbEntity
  8
Značka (ISO)
100
AcDbLine
 10
179.4995604652784
 20
233.8268437799001
 30
0.0
 11
179.4995604652784
 21
239.8268440183187
 31
0.0
  0
LINE
  5
FE3
330
FCE
100
AcDbEntity
  8
Značka (ISO)
100
AcDbLine
 10
173.4995604652784
 20
239.8268440183187
 30
0.0
 11
191.499560703697
 21
239.8268440183187
 31
0.0
  0
ENDBLK
  5
FD0
330
FCE
100
AcDbEntity
  8
0
100
AcDbBlockEnd
  0
BLOCK
  5
FE7
330
FE6
100
AcDbEntity
  8
0
100
AcDbBlockBegin
  2
*D33
 70
     1
 10
0.0
 20
0.0
 30
0.0
  3
*D33
  1

  0
LINE
  5
106A
330
FE6
100
AcDbEntity
  8
Kóta (ISO)
100
AcDbLine
 10
274.4898268726442
 20
166.3990600305522
 30
0.0
 11
262.6333900498506
 21
173.2443770218203
 31
0.0
  0
MTEXT
  5
106B
330
FE6
100
AcDbEntity
  8
Kóta (ISO)
100
AcDbMText
 10
270.1713651108093
 20
176.5145328135892
 30
0.0
 40
5.25
 41
0.0
 71
     1
 72
     1
  1
\A1;R6
  7
Text poznámky (ISO)
 11
0.8660254037844895
 21
-0.4999999999999118
 31
0.0
 73
     1
 44
1.0
  0
SOLID
  5
106C
330
FE6
100
AcDbEntity
  8
Kóta (ISO)
100
AcDbTrace
 10
262.9458900498505
 20
173.7856428991856
 30
0.0
 11
262.3208900498506
 21
172.7031111444549
 31
0.0
 12
259.3857947856587
 22
175.11937702182
 32
0.0
 13
259.3857947856587
 23
175.11937702182
 33
0.0
  0
POINT
  5
106D
330
FE6
100
AcDbEntity
  8
Defpoints
 62
     0
100
AcDbPoint
 10
259.3857947856587
 20
175.11937702182
 30
0.0
  0
POINT
  5
106E
330
FE6
100
AcDbEntity
  8
Defpoints
 62
     0
100
AcDbPoint
 10
254.1896423629518
 20
178.1193770218194
 30
0.0
  0
ENDBLK
  5
FE8
330
FE6
100
AcDbEntity
  8
0
100
AcDbBlockEnd
  0
BLOCK
  5
1071
330
1070
100
AcDbEntity
  8
0
100
AcDbBlockBegin
  2
*D34
 70
     1
 10
0.0
 20
0.0
 30
0.0
  3
*D34
  1

  0
LINE
  5
1148
330
1070
100
AcDbEntity
  8
Kóta (ISO)
100
AcDbLine
 10
194.128399517267
 20
40.87606179624858
 30
0.0
 11
213.6444871661006
 21
40.87606179624857
 31
0.0
  0
LINE
  5
1149
330
1070
100
AcDbEntity
  8
Kóta (ISO)
100
AcDbLine
 10
194.128399517267
 20
65.87606179624858
 30
0.0
 11
213.6444871661006
 21
65.87606179624858
 31
0.0
  0
LINE
  5
114A
330
1070
100
AcDbEntity
  8
Kóta (ISO)
100
AcDbLine
 10
212.1444871661006
 20
44.62606179624857
 30
0.0
 11
212.1444871661006
 21
62.12606179624857
 31
0.0
  0
SOLID
  5
114B
330
1070
100
AcDbEntity
  8
Kóta (ISO)
100
AcDbTrace
 10
211.5194871661006
 20
44.62606179624857
 30
0.0
 11
212.7694871661006
 21
44.62606179624857
 31
0.0
 12
212.1444871661006
 22
40.87606179624857
 32
0.0
 13
212.1444871661006
 23
40.87606179624857
 33
0.0
  0
SOLID
  5
114C
330
1070
100
AcDbEntity
  8
Kóta (ISO)
100
AcDbTrace
 10
211.5194871661006
 20
62.12606179624857
 30
0.0
 11
212.7694871661006
 21
62.12606179624857
 31
0.0
 12
212.1444871661006
 22
65.87606179624858
 32
0.0
 13
212.1444871661006
 23
65.87606179624858
 33
0.0
  0
MTEXT
  5
114D
330
1070
100
AcDbEntity
  8
Kóta (ISO)
100
AcDbMText
 10
205.5328840767789
 20
49.81494695407262
 30
0.0
 40
5.25
 41
0.0
 71
     1
 72
     1
  1
\A1;25
  7
Text poznámky (ISO)
 11
0.0000000000000001
 21
1.0
 31
0.0
 73
     1
 44
1.0
  0
POINT
  5
114E
330
1070
100
AcDbEntity
  8
Defpoints
 62
     0
100
AcDbPoint
 10
194.128399517267
 20
40.87606179624858
 30
0.0
  0
POINT
  5
114F
330
1070
100
AcDbEntity
  8
Defpoints
 62
     0
100
AcDbPoint
 10
194.128399517267
 20
65.87606179624858
 30
0.0
  0
POINT
  5
1150
330
1070
100
AcDbEntity
  8
Defpoints
 62
     0
100
AcDbPoint
 10
212.1444871661006
 20
65.87606179624858
 30
0.0
  0
ENDBLK
  5
1072
330
1070
100
AcDbEntity
  8
0
100
AcDbBlockEnd
  0
BLOCK
  5
124D
330
124B
100
AcDbEntity
  8
0
100
AcDbBlockBegin
  2
GENAXEH
 70
     0
 10
0.0
 20
0.0
 30
0.0
  3
GENAXEH
  1

  0
LINE
  5
124C
330
124B
100
AcDbEntity
  8
0
100
AcDbLine
 10
-1.0
 20
0.0
 30
0.0
 11
1.0
 21
0.0
 31
0.0
  0
ENDBLK
  5
124E
330
124B
100
AcDbEntity
  8
0
100
AcDbBlockEnd
  0
BLOCK
  5
1266
330
1265
100
AcDbEntity
  8
0
100
AcDbBlockBegin
  2
*D37
 70
     1
 10
0.0
 20
0.0
 30
0.0
  3
*D37
  1

  0
LINE
  5
1267
330
1265
100
AcDbEntity
  8
KOTY_GULLY
370
    -2
100
AcDbLine
 10
236.4368884576717
 20
308.2258366989143
 30
0.0
 11
236.4368884576717
 21
338.5976782899102
 31
0.0
  0
LINE
  5
1268
330
1265
100
AcDbEntity
  8
KOTY_GULLY
370
    -2
100
AcDbLine
 10
68.43688845767179
 20
308.2258366989137
 30
0.0
 11
68.43688845767179
 21
338.5976782899102
 31
0.0
  0
LINE
  5
1269
330
1265
100
AcDbEntity
  8
KOTY_GULLY
370
    -2
100
AcDbLine
 10
233.4368884576717
 20
336.5976782899102
 30
0.0
 11
71.43688845767178
 21
336.5976782899102
 31
0.0
  0
SOLID
  5
126A
330
1265
100
AcDbEntity
  8
KOTY_GULLY
100
AcDbTrace
 10
233.4368884576717
 20
337.0976782899102
 30
0.0
 11
233.4368884576717
 21
336.0976782899102
 31
0.0
 12
236.4368884576717
 22
336.5976782899102
 32
0.0
 13
236.4368884576717
 23
336.5976782899102
 33
0.0
  0
SOLID
  5
126B
330
1265
100
AcDbEntity
  8
KOTY_GULLY
100
AcDbTrace
 10
71.43688845767178
 20
337.0976782899102
 30
0.0
 11
71.43688845767178
 21
336.0976782899102
 31
0.0
 12
68.43688845767179
 22
336.5976782899102
 32
0.0
 13
68.43688845767179
 23
336.5976782899102
 33
0.0
  0
MTEXT
  5
126C
330
1265
100
AcDbEntity
  8
KOTY_GULLY
100
AcDbMText
 10
152.4368884576717
 20
344.1216782899102
 30
0.0
 40
12.0
 41
0.0
 71
     5
 72
     1
  1
\A1;168
  7
Annotative
 73
     1
 44
1.0
  0
POINT
  5
126D
330
1265
100
AcDbEntity
  8
Defpoints
 62
     0
100
AcDbPoint
 10
236.4368884576717
 20
308.2258366989143
 30
0.0
  0
POINT
  5
126E
330
1265
100
AcDbEntity
  8
Defpoints
 62
     0
100
AcDbPoint
 10
68.43688845767179
 20
308.2258366989137
 30
0.0
  0
POINT
  5
126F
330
1265
100
AcDbEntity
  8
Defpoints
 62
     0
100
AcDbPoint
 10
68.43688845767179
 20
336.5976782899102
 30
0.0
  0
ENDBLK
  5
1270
330
1265
100
AcDbEntity
  8
0
100
AcDbBlockEnd
  0
BLOCK
  5
1272
330
1271
100
AcDbEntity
  8
0
100
AcDbBlockBegin
  2
*D38
 70
     1
 10
0.0
 20
0.0
 30
0.0
  3
*D38
  1

  0
LINE
  5
1273
330
1271
100
AcDbEntity
  8
KOTY_GULLY
370
    -2
100
AcDbLine
 10
72.43688845767178
 20
312.2258366989137
 30
0.0
 11
30.7123120318818
 21
312.2258366989137
 31
0.0
  0
LINE
  5
1274
330
1271
100
AcDbEntity
  8
KOTY_GULLY
370
    -2
100
AcDbLine
 10
72.43688845767214
 20
144.2258366989134
 30
0.0
 11
30.71231203188176
 21
144.2258366989134
 31
0.0
  0
LINE
  5
1275
330
1271
100
AcDbEntity
  8
KOTY_GULLY
370
    -2
100
AcDbLine
 10
32.7123120318818
 20
309.2258366989137
 30
0.0
 11
32.71231203188177
 21
147.2258366989134
 31
0.0
  0
SOLID
  5
1276
330
1271
100
AcDbEntity
  8
KOTY_GULLY
100
AcDbTrace
 10
32.2123120318818
 20
309.2258366989137
 30
0.0
 11
33.2123120318818
 21
309.2258366989137
 31
0.0
 12
32.7123120318818
 22
312.2258366989137
 32
0.0
 13
32.7123120318818
 23
312.2258366989137
 33
0.0
  0
SOLID
  5
1277
330
1271
100
AcDbEntity
  8
KOTY_GULLY
100
AcDbTrace
 10
32.21231203188177
 20
147.2258366989134
 30
0.0
 11
33.21231203188176
 21
147.2258366989134
 31
0.0
 12
32.71231203188177
 22
144.2258366989134
 32
0.0
 13
32.71231203188177
 23
144.2258366989134
 33
0.0
  0
MTEXT
  5
1278
330
1271
100
AcDbEntity
  8
KOTY_GULLY
100
AcDbMText
 10
25.18831203188174
 20
228.2258366989136
 30
0.0
 40
12.0
 41
0.0
 71
     5
 72
     1
  1
\A1;168
  7
Annotative
 11
0.0000000000000001
 21
1.0
 31
0.0
 73
     1
 44
1.0
  0
POINT
  5
1279
330
1271
100
AcDbEntity
  8
Defpoints
 62
     0
100
AcDbPoint
 10
72.43688845767178
 20
312.2258366989137
 30
0.0
  0
POINT
  5
127A
330
1271
100
AcDbEntity
  8
Defpoints
 62
     0
100
AcDbPoint
 10
72.43688845767214
 20
144.2258366989134
 30
0.0
  0
POINT
  5
127B
330
1271
100
AcDbEntity
  8
Defpoints
 62
     0
100
AcDbPoint
 10
32.71231203188177
 20
144.2258366989134
 30
0.0
  0
ENDBLK
  5
127C
330
1271
100
AcDbEntity
  8
0
100
AcDbBlockEnd
  0
BLOCK
  5
1290
330
128F
100
AcDbEntity
  8
0
100
AcDbBlockBegin
  2
*D40
 70
     1
 10
0.0
 20
0.0
 30
0.0
  3
*D40
  1

  0
LINE
  5
131E
330
128F
100
AcDbEntity
  8
KOTY_GULLY
370
    -2
100
AcDbLine
 10
277.0860525244657
 20
348.0157871833337
 30
0.0
 11
277.0860525244657
 21
375.8523948321232
 31
0.0
  0
LINE
  5
131F
330
128F
100
AcDbEntity
  8
KOTY_GULLY
370
    -2
100
AcDbLine
 10
109.0860525244656
 20
348.0157871833333
 30
0.0
 11
109.0860525244656
 21
375.8523948321232
 31
0.0
  0
LINE
  5
1320
330
128F
100
AcDbEntity
  8
KOTY_GULLY
370
    -2
100
AcDbLine
 10
274.0860525244657
 20
373.8523948321232
 30
0.0
 11
112.0860525244656
 21
373.8523948321232
 31
0.0
  0
SOLID
  5
1321
330
128F
100
AcDbEntity
  8
KOTY_GULLY
100
AcDbTrace
 10
274.0860525244657
 20
374.3523948321232
 30
0.0
 11
274.0860525244657
 21
373.3523948321232
 31
0.0
 12
277.0860525244657
 22
373.8523948321232
 32
0.0
 13
277.0860525244657
 23
373.8523948321232
 33
0.0
  0
SOLID
  5
1322
330
128F
100
AcDbEntity
  8
KOTY_GULLY
100
AcDbTrace
 10
112.0860525244656
 20
374.3523948321232
 30
0.0
 11
112.0860525244656
 21
373.3523948321232
 31
0.0
 12
109.0860525244656
 22
373.8523948321232
 32
0.0
 13
109.0860525244656
 23
373.8523948321232
 33
0.0
  0
MTEXT
  5
1323
330
128F
100
AcDbEntity
  8
KOTY_GULLY
100
AcDbMText
 10
193.0860525244656
 20
381.3763948321232
 30
0.0
 40
12.0
 41
0.0
 71
     5
 72
     1
  1
\A1;168
  7
Annotative
 73
     1
 44
1.0
  0
POINT
  5
1324
330
128F
100
AcDbEntity
  8
Defpoints
 62
     0
100
AcDbPoint
 10
277.0860525244657
 20
348.0157871833337
 30
0.0
  0
POINT
  5
1325
330
128F
100
AcDbEntity
  8
Defpoints
 62
     0
100
AcDbPoint
 10
109.0860525244656
 20
348.0157871833333
 30
0.0
  0
POINT
  5
1326
330
128F
100
AcDbEntity
  8
Defpoints
 62
     0
100
AcDbPoint
 10
109.0860525244656
 20
373.8523948321232
 30
0.0
  0
ENDBLK
  5
1291
330
128F
100
AcDbEntity
  8
0
100
AcDbBlockEnd
  0
BLOCK
  5
129C
330
129B
100
AcDbEntity
  8
0
100
AcDbBlockBegin
  2
*D41
 70
     1
 10
0.0
 20
0.0
 30
0.0
  3
*D41
  1

  0
LINE
  5
1330
330
129B
100
AcDbEntity
  8
KOTY_GULLY
370
    -2
100
AcDbLine
 10
115.0860525244656
 20
354.0157871833333
 30
0.0
 11
78.25455259508799
 21
354.0157871833333
 31
0.0
  0
LINE
  5
1331
330
129B
100
AcDbEntity
  8
KOTY_GULLY
370
    -2
100
AcDbLine
 10
115.0860525244657
 20
186.0157871833338
 30
0.0
 11
78.25455259508794
 21
186.0157871833338
 31
0.0
  0
LINE
  5
1332
330
129B
100
AcDbEntity
  8
KOTY_GULLY
370
    -2
100
AcDbLine
 10
80.25455259508797
 20
351.0157871833333
 30
0.0
 11
80.25455259508794
 21
189.0157871833338
 31
0.0
  0
SOLID
  5
1333
330
129B
100
AcDbEntity
  8
KOTY_GULLY
100
AcDbTrace
 10
79.75455259508797
 20
351.0157871833333
 30
0.0
 11
80.75455259508798
 21
351.0157871833333
 31
0.0
 12
80.25455259508799
 22
354.0157871833333
 32
0.0
 13
80.25455259508799
 23
354.0157871833333
 33
0.0
  0
SOLID
  5
1334
330
129B
100
AcDbEntity
  8
KOTY_GULLY
100
AcDbTrace
 10
79.75455259508795
 20
189.0157871833338
 30
0.0
 11
80.75455259508794
 21
189.0157871833338
 31
0.0
 12
80.25455259508794
 22
186.0157871833338
 32
0.0
 13
80.25455259508794
 23
186.0157871833338
 33
0.0
  0
MTEXT
  5
1335
330
129B
100
AcDbEntity
  8
KOTY_GULLY
100
AcDbMText
 10
72.73055259508791
 20
270.0157871833336
 30
0.0
 40
12.0
 41
0.0
 71
     5
 72
     1
  1
\A1;168
  7
Annotative
 11
0.0000000000000001
 21
1.0
 31
0.0
 73
     1
 44
1.0
  0
POINT
  5
1336
330
129B
100
AcDbEntity
  8
Defpoints
 62
     0
100
AcDbPoint
 10
115.0860525244656
 20
354.0157871833333
 30
0.0
  0
POINT
  5
1337
330
129B
100
AcDbEntity
  8
Defpoints
 62
     0
100
AcDbPoint
 10
115.0860525244657
 20
186.0157871833338
 30
0.0
  0
POINT
  5
1338
330
129B
100
AcDbEntity
  8
Defpoints
 62
     0
100
AcDbPoint
 10
80.25455259508794
 20
186.0157871833338
 30
0.0
  0
ENDBLK
  5
129D
330
129B
100
AcDbEntity
  8
0
100
AcDbBlockEnd
  0
ENDSEC
  0
SECTION
  2
ENTITIES
  0
LINE
  5
1FD
330
77
100
AcDbEntity
  8
GULLY
100
AcDbLine
 10
277.0860525244657
 20
192.0157871833337
 30
0.0
 11
277.0860525244657
 21
270.0157871833336
 31
0.0
  0
LINE
  5
1FE
330
77
100
AcDbEntity
  8
GULLY
100
AcDbLine
 10
274.0860525244656
 20
270.0157871833336
 30
0.0
 11
277.0860525244657
 21
270.0157871833336
 31
0.0
  0
LINE
  5
1FF
330
77
100
AcDbEntity
  8
GULLY
100
AcDbLine
 10
274.0860525244657
 20
192.0157871833337
 30
0.0
 11
274.0860525244656
 21
270.0157871833336
 31
0.0
  0
LINE
  5
200
330
77
100
AcDbEntity
  8
GULLY
100
AcDbLine
 10
115.0860525244657
 20
186.0157871833338
 30
0.0
 11
271.0860525244657
 21
186.0157871833337
 31
0.0
  0
LINE
  5
201
330
77
100
AcDbEntity
  8
GULLY
100
AcDbLine
 10
115.0860525244657
 20
189.0157871833338
 30
0.0
 11
271.0860525244657
 21
189.0157871833337
 31
0.0
  0
LINE
  5
202
330
77
100
AcDbEntity
  8
GULLY
100
AcDbLine
 10
109.0860525244657
 20
270.0157871833338
 30
0.0
 11
109.0860525244657
 21
192.0157871833338
 31
0.0
  0
LINE
  5
203
330
77
100
AcDbEntity
  8
GULLY
100
AcDbLine
 10
112.0860525244657
 20
270.0157871833338
 30
0.0
 11
112.0860525244657
 21
192.0157871833338
 31
0.0
  0
LINE
  5
204
330
77
100
AcDbEntity
  8
GULLY
100
AcDbLine
 10
112.0860525244657
 20
270.0157871833338
 30
0.0
 11
109.0860525244657
 21
270.0157871833338
 31
0.0
  0
ARC
  5
205
330
77
100
AcDbEntity
  8
GULLY
100
AcDbCircle
 10
271.0860525244657
 20
192.0157871833337
 30
0.0
 40
3.000000000000015
100
AcDbArc
 50
270.0
 51
0.0
  0
ARC
  5
206
330
77
100
AcDbEntity
  8
GULLY
100
AcDbCircle
 10
271.0860525244657
 20
192.0157871833337
 30
0.0
 40
6.000000000000033
100
AcDbArc
 50
270.0
 51
0.0
  0
ARC
  5
207
330
77
100
AcDbEntity
  8
GULLY
100
AcDbCircle
 10
115.0860525244657
 20
192.0157871833338
 30
0.0
 40
2.999999999999998
100
AcDbArc
 50
180.0
 51
270.0
  0
ARC
  5
208
330
77
100
AcDbEntity
  8
GULLY
100
AcDbCircle
 10
115.0860525244657
 20
192.0157871833338
 30
0.0
 40
5.999999999999978
100
AcDbArc
 50
180.0
 51
270.0
  0
ARC
  5
209
330
77
100
AcDbEntity
  8
GULLY
100
AcDbCircle
 10
271.0860525244656
 20
348.0157871833337
 30
0.0
 40
3.000000000000015
100
AcDbArc
 50
0.0
 51
90.0
  0
ARC
  5
20A
330
77
100
AcDbEntity
  8
GULLY
100
AcDbCircle
 10
271.0860525244657
 20
348.0157871833337
 30
0.0
 40
6.000000000000005
100
AcDbArc
 50
0.0
 51
90.0
  0
ARC
  5
20B
330
77
100
AcDbEntity
  8
GULLY
100
AcDbCircle
 10
115.0860525244656
 20
348.0157871833333
 30
0.0
 40
2.999999999999998
100
AcDbArc
 50
90.0
 51
180.0
  0
ARC
  5
20C
330
77
100
AcDbEntity
  8
GULLY
100
AcDbCircle
 10
115.0860525244656
 20
348.0157871833333
 30
0.0
 40
5.99999999999998
100
AcDbArc
 50
90.0
 51
180.0
  0
LINE
  5
20D
330
77
100
AcDbEntity
  8
GULLY
100
AcDbLine
 10
277.0860525244657
 20
270.0157871833337
 30
0.0
 11
277.0860525244657
 21
348.0157871833337
 31
0.0
  0
LINE
  5
20E
330
77
100
AcDbEntity
  8
GULLY
100
AcDbLine
 10
274.0860525244657
 20
348.0157871833337
 30
0.0
 11
274.0860525244657
 21
270.0157871833336
 31
0.0
  0
LINE
  5
20F
330
77
100
AcDbEntity
  8
GULLY
100
AcDbLine
 10
274.0860525244657
 20
270.0157871833337
 30
0.0
 11
277.0860525244657
 21
270.0157871833337
 31
0.0
  0
LINE
  5
210
330
77
100
AcDbEntity
  8
GULLY
100
AcDbLine
 10
271.0860525244657
 20
354.0157871833337
 30
0.0
 11
115.0860525244656
 21
354.0157871833333
 31
0.0
  0
LINE
  5
211
330
77
100
AcDbEntity
  8
GULLY
100
AcDbLine
 10
109.0860525244656
 20
348.0157871833333
 30
0.0
 11
109.0860525244658
 21
270.0157871833333
 31
0.0
  0
LINE
  5
212
330
77
100
AcDbEntity
  8
GULLY
100
AcDbLine
 10
115.0860525244656
 20
351.0157871833333
 30
0.0
 11
271.0860525244657
 21
351.0157871833336
 31
0.0
  0
LINE
  5
213
330
77
100
AcDbEntity
  8
GULLY
100
AcDbLine
 10
112.0860525244658
 20
270.0157871833333
 30
0.0
 11
109.0860525244658
 21
270.0157871833333
 31
0.0
  0
LINE
  5
214
330
77
100
AcDbEntity
  8
GULLY
100
AcDbLine
 10
112.0860525244658
 20
270.0157871833333
 30
0.0
 11
112.0860525244656
 21
348.0157871833333
 31
0.0
  0
LINE
  5
215
330
77
100
AcDbEntity
  8
GULLY
100
AcDbLine
 10
112.0860525244658
 20
318.5157871833335
 30
0.0
 11
120.982462685979
 21
318.5157871833335
 31
0.0
  0
LINE
  5
216
330
77
100
AcDbEntity
  8
GULLY
100
AcDbLine
 10
127.6896423629515
 20
318.5157871833335
 30
0.0
 11
133.4824626859791
 21
318.5157871833335
 31
0.0
  0
LINE
  5
217
330
77
100
AcDbEntity
  8
GULLY
100
AcDbLine
 10
140.1896423629515
 20
318.5157871833335
 30
0.0
 11
145.982462685979
 21
318.5157871833335
 31
0.0
  0
LINE
  5
218
330
77
100
AcDbEntity
  8
GULLY
100
AcDbLine
 10
152.6896423629515
 20
318.5157871833335
 30
0.0
 11
158.482462685979
 21
318.5157871833335
 31
0.0
  0
LINE
  5
219
330
77
100
AcDbEntity
  8
GULLY
100
AcDbLine
 10
165.1896423629515
 20
318.5157871833335
 30
0.0
 11
170.9824626859791
 21
318.5157871833335
 31
0.0
  0
LINE
  5
21A
330
77
100
AcDbEntity
  8
GULLY
100
AcDbLine
 10
177.6896423629515
 20
318.5157871833335
 30
0.0
 11
183.482462685979
 21
318.5157871833335
 31
0.0
  0
LINE
  5
21B
330
77
100
AcDbEntity
  8
GULLY
100
AcDbLine
 10
190.1896423629515
 20
318.5157871833335
 30
0.0
 11
195.982462685979
 21
318.5157871833335
 31
0.0
  0
LINE
  5
21C
330
77
100
AcDbEntity
  8
GULLY
100
AcDbLine
 10
202.6896423629515
 20
318.5157871833335
 30
0.0
 11
208.4824626859791
 21
318.5157871833335
 31
0.0
  0
LINE
  5
21D
330
77
100
AcDbEntity
  8
GULLY
100
AcDbLine
 10
215.1896423629515
 20
318.5157871833335
 30
0.0
 11
220.9824626859791
 21
318.5157871833334
 31
0.0
  0
LINE
  5
21E
330
77
100
AcDbEntity
  8
GULLY
100
AcDbLine
 10
227.6896423629515
 20
318.5157871833334
 30
0.0
 11
233.482462685979
 21
318.5157871833334
 31
0.0
  0
LINE
  5
21F
330
77
100
AcDbEntity
  8
GULLY
100
AcDbLine
 10
240.1896423629516
 20
318.5157871833334
 30
0.0
 11
245.9824626859791
 21
318.5157871833334
 31
0.0
  0
LINE
  5
220
330
77
100
AcDbEntity
  8
GULLY
100
AcDbLine
 10
252.6896423629515
 20
318.5157871833334
 30
0.0
 11
258.482462685979
 21
318.5157871833334
 31
0.0
  0
LINE
  5
221
330
77
100
AcDbEntity
  8
GULLY
100
AcDbLine
 10
265.1896423629515
 20
318.5157871833334
 30
0.0
 11
274.0860525244658
 21
318.5157871833334
 31
0.0
  0
LINE
  5
222
330
77
100
AcDbEntity
  8
GULLY
100
AcDbLine
 10
274.0860525244658
 20
321.5157871833334
 30
0.0
 11
265.1896423629515
 21
321.5157871833334
 31
0.0
  0
LINE
  5
223
330
77
100
AcDbEntity
  8
GULLY
100
AcDbLine
 10
258.482462685979
 20
321.5157871833334
 30
0.0
 11
252.6896423629515
 21
321.5157871833334
 31
0.0
  0
LINE
  5
224
330
77
100
AcDbEntity
  8
GULLY
100
AcDbLine
 10
245.9824626859791
 20
321.5157871833334
 30
0.0
 11
240.1896423629515
 21
321.5157871833334
 31
0.0
  0
LINE
  5
225
330
77
100
AcDbEntity
  8
GULLY
100
AcDbLine
 10
233.482462685979
 20
321.5157871833334
 30
0.0
 11
227.6896423629515
 21
321.5157871833334
 31
0.0
  0
LINE
  5
226
330
77
100
AcDbEntity
  8
GULLY
100
AcDbLine
 10
220.982462685979
 20
321.5157871833334
 30
0.0
 11
215.1896423629515
 21
321.5157871833335
 31
0.0
  0
LINE
  5
227
330
77
100
AcDbEntity
  8
GULLY
100
AcDbLine
 10
208.4824626859791
 20
321.5157871833335
 30
0.0
 11
202.6896423629515
 21
321.5157871833335
 31
0.0
  0
LINE
  5
228
330
77
100
AcDbEntity
  8
GULLY
100
AcDbLine
 10
195.982462685979
 20
321.5157871833335
 30
0.0
 11
190.1896423629515
 21
321.5157871833335
 31
0.0
  0
LINE
  5
229
330
77
100
AcDbEntity
  8
GULLY
100
AcDbLine
 10
183.482462685979
 20
321.5157871833335
 30
0.0
 11
177.6896423629515
 21
321.5157871833335
 31
0.0
  0
LINE
  5
22A
330
77
100
AcDbEntity
  8
GULLY
100
AcDbLine
 10
170.982462685979
 20
321.5157871833335
 30
0.0
 11
165.1896423629515
 21
321.5157871833335
 31
0.0
  0
LINE
  5
22B
330
77
100
AcDbEntity
  8
GULLY
100
AcDbLine
 10
158.482462685979
 20
321.5157871833335
 30
0.0
 11
152.6896423629515
 21
321.5157871833335
 31
0.0
  0
LINE
  5
22C
330
77
100
AcDbEntity
  8
GULLY
100
AcDbLine
 10
145.982462685979
 20
321.5157871833335
 30
0.0
 11
140.1896423629515
 21
321.5157871833335
 31
0.0
  0
LINE
  5
22D
330
77
100
AcDbEntity
  8
GULLY
100
AcDbLine
 10
133.4824626859791
 20
321.5157871833335
 30
0.0
 11
127.6896423629515
 21
321.5157871833335
 31
0.0
  0
LINE
  5
22E
330
77
100
AcDbEntity
  8
GULLY
100
AcDbLine
 10
120.982462685979
 20
321.5157871833335
 30
0.0
 11
112.0860525244658
 21
321.5157871833335
 31
0.0
  0
LINE
  5
22F
330
77
100
AcDbEntity
  8
GULLY
100
AcDbLine
 10
120.982462685979
 20
318.5157871833335
 30
0.0
 11
127.6896423629515
 21
318.5157871833335
 31
0.0
  0
LINE
  5
230
330
77
100
AcDbEntity
  8
GULLY
100
AcDbLine
 10
133.4824626859791
 20
318.5157871833335
 30
0.0
 11
140.1896423629515
 21
318.5157871833335
 31
0.0
  0
LINE
  5
231
330
77
100
AcDbEntity
  8
GULLY
100
AcDbLine
 10
145.982462685979
 20
318.5157871833335
 30
0.0
 11
152.6896423629515
 21
318.5157871833335
 31
0.0
  0
LINE
  5
232
330
77
100
AcDbEntity
  8
GULLY
100
AcDbLine
 10
158.482462685979
 20
318.5157871833335
 30
0.0
 11
165.1896423629515
 21
318.5157871833335
 31
0.0
  0
LINE
  5
233
330
77
100
AcDbEntity
  8
GULLY
100
AcDbLine
 10
170.9824626859791
 20
318.5157871833335
 30
0.0
 11
177.6896423629515
 21
318.5157871833335
 31
0.0
  0
LINE
  5
234
330
77
100
AcDbEntity
  8
GULLY
100
AcDbLine
 10
183.482462685979
 20
318.5157871833335
 30
0.0
 11
190.1896423629515
 21
318.5157871833335
 31
0.0
  0
LINE
  5
235
330
77
100
AcDbEntity
  8
GULLY
100
AcDbLine
 10
195.982462685979
 20
318.5157871833335
 30
0.0
 11
202.6896423629515
 21
318.5157871833335
 31
0.0
  0
LINE
  5
236
330
77
100
AcDbEntity
  8
GULLY
100
AcDbLine
 10
208.4824626859791
 20
318.5157871833335
 30
0.0
 11
215.1896423629515
 21
318.5157871833335
 31
0.0
  0
LINE
  5
237
330
77
100
AcDbEntity
  8
GULLY
100
AcDbLine
 10
220.9824626859791
 20
318.5157871833334
 30
0.0
 11
227.6896423629515
 21
318.5157871833334
 31
0.0
  0
LINE
  5
238
330
77
100
AcDbEntity
  8
GULLY
100
AcDbLine
 10
233.4824626859791
 20
318.5157871833334
 30
0.0
 11
240.1896423629516
 21
318.5157871833334
 31
0.0
  0
LINE
  5
239
330
77
100
AcDbEntity
  8
GULLY
100
AcDbLine
 10
245.9824626859791
 20
318.5157871833334
 30
0.0
 11
252.6896423629515
 21
318.5157871833334
 31
0.0
  0
LINE
  5
23A
330
77
100
AcDbEntity
  8
GULLY
100
AcDbLine
 10
258.482462685979
 20
318.5157871833334
 30
0.0
 11
265.1896423629515
 21
318.5157871833334
 31
0.0
  0
LINE
  5
23B
330
77
100
AcDbEntity
  8
GULLY
100
AcDbLine
 10
265.1896423629515
 20
321.5157871833334
 30
0.0
 11
258.482462685979
 21
321.5157871833334
 31
0.0
  0
LINE
  5
23C
330
77
100
AcDbEntity
  8
GULLY
100
AcDbLine
 10
252.6896423629515
 20
321.5157871833334
 30
0.0
 11
245.9824626859791
 21
321.5157871833334
 31
0.0
  0
LINE
  5
23D
330
77
100
AcDbEntity
  8
GULLY
100
AcDbLine
 10
240.1896423629515
 20
321.5157871833334
 30
0.0
 11
233.482462685979
 21
321.5157871833335
 31
0.0
  0
LINE
  5
23E
330
77
100
AcDbEntity
  8
GULLY
100
AcDbLine
 10
227.6896423629515
 20
321.5157871833334
 30
0.0
 11
220.982462685979
 21
321.5157871833334
 31
0.0
  0
LINE
  5
23F
330
77
100
AcDbEntity
  8
GULLY
100
AcDbLine
 10
215.1896423629515
 20
321.5157871833335
 30
0.0
 11
208.4824626859791
 21
321.5157871833335
 31
0.0
  0
LINE
  5
240
330
77
100
AcDbEntity
  8
GULLY
100
AcDbLine
 10
202.6896423629515
 20
321.5157871833335
 30
0.0
 11
195.982462685979
 21
321.5157871833335
 31
0.0
  0
LINE
  5
241
330
77
100
AcDbEntity
  8
GULLY
100
AcDbLine
 10
190.1896423629515
 20
321.5157871833335
 30
0.0
 11
183.482462685979
 21
321.5157871833335
 31
0.0
  0
LINE
  5
242
330
77
100
AcDbEntity
  8
GULLY
100
AcDbLine
 10
177.6896423629515
 20
321.5157871833335
 30
0.0
 11
170.982462685979
 21
321.5157871833335
 31
0.0
  0
LINE
  5
243
330
77
100
AcDbEntity
  8
GULLY
100
AcDbLine
 10
165.1896423629515
 20
321.5157871833335
 30
0.0
 11
158.482462685979
 21
321.5157871833335
 31
0.0
  0
LINE
  5
244
330
77
100
AcDbEntity
  8
GULLY
100
AcDbLine
 10
152.6896423629515
 20
321.5157871833335
 30
0.0
 11
145.982462685979
 21
321.5157871833335
 31
0.0
  0
LINE
  5
245
330
77
100
AcDbEntity
  8
GULLY
100
AcDbLine
 10
140.1896423629515
 20
321.5157871833335
 30
0.0
 11
133.4824626859791
 21
321.5157871833335
 31
0.0
  0
LINE
  5
246
330
77
100
AcDbEntity
  8
GULLY
100
AcDbLine
 10
127.6896423629515
 20
321.5157871833335
 30
0.0
 11
120.982462685979
 21
321.5157871833335
 31
0.0
  0
LINE
  5
247
330
77
100
AcDbEntity
  8
GULLY
100
AcDbLine
 10
112.0860525244659
 20
268.5157871833335
 30
0.0
 11
120.9824626859792
 21
268.5157871833335
 31
0.0
  0
LINE
  5
248
330
77
100
AcDbEntity
  8
GULLY
100
AcDbLine
 10
127.6896423629517
 20
268.5157871833335
 30
0.0
 11
133.4824626859792
 21
268.5157871833335
 31
0.0
  0
LINE
  5
249
330
77
100
AcDbEntity
  8
GULLY
100
AcDbLine
 10
140.1896423629517
 20
268.5157871833335
 30
0.0
 11
145.9824626859792
 21
268.5157871833335
 31
0.0
  0
LINE
  5
24A
330
77
100
AcDbEntity
  8
GULLY
100
AcDbLine
 10
152.6896423629517
 20
268.5157871833335
 30
0.0
 11
158.4824626859792
 21
268.5157871833335
 31
0.0
  0
LINE
  5
24B
330
77
100
AcDbEntity
  8
GULLY
100
AcDbLine
 10
165.1896423629517
 20
268.5157871833335
 30
0.0
 11
170.9824626859792
 21
268.5157871833335
 31
0.0
  0
LINE
  5
24C
330
77
100
AcDbEntity
  8
GULLY
100
AcDbLine
 10
177.6896423629517
 20
268.5157871833335
 30
0.0
 11
183.4824626859792
 21
268.5157871833335
 31
0.0
  0
LINE
  5
24D
330
77
100
AcDbEntity
  8
GULLY
100
AcDbLine
 10
190.1896423629517
 20
268.5157871833335
 30
0.0
 11
195.9824626859792
 21
268.5157871833335
 31
0.0
  0
LINE
  5
24E
330
77
100
AcDbEntity
  8
GULLY
100
AcDbLine
 10
202.6896423629517
 20
268.5157871833335
 30
0.0
 11
208.4824626859792
 21
268.5157871833335
 31
0.0
  0
LINE
  5
24F
330
77
100
AcDbEntity
  8
GULLY
100
AcDbLine
 10
215.1896423629517
 20
268.5157871833335
 30
0.0
 11
220.9824626859792
 21
268.5157871833335
 31
0.0
  0
LINE
  5
250
330
77
100
AcDbEntity
  8
GULLY
100
AcDbLine
 10
227.6896423629517
 20
268.5157871833335
 30
0.0
 11
233.4824626859793
 21
268.5157871833334
 31
0.0
  0
LINE
  5
251
330
77
100
AcDbEntity
  8
GULLY
100
AcDbLine
 10
240.1896423629517
 20
268.5157871833335
 30
0.0
 11
245.9824626859793
 21
268.5157871833335
 31
0.0
  0
LINE
  5
252
330
77
100
AcDbEntity
  8
GULLY
100
AcDbLine
 10
252.6896423629517
 20
268.5157871833335
 30
0.0
 11
258.4824626859793
 21
268.5157871833335
 31
0.0
  0
LINE
  5
253
330
77
100
AcDbEntity
  8
GULLY
100
AcDbLine
 10
265.1896423629517
 20
268.5157871833334
 30
0.0
 11
274.0860525244659
 21
268.5157871833334
 31
0.0
  0
LINE
  5
254
330
77
100
AcDbEntity
  8
GULLY
100
AcDbLine
 10
274.0860525244658
 20
271.5157871833334
 30
0.0
 11
265.1896423629517
 21
271.5157871833334
 31
0.0
  0
LINE
  5
255
330
77
100
AcDbEntity
  8
GULLY
100
AcDbLine
 10
258.4824626859793
 20
271.5157871833334
 30
0.0
 11
252.6896423629517
 21
271.5157871833334
 31
0.0
  0
LINE
  5
256
330
77
100
AcDbEntity
  8
GULLY
100
AcDbLine
 10
245.9824626859792
 20
271.5157871833334
 30
0.0
 11
240.1896423629517
 21
271.5157871833334
 31
0.0
  0
LINE
  5
257
330
77
100
AcDbEntity
  8
GULLY
100
AcDbLine
 10
233.4824626859793
 20
271.5157871833334
 30
0.0
 11
227.6896423629517
 21
271.5157871833334
 31
0.0
  0
LINE
  5
258
330
77
100
AcDbEntity
  8
GULLY
100
AcDbLine
 10
220.9824626859792
 20
271.5157871833334
 30
0.0
 11
215.1896423629517
 21
271.5157871833335
 31
0.0
  0
LINE
  5
259
330
77
100
AcDbEntity
  8
GULLY
100
AcDbLine
 10
208.4824626859792
 20
271.5157871833335
 30
0.0
 11
202.6896423629517
 21
271.5157871833335
 31
0.0
  0
LINE
  5
25A
330
77
100
AcDbEntity
  8
GULLY
100
AcDbLine
 10
195.9824626859792
 20
271.5157871833335
 30
0.0
 11
190.1896423629517
 21
271.5157871833335
 31
0.0
  0
LINE
  5
25B
330
77
100
AcDbEntity
  8
GULLY
100
AcDbLine
 10
183.4824626859792
 20
271.5157871833335
 30
0.0
 11
177.6896423629517
 21
271.5157871833335
 31
0.0
  0
LINE
  5
25C
330
77
100
AcDbEntity
  8
GULLY
100
AcDbLine
 10
170.9824626859792
 20
271.5157871833335
 30
0.0
 11
165.1896423629517
 21
271.5157871833335
 31
0.0
  0
LINE
  5
25D
330
77
100
AcDbEntity
  8
GULLY
100
AcDbLine
 10
158.4824626859792
 20
271.5157871833335
 30
0.0
 11
152.6896423629517
 21
271.5157871833335
 31
0.0
  0
LINE
  5
25E
330
77
100
AcDbEntity
  8
GULLY
100
AcDbLine
 10
145.9824626859792
 20
271.5157871833335
 30
0.0
 11
140.1896423629517
 21
271.5157871833335
 31
0.0
  0
LINE
  5
25F
330
77
100
AcDbEntity
  8
GULLY
100
AcDbLine
 10
133.4824626859792
 20
271.5157871833335
 30
0.0
 11
127.6896423629517
 21
271.5157871833335
 31
0.0
  0
LINE
  5
260
330
77
100
AcDbEntity
  8
GULLY
100
AcDbLine
 10
120.9824626859792
 20
271.5157871833335
 30
0.0
 11
112.0860525244659
 21
271.5157871833335
 31
0.0
  0
LINE
  5
261
330
77
100
AcDbEntity
  8
GULLY
100
AcDbLine
 10
120.9824626859792
 20
268.5157871833335
 30
0.0
 11
127.6896423629517
 21
268.5157871833335
 31
0.0
  0
LINE
  5
262
330
77
100
AcDbEntity
  8
GULLY
100
AcDbLine
 10
133.4824626859792
 20
268.5157871833335
 30
0.0
 11
140.1896423629517
 21
268.5157871833335
 31
0.0
  0
LINE
  5
263
330
77
100
AcDbEntity
  8
GULLY
100
AcDbLine
 10
145.9824626859792
 20
268.5157871833335
 30
0.0
 11
152.6896423629517
 21
268.5157871833335
 31
0.0
  0
LINE
  5
264
330
77
100
AcDbEntity
  8
GULLY
100
AcDbLine
 10
158.4824626859792
 20
268.5157871833335
 30
0.0
 11
165.1896423629517
 21
268.5157871833335
 31
0.0
  0
LINE
  5
265
330
77
100
AcDbEntity
  8
GULLY
100
AcDbLine
 10
170.9824626859792
 20
268.5157871833335
 30
0.0
 11
177.6896423629517
 21
268.5157871833335
 31
0.0
  0
LINE
  5
266
330
77
100
AcDbEntity
  8
GULLY
100
AcDbLine
 10
183.4824626859792
 20
268.5157871833335
 30
0.0
 11
190.1896423629517
 21
268.5157871833335
 31
0.0
  0
LINE
  5
267
330
77
100
AcDbEntity
  8
GULLY
100
AcDbLine
 10
195.9824626859792
 20
268.5157871833335
 30
0.0
 11
202.6896423629517
 21
268.5157871833335
 31
0.0
  0
LINE
  5
268
330
77
100
AcDbEntity
  8
GULLY
100
AcDbLine
 10
208.4824626859792
 20
268.5157871833335
 30
0.0
 11
215.1896423629517
 21
268.5157871833335
 31
0.0
  0
LINE
  5
269
330
77
100
AcDbEntity
  8
GULLY
100
AcDbLine
 10
220.9824626859792
 20
268.5157871833335
 30
0.0
 11
227.6896423629517
 21
268.5157871833335
 31
0.0
  0
LINE
  5
26A
330
77
100
AcDbEntity
  8
GULLY
100
AcDbLine
 10
233.4824626859793
 20
268.5157871833334
 30
0.0
 11
240.1896423629517
 21
268.5157871833334
 31
0.0
  0
LINE
  5
26B
330
77
100
AcDbEntity
  8
GULLY
100
AcDbLine
 10
245.9824626859793
 20
268.5157871833335
 30
0.0
 11
252.6896423629517
 21
268.5157871833335
 31
0.0
  0
LINE
  5
26C
330
77
100
AcDbEntity
  8
GULLY
100
AcDbLine
 10
258.4824626859793
 20
268.5157871833334
 30
0.0
 11
265.1896423629517
 21
268.5157871833334
 31
0.0
  0
LINE
  5
26D
330
77
100
AcDbEntity
  8
GULLY
100
AcDbLine
 10
265.1896423629517
 20
271.5157871833334
 30
0.0
 11
258.4824626859793
 21
271.5157871833334
 31
0.0
  0
LINE
  5
26E
330
77
100
AcDbEntity
  8
GULLY
100
AcDbLine
 10
252.6896423629517
 20
271.5157871833334
 30
0.0
 11
245.9824626859792
 21
271.5157871833334
 31
0.0
  0
LINE
  5
26F
330
77
100
AcDbEntity
  8
GULLY
100
AcDbLine
 10
240.1896423629517
 20
271.5157871833334
 30
0.0
 11
233.4824626859793
 21
271.5157871833335
 31
0.0
  0
LINE
  5
270
330
77
100
AcDbEntity
  8
GULLY
100
AcDbLine
 10
227.6896423629517
 20
271.5157871833334
 30
0.0
 11
220.9824626859792
 21
271.5157871833334
 31
0.0
  0
LINE
  5
271
330
77
100
AcDbEntity
  8
GULLY
100
AcDbLine
 10
215.1896423629517
 20
271.5157871833335
 30
0.0
 11
208.4824626859792
 21
271.5157871833335
 31
0.0
  0
LINE
  5
272
330
77
100
AcDbEntity
  8
GULLY
100
AcDbLine
 10
202.6896423629517
 20
271.5157871833335
 30
0.0
 11
195.9824626859792
 21
271.5157871833335
 31
0.0
  0
LINE
  5
273
330
77
100
AcDbEntity
  8
GULLY
100
AcDbLine
 10
190.1896423629517
 20
271.5157871833335
 30
0.0
 11
183.4824626859792
 21
271.5157871833335
 31
0.0
  0
LINE
  5
274
330
77
100
AcDbEntity
  8
GULLY
100
AcDbLine
 10
177.6896423629517
 20
271.5157871833335
 30
0.0
 11
170.9824626859792
 21
271.5157871833335
 31
0.0
  0
LINE
  5
275
330
77
100
AcDbEntity
  8
GULLY
100
AcDbLine
 10
165.1896423629517
 20
271.5157871833335
 30
0.0
 11
158.4824626859792
 21
271.5157871833335
 31
0.0
  0
LINE
  5
276
330
77
100
AcDbEntity
  8
GULLY
100
AcDbLine
 10
152.6896423629517
 20
271.5157871833335
 30
0.0
 11
145.9824626859792
 21
271.5157871833335
 31
0.0
  0
LINE
  5
277
330
77
100
AcDbEntity
  8
GULLY
100
AcDbLine
 10
140.1896423629517
 20
271.5157871833335
 30
0.0
 11
133.4824626859792
 21
271.5157871833335
 31
0.0
  0
LINE
  5
278
330
77
100
AcDbEntity
  8
GULLY
100
AcDbLine
 10
127.6896423629517
 20
271.5157871833335
 30
0.0
 11
120.9824626859792
 21
271.5157871833335
 31
0.0
  0
LINE
  5
279
330
77
100
AcDbEntity
  8
GULLY
100
AcDbLine
 10
112.0860525244659
 20
218.5157871833335
 30
0.0
 11
120.9824626859794
 21
218.5157871833335
 31
0.0
  0
LINE
  5
27A
330
77
100
AcDbEntity
  8
GULLY
100
AcDbLine
 10
127.6896423629519
 20
218.5157871833335
 30
0.0
 11
133.4824626859794
 21
218.5157871833335
 31
0.0
  0
LINE
  5
27B
330
77
100
AcDbEntity
  8
GULLY
100
AcDbLine
 10
140.1896423629519
 20
218.5157871833335
 30
0.0
 11
145.9824626859794
 21
218.5157871833335
 31
0.0
  0
LINE
  5
27C
330
77
100
AcDbEntity
  8
GULLY
100
AcDbLine
 10
152.6896423629518
 20
218.5157871833335
 30
0.0
 11
158.4824626859794
 21
218.5157871833335
 31
0.0
  0
LINE
  5
27D
330
77
100
AcDbEntity
  8
GULLY
100
AcDbLine
 10
165.1896423629519
 20
218.5157871833335
 30
0.0
 11
170.9824626859794
 21
218.5157871833335
 31
0.0
  0
LINE
  5
27E
330
77
100
AcDbEntity
  8
GULLY
100
AcDbLine
 10
177.6896423629519
 20
218.5157871833335
 30
0.0
 11
183.4824626859793
 21
218.5157871833335
 31
0.0
  0
LINE
  5
27F
330
77
100
AcDbEntity
  8
GULLY
100
AcDbLine
 10
190.1896423629518
 20
218.5157871833335
 30
0.0
 11
195.9824626859794
 21
218.5157871833335
 31
0.0
  0
LINE
  5
280
330
77
100
AcDbEntity
  8
GULLY
100
AcDbLine
 10
202.6896423629519
 20
218.5157871833335
 30
0.0
 11
208.4824626859794
 21
218.5157871833335
 31
0.0
  0
LINE
  5
281
330
77
100
AcDbEntity
  8
GULLY
100
AcDbLine
 10
215.1896423629518
 20
218.5157871833335
 30
0.0
 11
220.9824626859794
 21
218.5157871833335
 31
0.0
  0
LINE
  5
282
330
77
100
AcDbEntity
  8
GULLY
100
AcDbLine
 10
227.6896423629519
 20
218.5157871833335
 30
0.0
 11
233.4824626859794
 21
218.5157871833335
 31
0.0
  0
LINE
  5
283
330
77
100
AcDbEntity
  8
GULLY
100
AcDbLine
 10
240.1896423629518
 20
218.5157871833335
 30
0.0
 11
245.9824626859794
 21
218.5157871833335
 31
0.0
  0
LINE
  5
284
330
77
100
AcDbEntity
  8
GULLY
100
AcDbLine
 10
252.6896423629518
 20
218.5157871833335
 30
0.0
 11
258.4824626859794
 21
218.5157871833335
 31
0.0
  0
LINE
  5
285
330
77
100
AcDbEntity
  8
GULLY
100
AcDbLine
 10
265.1896423629519
 20
218.5157871833334
 30
0.0
 11
274.0860525244659
 21
218.5157871833334
 31
0.0
  0
LINE
  5
286
330
77
100
AcDbEntity
  8
GULLY
100
AcDbLine
 10
274.0860525244659
 20
221.5157871833334
 30
0.0
 11
265.1896423629519
 21
221.5157871833334
 31
0.0
  0
LINE
  5
287
330
77
100
AcDbEntity
  8
GULLY
100
AcDbLine
 10
258.4824626859794
 20
221.5157871833334
 30
0.0
 11
252.6896423629518
 21
221.5157871833334
 31
0.0
  0
LINE
  5
288
330
77
100
AcDbEntity
  8
GULLY
100
AcDbLine
 10
245.9824626859794
 20
221.5157871833334
 30
0.0
 11
240.1896423629518
 21
221.5157871833334
 31
0.0
  0
LINE
  5
289
330
77
100
AcDbEntity
  8
GULLY
100
AcDbLine
 10
233.4824626859794
 20
221.5157871833334
 30
0.0
 11
227.6896423629518
 21
221.5157871833334
 31
0.0
  0
LINE
  5
28A
330
77
100
AcDbEntity
  8
GULLY
100
AcDbLine
 10
220.9824626859794
 20
221.5157871833334
 30
0.0
 11
215.1896423629518
 21
221.5157871833334
 31
0.0
  0
LINE
  5
28B
330
77
100
AcDbEntity
  8
GULLY
100
AcDbLine
 10
208.4824626859794
 20
221.5157871833335
 30
0.0
 11
202.6896423629519
 21
221.5157871833335
 31
0.0
  0
LINE
  5
28C
330
77
100
AcDbEntity
  8
GULLY
100
AcDbLine
 10
195.9824626859793
 20
221.5157871833335
 30
0.0
 11
190.1896423629518
 21
221.5157871833335
 31
0.0
  0
LINE
  5
28D
330
77
100
AcDbEntity
  8
GULLY
100
AcDbLine
 10
183.4824626859793
 20
221.5157871833335
 30
0.0
 11
177.6896423629519
 21
221.5157871833335
 31
0.0
  0
LINE
  5
28E
330
77
100
AcDbEntity
  8
GULLY
100
AcDbLine
 10
170.9824626859794
 20
221.5157871833335
 30
0.0
 11
165.1896423629519
 21
221.5157871833335
 31
0.0
  0
LINE
  5
28F
330
77
100
AcDbEntity
  8
GULLY
100
AcDbLine
 10
158.4824626859794
 20
221.5157871833335
 30
0.0
 11
152.6896423629518
 21
221.5157871833335
 31
0.0
  0
LINE
  5
290
330
77
100
AcDbEntity
  8
GULLY
100
AcDbLine
 10
145.9824626859794
 20
221.5157871833335
 30
0.0
 11
140.1896423629519
 21
221.5157871833335
 31
0.0
  0
LINE
  5
291
330
77
100
AcDbEntity
  8
GULLY
100
AcDbLine
 10
133.4824626859794
 20
221.5157871833335
 30
0.0
 11
127.6896423629519
 21
221.5157871833335
 31
0.0
  0
LINE
  5
292
330
77
100
AcDbEntity
  8
GULLY
100
AcDbLine
 10
120.9824626859794
 20
221.5157871833335
 30
0.0
 11
112.0860525244659
 21
221.5157871833335
 31
0.0
  0
LINE
  5
293
330
77
100
AcDbEntity
  8
GULLY
100
AcDbLine
 10
120.9824626859794
 20
218.5157871833335
 30
0.0
 11
127.6896423629519
 21
218.5157871833335
 31
0.0
  0
LINE
  5
294
330
77
100
AcDbEntity
  8
GULLY
100
AcDbLine
 10
133.4824626859794
 20
218.5157871833335
 30
0.0
 11
140.1896423629519
 21
218.5157871833335
 31
0.0
  0
LINE
  5
295
330
77
100
AcDbEntity
  8
GULLY
100
AcDbLine
 10
145.9824626859794
 20
218.5157871833335
 30
0.0
 11
152.6896423629518
 21
218.5157871833335
 31
0.0
  0
LINE
  5
296
330
77
100
AcDbEntity
  8
GULLY
100
AcDbLine
 10
158.4824626859794
 20
218.5157871833335
 30
0.0
 11
165.1896423629519
 21
218.5157871833335
 31
0.0
  0
LINE
  5
297
330
77
100
AcDbEntity
  8
GULLY
100
AcDbLine
 10
170.9824626859794
 20
218.5157871833335
 30
0.0
 11
177.6896423629519
 21
218.5157871833335
 31
0.0
  0
LINE
  5
298
330
77
100
AcDbEntity
  8
GULLY
100
AcDbLine
 10
183.4824626859793
 20
218.5157871833335
 30
0.0
 11
190.1896423629518
 21
218.5157871833335
 31
0.0
  0
LINE
  5
299
330
77
100
AcDbEntity
  8
GULLY
100
AcDbLine
 10
195.9824626859794
 20
218.5157871833335
 30
0.0
 11
202.6896423629519
 21
218.5157871833335
 31
0.0
  0
LINE
  5
29A
330
77
100
AcDbEntity
  8
GULLY
100
AcDbLine
 10
208.4824626859794
 20
218.5157871833335
 30
0.0
 11
215.1896423629518
 21
218.5157871833335
 31
0.0
  0
LINE
  5
29B
330
77
100
AcDbEntity
  8
GULLY
100
AcDbLine
 10
220.9824626859794
 20
218.5157871833335
 30
0.0
 11
227.6896423629519
 21
218.5157871833335
 31
0.0
  0
LINE
  5
29C
330
77
100
AcDbEntity
  8
GULLY
100
AcDbLine
 10
233.4824626859794
 20
218.5157871833335
 30
0.0
 11
240.1896423629518
 21
218.5157871833335
 31
0.0
  0
LINE
  5
29D
330
77
100
AcDbEntity
  8
GULLY
100
AcDbLine
 10
245.9824626859794
 20
218.5157871833335
 30
0.0
 11
252.6896423629518
 21
218.5157871833335
 31
0.0
  0
LINE
  5
29E
330
77
100
AcDbEntity
  8
GULLY
100
AcDbLine
 10
258.4824626859794
 20
218.5157871833335
 30
0.0
 11
265.1896423629519
 21
218.5157871833334
 31
0.0
  0
LINE
  5
29F
330
77
100
AcDbEntity
  8
GULLY
100
AcDbLine
 10
265.1896423629519
 20
221.5157871833334
 30
0.0
 11
258.4824626859794
 21
221.5157871833334
 31
0.0
  0
LINE
  5
2A0
330
77
100
AcDbEntity
  8
GULLY
100
AcDbLine
 10
252.6896423629518
 20
221.5157871833334
 30
0.0
 11
245.9824626859794
 21
221.5157871833334
 31
0.0
  0
LINE
  5
2A1
330
77
100
AcDbEntity
  8
GULLY
100
AcDbLine
 10
240.1896423629518
 20
221.5157871833334
 30
0.0
 11
233.4824626859794
 21
221.5157871833334
 31
0.0
  0
LINE
  5
2A2
330
77
100
AcDbEntity
  8
GULLY
100
AcDbLine
 10
227.6896423629518
 20
221.5157871833335
 30
0.0
 11
220.9824626859794
 21
221.5157871833335
 31
0.0
  0
LINE
  5
2A3
330
77
100
AcDbEntity
  8
GULLY
100
AcDbLine
 10
215.1896423629518
 20
221.5157871833335
 30
0.0
 11
208.4824626859794
 21
221.5157871833335
 31
0.0
  0
LINE
  5
2A4
330
77
100
AcDbEntity
  8
GULLY
100
AcDbLine
 10
202.6896423629519
 20
221.5157871833335
 30
0.0
 11
195.9824626859793
 21
221.5157871833335
 31
0.0
  0
LINE
  5
2A5
330
77
100
AcDbEntity
  8
GULLY
100
AcDbLine
 10
190.1896423629518
 20
221.5157871833335
 30
0.0
 11
183.4824626859793
 21
221.5157871833335
 31
0.0
  0
LINE
  5
2A6
330
77
100
AcDbEntity
  8
GULLY
100
AcDbLine
 10
177.6896423629519
 20
221.5157871833335
 30
0.0
 11
170.9824626859794
 21
221.5157871833335
 31
0.0
  0
LINE
  5
2A7
330
77
100
AcDbEntity
  8
GULLY
100
AcDbLine
 10
165.1896423629519
 20
221.5157871833335
 30
0.0
 11
158.4824626859794
 21
221.5157871833335
 31
0.0
  0
LINE
  5
2A8
330
77
100
AcDbEntity
  8
GULLY
100
AcDbLine
 10
152.6896423629518
 20
221.5157871833335
 30
0.0
 11
145.9824626859794
 21
221.5157871833335
 31
0.0
  0
LINE
  5
2A9
330
77
100
AcDbEntity
  8
GULLY
100
AcDbLine
 10
140.1896423629519
 20
221.5157871833335
 30
0.0
 11
133.4824626859794
 21
221.5157871833335
 31
0.0
  0
LINE
  5
2AA
330
77
100
AcDbEntity
  8
GULLY
100
AcDbLine
 10
127.6896423629519
 20
221.5157871833335
 30
0.0
 11
120.9824626859794
 21
221.5157871833335
 31
0.0
  0
LINE
  5
2AB
330
77
100
AcDbEntity
  8
GULLY
100
AcDbLine
 10
264.9896423629515
 20
351.0157871833337
 30
0.0
 11
258.682462685979
 21
351.0157871833336
 31
0.0
  0
LINE
  5
2AC
330
77
100
AcDbEntity
  8
GULLY
100
AcDbLine
 10
258.6824626859795
 20
189.015787183334
 30
0.0
 11
264.9896423629519
 21
189.015787183334
 31
0.0
  0
LINE
  5
2AD
330
77
100
AcDbEntity
  8
GULLY
100
AcDbLine
 10
258.482462685979
 20
351.0157871833336
 30
0.0
 11
258.4824626859795
 21
189.015787183334
 31
0.0
  0
LINE
  5
2AE
330
77
100
AcDbEntity
  8
GULLY
100
AcDbLine
 10
265.1896423629515
 20
351.0157871833337
 30
0.0
 11
265.1896423629519
 21
189.015787183334
 31
0.0
  0
LINE
  5
2AF
330
77
100
AcDbEntity
  8
GULLY
100
AcDbLine
 10
252.4896423629515
 20
351.0157871833336
 30
0.0
 11
246.182462685979
 21
351.0157871833336
 31
0.0
  0
LINE
  5
2B0
330
77
100
AcDbEntity
  8
GULLY
100
AcDbLine
 10
246.1824626859795
 20
189.0157871833339
 30
0.0
 11
252.4896423629519
 21
189.015787183334
 31
0.0
  0
LINE
  5
2B1
330
77
100
AcDbEntity
  8
GULLY
100
AcDbLine
 10
245.982462685979
 20
351.0157871833336
 30
0.0
 11
245.9824626859795
 21
189.0157871833339
 31
0.0
  0
LINE
  5
2B2
330
77
100
AcDbEntity
  8
GULLY
100
AcDbLine
 10
252.6896423629515
 20
351.0157871833337
 30
0.0
 11
252.6896423629519
 21
189.015787183334
 31
0.0
  0
LINE
  5
2B3
330
77
100
AcDbEntity
  8
GULLY
100
AcDbLine
 10
239.9896423629515
 20
351.0157871833336
 30
0.0
 11
233.682462685979
 21
351.0157871833335
 31
0.0
  0
LINE
  5
2B4
330
77
100
AcDbEntity
  8
GULLY
100
AcDbLine
 10
233.6824626859795
 20
189.0157871833339
 30
0.0
 11
239.9896423629519
 21
189.0157871833339
 31
0.0
  0
LINE
  5
2B5
330
77
100
AcDbEntity
  8
GULLY
100
AcDbLine
 10
233.482462685979
 20
351.0157871833335
 30
0.0
 11
233.4824626859795
 21
189.0157871833339
 31
0.0
  0
LINE
  5
2B6
330
77
100
AcDbEntity
  8
GULLY
100
AcDbLine
 10
240.1896423629515
 20
351.0157871833336
 30
0.0
 11
240.1896423629519
 21
189.0157871833339
 31
0.0
  0
LINE
  5
2B7
330
77
100
AcDbEntity
  8
GULLY
100
AcDbLine
 10
227.4896423629515
 20
351.0157871833336
 30
0.0
 11
221.182462685979
 21
351.0157871833335
 31
0.0
  0
LINE
  5
2B8
330
77
100
AcDbEntity
  8
GULLY
100
AcDbLine
 10
221.1824626859795
 20
189.0157871833338
 30
0.0
 11
227.4896423629519
 21
189.0157871833339
 31
0.0
  0
LINE
  5
2B9
330
77
100
AcDbEntity
  8
GULLY
100
AcDbLine
 10
220.982462685979
 20
351.0157871833335
 30
0.0
 11
220.9824626859795
 21
189.0157871833339
 31
0.0
  0
LINE
  5
2BA
330
77
100
AcDbEntity
  8
GULLY
100
AcDbLine
 10
227.6896423629515
 20
351.0157871833336
 30
0.0
 11
227.6896423629519
 21
189.0157871833339
 31
0.0
  0
LINE
  5
2BB
330
77
100
AcDbEntity
  8
GULLY
100
AcDbLine
 10
214.9896423629515
 20
351.0157871833335
 30
0.0
 11
208.682462685979
 21
351.0157871833335
 31
0.0
  0
LINE
  5
2BC
330
77
100
AcDbEntity
  8
GULLY
100
AcDbLine
 10
208.6824626859795
 20
189.0157871833338
 30
0.0
 11
214.9896423629519
 21
189.0157871833339
 31
0.0
  0
LINE
  5
2BD
330
77
100
AcDbEntity
  8
GULLY
100
AcDbLine
 10
208.4824626859791
 20
351.0157871833335
 30
0.0
 11
208.4824626859795
 21
189.0157871833338
 31
0.0
  0
LINE
  5
2BE
330
77
100
AcDbEntity
  8
GULLY
100
AcDbLine
 10
215.1896423629515
 20
351.0157871833336
 30
0.0
 11
215.1896423629519
 21
189.0157871833339
 31
0.0
  0
LINE
  5
2BF
330
77
100
AcDbEntity
  8
GULLY
100
AcDbLine
 10
202.4896423629515
 20
351.0157871833335
 30
0.0
 11
196.182462685979
 21
351.0157871833334
 31
0.0
  0
LINE
  5
2C0
330
77
100
AcDbEntity
  8
GULLY
100
AcDbLine
 10
196.1824626859794
 20
189.0157871833338
 30
0.0
 11
202.4896423629519
 21
189.0157871833338
 31
0.0
  0
LINE
  5
2C1
330
77
100
AcDbEntity
  8
GULLY
100
AcDbLine
 10
195.982462685979
 20
351.0157871833334
 30
0.0
 11
195.9824626859795
 21
189.0157871833338
 31
0.0
  0
LINE
  5
2C2
330
77
100
AcDbEntity
  8
GULLY
100
AcDbLine
 10
202.6896423629515
 20
351.0157871833335
 30
0.0
 11
202.6896423629519
 21
189.0157871833338
 31
0.0
  0
LINE
  5
2C3
330
77
100
AcDbEntity
  8
GULLY
100
AcDbLine
 10
189.9896423629515
 20
351.0157871833334
 30
0.0
 11
183.682462685979
 21
351.0157871833334
 31
0.0
  0
LINE
  5
2C4
330
77
100
AcDbEntity
  8
GULLY
100
AcDbLine
 10
183.6824626859795
 20
189.0157871833338
 30
0.0
 11
189.9896423629519
 21
189.0157871833338
 31
0.0
  0
LINE
  5
2C5
330
77
100
AcDbEntity
  8
GULLY
100
AcDbLine
 10
183.482462685979
 20
351.0157871833334
 30
0.0
 11
183.4824626859795
 21
189.0157871833338
 31
0.0
  0
LINE
  5
2C6
330
77
100
AcDbEntity
  8
GULLY
100
AcDbLine
 10
190.1896423629515
 20
351.0157871833335
 30
0.0
 11
190.1896423629519
 21
189.0157871833338
 31
0.0
  0
LINE
  5
2C7
330
77
100
AcDbEntity
  8
GULLY
100
AcDbLine
 10
177.4896423629514
 20
351.0157871833334
 30
0.0
 11
171.182462685979
 21
351.0157871833334
 31
0.0
  0
LINE
  5
2C8
330
77
100
AcDbEntity
  8
GULLY
100
AcDbLine
 10
171.1824626859794
 20
189.0157871833337
 30
0.0
 11
177.4896423629519
 21
189.0157871833338
 31
0.0
  0
LINE
  5
2C9
330
77
100
AcDbEntity
  8
GULLY
100
AcDbLine
 10
170.982462685979
 20
351.0157871833334
 30
0.0
 11
170.9824626859794
 21
189.0157871833337
 31
0.0
  0
LINE
  5
2CA
330
77
100
AcDbEntity
  8
GULLY
100
AcDbLine
 10
177.6896423629514
 20
351.0157871833334
 30
0.0
 11
177.6896423629519
 21
189.0157871833338
 31
0.0
  0
LINE
  5
2CB
330
77
100
AcDbEntity
  8
GULLY
100
AcDbLine
 10
164.9896423629515
 20
351.0157871833334
 30
0.0
 11
158.682462685979
 21
351.0157871833334
 31
0.0
  0
LINE
  5
2CC
330
77
100
AcDbEntity
  8
GULLY
100
AcDbLine
 10
158.6824626859794
 20
189.0157871833337
 30
0.0
 11
164.9896423629519
 21
189.0157871833337
 31
0.0
  0
LINE
  5
2CD
330
77
100
AcDbEntity
  8
GULLY
100
AcDbLine
 10
158.482462685979
 20
351.0157871833334
 30
0.0
 11
158.4824626859795
 21
189.0157871833337
 31
0.0
  0
LINE
  5
2CE
330
77
100
AcDbEntity
  8
GULLY
100
AcDbLine
 10
165.1896423629514
 20
351.0157871833334
 30
0.0
 11
165.1896423629519
 21
189.0157871833337
 31
0.0
  0
LINE
  5
2CF
330
77
100
AcDbEntity
  8
GULLY
100
AcDbLine
 10
152.4896423629514
 20
351.0157871833334
 30
0.0
 11
146.182462685979
 21
351.0157871833334
 31
0.0
  0
LINE
  5
2D0
330
77
100
AcDbEntity
  8
GULLY
100
AcDbLine
 10
146.1824626859795
 20
189.0157871833336
 30
0.0
 11
152.4896423629519
 21
189.0157871833337
 31
0.0
  0
LINE
  5
2D1
330
77
100
AcDbEntity
  8
GULLY
100
AcDbLine
 10
145.982462685979
 20
351.0157871833333
 30
0.0
 11
145.9824626859795
 21
189.0157871833336
 31
0.0
  0
LINE
  5
2D2
330
77
100
AcDbEntity
  8
GULLY
100
AcDbLine
 10
152.6896423629515
 20
351.0157871833334
 30
0.0
 11
152.6896423629519
 21
189.0157871833337
 31
0.0
  0
LINE
  5
2D3
330
77
100
AcDbEntity
  8
GULLY
100
AcDbLine
 10
139.9896423629513
 20
351.0157871833334
 30
0.0
 11
133.682462685979
 21
351.0157871833334
 31
0.0
  0
LINE
  5
2D4
330
77
100
AcDbEntity
  8
GULLY
100
AcDbLine
 10
133.6824626859794
 20
189.0157871833336
 30
0.0
 11
139.9896423629519
 21
189.0157871833336
 31
0.0
  0
LINE
  5
2D5
330
77
100
AcDbEntity
  8
GULLY
100
AcDbLine
 10
133.482462685979
 20
351.0157871833333
 30
0.0
 11
133.4824626859794
 21
189.0157871833336
 31
0.0
  0
LINE
  5
2D6
330
77
100
AcDbEntity
  8
GULLY
100
AcDbLine
 10
140.1896423629514
 20
351.0157871833334
 30
0.0
 11
140.1896423629519
 21
189.0157871833336
 31
0.0
  0
LINE
  5
2D7
330
77
100
AcDbEntity
  8
GULLY
100
AcDbLine
 10
127.4896423629514
 20
351.0157871833334
 30
0.0
 11
121.182462685979
 21
351.0157871833333
 31
0.0
  0
LINE
  5
2D8
330
77
100
AcDbEntity
  8
GULLY
100
AcDbLine
 10
121.1824626859794
 20
189.0157871833336
 30
0.0
 11
127.4896423629519
 21
189.0157871833336
 31
0.0
  0
LINE
  5
2D9
330
77
100
AcDbEntity
  8
GULLY
100
AcDbLine
 10
120.982462685979
 20
351.0157871833333
 30
0.0
 11
120.9824626859795
 21
189.0157871833336
 31
0.0
  0
LINE
  5
2DA
330
77
100
AcDbEntity
  8
GULLY
100
AcDbLine
 10
127.6896423629514
 20
351.0157871833334
 30
0.0
 11
127.6896423629519
 21
189.0157871833336
 31
0.0
  0
DIMENSION
  5
128D
330
77
100
AcDbEntity
  8
KOTY_GULLY
100
AcDbDimension
  2
*D40
 10
109.0860525244656
 20
373.8523948321232
 30
0.0
 11
193.0860525244656
 21
381.3763948321232
 31
0.0
 70
    32
  1
<>
 71
     5
 42
168.0
  3
GULLY 1
100
AcDbAlignedDimension
 13
277.0860525244657
 23
348.0157871833337
 33
0.0
 14
109.0860525244656
 24
348.0157871833333
 34
0.0
100
AcDbRotatedDimension
1001
ACAD
1000
DSTYLE
1002
{
1070
   340
1005
65
1002
}
1001
ACAD_DSTYLE_DIMINSPECT
1070
   396
1000
100%
1070
   395
1000

1070
   394
1070
    33
1070
   393
1070
     0
  0
DIMENSION
  5
128E
330
77
100
AcDbEntity
  8
KOTY_GULLY
100
AcDbDimension
  2
*D41
 10
80.25455259508794
 20
186.0157871833338
 30
0.0
 11
72.73055259508791
 21
270.0157871833336
 31
0.0
 70
    32
 71
     5
 42
167.9999999999994
  3
GULLY
100
AcDbAlignedDimension
 13
115.0860525244656
 23
354.0157871833333
 33
0.0
 14
115.0860525244657
 24
186.0157871833338
 34
0.0
 50
90.0
100
AcDbRotatedDimension
1001
ACAD_DSTYLE_DIMINSPECT
1070
   396
1000
100%
1070
   395
1000

1070
   394
1070
    33
1070
   393
1070
     0
1001
ACAD
1000
DSTYLE
1002
{
1070
   340
1005
65
1070
    45
1040
1.0
1002
}
  0
ENDSEC
  0
SECTION
  2
OBJECTS
  0
DICTIONARY
  5
C
330
0
100
AcDbDictionary
281
     1
  3
ACAD_2007HEADERVARS_RT
350
1347
  3
ACAD_COLOR
350
6E
  3
ACAD_GROUP
350
D
  3
ACAD_LAYOUT
350
6D
  3
ACAD_MATERIAL
350
10
  3
ACAD_MLEADERSTYLE
350
71
  3
ACAD_MLINESTYLE
350
6A
  3
ACAD_PLOTSETTINGS
350
6C
  3
ACAD_PLOTSTYLENAME
350
E
  3
ACAD_SCALELIST
350
3D
  3
ACAD_TABLESTYLE
350
6F
  3
ACAD_VISUALSTYLE
350
29
  3
ACDB_RECOMPOSE_DATA
350
1189
  3
AcDbVariableDictionary
350
11B1
  3
AcmDictionary
350
121E
  3
AcmSystemVariableManager
350
1362
  3
AEC_PROPERTY_SET_DEFS
350
1287
  3
AMG
350
11C1
  3
AMGSNAPSETTINGS
350
125D
  0
DICTIONARY
  5
127E
330
127D
100
AcDbDictionary
280
     1
281
     1
  0
DICTIONARY
  5
12DF
330
12DE
100
AcDbDictionary
280
     1
281
     1
  0
DICTIONARY
  5
1350
330
1DC
100
AcDbDictionary
280
     1
281
     1
  3
ACAD_MTEXT_2008_RT
360
1351
  0
DICTIONARY
  5
1352
330
1E1
100
AcDbDictionary
280
     1
281
     1
  3
ACAD_MTEXT_2008_RT
360
1353
  0
DICTIONARY
  5
1153
330
1E3
100
AcDbDictionary
280
     1
281
     1
  3
ACAD_MLATT
360
133E
  3
ACAD_XREC_ROUNDTRIP
360
1154
  0
DICTIONARY
  5
1156
330
1E7
100
AcDbDictionary
280
     1
281
     1
  3
ACAD_MLATT
360
133F
  3
ACAD_XREC_ROUNDTRIP
360
1157
  0
DICTIONARY
  5
1159
330
1E8
100
AcDbDictionary
280
     1
281
     1
  3
ACAD_MLATT
360
1340
  3
ACAD_XREC_ROUNDTRIP
360
115A
  0
DICTIONARY
  5
115C
330
1E9
100
AcDbDictionary
280
     1
281
     1
  3
ACAD_MLATT
360
1341
  3
ACAD_XREC_ROUNDTRIP
360
115D
  0
DICTIONARY
  5
115F
330
1EA
100
AcDbDictionary
280
     1
281
     1
  3
ACAD_MLATT
360
1342
  3
ACAD_XREC_ROUNDTRIP
360
1160
  0
DICTIONARY
  5
1162
330
1EC
100
AcDbDictionary
280
     1
281
     1
  3
ACAD_MLATT
360
1343
  3
ACAD_XREC_ROUNDTRIP
360
1163
  0
DICTIONARY
  5
1165
330
1ED
100
AcDbDictionary
280
     1
281
     1
  3
ACAD_MLATT
360
1344
  3
ACAD_XREC_ROUNDTRIP
360
1166
  0
DICTIONARY
  5
1168
330
1EE
100
AcDbDictionary
280
     1
281
     1
  3
ACAD_MLATT
360
1345
  3
ACAD_XREC_ROUNDTRIP
360
1169
  0
DICTIONARY
  5
116B
330
1EF
100
AcDbDictionary
280
     1
281
     1
  3
ACAD_MLATT
360
1346
  3
ACAD_XREC_ROUNDTRIP
360
116C
  0
DICTIONARY
  5
1354
330
48A
100
AcDbDictionary
280
     1
281
     1
  3
ACAD_MTEXT_2008_RT
360
1355
  0
DICTIONARY
  5
1356
330
48E
100
AcDbDictionary
280
     1
281
     1
  3
ACAD_MTEXT_2008_RT
360
1357
  0
DICTIONARY
  5
1358
330
492
100
AcDbDictionary
280
     1
281
     1
  3
ACAD_MTEXT_2008_RT
360
1359
  0
DICTIONARY
  5
135A
330
49D
100
AcDbDictionary
280
     1
281
     1
  3
ACAD_MTEXT_2008_RT
360
135B
  0
DICTIONARY
  5
135C
330
4A5
100
AcDbDictionary
280
     1
281
     1
  3
ACAD_MTEXT_2008_RT
360
135D
  0
DICTIONARY
  5
1347
102
{ACAD_REACTORS
330
C
102
}
330
C
100
AcDbDictionary
281
     1
  3
DIMARCSYM
350
1348
  3
DIMLTEX1
350
134A
  3
DIMLTEX2
350
134B
  3
DIMLTYPE
350
1349
  0
DICTIONARY
  5
6E
102
{ACAD_REACTORS
330
C
102
}
330
C
100
AcDbDictionary
281
     1
  0
DICTIONARY
  5
D
102
{ACAD_REACTORS
330
C
102
}
330
C
100
AcDbDictionary
281
     1
  0
DICTIONARY
  5
6D
102
{ACAD_REACTORS
330
C
102
}
330
C
100
AcDbDictionary
281
     1
  3
Layout1
350
76
  3
Layout2
350
7E
  3
Model
350
7A
  0
DICTIONARY
  5
10
102
{ACAD_REACTORS
330
C
102
}
330
C
100
AcDbDictionary
281
     1
  3
ByBlock
350
19
  3
ByLayer
350
11
  3
Global
350
21
  0
DICTIONARY
  5
71
102
{ACAD_REACTORS
330
C
102
}
330
C
100
AcDbDictionary
281
     1
  3
Standard
350
72
  0
DICTIONARY
  5
6A
102
{ACAD_REACTORS
330
C
102
}
330
C
100
AcDbDictionary
281
     1
  3
Standard
350
6B
  0
DICTIONARY
  5
6C
102
{ACAD_REACTORS
330
C
102
}
330
C
100
AcDbDictionary
281
     1
  0
ACDBDICTIONARYWDFLT
  5
E
102
{ACAD_REACTORS
330
C
102
}
330
C
100
AcDbDictionary
281
     1
  3
Normal
350
F
100
AcDbDictionaryWithDefault
340
F
  0
DICTIONARY
  5
3D
102
{ACAD_REACTORS
330
C
102
}
330
C
100
AcDbDictionary
281
     1
  3
A0
350
3E
  3
A1
350
3F
  3
A2
350
40
  3
A3
350
41
  3
A4
350
42
  3
A5
350
43
  3
A6
350
44
  3
A7
350
45
  3
A8
350
46
  3
A9
350
47
  3
B0
350
48
  3
B1
350
49
  3
B2
350
4A
  3
B3
350
4B
  3
B4
350
4C
  3
B5
350
4D
  3
B6
350
4E
  3
B7
350
4F
  3
B8
350
50
  3
B9
350
51
  3
C0
350
52
  3
C1
350
53
  3
C2
350
54
  3
C3
350
55
  3
C4
350
56
  3
C5
350
57
  3
C6
350
58
  3
C7
350
59
  3
C8
350
5A
  3
C9
350
5B
  3
D0
350
5C
  3
D1
350
5D
  3
D2
350
5E
  0
DICTIONARY
  5
6F
102
{ACAD_REACTORS
330
C
102
}
330
C
100
AcDbDictionary
281
     1
  3
Standard
350
70
  0
DICTIONARY
  5
29
102
{ACAD_REACTORS
330
C
102
}
330
C
100
AcDbDictionary
281
     1
  3
2dWireframe
350
2F
  3
3D Hidden
350
31
  3
3dWireframe
350
30
  3
Basic
350
2E
  3
Brighten
350
35
  3
ColorChange
350
39
  3
Conceptual
350
32
  3
Dim
350
34
  3
EdgeColorOff
350
3C
  3
Facepattern
350
38
  3
Flat
350
2A
  3
FlatWithEdges
350
2B
  3
Gouraud
350
2C
  3
GouraudWithEdges
350
2D
  3
JitterOff
350
3A
  3
Linepattern
350
37
  3
OverhangOff
350
3B
  3
Realistic
350
33
  3
Thicken
350
36
  0
XRECORD
  5
1189
102
{ACAD_REACTORS
330
C
102
}
330
C
100
AcDbXrecord
280
     1
 90
        1
330
70
330
1E3
330
1E7
330
1E8
330
1E9
330
1EA
330
1EC
330
1ED
330
1EE
330
1EF
  0
DICTIONARY
  5
11B1
102
{ACAD_REACTORS
330
C
102
}
330
C
100
AcDbDictionary
281
     1
  3
CANNOSCALE
350
11B4
  3
CMLEADERSTYLE
350
11B3
  3
CTABLESTYLE
350
11B2
  3
LAYEREVAL
350
133B
  3
LAYERNOTIFY
350
133C
  3
LIGHTINGUNITS
350
133A
  3
MSLTSCALE
350
1339
  3
XCLIPFRAME
350
11B5
  0
DICTIONARY
  5
121E
102
{ACAD_REACTORS
330
C
102
}
330
C
100
AcDbDictionary
281
     1
  3
AcmStdDictionary
350
1229
  0
DICTIONARY
  5
1287
102
{ACAD_REACTORS
330
C
102
}
330
C
100
AcDbDictionary
281
     1
  0
DICTIONARY
  5
11C1
102
{ACAD_REACTORS
330
C
102
}
330
C
100
AcDbDictionary
281
     1
  0
DICTIONARY
  5
125D
102
{ACAD_REACTORS
330
C
102
}
330
C
100
AcDbDictionary
281
     1
  0
XRECORD
  5
1351
102
{ACAD_REACTORS
330
1350
102
}
330
1350
100
AcDbXrecord
280
     1
 40
32456.0
  1
Rošt heelsafe 168x168-25
  0
XRECORD
  5
1353
102
{ACAD_REACTORS
330
1352
102
}
330
1352
100
AcDbXrecord
280
     1
 40
3714.0
  1
není
  0
XRECORD
  5
133E
102
{ACAD_REACTORS
330
1153
102
}
330
1153
100
AcDbXrecord
280
     1
 70
     4
 70
     0
 70
     0
 40
1.0
  2
ČÍSLO_REVIZE
  1
Embedded Object
 10
287.6423193699604
 20
66.0
 30
0.0
 40
3.499999940395355
 41
0.0
 46
0.0
 71
     1
 72
     5
  1
000
  7
Styl textu9
 73
     1
 44
1.0
  0
XRECORD
  5
1154
102
{ACAD_REACTORS
330
1153
102
}
330
1153
100
AcDbXrecord
280
     1
102
ACAD_MATT_HEIGHT
140
3.499999940395355
  0
XRECORD
  5
133F
102
{ACAD_REACTORS
330
1156
102
}
330
1156
100
AcDbXrecord
280
     1
 70
     4
 70
     0
 70
     0
 40
1.0
  2
Sheet_Size
  1
Embedded Object
 10
289.7753402652471
 20
48.33701147296152
 30
0.0
 40
2.000000029802322
 41
0.0
 46
0.0
 71
     1
 72
     5
  1
A3
  7
Styl textu40
 73
     1
 44
1.0
  0
XRECORD
  5
1157
102
{ACAD_REACTORS
330
1156
102
}
330
1156
100
AcDbXrecord
280
     1
102
ACAD_MATT_HEIGHT
140
2.000000029802322
  0
XRECORD
  5
1340
102
{ACAD_REACTORS
330
1159
102
}
330
1159
100
AcDbXrecord
280
     1
 70
     4
 70
     0
 70
     0
 40
1.0
  2
FILENAME_AND_PATH
  1
Embedded Object
 10
230.2697279123746
 20
53.13502004542946
 30
0.0
 40
2.000000029802322
 41
0.0
 46
0.0
 71
     1
 72
     5
  1
C:\\Inventor_DATA\\Projekty\\FloorDrain B\\Rošty\\Rošty InDrain pro Guly\\Rošt heelsafe\\Rošt heelsafe 168x168-25 V2A.iam
  7
Styl textu40
 73
     1
 44
1.0
  0
XRECORD
  5
115A
102
{ACAD_REACTORS
330
1159
102
}
330
1159
100
AcDbXrecord
280
     1
102
ACAD_MATT_HEIGHT
140
2.000000029802322
  0
XRECORD
  5
1341
102
{ACAD_REACTORS
330
115C
102
}
330
115C
100
AcDbXrecord
280
     1
 70
     4
 70
     0
 70
     0
 40
1.0
  2
PART_NUMBER
  1
Embedded Object
 10
218.0
 20
66.0
 30
0.0
 40
3.499999940395355
 41
0.0
 46
0.0
 71
     1
 72
     5
  1
408022
  7
Text poznámky (ISO)
 73
     1
 44
1.0
  0
XRECORD
  5
115D
102
{ACAD_REACTORS
330
115C
102
}
330
115C
100
AcDbXrecord
280
     1
102
ACAD_MATT_HEIGHT
140
3.499999940395355
  0
XRECORD
  5
1342
102
{ACAD_REACTORS
330
115F
102
}
330
115F
100
AcDbXrecord
280
     1
 70
     4
 70
     0
 70
     0
 40
1.0
  2
PROJECT
  1
Embedded Object
 10
118.0
 20
60.0
 30
0.0
 40
3.499999940395355
 41
0.0
 46
0.0
 71
     1
 72
     5
  1

  7
Text poznámky (ISO)
 73
     1
 44
1.0
  0
XRECORD
  5
1160
102
{ACAD_REACTORS
330
115F
102
}
330
115F
100
AcDbXrecord
280
     1
102
ACAD_MATT_HEIGHT
140
3.499999940395355
  0
XRECORD
  5
1343
102
{ACAD_REACTORS
330
1162
102
}
330
1162
100
AcDbXrecord
280
     1
 70
     4
 70
     0
 70
     0
 40
1.0
  2
SKLADOVÉ_ČÍSLO
  1
Embedded Object
 10
118.0
 20
54.89391305489239
 30
0.0
 40
6.99999988079071
 41
153.2966041564941
 46
0.0
 71
     1
 72
     5
  1
408022
  7
Styl textu94
 73
     1
 44
1.0
  0
XRECORD
  5
1163
102
{ACAD_REACTORS
330
1162
102
}
330
1162
100
AcDbXrecord
280
     1
102
ACAD_MATT_HEIGHT
140
6.99999988079071
  0
XRECORD
  5
1344
102
{ACAD_REACTORS
330
1165
102
}
330
1165
100
AcDbXrecord
280
     1
 70
     4
 70
     0
 70
     0
 40
1.0
  2
MATERIAL
  1
Embedded Object
 10
117.5939056808251
 20
108.6756657996811
 30
0.0
 40
3.499999940395355
 41
0.0
 46
0.0
 71
     1
 72
     5
  1

  7
Text poznámky (ISO)
 73
     1
 44
1.0
  0
XRECORD
  5
1166
102
{ACAD_REACTORS
330
1165
102
}
330
1165
100
AcDbXrecord
280
     1
102
ACAD_MATT_HEIGHT
140
3.499999940395355
  0
XRECORD
  5
1345
102
{ACAD_REACTORS
330
1168
102
}
330
1168
100
AcDbXrecord
280
     1
 70
     4
 70
     0
 70
     0
 40
1.0
  2
AUTHOR
  1
Embedded Object
 10
165.2312259808574
 20
87.78242706242743
 30
0.0
 40
2.000000029802322
 41
15.06250023841858
 46
0.0
 71
     1
 72
     5
  1
onovak
  7
Styl textu40
 73
     1
 44
1.0
  0
XRECORD
  5
1169
102
{ACAD_REACTORS
330
1168
102
}
330
1168
100
AcDbXrecord
280
     1
102
ACAD_MATT_HEIGHT
140
2.000000029802322
  0
XRECORD
  5
1346
102
{ACAD_REACTORS
330
116B
102
}
330
116B
100
AcDbXrecord
280
     1
 70
     4
 70
     0
 70
     0
 40
1.0
  2
VS_First
  1
Embedded Object
 10
189.1855699863978
 20
86.00038821032342
 30
0.0
 40
3.499999940395355
 41
24.15597186978378
 46
0.0
 71
     1
 72
     5
  1

  7
Text poznámky (ISO)
 73
     1
 44
1.0
  0
XRECORD
  5
116C
102
{ACAD_REACTORS
330
116B
102
}
330
116B
100
AcDbXrecord
280
     1
102
ACAD_MATT_HEIGHT
140
3.499999940395355
  0
XRECORD
  5
1355
102
{ACAD_REACTORS
330
1354
102
}
330
1354
100
AcDbXrecord
280
     1
 40
7165.0
  1
KUSOVNÍK
  0
XRECORD
  5
1357
102
{ACAD_REACTORS
330
1356
102
}
330
1356
100
AcDbXrecord
280
     1
 40
6807.0
  1
MATERIÁL
  0
XRECORD
  5
1359
102
{ACAD_REACTORS
330
1358
102
}
330
1358
100
AcDbXrecord
280
     1
 40
34383.0
  1
SKLADOVÉ ČÍSLO
  0
XRECORD
  5
135B
102
{ACAD_REACTORS
330
135A
102
}
330
135A
100
AcDbXrecord
280
     1
 40
54290.0
  1
Lemovací příčka 
  0
XRECORD
  5
135D
102
{ACAD_REACTORS
330
135C
102
}
330
135C
100
AcDbXrecord
280
     1
 40
45814.0
  1
Nosná příčka 
  0
XRECORD
  5
1348
102
{ACAD_REACTORS
330
1347
102
}
330
1347
100
AcDbXrecord
280
     1
 70
     1
  0
XRECORD
  5
134A
102
{ACAD_REACTORS
330
1347
102
}
330
1347
100
AcDbXrecord
280
     1
340
66
  0
XRECORD
  5
134B
102
{ACAD_REACTORS
330
1347
102
}
330
1347
100
AcDbXrecord
280
     1
340
66
  0
XRECORD
  5
1349
102
{ACAD_REACTORS
330
1347
102
}
330
1347
100
AcDbXrecord
280
     1
340
66
  0
LAYOUT
  5
76
102
{ACAD_REACTORS
330
6D
102
}
330
6D
100
AcDbPlotSettings
  1

  2

  4

  6

 40
0.0
 41
0.0
 42
0.0
 43
0.0
 44
0.0
 45
0.0
 46
0.0
 47
0.0
 48
0.0
 49
0.0
140
0.0
141
0.0
142
1.0
143
1.0
 70
   688
 72
     0
 73
     0
 74
     5
  7

 75
    16
147
1.0
 76
     0
 77
     2
 78
   300
148
0.0
149
0.0
100
AcDbLayout
  1
Layout1
 70
     1
 71
     1
 10
0.0
 20
0.0
 11
630.0
 21
445.5
 12
0.0
 22
0.0
 32
0.0
 14
0.0
 24
0.0
 34
0.0
 15
630.0
 25
445.5
 35
0.0
146
0.0
 13
0.0
 23
0.0
 33
0.0
 16
1.0
 26
0.0
 36
0.0
 17
0.0
 27
1.0
 37
0.0
 76
     0
330
73
  0
LAYOUT
  5
7E
102
{ACAD_REACTORS
330
6D
102
}
330
6D
100
AcDbPlotSettings
  1

  2

  4

  6

 40
0.0
 41
0.0
 42
0.0
 43
0.0
 44
0.0
 45
0.0
 46
0.0
 47
0.0
 48
0.0
 49
0.0
140
0.0
141
0.0
142
1.0
143
1.0
 70
   688
 72
     0
 73
     0
 74
     5
  7

 75
    16
147
1.0
 76
     0
 77
     2
 78
   300
148
0.0
149
0.0
100
AcDbLayout
  1
Layout2
 70
     1
 71
     2
 10
0.0
 20
0.0
 11
12.0
 21
9.0
 12
0.0
 22
0.0
 32
0.0
 14
0.0
 24
0.0
 34
0.0
 15
0.0
 25
0.0
 35
0.0
146
0.0
 13
0.0
 23
0.0
 33
0.0
 16
1.0
 26
0.0
 36
0.0
 17
0.0
 27
1.0
 37
0.0
 76
     0
330
7B
  0
LAYOUT
  5
7A
102
{ACAD_REACTORS
330
6D
102
}
330
6D
100
AcDbPlotSettings
  1

  2

  4

  6

 40
0.0
 41
0.0
 42
0.0
 43
0.0
 44
0.0
 45
0.0
 46
0.0
 47
0.0
 48
0.0
 49
0.0
140
0.0
141
0.0
142
1.0
143
1.0
 70
  1712
 72
     0
 73
     0
 74
     0
  7

 75
     0
147
1.0
 76
     0
 77
     2
 78
   300
148
0.0
149
0.0
100
AcDbLayout
  1
Model
 70
     1
 71
     0
 10
0.0
 20
0.0
 11
12.0
 21
9.0
 12
0.0
 22
0.0
 32
0.0
 14
0.0
 24
0.0
 34
0.0
 15
0.0
 25
0.0
 35
0.0
146
0.0
 13
0.0
 23
0.0
 33
0.0
 16
1.0
 26
0.0
 36
0.0
 17
0.0
 27
1.0
 37
0.0
 76
     0
330
77
331
62
  0
MATERIAL
  5
19
102
{ACAD_XDICTIONARY
360
1A
102
}
102
{ACAD_REACTORS
330
10
102
}
330
10
100
AcDbMaterial
  1
ByBlock
 72
     0
 43
0.0208333333333333
 43
0.0
 43
0.0
 43
0.0
 43
0.0
 43
0.0208333333333333
 43
0.0
 43
0.0
 43
0.0
 43
0.0
 43
1.0
 43
0.0
 43
0.0
 43
0.0
 43
0.0
 43
1.0
 77
     0
 47
0.0208333333333333
 47
0.0
 47
0.0
 47
0.0
 47
0.0
 47
0.0208333333333333
 47
0.0
 47
0.0
 47
0.0
 47
0.0
 47
1.0
 47
0.0
 47
0.0
 47
0.0
 47
0.0
 47
1.0
171
     0
 49
0.0208333333333333
 49
0.0
 49
0.0
 49
0.0
 49
0.0
 49
0.0208333333333333
 49
0.0
 49
0.0
 49
0.0
 49
0.0
 49
1.0
 49
0.0
 49
0.0
 49
0.0
 49
0.0
 49
1.0
175
     0
142
0.0208333333333333
142
0.0
142
0.0
142
0.0
142
0.0
142
0.0208333333333333
142
0.0
142
0.0
142
0.0
142
0.0
142
1.0
142
0.0
142
0.0
142
0.0
142
0.0
142
1.0
179
     0
144
0.0208333333333333
144
0.0
144
0.0
144
0.0
144
0.0
144
0.0208333333333333
144
0.0
144
0.0
144
0.0
144
0.0
144
1.0
144
0.0
144
0.0
144
0.0
144
0.0
144
1.0
147
0.0208333333333333
147
0.0
147
0.0
147
0.0
147
0.0
147
0.0208333333333333
147
0.0
147
0.0
147
0.0
147
0.0
147
1.0
147
0.0
147
0.0
147
0.0
147
0.0
147
1.0
  0
MATERIAL
  5
11
102
{ACAD_XDICTIONARY
360
12
102
}
102
{ACAD_REACTORS
330
10
102
}
330
10
100
AcDbMaterial
  1
ByLayer
 72
     0
 43
0.0208333333333333
 43
0.0
 43
0.0
 43
0.0
 43
0.0
 43
0.0208333333333333
 43
0.0
 43
0.0
 43
0.0
 43
0.0
 43
1.0
 43
0.0
 43
0.0
 43
0.0
 43
0.0
 43
1.0
 77
     0
 47
0.0208333333333333
 47
0.0
 47
0.0
 47
0.0
 47
0.0
 47
0.0208333333333333
 47
0.0
 47
0.0
 47
0.0
 47
0.0
 47
1.0
 47
0.0
 47
0.0
 47
0.0
 47
0.0
 47
1.0
171
     0
 49
0.0208333333333333
 49
0.0
 49
0.0
 49
0.0
 49
0.0
 49
0.0208333333333333
 49
0.0
 49
0.0
 49
0.0
 49
0.0
 49
1.0
 49
0.0
 49
0.0
 49
0.0
 49
0.0
 49
1.0
175
     0
142
0.0208333333333333
142
0.0
142
0.0
142
0.0
142
0.0
142
0.0208333333333333
142
0.0
142
0.0
142
0.0
142
0.0
142
1.0
142
0.0
142
0.0
142
0.0
142
0.0
142
1.0
179
     0
144
0.0208333333333333
144
0.0
144
0.0
144
0.0
144
0.0
144
0.0208333333333333
144
0.0
144
0.0
144
0.0
144
0.0
144
1.0
144
0.0
144
0.0
144
0.0
144
0.0
144
1.0
147
0.0208333333333333
147
0.0
147
0.0
147
0.0
147
0.0
147
0.0208333333333333
147
0.0
147
0.0
147
0.0
147
0.0
147
1.0
147
0.0
147
0.0
147
0.0
147
0.0
147
1.0
  0
MATERIAL
  5
21
102
{ACAD_XDICTIONARY
360
22
102
}
102
{ACAD_REACTORS
330
10
102
}
330
10
100
AcDbMaterial
  1
Global
 72
     0
 43
0.0208333333333333
 43
0.0
 43
0.0
 43
0.0
 43
0.0
 43
0.0208333333333333
 43
0.0
 43
0.0
 43
0.0
 43
0.0
 43
1.0
 43
0.0
 43
0.0
 43
0.0
 43
0.0
 43
1.0
 77
     0
 47
0.0208333333333333
 47
0.0
 47
0.0
 47
0.0
 47
0.0
 47
0.0208333333333333
 47
0.0
 47
0.0
 47
0.0
 47
0.0
 47
1.0
 47
0.0
 47
0.0
 47
0.0
 47
0.0
 47
1.0
171
     0
 49
0.0208333333333333
 49
0.0
 49
0.0
 49
0.0
 49
0.0
 49
0.0208333333333333
 49
0.0
 49
0.0
 49
0.0
 49
0.0
 49
1.0
 49
0.0
 49
0.0
 49
0.0
 49
0.0
 49
1.0
175
     0
142
0.0208333333333333
142
0.0
142
0.0
142
0.0
142
0.0
142
0.0208333333333333
142
0.0
142
0.0
142
0.0
142
0.0
142
1.0
142
0.0
142
0.0
142
0.0
142
0.0
142
1.0
179
     0
144
0.0208333333333333
144
0.0
144
0.0
144
0.0
144
0.0
144
0.0208333333333333
144
0.0
144
0.0
144
0.0
144
0.0
144
1.0
144
0.0
144
0.0
144
0.0
144
0.0
144
1.0
147
0.0208333333333333
147
0.0
147
0.0
147
0.0
147
0.0
147
0.0208333333333333
147
0.0
147
0.0
147
0.0
147
0.0
147
1.0
147
0.0
147
0.0
147
0.0
147
0.0
147
1.0
  0
MLEADERSTYLE
  5
72
102
{ACAD_REACTORS
330
71
102
}
330
71
100
AcDbMLeaderStyle
170
     2
171
     1
172
     0
 90
        2
 40
0.0
 41
0.0
173
     1
 91
-1056964608
340
66
 92
       -2
290
     1
 42
0.09
291
     1
 43
0.36
  3
Standard
 44
0.18
300

342
60
174
     1
178
     6
175
     1
176
     0
 93
-1056964608
 45
0.18
292
     0
297
     0
 46
0.18
 94
-1056964608
 47
1.0
 49
1.0
140
1.0
293
     1
141
0.0
294
     1
177
     0
142
1.0
295
     0
296
     0
143
0.125
1001
ACAD_MLEADERVER
1070
     2
  0
MLINESTYLE
  5
6B
102
{ACAD_REACTORS
330
6A
102
}
330
6A
100
AcDbMlineStyle
  2
STANDARD
 70
     0
  3

 62
   256
 51
90.0
 52
90.0
 71
     2
 49
0.5
 62
   256
  6
BYLAYER
 49
-0.5
 62
   256
  6
BYLAYER
  0
ACDBPLACEHOLDER
  5
F
102
{ACAD_REACTORS
330
E
102
}
330
E
  0
SCALE
  5
3E
102
{ACAD_REACTORS
330
3D
102
}
330
3D
100
AcDbScale
 70
     0
300
1:1
140
1.0
141
1.0
290
     1
  0
SCALE
  5
3F
102
{ACAD_REACTORS
330
3D
102
}
330
3D
100
AcDbScale
 70
     0
300
1:2
140
1.0
141
2.0
290
     0
  0
SCALE
  5
40
102
{ACAD_REACTORS
330
3D
102
}
330
3D
100
AcDbScale
 70
     0
300
1:4
140
1.0
141
4.0
290
     0
  0
SCALE
  5
41
102
{ACAD_REACTORS
330
3D
102
}
330
3D
100
AcDbScale
 70
     0
300
1:5
140
1.0
141
5.0
290
     0
  0
SCALE
  5
42
102
{ACAD_REACTORS
330
3D
102
}
330
3D
100
AcDbScale
 70
     0
300
1:8
140
1.0
141
8.0
290
     0
  0
SCALE
  5
43
102
{ACAD_REACTORS
330
3D
102
}
330
3D
100
AcDbScale
 70
     0
300
1:10
140
1.0
141
10.0
290
     0
  0
SCALE
  5
44
102
{ACAD_REACTORS
330
3D
102
}
330
3D
100
AcDbScale
 70
     0
300
1:16
140
1.0
141
16.0
290
     0
  0
SCALE
  5
45
102
{ACAD_REACTORS
330
3D
102
}
330
3D
100
AcDbScale
 70
     0
300
1:20
140
1.0
141
20.0
290
     0
  0
SCALE
  5
46
102
{ACAD_REACTORS
330
3D
102
}
330
3D
100
AcDbScale
 70
     0
300
1:30
140
1.0
141
30.0
290
     0
  0
SCALE
  5
47
102
{ACAD_REACTORS
330
3D
102
}
330
3D
100
AcDbScale
 70
     0
300
1:40
140
1.0
141
40.0
290
     0
  0
SCALE
  5
48
102
{ACAD_REACTORS
330
3D
102
}
330
3D
100
AcDbScale
 70
     0
300
1:50
140
1.0
141
50.0
290
     0
  0
SCALE
  5
49
102
{ACAD_REACTORS
330
3D
102
}
330
3D
100
AcDbScale
 70
     0
300
1:100
140
1.0
141
100.0
290
     0
  0
SCALE
  5
4A
102
{ACAD_REACTORS
330
3D
102
}
330
3D
100
AcDbScale
 70
     0
300
2:1
140
2.0
141
1.0
290
     0
  0
SCALE
  5
4B
102
{ACAD_REACTORS
330
3D
102
}
330
3D
100
AcDbScale
 70
     0
300
4:1
140
4.0
141
1.0
290
     0
  0
SCALE
  5
4C
102
{ACAD_REACTORS
330
3D
102
}
330
3D
100
AcDbScale
 70
     0
300
8:1
140
8.0
141
1.0
290
     0
  0
SCALE
  5
4D
102
{ACAD_REACTORS
330
3D
102
}
330
3D
100
AcDbScale
 70
     0
300
10:1
140
10.0
141
1.0
290
     0
  0
SCALE
  5
4E
102
{ACAD_REACTORS
330
3D
102
}
330
3D
100
AcDbScale
 70
     0
300
100:1
140
100.0
141
1.0
290
     0
  0
SCALE
  5
4F
102
{ACAD_REACTORS
330
3D
102
}
330
3D
100
AcDbScale
 70
     0
300
1/128" = 1'-0"
140
0.0078125
141
12.0
290
     0
  0
SCALE
  5
50
102
{ACAD_REACTORS
330
3D
102
}
330
3D
100
AcDbScale
 70
     0
300
1/64" = 1'-0"
140
0.015625
141
12.0
290
     0
  0
SCALE
  5
51
102
{ACAD_REACTORS
330
3D
102
}
330
3D
100
AcDbScale
 70
     0
300
1/32" = 1'-0"
140
0.03125
141
12.0
290
     0
  0
SCALE
  5
52
102
{ACAD_REACTORS
330
3D
102
}
330
3D
100
AcDbScale
 70
     0
300
1/16" = 1'-0"
140
0.0625
141
12.0
290
     0
  0
SCALE
  5
53
102
{ACAD_REACTORS
330
3D
102
}
330
3D
100
AcDbScale
 70
     0
300
3/32" = 1'-0"
140
0.09375
141
12.0
290
     0
  0
SCALE
  5
54
102
{ACAD_REACTORS
330
3D
102
}
330
3D
100
AcDbScale
 70
     0
300
1/8" = 1'-0"
140
0.125
141
12.0
290
     0
  0
SCALE
  5
55
102
{ACAD_REACTORS
330
3D
102
}
330
3D
100
AcDbScale
 70
     0
300
3/16" = 1'-0"
140
0.1875
141
12.0
290
     0
  0
SCALE
  5
56
102
{ACAD_REACTORS
330
3D
102
}
330
3D
100
AcDbScale
 70
     0
300
1/4" = 1'-0"
140
0.25
141
12.0
290
     0
  0
SCALE
  5
57
102
{ACAD_REACTORS
330
3D
102
}
330
3D
100
AcDbScale
 70
     0
300
3/8" = 1'-0"
140
0.375
141
12.0
290
     0
  0
SCALE
  5
58
102
{ACAD_REACTORS
330
3D
102
}
330
3D
100
AcDbScale
 70
     0
300
1/2" = 1'-0"
140
0.5
141
12.0
290
     0
  0
SCALE
  5
59
102
{ACAD_REACTORS
330
3D
102
}
330
3D
100
AcDbScale
 70
     0
300
3/4" = 1'-0"
140
0.75
141
12.0
290
     0
  0
SCALE
  5
5A
102
{ACAD_REACTORS
330
3D
102
}
330
3D
100
AcDbScale
 70
     0
300
1" = 1'-0"
140
1.0
141
12.0
290
     0
  0
SCALE
  5
5B
102
{ACAD_REACTORS
330
3D
102
}
330
3D
100
AcDbScale
 70
     0
300
1-1/2" = 1'-0"
140
1.5
141
12.0
290
     0
  0
SCALE
  5
5C
102
{ACAD_REACTORS
330
3D
102
}
330
3D
100
AcDbScale
 70
     0
300
3" = 1'-0"
140
3.0
141
12.0
290
     0
  0
SCALE
  5
5D
102
{ACAD_REACTORS
330
3D
102
}
330
3D
100
AcDbScale
 70
     0
300
6" = 1'-0"
140
6.0
141
12.0
290
     0
  0
SCALE
  5
5E
102
{ACAD_REACTORS
330
3D
102
}
330
3D
100
AcDbScale
 70
     0
300
1'-0" = 1'-0"
140
12.0
141
12.0
290
     0
  0
TABLESTYLE
  5
70
102
{ACAD_XDICTIONARY
360
1151
102
}
102
{ACAD_REACTORS
330
6F
102
}
330
6F
100
AcDbTableStyle
  3
Standard
 70
     0
 71
     0
 40
0.06
 41
0.06
280
     0
281
     0
  7
Standard
140
0.18
170
     2
 62
     0
 63
     7
283
     0
274
    -2
284
     1
 64
     0
275
    -2
285
     1
 65
     0
276
    -2
286
     1
 66
     0
277
    -2
287
     1
 67
     0
278
    -2
288
     1
 68
     0
279
    -2
289
     1
 69
     0
  7
Standard
140
0.25
170
     5
 62
     0
 63
     7
283
     0
274
    -2
284
     1
 64
     0
275
    -2
285
     1
 65
     0
276
    -2
286
     1
 66
     0
277
    -2
287
     1
 67
     0
278
    -2
288
     1
 68
     0
279
    -2
289
     1
 69
     0
  7
Standard
140
0.18
170
     5
 62
     0
 63
     7
283
     0
274
    -2
284
     1
 64
     0
275
    -2
285
     1
 65
     0
276
    -2
286
     1
 66
     0
277
    -2
287
     1
 67
     0
278
    -2
288
     1
 68
     0
279
    -2
289
     1
 69
     0
  0
VISUALSTYLE
  5
2F
102
{ACAD_XDICTIONARY
360
1194
102
}
102
{ACAD_REACTORS
330
29
102
}
330
29
100
AcDbVisualStyle
  2
2dWireframe
 70
     4
 71
     0
 72
     2
 73
     0
 90
        0
 40
-0.6
 41
-30.0
 62
     5
 63
     7
421
 16777215
 74
     1
 91
        4
 64
     7
 65
   257
 75
     1
175
     1
 42
1.0
 92
        0
 66
   257
 43
1.0
 76
     1
 77
     6
 78
     2
 67
     7
 79
     5
170
     0
171
     0
290
     0
174
     0
 93
        1
 44
0.0
173
     0
291
     0
 45
0.0
1001
ACAD
1000
AcDbSavedByObjectVersion
1070
     0
  0
VISUALSTYLE
  5
31
102
{ACAD_XDICTIONARY
360
1198
102
}
102
{ACAD_REACTORS
330
29
102
}
330
29
100
AcDbVisualStyle
  2
3D Hidden
 70
     6
 71
     1
 72
     2
 73
     2
 90
        0
 40
-0.6
 41
-30.0
 62
     5
 63
     7
421
 16777215
 74
     2
 91
        2
 64
     7
 65
   257
 75
     2
175
     1
 42
179.0
 92
        0
 66
   257
 43
1.0
 76
     1
 77
     6
 78
     2
 67
     7
 79
     3
170
     0
171
     0
290
     0
174
     0
 93
        1
 44
0.0
173
     0
291
     0
 45
0.0
1001
ACAD
1000
AcDbSavedByObjectVersion
1070
     0
  0
VISUALSTYLE
  5
30
102
{ACAD_XDICTIONARY
360
1196
102
}
102
{ACAD_REACTORS
330
29
102
}
330
29
100
AcDbVisualStyle
  2
3dWireframe
 70
     5
 71
     0
 72
     2
 73
     0
 90
        0
 40
-0.6
 41
-30.0
 62
     5
 63
     7
421
 16777215
 74
     1
 91
        4
 64
     7
 65
   257
 75
     1
175
     1
 42
1.0
 92
        0
 66
   257
 43
1.0
 76
     1
 77
     6
 78
     2
 67
     7
 79
     5
170
     0
171
     0
290
     0
174
     0
 93
        1
 44
0.0
173
     0
291
     0
 45
0.0
1001
ACAD
1000
AcDbSavedByObjectVersion
1070
     0
  0
VISUALSTYLE
  5
2E
102
{ACAD_XDICTIONARY
360
1192
102
}
102
{ACAD_REACTORS
330
29
102
}
330
29
100
AcDbVisualStyle
  2
Basic
 70
     7
 71
     1
 72
     0
 73
     1
 90
        0
 40
-0.6
 41
-30.0
 62
     5
 63
     7
421
 16777215
 74
     0
 91
        4
 64
     7
 65
   257
 75
     1
175
     1
 42
1.0
 92
        8
 66
     7
 43
1.0
 76
     1
 77
     6
 78
     2
 67
     7
 79
     5
170
     0
171
     0
290
     0
174
     0
 93
        1
 44
0.0
173
     0
291
     1
 45
0.0
1001
ACAD
1000
AcDbSavedByObjectVersion
1070
     0
  0
VISUALSTYLE
  5
35
102
{ACAD_XDICTIONARY
360
11A0
102
}
102
{ACAD_REACTORS
330
29
102
}
330
29
100
AcDbVisualStyle
  2
Brighten
 70
    12
 71
     2
 72
     2
 73
     0
 90
        0
 40
-0.6
 41
-30.0
 62
     5
 63
     7
421
 16777215
 74
     1
 91
        4
 64
     7
 65
   257
 75
     1
175
     1
 42
1.0
 92
        8
 66
     7
 43
1.0
 76
     1
 77
     6
 78
     2
 67
     7
 79
     5
170
     0
171
     0
290
     0
174
     0
 93
        1
 44
50.0
173
     0
291
     1
 45
0.0
1001
ACAD
1000
AcDbSavedByObjectVersion
1070
     0
  0
VISUALSTYLE
  5
39
102
{ACAD_XDICTIONARY
360
11A8
102
}
102
{ACAD_REACTORS
330
29
102
}
330
29
100
AcDbVisualStyle
  2
ColorChange
 70
    16
 71
     2
 72
     2
 73
     3
 90
        0
 40
-0.6
 41
-30.0
 62
     5
 63
     8
421
  8421504
 74
     1
 91
        4
 64
     7
 65
   257
 75
     1
175
     1
 42
1.0
 92
        8
 66
     8
424
  8421504
 43
1.0
 76
     1
 77
     6
 78
     2
 67
     7
 79
     5
170
     0
171
     0
290
     0
174
     0
 93
        1
 44
0.0
173
     0
291
     1
 45
0.0
1001
ACAD
1000
AcDbSavedByObjectVersion
1070
     0
  0
VISUALSTYLE
  5
32
102
{ACAD_XDICTIONARY
360
119A
102
}
102
{ACAD_REACTORS
330
29
102
}
330
29
100
AcDbVisualStyle
  2
Conceptual
 70
     9
 71
     3
 72
     2
 73
     0
 90
        0
 40
-0.6
 41
-30.0
 62
     5
 63
     7
421
 16777215
 74
     2
 91
        2
 64
     7
 65
   257
 75
     1
175
     1
 42
179.0
 92
        8
 66
     7
 43
1.0
 76
     1
 77
     6
 78
     2
 67
     7
 79
     3
170
     0
171
     0
290
     0
174
     0
 93
        1
 44
0.0
173
     0
291
     0
 45
0.0
1001
ACAD
1000
AcDbSavedByObjectVersion
1070
     0
  0
VISUALSTYLE
  5
34
102
{ACAD_XDICTIONARY
360
119E
102
}
102
{ACAD_REACTORS
330
29
102
}
330
29
100
AcDbVisualStyle
  2
Dim
 70
    11
 71
     2
 72
     2
 73
     0
 90
        0
 40
-0.6
 41
-30.0
 62
     5
 63
     7
421
 16777215
 74
     1
 91
        4
 64
     7
 65
   257
 75
     1
175
     1
 42
1.0
 92
        8
 66
     7
 43
1.0
 76
     1
 77
     6
 78
     2
 67
     7
 79
     5
170
     0
171
     0
290
     0
174
     0
 93
        1
 44
-50.0
173
     0
291
     1
 45
0.0
1001
ACAD
1000
AcDbSavedByObjectVersion
1070
     0
  0
VISUALSTYLE
  5
3C
102
{ACAD_XDICTIONARY
360
11AE
102
}
102
{ACAD_REACTORS
330
29
102
}
330
29
100
AcDbVisualStyle
  2
EdgeColorOff
 70
    22
 71
     2
 72
     2
 73
     0
 90
        0
 40
-0.6
 41
-30.0
 62
     5
 63
     7
421
 16777215
 74
     1
 91
        4
 64
     7
 65
   257
 75
     1
175
     1
 42
1.0
 92
        8
 66
     7
 43
1.0
 76
     1
 77
     6
 78
     2
 67
     7
 79
     5
170
     0
171
     0
290
     0
174
     0
 93
        1
 44
0.0
173
     0
291
     1
 45
0.0
1001
ACAD
1000
AcDbSavedByObjectVersion
1070
     0
  0
VISUALSTYLE
  5
38
102
{ACAD_XDICTIONARY
360
11A6
102
}
102
{ACAD_REACTORS
330
29
102
}
330
29
100
AcDbVisualStyle
  2
Facepattern
 70
    15
 71
     2
 72
     2
 73
     0
 90
        0
 40
-0.6
 41
-30.0
 62
     5
 63
     7
421
 16777215
 74
     1
 91
        4
 64
     7
 65
   257
 75
     1
175
     1
 42
1.0
 92
        8
 66
     7
 43
1.0
 76
     1
 77
     6
 78
     2
 67
     7
 79
     5
170
     0
171
     0
290
     0
174
     0
 93
        1
 44
0.0
173
     0
291
     1
 45
0.0
1001
ACAD
1000
AcDbSavedByObjectVersion
1070
     0
  0
VISUALSTYLE
  5
2A
102
{ACAD_XDICTIONARY
360
118A
102
}
102
{ACAD_REACTORS
330
29
102
}
330
29
100
AcDbVisualStyle
  2
Flat
 70
     0
 71
     2
 72
     1
 73
     1
 90
        2
 40
-0.6
 41
30.0
 62
     5
 63
     7
421
 16777215
 74
     0
 91
        4
 64
     7
 65
   257
 75
     1
175
     1
 42
1.0
 92
        8
 66
     7
 43
1.0
 76
     1
 77
     6
 78
     2
 67
     7
 79
     5
170
     0
171
     0
290
     0
174
     0
 93
       13
 44
0.0
173
     0
291
     1
 45
0.0
1001
ACAD
1000
AcDbSavedByObjectVersion
1070
     0
  0
VISUALSTYLE
  5
2B
102
{ACAD_XDICTIONARY
360
118C
102
}
102
{ACAD_REACTORS
330
29
102
}
330
29
100
AcDbVisualStyle
  2
FlatWithEdges
 70
     1
 71
     2
 72
     1
 73
     1
 90
        2
 40
-0.6
 41
30.0
 62
     5
 63
     7
421
 16777215
 74
     1
 91
        4
 64
     7
 65
   257
 75
     1
175
     1
 42
1.0
 92
        0
 66
   257
 43
1.0
 76
     1
 77
     6
 78
     2
 67
     7
 79
     5
170
     0
171
     0
290
     0
174
     0
 93
       13
 44
0.0
173
     0
291
     1
 45
0.0
1001
ACAD
1000
AcDbSavedByObjectVersion
1070
     0
  0
VISUALSTYLE
  5
2C
102
{ACAD_XDICTIONARY
360
118E
102
}
102
{ACAD_REACTORS
330
29
102
}
330
29
100
AcDbVisualStyle
  2
Gouraud
 70
     2
 71
     2
 72
     2
 73
     1
 90
        2
 40
-0.6
 41
30.0
 62
     5
 63
     7
421
 16777215
 74
     0
 91
        4
 64
     7
 65
   257
 75
     1
175
     1
 42
1.0
 92
        0
 66
     7
 43
1.0
 76
     1
 77
     6
 78
     2
 67
     7
 79
     5
170
     0
171
     0
290
     0
174
     0
 93
       13
 44
0.0
173
     0
291
     1
 45
0.0
1001
ACAD
1000
AcDbSavedByObjectVersion
1070
     0
  0
VISUALSTYLE
  5
2D
102
{ACAD_XDICTIONARY
360
1190
102
}
102
{ACAD_REACTORS
330
29
102
}
330
29
100
AcDbVisualStyle
  2
GouraudWithEdges
 70
     3
 71
     2
 72
     2
 73
     1
 90
        2
 40
-0.6
 41
30.0
 62
     5
 63
     7
421
 16777215
 74
     1
 91
        4
 64
     7
 65
   257
 75
     1
175
     1
 42
1.0
 92
        0
 66
   257
 43
1.0
 76
     1
 77
     6
 78
     2
 67
     7
 79
     5
170
     0
171
     0
290
     0
174
     0
 93
       13
 44
0.0
173
     0
291
     1
 45
0.0
1001
ACAD
1000
AcDbSavedByObjectVersion
1070
     0
  0
VISUALSTYLE
  5
3A
102
{ACAD_XDICTIONARY
360
11AA
102
}
102
{ACAD_REACTORS
330
29
102
}
330
29
100
AcDbVisualStyle
  2
JitterOff
 70
    20
 71
     2
 72
     2
 73
     0
 90
        0
 40
-0.6
 41
-30.0
 62
     5
 63
     7
421
 16777215
 74
     1
 91
        4
 64
     7
 65
   257
 75
     1
175
     1
 42
1.0
 92
       10
 66
     7
 43
1.0
 76
     1
 77
     6
 78
     2
 67
     7
 79
     5
170
     0
171
     0
290
     0
174
     0
 93
        1
 44
0.0
173
     0
291
     1
 45
0.0
1001
ACAD
1000
AcDbSavedByObjectVersion
1070
     0
  0
VISUALSTYLE
  5
37
102
{ACAD_XDICTIONARY
360
11A4
102
}
102
{ACAD_REACTORS
330
29
102
}
330
29
100
AcDbVisualStyle
  2
Linepattern
 70
    14
 71
     2
 72
     2
 73
     0
 90
        0
 40
-0.6
 41
-30.0
 62
     5
 63
     7
421
 16777215
 74
     1
 91
        4
 64
     7
 65
   257
 75
     7
175
     7
 42
1.0
 92
        8
 66
     7
 43
1.0
 76
     1
 77
     6
 78
     2
 67
     7
 79
     5
170
     0
171
     0
290
     0
174
     0
 93
        1
 44
0.0
173
     0
291
     1
 45
0.0
1001
ACAD
1000
AcDbSavedByObjectVersion
1070
     0
  0
VISUALSTYLE
  5
3B
102
{ACAD_XDICTIONARY
360
11AC
102
}
102
{ACAD_REACTORS
330
29
102
}
330
29
100
AcDbVisualStyle
  2
OverhangOff
 70
    21
 71
     2
 72
     2
 73
     0
 90
        0
 40
-0.6
 41
-30.0
 62
     5
 63
     7
421
 16777215
 74
     1
 91
        4
 64
     7
 65
   257
 75
     1
175
     1
 42
1.0
 92
        9
 66
     7
 43
1.0
 76
     1
 77
     6
 78
     2
 67
     7
 79
     5
170
     0
171
     0
290
     0
174
     0
 93
        1
 44
0.0
173
     0
291
     1
 45
0.0
1001
ACAD
1000
AcDbSavedByObjectVersion
1070
     0
  0
VISUALSTYLE
  5
33
102
{ACAD_XDICTIONARY
360
119C
102
}
102
{ACAD_REACTORS
330
29
102
}
330
29
100
AcDbVisualStyle
  2
Realistic
 70
     8
 71
     2
 72
     2
 73
     0
 90
        0
 40
-0.6
 41
-30.0
 62
     5
 63
     7
421
 16777215
 74
     1
 91
        0
 64
     7
 65
   257
 75
     1
175
     1
 42
1.0
 92
        8
 66
     8
424
  7895160
 43
1.0
 76
     1
 77
     6
 78
     2
 67
     7
 79
     5
170
     0
171
     0
290
     0
174
     0
 93
       13
 44
0.0
173
     0
291
     0
 45
0.0
1001
ACAD
1000
AcDbSavedByObjectVersion
1070
     0
  0
VISUALSTYLE
  5
36
102
{ACAD_XDICTIONARY
360
11A2
102
}
102
{ACAD_REACTORS
330
29
102
}
330
29
100
AcDbVisualStyle
  2
Thicken
 70
    13
 71
     2
 72
     2
 73
     0
 90
        0
 40
-0.6
 41
-30.0
 62
     5
 63
     7
421
 16777215
 74
     1
 91
        4
 64
     7
 65
   257
 75
     1
175
     1
 42
1.0
 92
       12
 66
     7
 43
1.0
 76
     1
 77
     6
 78
     2
 67
     7
 79
     5
170
     0
171
     0
290
     0
174
     0
 93
        1
 44
0.0
173
     0
291
     1
 45
0.0
1001
ACAD
1000
AcDbSavedByObjectVersion
1070
     0
  0
DICTIONARYVAR
  5
11B4
102
{ACAD_REACTORS
330
11B1
102
}
330
11B1
100
DictionaryVariables
280
     0
  1
1:1
  0
DICTIONARYVAR
  5
11B3
102
{ACAD_REACTORS
330
11B1
102
}
330
11B1
100
DictionaryVariables
280
     0
  1
STANDARD
  0
DICTIONARYVAR
  5
11B2
102
{ACAD_REACTORS
330
11B1
102
}
330
11B1
100
DictionaryVariables
280
     0
  1
STANDARD
  0
DICTIONARYVAR
  5
133B
102
{ACAD_REACTORS
330
11B1
102
}
330
11B1
100
DictionaryVariables
280
     0
  1
0
  0
DICTIONARYVAR
  5
133C
102
{ACAD_REACTORS
330
11B1
102
}
330
11B1
100
DictionaryVariables
280
     0
  1
0
  0
DICTIONARYVAR
  5
133A
102
{ACAD_REACTORS
330
11B1
102
}
330
11B1
100
DictionaryVariables
280
     0
  1
2
  0
DICTIONARYVAR
  5
1339
102
{ACAD_REACTORS
330
11B1
102
}
330
11B1
100
DictionaryVariables
280
     0
  1
1
  0
DICTIONARYVAR
  5
11B5
102
{ACAD_REACTORS
330
11B1
102
}
330
11B1
100
DictionaryVariables
280
     0
  1
2
  0
DICTIONARY
  5
1229
102
{ACAD_REACTORS
330
121E
102
}
330
121E
100
AcDbDictionary
281
     1
  0
DICTIONARY
  5
1A
330
19
100
AcDbDictionary
280
     1
281
     1
  3
ACAD_XREC_ROUNDTRIP
360
134D
  3
BUMPTILE
360
1C
  3
DIFFUSETILE
360
1B
  3
OPACITYTILE
360
1F
  3
REFLECTIONTILE
360
1E
  3
REFRACTIONTILE
360
20
  3
SPECULARTILE
360
1D
  0
DICTIONARY
  5
12
330
11
100
AcDbDictionary
280
     1
281
     1
  3
ACAD_XREC_ROUNDTRIP
360
134C
  3
BUMPTILE
360
14
  3
DIFFUSETILE
360
13
  3
OPACITYTILE
360
17
  3
REFLECTIONTILE
360
16
  3
REFRACTIONTILE
360
18
  3
SPECULARTILE
360
15
  0
DICTIONARY
  5
22
330
21
100
AcDbDictionary
280
     1
281
     1
  3
ACAD_XREC_ROUNDTRIP
360
134E
  3
BUMPTILE
360
24
  3
DIFFUSETILE
360
23
  3
OPACITYTILE
360
27
  3
REFLECTIONTILE
360
26
  3
REFRACTIONTILE
360
28
  3
SPECULARTILE
360
25
  0
DICTIONARY
  5
1151
330
70
100
AcDbDictionary
280
     1
281
     1
  3
ACAD_ROUNDTRIP_2008_TABLESTYLE_CELLSTYLEMAP
360
133D
  3
ACAD_XREC_ROUNDTRIP
360
134F
  0
DICTIONARY
  5
1194
330
2F
100
AcDbDictionary
280
     1
281
     1
  3
ACAD_XREC_ROUNDTRIP
360
1195
  0
DICTIONARY
  5
1198
330
31
100
AcDbDictionary
280
     1
281
     1
  3
ACAD_XREC_ROUNDTRIP
360
1199
  0
DICTIONARY
  5
1196
330
30
100
AcDbDictionary
280
     1
281
     1
  3
ACAD_XREC_ROUNDTRIP
360
1197
  0
DICTIONARY
  5
1192
330
2E
100
AcDbDictionary
280
     1
281
     1
  3
ACAD_XREC_ROUNDTRIP
360
1193
  0
DICTIONARY
  5
11A0
330
35
100
AcDbDictionary
280
     1
281
     1
  3
ACAD_XREC_ROUNDTRIP
360
11A1
  0
DICTIONARY
  5
11A8
330
39
100
AcDbDictionary
280
     1
281
     1
  3
ACAD_XREC_ROUNDTRIP
360
11A9
  0
DICTIONARY
  5
119A
330
32
100
AcDbDictionary
280
     1
281
     1
  3
ACAD_XREC_ROUNDTRIP
360
119B
  0
DICTIONARY
  5
119E
330
34
100
AcDbDictionary
280
     1
281
     1
  3
ACAD_XREC_ROUNDTRIP
360
119F
  0
DICTIONARY
  5
11AE
330
3C
100
AcDbDictionary
280
     1
281
     1
  3
ACAD_XREC_ROUNDTRIP
360
11AF
  0
DICTIONARY
  5
11A6
330
38
100
AcDbDictionary
280
     1
281
     1
  3
ACAD_XREC_ROUNDTRIP
360
11A7
  0
DICTIONARY
  5
118A
330
2A
100
AcDbDictionary
280
     1
281
     1
  3
ACAD_XREC_ROUNDTRIP
360
118B
  0
DICTIONARY
  5
118C
330
2B
100
AcDbDictionary
280
     1
281
     1
  3
ACAD_XREC_ROUNDTRIP
360
118D
  0
DICTIONARY
  5
118E
330
2C
100
AcDbDictionary
280
     1
281
     1
  3
ACAD_XREC_ROUNDTRIP
360
118F
  0
DICTIONARY
  5
1190
330
2D
100
AcDbDictionary
280
     1
281
     1
  3
ACAD_XREC_ROUNDTRIP
360
1191
  0
DICTIONARY
  5
11AA
330
3A
100
AcDbDictionary
280
     1
281
     1
  3
ACAD_XREC_ROUNDTRIP
360
11AB
  0
DICTIONARY
  5
11A4
330
37
100
AcDbDictionary
280
     1
281
     1
  3
ACAD_XREC_ROUNDTRIP
360
11A5
  0
DICTIONARY
  5
11AC
330
3B
100
AcDbDictionary
280
     1
281
     1
  3
ACAD_XREC_ROUNDTRIP
360
11AD
  0
DICTIONARY
  5
119C
330
33
100
AcDbDictionary
280
     1
281
     1
  3
ACAD_XREC_ROUNDTRIP
360
119D
  0
DICTIONARY
  5
11A2
330
36
100
AcDbDictionary
280
     1
281
     1
  3
ACAD_XREC_ROUNDTRIP
360
11A3
  0
XRECORD
  5
134D
102
{ACAD_REACTORS
330
1A
102
}
330
1A
100
AcDbXrecord
280
     1
102
MATERIAL
148
0.0
149
0.0
149
0.0
 93
        0
 94
      127
282
     0
 72
     0
 77
     0
171
     0
175
     0
179
     0
273
     0
  0
XRECORD
  5
1C
102
{ACAD_REACTORS
330
1A
102
}
330
1A
100
AcDbXrecord
280
     1
270
     1
271
     1
  0
XRECORD
  5
1B
102
{ACAD_REACTORS
330
1A
102
}
330
1A
100
AcDbXrecord
280
     1
270
     1
271
     1
  0
XRECORD
  5
1F
102
{ACAD_REACTORS
330
1A
102
}
330
1A
100
AcDbXrecord
280
     1
270
     1
271
     1
  0
XRECORD
  5
1E
102
{ACAD_REACTORS
330
1A
102
}
330
1A
100
AcDbXrecord
280
     1
270
     1
271
     1
  0
XRECORD
  5
20
102
{ACAD_REACTORS
330
1A
102
}
330
1A
100
AcDbXrecord
280
     1
270
     1
271
     1
  0
XRECORD
  5
1D
102
{ACAD_REACTORS
330
1A
102
}
330
1A
100
AcDbXrecord
280
     1
270
     1
271
     1
  0
XRECORD
  5
134C
102
{ACAD_REACTORS
330
12
102
}
330
12
100
AcDbXrecord
280
     1
102
MATERIAL
148
0.0
149
0.0
149
0.0
 93
        0
 94
      127
282
     0
 72
     0
 77
     0
171
     0
175
     0
179
     0
273
     0
  0
XRECORD
  5
14
102
{ACAD_REACTORS
330
12
102
}
330
12
100
AcDbXrecord
280
     1
270
     1
271
     1
  0
XRECORD
  5
13
102
{ACAD_REACTORS
330
12
102
}
330
12
100
AcDbXrecord
280
     1
270
     1
271
     1
  0
XRECORD
  5
17
102
{ACAD_REACTORS
330
12
102
}
330
12
100
AcDbXrecord
280
     1
270
     1
271
     1
  0
XRECORD
  5
16
102
{ACAD_REACTORS
330
12
102
}
330
12
100
AcDbXrecord
280
     1
270
     1
271
     1
  0
XRECORD
  5
18
102
{ACAD_REACTORS
330
12
102
}
330
12
100
AcDbXrecord
280
     1
270
     1
271
     1
  0
XRECORD
  5
15
102
{ACAD_REACTORS
330
12
102
}
330
12
100
AcDbXrecord
280
     1
270
     1
271
     1
  0
XRECORD
  5
134E
102
{ACAD_REACTORS
330
22
102
}
330
22
100
AcDbXrecord
280
     1
102
MATERIAL
148
0.0
149
0.0
149
0.0
 93
        0
 94
      127
282
     0
 72
     0
 77
     0
171
     0
175
     0
179
     0
273
     0
  0
XRECORD
  5
24
102
{ACAD_REACTORS
330
22
102
}
330
22
100
AcDbXrecord
280
     1
270
     1
271
     1
  0
XRECORD
  5
23
102
{ACAD_REACTORS
330
22
102
}
330
22
100
AcDbXrecord
280
     1
270
     1
271
     1
  0
XRECORD
  5
27
102
{ACAD_REACTORS
330
22
102
}
330
22
100
AcDbXrecord
280
     1
270
     1
271
     1
  0
XRECORD
  5
26
102
{ACAD_REACTORS
330
22
102
}
330
22
100
AcDbXrecord
280
     1
270
     1
271
     1
  0
XRECORD
  5
28
102
{ACAD_REACTORS
330
22
102
}
330
22
100
AcDbXrecord
280
     1
270
     1
271
     1
  0
XRECORD
  5
25
102
{ACAD_REACTORS
330
22
102
}
330
22
100
AcDbXrecord
280
     1
270
     1
271
     1
  0
CELLSTYLEMAP
  5
133D
102
{ACAD_REACTORS
330
1151
102
}
330
1151
100
AcDbCellStyleMap
 90
        3
300
CELLSTYLE
  1
TABLEFORMAT_BEGIN
 90
        5
170
     1
 91
        0
 92
    32768
 62
   257
 93
        1
300
CONTENTFORMAT
  1
CONTENTFORMAT_BEGIN
 90
        0
 91
        0
 92
      512
 93
        0
300

 40
0.0
140
1.0
 94
        5
 62
     0
340
60
144
0.25
309
CONTENTFORMAT_END
171
     0
 94
        0
309
TABLEFORMAT_END
  1
CELLSTYLE_BEGIN
 90
        1
 91
        1
300
_TITLE
309
CELLSTYLE_END
300
CELLSTYLE
  1
TABLEFORMAT_BEGIN
 90
        5
170
     1
 91
        0
 92
        0
 62
   257
 93
        1
300
CONTENTFORMAT
  1
CONTENTFORMAT_BEGIN
 90
        0
 91
        0
 92
      512
 93
        0
300

 40
0.0
140
1.0
 94
        5
 62
     0
340
60
144
0.18
309
CONTENTFORMAT_END
171
     0
 94
        0
309
TABLEFORMAT_END
  1
CELLSTYLE_BEGIN
 90
        2
 91
        1
300
_HEADER
309
CELLSTYLE_END
300
CELLSTYLE
  1
TABLEFORMAT_BEGIN
 90
        5
170
     1
 91
        0
 92
        0
 62
   257
 93
        1
300
CONTENTFORMAT
  1
CONTENTFORMAT_BEGIN
 90
        0
 91
        0
 92
      512
 93
        0
300

 40
0.0
140
1.0
 94
        2
 62
     0
340
60
144
0.18
309
CONTENTFORMAT_END
171
     0
 94
        0
309
TABLEFORMAT_END
  1
CELLSTYLE_BEGIN
 90
        3
 91
        2
300
_DATA
309
CELLSTYLE_END
  0
XRECORD
  5
134F
102
{ACAD_REACTORS
330
1151
102
}
330
1151
100
AcDbXrecord
280
     1
102
ACAD_ROUNDTRIP_PRE2007_TABLESTYLE
 90
      512
 91
        0
  1

 92
      512
 93
        0
  2

 94
      512
 95
        0
  3

  0
XRECORD
  5
1195
102
{ACAD_REACTORS
330
1194
102
}
330
1194
100
AcDbXrecord
280
     1
102
RTVSPropertyOp0
 70
     1
102
RTVSPropertyOp1
 70
     1
102
RTVSPropertyOp2
 70
     1
102
RTVSPropertyOp3
 70
     1
102
RTVSPropertyOp4
 70
     1
102
RTVSPropertyOp5
 70
     1
102
RTVSPropertyOp6
 70
     1
102
RTVSPropertyOp7
 70
     1
102
RTVSPropertyOp8
 70
     1
102
RTVSPropertyOp9
 70
     1
102
RTVSPropertyOp10
 70
     1
102
RTVSPropertyOp11
 70
     1
102
RTVSPropertyOp12
 70
     1
102
RTVSPropertyOp13
 70
     1
102
RTVSPropertyOp14
 70
     1
102
RTVSPropertyOp15
 70
     1
102
RTVSPropertyOp16
 70
     1
102
RTVSPropertyOp17
 70
     1
102
RTVSPropertyOp18
 70
     1
102
RTVSPropertyOp19
 70
     1
102
RTVSPropertyOp20
 70
     1
102
RTVSPropertyOp21
 70
     1
102
RTVSPropertyOp22
 70
     1
102
RTVSPropertyOp23
 70
     1
102
RTVSPropertyOp24
 70
     1
102
RTVSPropertyOp25
 70
     1
102
RTVSPropertyOp26
 70
     1
102
RTVSPropertyOp27
 70
     1
  0
XRECORD
  5
1199
102
{ACAD_REACTORS
330
1198
102
}
330
1198
100
AcDbXrecord
280
     1
102
RTVSPropertyOp0
 70
     1
102
RTVSPropertyOp1
 70
     1
102
RTVSPropertyOp2
 70
     1
102
RTVSPropertyOp3
 70
     1
102
RTVSPropertyOp4
 70
     1
102
RTVSPropertyOp5
 70
     1
102
RTVSPropertyOp6
 70
     1
102
RTVSPropertyOp7
 70
     1
102
RTVSPropertyOp8
 70
     1
102
RTVSPropertyOp9
 70
     1
102
RTVSPropertyOp10
 70
     1
102
RTVSPropertyOp11
 70
     1
102
RTVSPropertyOp12
 70
     1
102
RTVSPropertyOp13
 70
     1
102
RTVSPropertyOp14
 70
     1
102
RTVSPropertyOp15
 70
     1
102
RTVSPropertyOp16
 70
     1
102
RTVSPropertyOp17
 70
     1
102
RTVSPropertyOp18
 70
     1
102
RTVSPropertyOp19
 70
     1
102
RTVSPropertyOp20
 70
     1
102
RTVSPropertyOp21
 70
     1
102
RTVSPropertyOp22
 70
     1
102
RTVSPropertyOp23
 70
     1
102
RTVSPropertyOp24
 70
     1
102
RTVSPropertyOp25
 70
     1
102
RTVSPropertyOp26
 70
     1
102
RTVSPropertyOp27
 70
     1
  0
XRECORD
  5
1197
102
{ACAD_REACTORS
330
1196
102
}
330
1196
100
AcDbXrecord
280
     1
102
RTVSPropertyOp0
 70
     1
102
RTVSPropertyOp1
 70
     1
102
RTVSPropertyOp2
 70
     1
102
RTVSPropertyOp3
 70
     1
102
RTVSPropertyOp4
 70
     1
102
RTVSPropertyOp5
 70
     1
102
RTVSPropertyOp6
 70
     1
102
RTVSPropertyOp7
 70
     1
102
RTVSPropertyOp8
 70
     1
102
RTVSPropertyOp9
 70
     1
102
RTVSPropertyOp10
 70
     1
102
RTVSPropertyOp11
 70
     1
102
RTVSPropertyOp12
 70
     1
102
RTVSPropertyOp13
 70
     1
102
RTVSPropertyOp14
 70
     1
102
RTVSPropertyOp15
 70
     1
102
RTVSPropertyOp16
 70
     1
102
RTVSPropertyOp17
 70
     1
102
RTVSPropertyOp18
 70
     1
102
RTVSPropertyOp19
 70
     1
102
RTVSPropertyOp20
 70
     1
102
RTVSPropertyOp21
 70
     1
102
RTVSPropertyOp22
 70
     1
102
RTVSPropertyOp23
 70
     1
102
RTVSPropertyOp24
 70
     1
102
RTVSPropertyOp25
 70
     1
102
RTVSPropertyOp26
 70
     1
102
RTVSPropertyOp27
 70
     1
  0
XRECORD
  5
1193
102
{ACAD_REACTORS
330
1192
102
}
330
1192
100
AcDbXrecord
280
     1
102
RTVSPropertyOp0
 70
     1
102
RTVSPropertyOp1
 70
     1
102
RTVSPropertyOp2
 70
     1
102
RTVSPropertyOp3
 70
     1
102
RTVSPropertyOp4
 70
     1
102
RTVSPropertyOp5
 70
     1
102
RTVSPropertyOp6
 70
     1
102
RTVSPropertyOp7
 70
     1
102
RTVSPropertyOp8
 70
     1
102
RTVSPropertyOp9
 70
     1
102
RTVSPropertyOp10
 70
     1
102
RTVSPropertyOp11
 70
     1
102
RTVSPropertyOp12
 70
     1
102
RTVSPropertyOp13
 70
     1
102
RTVSPropertyOp14
 70
     1
102
RTVSPropertyOp15
 70
     1
102
RTVSPropertyOp16
 70
     1
102
RTVSPropertyOp17
 70
     1
102
RTVSPropertyOp18
 70
     1
102
RTVSPropertyOp19
 70
     1
102
RTVSPropertyOp20
 70
     1
102
RTVSPropertyOp21
 70
     1
102
RTVSPropertyOp22
 70
     1
102
RTVSPropertyOp23
 70
     1
102
RTVSPropertyOp24
 70
     1
102
RTVSPropertyOp25
 70
     1
102
RTVSPropertyOp26
 70
     1
102
RTVSPropertyOp27
 70
     1
  0
XRECORD
  5
11A1
102
{ACAD_REACTORS
330
11A0
102
}
330
11A0
100
AcDbXrecord
280
     1
102
RTVSPropertyOp0
 70
     1
102
RTVSPropertyOp1
 70
     1
102
RTVSPropertyOp2
 70
     1
102
RTVSPropertyOp3
 70
     1
102
RTVSPropertyOp4
 70
     1
102
RTVSPropertyOp5
 70
     1
102
RTVSPropertyOp6
 70
     1
102
RTVSPropertyOp7
 70
     1
102
RTVSPropertyOp8
 70
     1
102
RTVSPropertyOp9
 70
     1
102
RTVSPropertyOp10
 70
     1
102
RTVSPropertyOp11
 70
     1
102
RTVSPropertyOp12
 70
     1
102
RTVSPropertyOp13
 70
     1
102
RTVSPropertyOp14
 70
     1
102
RTVSPropertyOp15
 70
     1
102
RTVSPropertyOp16
 70
     1
102
RTVSPropertyOp17
 70
     1
102
RTVSPropertyOp18
 70
     1
102
RTVSPropertyOp19
 70
     1
102
RTVSPropertyOp20
 70
     1
102
RTVSPropertyOp21
 70
     1
102
RTVSPropertyOp22
 70
     1
102
RTVSPropertyOp23
 70
     1
102
RTVSPropertyOp24
 70
     1
102
RTVSPropertyOp25
 70
     1
102
RTVSPropertyOp26
 70
     1
102
RTVSPropertyOp27
 70
     1
  0
XRECORD
  5
11A9
102
{ACAD_REACTORS
330
11A8
102
}
330
11A8
100
AcDbXrecord
280
     1
102
RTVSPropertyOp0
 70
     1
102
RTVSPropertyOp1
 70
     1
102
RTVSPropertyOp2
 70
     1
102
RTVSPropertyOp3
 70
     1
102
RTVSPropertyOp4
 70
     1
102
RTVSPropertyOp5
 70
     1
102
RTVSPropertyOp6
 70
     1
102
RTVSPropertyOp7
 70
     1
102
RTVSPropertyOp8
 70
     1
102
RTVSPropertyOp9
 70
     1
102
RTVSPropertyOp10
 70
     1
102
RTVSPropertyOp11
 70
     1
102
RTVSPropertyOp12
 70
     1
102
RTVSPropertyOp13
 70
     1
102
RTVSPropertyOp14
 70
     1
102
RTVSPropertyOp15
 70
     1
102
RTVSPropertyOp16
 70
     1
102
RTVSPropertyOp17
 70
     1
102
RTVSPropertyOp18
 70
     1
102
RTVSPropertyOp19
 70
     1
102
RTVSPropertyOp20
 70
     1
102
RTVSPropertyOp21
 70
     1
102
RTVSPropertyOp22
 70
     1
102
RTVSPropertyOp23
 70
     1
102
RTVSPropertyOp24
 70
     1
102
RTVSPropertyOp25
 70
     1
102
RTVSPropertyOp26
 70
     1
102
RTVSPropertyOp27
 70
     1
  0
XRECORD
  5
119B
102
{ACAD_REACTORS
330
119A
102
}
330
119A
100
AcDbXrecord
280
     1
102
RTVSPropertyOp0
 70
     1
102
RTVSPropertyOp1
 70
     1
102
RTVSPropertyOp2
 70
     1
102
RTVSPropertyOp3
 70
     1
102
RTVSPropertyOp4
 70
     1
102
RTVSPropertyOp5
 70
     1
102
RTVSPropertyOp6
 70
     1
102
RTVSPropertyOp7
 70
     1
102
RTVSPropertyOp8
 70
     1
102
RTVSPropertyOp9
 70
     1
102
RTVSPropertyOp10
 70
     1
102
RTVSPropertyOp11
 70
     1
102
RTVSPropertyOp12
 70
     1
102
RTVSPropertyOp13
 70
     1
102
RTVSPropertyOp14
 70
     1
102
RTVSPropertyOp15
 70
     1
102
RTVSPropertyOp16
 70
     1
102
RTVSPropertyOp17
 70
     1
102
RTVSPropertyOp18
 70
     1
102
RTVSPropertyOp19
 70
     1
102
RTVSPropertyOp20
 70
     1
102
RTVSPropertyOp21
 70
     1
102
RTVSPropertyOp22
 70
     1
102
RTVSPropertyOp23
 70
     1
102
RTVSPropertyOp24
 70
     1
102
RTVSPropertyOp25
 70
     1
102
RTVSPropertyOp26
 70
     1
102
RTVSPropertyOp27
 70
     1
  0
XRECORD
  5
119F
102
{ACAD_REACTORS
330
119E
102
}
330
119E
100
AcDbXrecord
280
     1
102
RTVSPropertyOp0
 70
     1
102
RTVSPropertyOp1
 70
     1
102
RTVSPropertyOp2
 70
     1
102
RTVSPropertyOp3
 70
     1
102
RTVSPropertyOp4
 70
     1
102
RTVSPropertyOp5
 70
     1
102
RTVSPropertyOp6
 70
     1
102
RTVSPropertyOp7
 70
     1
102
RTVSPropertyOp8
 70
     1
102
RTVSPropertyOp9
 70
     1
102
RTVSPropertyOp10
 70
     1
102
RTVSPropertyOp11
 70
     1
102
RTVSPropertyOp12
 70
     1
102
RTVSPropertyOp13
 70
     1
102
RTVSPropertyOp14
 70
     1
102
RTVSPropertyOp15
 70
     1
102
RTVSPropertyOp16
 70
     1
102
RTVSPropertyOp17
 70
     1
102
RTVSPropertyOp18
 70
     1
102
RTVSPropertyOp19
 70
     1
102
RTVSPropertyOp20
 70
     1
102
RTVSPropertyOp21
 70
     1
102
RTVSPropertyOp22
 70
     1
102
RTVSPropertyOp23
 70
     1
102
RTVSPropertyOp24
 70
     1
102
RTVSPropertyOp25
 70
     1
102
RTVSPropertyOp26
 70
     1
102
RTVSPropertyOp27
 70
     1
  0
XRECORD
  5
11AF
102
{ACAD_REACTORS
330
11AE
102
}
330
11AE
100
AcDbXrecord
280
     1
102
RTVSPropertyOp0
 70
     0
102
RTVSPropertyOp1
 70
     0
102
RTVSPropertyOp2
 70
     0
102
RTVSPropertyOp3
 70
     0
102
RTVSPropertyOp4
 70
     0
102
RTVSPropertyOp5
 70
     0
102
RTVSPropertyOp6
 70
     0
102
RTVSPropertyOp7
 70
     0
102
RTVSPropertyOp8
 70
     0
102
RTVSPropertyOp9
 70
     0
102
RTVSPropertyOp10
 70
     0
102
RTVSPropertyOp11
 70
     0
102
RTVSPropertyOp12
 70
     0
102
RTVSPropertyOp13
 70
     0
102
RTVSPropertyOp14
 70
     2
102
RTVSPropertyOp15
 70
     0
102
RTVSPropertyOp16
 70
     0
102
RTVSPropertyOp17
 70
     0
102
RTVSPropertyOp18
 70
     0
102
RTVSPropertyOp19
 70
     0
102
RTVSPropertyOp20
 70
     0
102
RTVSPropertyOp21
 70
     0
102
RTVSPropertyOp22
 70
     0
102
RTVSPropertyOp23
 70
     0
102
RTVSPropertyOp24
 70
     0
102
RTVSPropertyOp25
 70
     0
102
RTVSPropertyOp26
 70
     0
102
RTVSPropertyOp27
 70
     0
  0
XRECORD
  5
11A7
102
{ACAD_REACTORS
330
11A6
102
}
330
11A6
100
AcDbXrecord
280
     1
102
RTVSPropertyOp0
 70
     1
102
RTVSPropertyOp1
 70
     1
102
RTVSPropertyOp2
 70
     1
102
RTVSPropertyOp3
 70
     1
102
RTVSPropertyOp4
 70
     1
102
RTVSPropertyOp5
 70
     1
102
RTVSPropertyOp6
 70
     1
102
RTVSPropertyOp7
 70
     1
102
RTVSPropertyOp8
 70
     1
102
RTVSPropertyOp9
 70
     1
102
RTVSPropertyOp10
 70
     1
102
RTVSPropertyOp11
 70
     1
102
RTVSPropertyOp12
 70
     1
102
RTVSPropertyOp13
 70
     1
102
RTVSPropertyOp14
 70
     1
102
RTVSPropertyOp15
 70
     1
102
RTVSPropertyOp16
 70
     1
102
RTVSPropertyOp17
 70
     1
102
RTVSPropertyOp18
 70
     1
102
RTVSPropertyOp19
 70
     1
102
RTVSPropertyOp20
 70
     1
102
RTVSPropertyOp21
 70
     1
102
RTVSPropertyOp22
 70
     1
102
RTVSPropertyOp23
 70
     1
102
RTVSPropertyOp24
 70
     1
102
RTVSPropertyOp25
 70
     1
102
RTVSPropertyOp26
 70
     1
102
RTVSPropertyOp27
 70
     1
  0
XRECORD
  5
118B
102
{ACAD_REACTORS
330
118A
102
}
330
118A
100
AcDbXrecord
280
     1
102
RTVSPropertyOp0
 70
     1
102
RTVSPropertyOp1
 70
     1
102
RTVSPropertyOp2
 70
     1
102
RTVSPropertyOp3
 70
     1
102
RTVSPropertyOp4
 70
     1
102
RTVSPropertyOp5
 70
     1
102
RTVSPropertyOp6
 70
     1
102
RTVSPropertyOp7
 70
     1
102
RTVSPropertyOp8
 70
     1
102
RTVSPropertyOp9
 70
     1
102
RTVSPropertyOp10
 70
     1
102
RTVSPropertyOp11
 70
     1
102
RTVSPropertyOp12
 70
     1
102
RTVSPropertyOp13
 70
     1
102
RTVSPropertyOp14
 70
     1
102
RTVSPropertyOp15
 70
     1
102
RTVSPropertyOp16
 70
     1
102
RTVSPropertyOp17
 70
     1
102
RTVSPropertyOp18
 70
     1
102
RTVSPropertyOp19
 70
     1
102
RTVSPropertyOp20
 70
     1
102
RTVSPropertyOp21
 70
     1
102
RTVSPropertyOp22
 70
     1
102
RTVSPropertyOp23
 70
     1
102
RTVSPropertyOp24
 70
     1
102
RTVSPropertyOp25
 70
     1
102
RTVSPropertyOp26
 70
     1
102
RTVSPropertyOp27
 70
     1
  0
XRECORD
  5
118D
102
{ACAD_REACTORS
330
118C
102
}
330
118C
100
AcDbXrecord
280
     1
102
RTVSPropertyOp0
 70
     1
102
RTVSPropertyOp1
 70
     1
102
RTVSPropertyOp2
 70
     1
102
RTVSPropertyOp3
 70
     1
102
RTVSPropertyOp4
 70
     1
102
RTVSPropertyOp5
 70
     1
102
RTVSPropertyOp6
 70
     1
102
RTVSPropertyOp7
 70
     1
102
RTVSPropertyOp8
 70
     1
102
RTVSPropertyOp9
 70
     1
102
RTVSPropertyOp10
 70
     1
102
RTVSPropertyOp11
 70
     1
102
RTVSPropertyOp12
 70
     1
102
RTVSPropertyOp13
 70
     1
102
RTVSPropertyOp14
 70
     1
102
RTVSPropertyOp15
 70
     1
102
RTVSPropertyOp16
 70
     1
102
RTVSPropertyOp17
 70
     1
102
RTVSPropertyOp18
 70
     1
102
RTVSPropertyOp19
 70
     1
102
RTVSPropertyOp20
 70
     1
102
RTVSPropertyOp21
 70
     1
102
RTVSPropertyOp22
 70
     1
102
RTVSPropertyOp23
 70
     1
102
RTVSPropertyOp24
 70
     1
102
RTVSPropertyOp25
 70
     1
102
RTVSPropertyOp26
 70
     1
102
RTVSPropertyOp27
 70
     1
  0
XRECORD
  5
118F
102
{ACAD_REACTORS
330
118E
102
}
330
118E
100
AcDbXrecord
280
     1
102
RTVSPropertyOp0
 70
     1
102
RTVSPropertyOp1
 70
     1
102
RTVSPropertyOp2
 70
     1
102
RTVSPropertyOp3
 70
     1
102
RTVSPropertyOp4
 70
     1
102
RTVSPropertyOp5
 70
     1
102
RTVSPropertyOp6
 70
     1
102
RTVSPropertyOp7
 70
     1
102
RTVSPropertyOp8
 70
     1
102
RTVSPropertyOp9
 70
     1
102
RTVSPropertyOp10
 70
     1
102
RTVSPropertyOp11
 70
     1
102
RTVSPropertyOp12
 70
     1
102
RTVSPropertyOp13
 70
     1
102
RTVSPropertyOp14
 70
     1
102
RTVSPropertyOp15
 70
     1
102
RTVSPropertyOp16
 70
     1
102
RTVSPropertyOp17
 70
     1
102
RTVSPropertyOp18
 70
     1
102
RTVSPropertyOp19
 70
     1
102
RTVSPropertyOp20
 70
     1
102
RTVSPropertyOp21
 70
     1
102
RTVSPropertyOp22
 70
     1
102
RTVSPropertyOp23
 70
     1
102
RTVSPropertyOp24
 70
     1
102
RTVSPropertyOp25
 70
     1
102
RTVSPropertyOp26
 70
     1
102
RTVSPropertyOp27
 70
     1
  0
XRECORD
  5
1191
102
{ACAD_REACTORS
330
1190
102
}
330
1190
100
AcDbXrecord
280
     1
102
RTVSPropertyOp0
 70
     1
102
RTVSPropertyOp1
 70
     1
102
RTVSPropertyOp2
 70
     1
102
RTVSPropertyOp3
 70
     1
102
RTVSPropertyOp4
 70
     1
102
RTVSPropertyOp5
 70
     1
102
RTVSPropertyOp6
 70
     1
102
RTVSPropertyOp7
 70
     1
102
RTVSPropertyOp8
 70
     1
102
RTVSPropertyOp9
 70
     1
102
RTVSPropertyOp10
 70
     1
102
RTVSPropertyOp11
 70
     1
102
RTVSPropertyOp12
 70
     1
102
RTVSPropertyOp13
 70
     1
102
RTVSPropertyOp14
 70
     1
102
RTVSPropertyOp15
 70
     1
102
RTVSPropertyOp16
 70
     1
102
RTVSPropertyOp17
 70
     1
102
RTVSPropertyOp18
 70
     1
102
RTVSPropertyOp19
 70
     1
102
RTVSPropertyOp20
 70
     1
102
RTVSPropertyOp21
 70
     1
102
RTVSPropertyOp22
 70
     1
102
RTVSPropertyOp23
 70
     1
102
RTVSPropertyOp24
 70
     1
102
RTVSPropertyOp25
 70
     1
102
RTVSPropertyOp26
 70
     1
102
RTVSPropertyOp27
 70
     1
  0
XRECORD
  5
11AB
102
{ACAD_REACTORS
330
11AA
102
}
330
11AA
100
AcDbXrecord
280
     1
102
RTVSPropertyOp0
 70
     0
102
RTVSPropertyOp1
 70
     0
102
RTVSPropertyOp2
 70
     0
102
RTVSPropertyOp3
 70
     0
102
RTVSPropertyOp4
 70
     0
102
RTVSPropertyOp5
 70
     0
102
RTVSPropertyOp6
 70
     0
102
RTVSPropertyOp7
 70
     0
102
RTVSPropertyOp8
 70
     0
102
RTVSPropertyOp9
 70
     0
102
RTVSPropertyOp10
 70
     0
102
RTVSPropertyOp11
 70
     0
102
RTVSPropertyOp12
 70
     0
102
RTVSPropertyOp13
 70
     0
102
RTVSPropertyOp14
 70
     2
102
RTVSPropertyOp15
 70
     0
102
RTVSPropertyOp16
 70
     0
102
RTVSPropertyOp17
 70
     0
102
RTVSPropertyOp18
 70
     0
102
RTVSPropertyOp19
 70
     0
102
RTVSPropertyOp20
 70
     0
102
RTVSPropertyOp21
 70
     0
102
RTVSPropertyOp22
 70
     0
102
RTVSPropertyOp23
 70
     0
102
RTVSPropertyOp24
 70
     0
102
RTVSPropertyOp25
 70
     0
102
RTVSPropertyOp26
 70
     0
102
RTVSPropertyOp27
 70
     0
  0
XRECORD
  5
11A5
102
{ACAD_REACTORS
330
11A4
102
}
330
11A4
100
AcDbXrecord
280
     1
102
RTVSPropertyOp0
 70
     1
102
RTVSPropertyOp1
 70
     1
102
RTVSPropertyOp2
 70
     1
102
RTVSPropertyOp3
 70
     1
102
RTVSPropertyOp4
 70
     1
102
RTVSPropertyOp5
 70
     1
102
RTVSPropertyOp6
 70
     1
102
RTVSPropertyOp7
 70
     1
102
RTVSPropertyOp8
 70
     1
102
RTVSPropertyOp9
 70
     1
102
RTVSPropertyOp10
 70
     1
102
RTVSPropertyOp11
 70
     1
102
RTVSPropertyOp12
 70
     1
102
RTVSPropertyOp13
 70
     1
102
RTVSPropertyOp14
 70
     1
102
RTVSPropertyOp15
 70
     1
102
RTVSPropertyOp16
 70
     1
102
RTVSPropertyOp17
 70
     1
102
RTVSPropertyOp18
 70
     1
102
RTVSPropertyOp19
 70
     1
102
RTVSPropertyOp20
 70
     1
102
RTVSPropertyOp21
 70
     1
102
RTVSPropertyOp22
 70
     1
102
RTVSPropertyOp23
 70
     1
102
RTVSPropertyOp24
 70
     1
102
RTVSPropertyOp25
 70
     1
102
RTVSPropertyOp26
 70
     1
102
RTVSPropertyOp27
 70
     1
  0
XRECORD
  5
11AD
102
{ACAD_REACTORS
330
11AC
102
}
330
11AC
100
AcDbXrecord
280
     1
102
RTVSPropertyOp0
 70
     0
102
RTVSPropertyOp1
 70
     0
102
RTVSPropertyOp2
 70
     0
102
RTVSPropertyOp3
 70
     0
102
RTVSPropertyOp4
 70
     0
102
RTVSPropertyOp5
 70
     0
102
RTVSPropertyOp6
 70
     0
102
RTVSPropertyOp7
 70
     0
102
RTVSPropertyOp8
 70
     0
102
RTVSPropertyOp9
 70
     0
102
RTVSPropertyOp10
 70
     0
102
RTVSPropertyOp11
 70
     0
102
RTVSPropertyOp12
 70
     0
102
RTVSPropertyOp13
 70
     0
102
RTVSPropertyOp14
 70
     2
102
RTVSPropertyOp15
 70
     0
102
RTVSPropertyOp16
 70
     0
102
RTVSPropertyOp17
 70
     0
102
RTVSPropertyOp18
 70
     0
102
RTVSPropertyOp19
 70
     0
102
RTVSPropertyOp20
 70
     0
102
RTVSPropertyOp21
 70
     0
102
RTVSPropertyOp22
 70
     0
102
RTVSPropertyOp23
 70
     0
102
RTVSPropertyOp24
 70
     0
102
RTVSPropertyOp25
 70
     0
102
RTVSPropertyOp26
 70
     0
102
RTVSPropertyOp27
 70
     0
  0
XRECORD
  5
119D
102
{ACAD_REACTORS
330
119C
102
}
330
119C
100
AcDbXrecord
280
     1
102
RTVSPropertyOp0
 70
     1
102
RTVSPropertyOp1
 70
     1
102
RTVSPropertyOp2
 70
     1
102
RTVSPropertyOp3
 70
     1
102
RTVSPropertyOp4
 70
     1
102
RTVSPropertyOp5
 70
     1
102
RTVSPropertyOp6
 70
     1
102
RTVSPropertyOp7
 70
     1
102
RTVSPropertyOp8
 70
     1
102
RTVSPropertyOp9
 70
     1
102
RTVSPropertyOp10
 70
     1
102
RTVSPropertyOp11
 70
     1
102
RTVSPropertyOp12
 70
     1
102
RTVSPropertyOp13
 70
     1
102
RTVSPropertyOp14
 70
     1
102
RTVSPropertyOp15
 70
     1
102
RTVSPropertyOp16
 70
     1
102
RTVSPropertyOp17
 70
     1
102
RTVSPropertyOp18
 70
     1
102
RTVSPropertyOp19
 70
     1
102
RTVSPropertyOp20
 70
     1
102
RTVSPropertyOp21
 70
     1
102
RTVSPropertyOp22
 70
     1
102
RTVSPropertyOp23
 70
     1
102
RTVSPropertyOp24
 70
     1
102
RTVSPropertyOp25
 70
     1
102
RTVSPropertyOp26
 70
     1
102
RTVSPropertyOp27
 70
     1
  0
XRECORD
  5
11A3
102
{ACAD_REACTORS
330
11A2
102
}
330
11A2
100
AcDbXrecord
280
     1
102
RTVSPropertyOp0
 70
     1
102
RTVSPropertyOp1
 70
     1
102
RTVSPropertyOp2
 70
     1
102
RTVSPropertyOp3
 70
     1
102
RTVSPropertyOp4
 70
     1
102
RTVSPropertyOp5
 70
     1
102
RTVSPropertyOp6
 70
     1
102
RTVSPropertyOp7
 70
     1
102
RTVSPropertyOp8
 70
     1
102
RTVSPropertyOp9
 70
     1
102
RTVSPropertyOp10
 70
     1
102
RTVSPropertyOp11
 70
     1
102
RTVSPropertyOp12
 70
     1
102
RTVSPropertyOp13
 70
     1
102
RTVSPropertyOp14
 70
     1
102
RTVSPropertyOp15
 70
     1
102
RTVSPropertyOp16
 70
     1
102
RTVSPropertyOp17
 70
     1
102
RTVSPropertyOp18
 70
     1
102
RTVSPropertyOp19
 70
     1
102
RTVSPropertyOp20
 70
     1
102
RTVSPropertyOp21
 70
     1
102
RTVSPropertyOp22
 70
     1
102
RTVSPropertyOp23
 70
     1
102
RTVSPropertyOp24
 70
     1
102
RTVSPropertyOp25
 70
     1
102
RTVSPropertyOp26
 70
     1
102
RTVSPropertyOp27
 70
     1
  0
ENDSEC
  0
EOF
