  0
SECTION
  2
HEADER
  9
$ACADVER
  1
AC1027
  9
$ACADMAINTVER
 70
   125
  9
$DWGCODEPAGE
  3
ANSI_1250
  9
$LASTSAVEDBY
  1
jprorok
  9
$REQUIREDVERSIONS
160
                 0
  9
$INSBASE
 10
0.0
 20
0.0
 30
0.0
  9
$EXTMIN
 10
881.7428941903777
 20
8.055729936508669
 30
-0.0015258207003583
  9
$EXTMAX
 10
1203.690906365161
 20
432.5916262908419
 30
0.0000000349246037
  9
$LIMMIN
 10
0.0
 20
0.0
  9
$LIMMAX
 10
814.0
 20
582.0
  9
$ORTHOMODE
 70
     0
  9
$REGENMODE
 70
     1
  9
$FILLMODE
 70
     1
  9
$QTEXTMODE
 70
     0
  9
$MIRRTEXT
 70
     1
  9
$LTSCALE
 40
7.0
  9
$ATTMODE
 70
     1
  9
$TEXTSIZE
 40
7.5
  9
$TRACEWID
 40
0.05
  9
$TEXTSTYLE
  7
STANDARD
  9
$CLAYER
  8
BEMASS
  9
$CELTYPE
  6
BYLAYER
  9
$CECOLOR
 62
   256
  9
$CELTSCALE
 40
1.0
  9
$DISPSILH
 70
     0
  9
$DIMSCALE
 40
1.0
  9
$DIMASZ
 40
3.5
  9
$DIMEXO
 40
0.0
  9
$DIMDLI
 40
7.0
  9
$DIMRND
 40
0.0
  9
$DIMDLE
 40
0.0
  9
$DIMEXE
 40
2.0
  9
$DIMTP
 40
0.0
  9
$DIMTM
 40
0.0
  9
$DIMTXT
 40
5.0
  9
$DIMCEN
 40
3.0
  9
$DIMTSZ
 40
0.0
  9
$DIMTOL
 70
     0
  9
$DIMLIM
 70
     0
  9
$DIMTIH
 70
     0
  9
$DIMTOH
 70
     0
  9
$DIMSE1
 70
     0
  9
$DIMSE2
 70
     0
  9
$DIMTAD
 70
     1
  9
$DIMZIN
 70
     8
  9
$DIMBLK
  1

  9
$DIMASO
 70
     1
  9
$DIMSHO
 70
     1
  9
$DIMPOST
  1

  9
$DIMAPOST
  1

  9
$DIMALT
 70
     0
  9
$DIMALTD
 70
     2
  9
$DIMALTF
 40
25.4
  9
$DIMLFAC
 40
1.0
  9
$DIMTOFL
 70
     0
  9
$DIMTVP
 40
0.0
  9
$DIMTIX
 70
     1
  9
$DIMSOXD
 70
     0
  9
$DIMSAH
 70
     0
  9
$DIMBLK1
  1

  9
$DIMBLK2
  1

  9
$DIMSTYLE
  2
STANDARD
  9
$DIMCLRD
 70
   256
  9
$DIMCLRE
 70
   256
  9
$DIMCLRT
 70
   256
  9
$DIMTFAC
 40
0.875
  9
$DIMGAP
 40
2.0
  9
$DIMJUST
 70
     0
  9
$DIMSD1
 70
     0
  9
$DIMSD2
 70
     0
  9
$DIMTOLJ
 70
     1
  9
$DIMTZIN
 70
     8
  9
$DIMALTZ
 70
     8
  9
$DIMALTTZ
 70
     8
  9
$DIMUPT
 70
     0
  9
$DIMDEC
 70
     1
  9
$DIMTDEC
 70
     1
  9
$DIMALTU
 70
     2
  9
$DIMALTTD
 70
     2
  9
$DIMTXSTY
  7
STANDARD
  9
$DIMAUNIT
 70
     0
  9
$DIMADEC
 70
     0
  9
$DIMALTRND
 40
0.0
  9
$DIMAZIN
 70
     0
  9
$DIMDSEP
 70
    46
  9
$DIMATFIT
 70
     0
  9
$DIMFRAC
 70
     0
  9
$DIMLDRBLK
  1

  9
$DIMLUNIT
 70
     2
  9
$DIMLWD
 70
    -2
  9
$DIMLWE
 70
    -2
  9
$DIMTMOVE
 70
     0
  9
$DIMFXL
 40
1.0
  9
$DIMFXLON
 70
     0
  9
$DIMJOGANG
 40
0.7853981633974483
  9
$DIMTFILL
 70
     0
  9
$DIMTFILLCLR
 70
     0
  9
$DIMARCSYM
 70
     1
  9
$DIMLTYPE
  6
BYBLOCK
  9
$DIMLTEX1
  6
BYBLOCK
  9
$DIMLTEX2
  6
BYBLOCK
  9
$DIMTXTDIRECTION
 70
     0
  9
$LUNITS
 70
     2
  9
$LUPREC
 70
     1
  9
$SKETCHINC
 40
0.1
  9
$FILLETRAD
 40
0.0
  9
$AUNITS
 70
     0
  9
$AUPREC
 70
     0
  9
$MENU
  1
ACAD
  9
$ELEVATION
 40
0.0
  9
$PELEVATION
 40
0.0
  9
$THICKNESS
 40
0.0
  9
$LIMCHECK
 70
     0
  9
$CHAMFERA
 40
0.0
  9
$CHAMFERB
 40
0.0
  9
$CHAMFERC
 40
0.0
  9
$CHAMFERD
 40
0.0
  9
$SKPOLY
 70
     0
  9
$TDCREATE
 40
2451432.506388889
  9
$TDUCREATE
 40
2451432.423060637
  9
$TDUPDATE
 40
2458564.369490741
  9
$TDUUPDATE
 40
2458564.327824074
  9
$TDINDWG
 40
0.3007158218
  9
$TDUSRTIMER
 40
0.3007158218
  9
$USRTIMER
 70
     1
  9
$ANGBASE
 50
0.0
  9
$ANGDIR
 70
     0
  9
$PDMODE
 70
     0
  9
$PDSIZE
 40
0.0
  9
$PLINEWID
 40
0.0
  9
$SPLFRAME
 70
     0
  9
$SPLINETYPE
 70
     6
  9
$SPLINESEGS
 70
     8
  9
$HANDSEED
  5
28AE
  9
$SURFTAB1
 70
     6
  9
$SURFTAB2
 70
     6
  9
$SURFTYPE
 70
     6
  9
$SURFU
 70
     6
  9
$SURFV
 70
     6
  9
$UCSBASE
  2

  9
$UCSNAME
  2

  9
$UCSORG
 10
0.0
 20
0.0
 30
0.0
  9
$UCSXDIR
 10
1.0
 20
0.0
 30
0.0
  9
$UCSYDIR
 10
0.0
 20
1.0
 30
0.0
  9
$UCSORTHOREF
  2

  9
$UCSORTHOVIEW
 70
     0
  9
$UCSORGTOP
 10
0.0
 20
0.0
 30
0.0
  9
$UCSORGBOTTOM
 10
0.0
 20
0.0
 30
0.0
  9
$UCSORGLEFT
 10
0.0
 20
0.0
 30
0.0
  9
$UCSORGRIGHT
 10
0.0
 20
0.0
 30
0.0
  9
$UCSORGFRONT
 10
0.0
 20
0.0
 30
0.0
  9
$UCSORGBACK
 10
0.0
 20
0.0
 30
0.0
  9
$PUCSBASE
  2

  9
$PUCSNAME
  2

  9
$PUCSORG
 10
0.0
 20
0.0
 30
0.0
  9
$PUCSXDIR
 10
1.0
 20
0.0
 30
0.0
  9
$PUCSYDIR
 10
0.0
 20
1.0
 30
0.0
  9
$PUCSORTHOREF
  2

  9
$PUCSORTHOVIEW
 70
     0
  9
$PUCSORGTOP
 10
0.0
 20
0.0
 30
0.0
  9
$PUCSORGBOTTOM
 10
0.0
 20
0.0
 30
0.0
  9
$PUCSORGLEFT
 10
0.0
 20
0.0
 30
0.0
  9
$PUCSORGRIGHT
 10
0.0
 20
0.0
 30
0.0
  9
$PUCSORGFRONT
 10
0.0
 20
0.0
 30
0.0
  9
$PUCSORGBACK
 10
0.0
 20
0.0
 30
0.0
  9
$USERI1
 70
     0
  9
$USERI2
 70
     0
  9
$USERI3
 70
     0
  9
$USERI4
 70
     0
  9
$USERI5
 70
     0
  9
$USERR1
 40
0.0
  9
$USERR2
 40
0.0
  9
$USERR3
 40
0.0
  9
$USERR4
 40
0.0
  9
$USERR5
 40
0.0
  9
$WORLDVIEW
 70
     1
  9
$SHADEDGE
 70
     3
  9
$SHADEDIF
 70
    70
  9
$TILEMODE
 70
     1
  9
$MAXACTVP
 70
    16
  9
$PINSBASE
 10
0.0
 20
0.0
 30
0.0
  9
$PLIMCHECK
 70
     0
  9
$PEXTMIN
 10
1.000000000000000E+20
 20
1.000000000000000E+20
 30
1.000000000000000E+20
  9
$PEXTMAX
 10
-1.000000000000000E+20
 20
-1.000000000000000E+20
 30
-1.000000000000000E+20
  9
$PLIMMIN
 10
0.0
 20
0.0
  9
$PLIMMAX
 10
417.0
 20
288.0
  9
$UNITMODE
 70
     0
  9
$VISRETAIN
 70
     0
  9
$PLINEGEN
 70
     0
  9
$PSLTSCALE
 70
     0
  9
$TREEDEPTH
 70
  3020
  9
$CMLSTYLE
  2
STANDARD
  9
$CMLJUST
 70
     0
  9
$CMLSCALE
 40
1.0
  9
$PROXYGRAPHICS
 70
     1
  9
$MEASUREMENT
 70
     0
  9
$CELWEIGHT
370
    -1
  9
$ENDCAPS
280
     0
  9
$JOINSTYLE
280
     0
  9
$LWDISPLAY
290
     0
  9
$INSUNITS
 70
     0
  9
$HYPERLINKBASE
  1

  9
$STYLESHEET
  1
monochrome.ctb
  9
$XEDIT
290
     1
  9
$CEPSNTYPE
380
     0
  9
$PSTYLEMODE
290
     1
  9
$FINGERPRINTGUID
  2

  9
$VERSIONGUID
  2
{BAF0D0A6-E135-8F40-B302-06052F705349}
  9
$EXTNAMES
290
     1
  9
$PSVPSCALE
 40
0.0
  9
$OLESTARTUP
290
     0
  9
$SORTENTS
280
   127
  9
$INDEXCTL
280
     0
  9
$HIDETEXT
280
     0
  9
$XCLIPFRAME
280
     2
  9
$HALOGAP
280
     0
  9
$OBSCOLOR
 70
   257
  9
$OBSLTYPE
280
     0
  9
$INTERSECTIONDISPLAY
280
     0
  9
$INTERSECTIONCOLOR
 70
   257
  9
$DIMASSOC
280
     1
  9
$PROJECTNAME
  1

  9
$CAMERADISPLAY
290
     0
  9
$LENSLENGTH
 40
50.0
  9
$CAMERAHEIGHT
 40
0.0
  9
$STEPSPERSEC
 40
2.0
  9
$STEPSIZE
 40
6.0
  9
$3DDWFPREC
 40
2.0
  9
$PSOLWIDTH
 40
0.25
  9
$PSOLHEIGHT
 40
4.0
  9
$LOFTANG1
 40
1.570796326794896
  9
$LOFTANG2
 40
1.570796326794896
  9
$LOFTMAG1
 40
0.0
  9
$LOFTMAG2
 40
0.0
  9
$LOFTPARAM
 70
     7
  9
$LOFTNORMALS
280
     1
  9
$LATITUDE
 40
37.795
  9
$LONGITUDE
 40
-122.394
  9
$NORTHDIRECTION
 40
0.0
  9
$TIMEZONE
 70
 -8000
  9
$LIGHTGLYPHDISPLAY
280
     1
  9
$TILEMODELIGHTSYNCH
280
     1
  9
$CMATERIAL
347
6FD
  9
$SOLIDHIST
280
     1
  9
$SHOWHIST
280
     1
  9
$DWFFRAME
280
     2
  9
$DGNFRAME
280
     0
  9
$REALWORLDSCALE
290
     1
  9
$INTERFERECOLOR
 62
     1
  9
$INTERFEREOBJVS
345
71F
  9
$INTERFEREVPVS
346
27C2
  9
$CSHADOW
280
     0
  9
$SHADOWPLANELOCATION
 40
0.0
  0
ENDSEC
  0
SECTION
  2
CLASSES
  0
CLASS
  1
DICTIONARYVAR
  2
AcDbDictionaryVar
  3
ObjectDBX Classes
 90
        0
 91
       12
280
     0
281
     0
  0
CLASS
  1
ACDBDICTIONARYWDFLT
  2
AcDbDictionaryWithDefault
  3
ObjectDBX Classes
 90
        0
 91
        1
280
     0
281
     0
  0
CLASS
  1
TABLESTYLE
  2
AcDbTableStyle
  3
ObjectDBX Classes
 90
     4095
 91
        1
280
     0
281
     0
  0
CLASS
  1
MATERIAL
  2
AcDbMaterial
  3
ObjectDBX Classes
 90
     1153
 91
        3
280
     0
281
     0
  0
CLASS
  1
VISUALSTYLE
  2
AcDbVisualStyle
  3
ObjectDBX Classes
 90
     4095
 91
       26
280
     0
281
     0
  0
CLASS
  1
SCALE
  2
AcDbScale
  3
ObjectDBX Classes
 90
     1153
 91
       33
280
     0
281
     0
  0
CLASS
  1
MLEADERSTYLE
  2
AcDbMLeaderStyle
  3
ACDB_MLEADERSTYLE_CLASS
 90
     4095
 91
        1
280
     0
281
     0
  0
CLASS
  1
ACME_DOCUMENT
  2
AcMeDbDoc
  3
AcMeServices
 90
     1024
 91
        2
280
     0
281
     0
  0
CLASS
  1
AMGSETTINGSOBJ
  2
AmgSettingsObj
  3
"AcadM|Product Description: AutoCAD Mechanical|Company: Autodesk, Inc."
 90
     1024
 91
        2
280
     0
281
     0
  0
CLASS
  1
AMGOBJPROPCFG
  2
AmgObjPropCfg
  3
"AmgLay|Product Description: AutoCAD Mechanical|Company: Autodesk, Inc."
 90
     1024
 91
        1
280
     0
281
     0
  0
CLASS
  1
ACMESCOPE
  2
AcMeScope
  3
AcMeServices
 90
     1024
 91
        1
280
     0
281
     0
  0
CLASS
  1
ACMECOMMANDHISTORY
  2
AcMeCommandHistory
  3
AcMeServices
 90
     1024
 91
        1
280
     0
281
     0
  0
CLASS
  1
ACIMSYSVARMAN
  2
AcImSysVarManager
  3
AcMeServices
 90
     1024
 91
        3
280
     0
281
     0
  0
CLASS
  1
ACIMINTSYSVAR
  2
AcImIntSysVar
  3
AcMeServices
 90
     1024
 91
        2
280
     0
281
     0
  0
CLASS
  1
ACMEDRAWINGMAN
  2
AcMeDrawingMan
  3
AcMeServices
 90
     1024
 91
        0
280
     0
281
     0
  0
CLASS
  1
ACMEVIEW
  2
AcMeView
  3
AcMeServices
 90
     1024
 91
        0
280
     0
281
     0
  0
CLASS
  1
ACDBENTITYCACHE
  2
AcMeEntityCache
  3
AcMeServices
 90
     1024
 91
        1
280
     0
281
     0
  0
CLASS
  1
ACMESTATEMGR
  2
AcMeStateMgr
  3
AcMeServices
 90
     1024
 91
        1
280
     0
281
     0
  0
CLASS
  1
ACGREFMASTER
  2
AcGrefMaster
  3
AcAttribServices
 90
     1024
 91
        1
280
     0
281
     0
  0
CLASS
  1
AM_DRAWING_MGR
  2
AcDmDwgMgr
  3
AcMechDwgViewMgmt
 90
     1024
 91
        0
280
     0
281
     0
  0
CLASS
  1
AM_DWG_DOCUMENT
  2
AcDmDwgDocument
  3
AcMechDwgViewMgmt
 90
     1024
 91
        0
280
     0
281
     0
  0
CLASS
  1
AM_DWG_SHEET
  2
AcDmSheet
  3
AcMechDwgViewMgmt
 90
     1024
 91
        0
280
     0
281
     0
  0
CLASS
  1
AM_VIEWDIMPARMAP
  2
AcDmViewDimParMap
  3
AcMechDwgViewMgmt
 90
     1024
 91
        0
280
     0
281
     0
  0
CLASS
  1
AMDTINTERNALREACTOR
  2
AmdtInternalReactor
  3
AcMeServices
 90
     1024
 91
        0
280
     0
281
     0
  0
CLASS
  1
ACIMREALSYSVAR
  2
AcImRealSysVar
  3
AcMeServices
 90
     1024
 91
        0
280
     0
281
     0
  0
CLASS
  1
AM_DWGMGR_NAME
  2
AcDmDwgMgrName
  3
AcMechDwgViewMgmt
 90
     1024
 91
        0
280
     0
281
     0
  0
CLASS
  1
ACME_DATABASE
  2
AcMeDbDatabase
  3
AcMeServices
 90
     1024
 91
        1
280
     0
281
     0
  0
CLASS
  1
ACRFINSADJUSTERMGR
  2
AcRfInsAdjusterMgr
  3
AcMeServices
 90
     1024
 91
        1
280
     0
281
     0
  0
CLASS
  1
ACGREFACADMASTER
  2
AcGrefacadMaster
  3
AcGrefServices
 90
     1024
 91
        1
280
     0
281
     0
  0
CLASS
  1
AMDTMENUSTATEMGR
  2
AmdtMenuStateMgr
  3
McadcomServices
 90
     1024
 91
        1
280
     0
281
     0
  0
CLASS
  1
AMDTMCOMMENUSTATE
  2
AmdtMcomMenuState
  3
McadcomServices
 90
     1024
 91
        1
280
     0
281
     0
  0
CLASS
  1
AMIMASTER
  2
AmiMaster
  3
AmiServices
 90
     1024
 91
        1
280
     0
281
     0
  0
CLASS
  1
MAPIAMMOUDLE
  2
MApiAmModule
  3
MApiAmServices
 90
     1024
 91
        1
280
     0
281
     0
  0
CLASS
  1
ACIMSTRSYSVAR
  2
AcImStrSysVar
  3
AcMeServices
 90
     1024
 91
        5
280
     0
281
     0
  0
CLASS
  1
AMDTADMENUSTATE
  2
AmdtAdMenuState
  3
DesignerServices
 90
     1024
 91
        0
280
     0
281
     0
  0
CLASS
  1
ADAPPL
  2
AcAdAppl
  3
DesignerAssemblies
 90
     1024
 91
        0
280
     0
281
     0
  0
CLASS
  1
DEPMGR
  2
AcAdDepMgr
  3
DesignerAssemblies
 90
     1024
 91
        0
280
     0
281
     0
  0
CLASS
  1
PARAMMGR
  2
AcAdParamMgr
  3
DesignerAssemblies
 90
     1024
 91
        0
280
     0
281
     0
  0
CLASS
  1
PARAMSCOPE
  2
AcAdParamScope
  3
DesignerAssemblies
 90
     1024
 91
        0
280
     0
281
     0
  0
CLASS
  1
NAMEDAPPL
  2
AcAdNamedAppl
  3
DesignerAssemblies
 90
     1024
 91
        0
280
     0
281
     0
  0
CLASS
  1
AMDTDMMENUSTATE
  2
AmdtDmMenuState
  3
AcMechDwgViewMgmt
 90
     1024
 91
        0
280
     0
281
     0
  0
CLASS
  1
AMDTAMMENUSTATE
  2
AmdtAmMenuState
  3
DesignerAssemblies
 90
     1024
 91
        1
280
     0
281
     0
  0
CLASS
  1
ACAMPROJECT
  2
AcAmProject
  3
DesignerAssemblies
 90
     1024
 91
        1
280
     0
281
     0
  0
CLASS
  1
ACAMGRCOMPDEF
  2
AcAmGrCompDef
  3
DesignerAssemblies
 90
     1024
 91
        1
280
     0
281
     0
  0
CLASS
  1
ACAMCOMPDEF
  2
AcAmCompDef
  3
DesignerAssemblies
 90
     1024
 91
        1
280
     0
281
     0
  0
CLASS
  1
ACAMCOMPDEFMGR
  2
AcAmCompDefMgr
  3
DesignerAssemblies
 90
     1024
 91
        1
280
     0
281
     0
  0
CLASS
  1
AMCONTEXTMGR
  2
AcAmContextMgr
  3
DesignerAssemblies
 90
     1024
 91
        1
280
     0
281
     0
  0
CLASS
  1
ACAMCONTEXTMODELER
  2
AcAmContextModeler
  3
DesignerAssemblies
 90
     1024
 91
        1
280
     0
281
     0
  0
CLASS
  1
ACMDATADICTIONARY
  2
AcmDataDictionary
  3
"AcmSymBB|Product Description: AutoCAD Mechanical|Company: Autodesk, Inc."
 90
     1024
 91
        1
280
     0
281
     0
  0
CLASS
  1
CATALOGSTATE
  2
AcAmCatalogState
  3
DesignerAssemblies
 90
     1024
 91
        0
280
     0
281
     0
  0
CLASS
  1
ACAMGRCOMPDEFSET
  2
AcAmGrCompDefSet
  3
DesignerAssemblies
 90
     1024
 91
        1
280
     0
281
     0
  0
CLASS
  1
AMDTBROWSERDBTAB
  2
AmdtBrowserDbTab
  3
McadcomServices
 90
     1024
 91
        1
280
     0
281
     0
  0
CLASS
  1
CBROWSERAPPOBJECT
  2
CBrowserAppObject
  3
McadcomServices
 90
     1024
 91
        2
280
     0
281
     0
  0
CLASS
  1
DM_PLACEHOLDER
  2
AcDmSelsetPlaceholder
  3
McadcomServices
 90
     1024
 91
        1
280
     0
281
     0
  0
CLASS
  1
ACMSTANDARDANSI
  2
AcmStandardANSI
  3
"Amdt_StdImp|Product Description: AutoCAD Mechanical|Company: Autodesk, Inc."
 90
     1024
 91
        1
280
     0
281
     0
  0
CLASS
  1
ACMSURFSTANDARDANSI
  2
AcmSurfTextStdANSI
  3
"Amdt_StdImp|Product Description: AutoCAD Mechanical|Company: Autodesk, Inc."
 90
     1024
 91
        1
280
     0
281
     0
  0
CLASS
  1
ACMFCFSTANDARDANSI
  2
AcmFCFStdANSI
  3
"Amdt_StdImp|Product Description: AutoCAD Mechanical|Company: Autodesk, Inc."
 90
     1024
 91
        1
280
     0
281
     0
  0
CLASS
  1
ACMWELDSTANDARDANSI
  2
AcmWeldingStdANSI
  3
"Amdt_StdImp|Product Description: AutoCAD Mechanical|Company: Autodesk, Inc."
 90
     1024
 91
        1
280
     0
281
     0
  0
CLASS
  1
ACMIDSTANDARDANSI
  2
AcmIdStdANSI
  3
"Amdt_StdImp|Product Description: AutoCAD Mechanical|Company: Autodesk, Inc."
 90
     1024
 91
        1
280
     0
281
     0
  0
CLASS
  1
ACMDATUMSTANDARDANSI
  2
AcmDatumStdANSI
  3
"Amdt_StdImp|Product Description: AutoCAD Mechanical|Company: Autodesk, Inc."
 90
     1024
 91
        1
280
     0
281
     0
  0
CLASS
  1
ACMBOMSTANDARDANSI
  2
AcmBOMStdANSI
  3
"Amdt_StdImp|Product Description: AutoCAD Mechanical|Company: Autodesk, Inc."
 90
     1024
 91
        1
280
     0
281
     0
  0
CLASS
  1
ACMDETAILSTANDARDANSI
  2
AmdtDetailSymStdANSI
  3
"Amdt_StdImp|Product Description: AutoCAD Mechanical|Company: Autodesk, Inc."
 90
     1024
 91
        1
280
     0
281
     0
  0
CLASS
  1
ACMSECTIONSTANDARDANSI
  2
AmdtSectionSymStdANSI
  3
"Amdt_StdImp|Product Description: AutoCAD Mechanical|Company: Autodesk, Inc."
 90
     1024
 91
        1
280
     0
281
     0
  0
CLASS
  1
ACMCENTERLINESTANDARDANSI
  2
AmdtCenterLineStdANSI
  3
"Amdt_StdImp|Product Description: AutoCAD Mechanical|Company: Autodesk, Inc."
 90
     1024
 91
        1
280
     0
281
     0
  0
CLASS
  1
ACMTHREADLINESTANDARDANSI
  2
AmdtThreadLineStdANSI
  3
"Amdt_StdImp|Product Description: AutoCAD Mechanical|Company: Autodesk, Inc."
 90
     1024
 91
        1
280
     0
281
     0
  0
CLASS
  1
ACMNOTESTANDARDANSI
  2
AmdtNoteStdANSI
  3
"Amdt_StdImp|Product Description: AutoCAD Mechanical|Company: Autodesk, Inc."
 90
     1024
 91
        1
280
     0
281
     0
  0
CLASS
  1
ACMTAPERSTANDARDANSI
  2
AcmTaperStdANSI
  3
"Amdt_StdImp|Product Description: AutoCAD Mechanical|Company: Autodesk, Inc."
 90
     1024
 91
        1
280
     0
281
     0
  0
CLASS
  1
ACMANOOTATIONVIEWSTANDARDANSI
  2
AmdtAnViewStdANSI
  3
"Amdt_StdImp|Product Description: AutoCAD Mechanical|Company: Autodesk, Inc."
 90
     1024
 91
        1
280
     0
281
     0
  0
CLASS
  1
ACAMGLAYSTD
  2
AcAmgLayStd
  3
"AmgLay|Product Description: AutoCAD Mechanical|Company: Autodesk, Inc."
 90
     1024
 91
        1
280
     0
281
     0
  0
CLASS
  1
ACAMGDIMSTD
  2
AcAmgDimStd
  3
"AmgDim|Product Description: AutoCAD Mechanical|Company: Autodesk, Inc."
 90
     1024
 91
        1
280
     0
281
     0
  0
CLASS
  1
ACAMGHOLECHARTSTDANSI
  2
AcAmgHoleChartStdANSI
  3
AmgDim|Product Description: AutoCAD Mechanical|Company: Autodesk, Inc.
 90
     1024
 91
        1
280
     0
281
     0
  0
CLASS
  1
ACAMGTITLESTD
  2
AcAmgTitleStd
  3
"AmgTitle|Product Description: AutoCAD Mechanical|Company: Autodesk, Inc."
 90
     1024
 91
        1
280
     0
281
     0
  0
CLASS
  1
AMDTNOTETEMPLATEDB
  2
AmdtNoteTemplateDB
  3
AcmSymBB|Product Description: AutoCAD Mechanical|Company: Autodesk, Inc.
 90
     1024
 91
        7
280
     0
281
     0
  0
CLASS
  1
ACAMGFILTERDAT
  2
AcAmgFilterDat
  3
"AcadM|Product Description: AutoCAD Mechanical|Company: Autodesk, Inc."
 90
     1024
 91
        0
280
     0
281
     0
  0
CLASS
  1
SORTENTSTABLE
  2
AcDbSortentsTable
  3
ObjectDBX Classes
 90
        0
 91
        6
280
     0
281
     0
  0
CLASS
  1
AEC_REFEDIT_STATUS_TRACKER
  2
AecDbRefEditStatusTracker
  3
AecArchBase70|Product Desc: Autodesk Architectural Desktop 2007 |Company: Autodesk,Inc. |WEB Address: www.autodesk.com
 90
      129
 91
        0
280
     0
281
     0
  0
CLASS
  1
NPOCOLLECTION
  2
AcDbImpNonPersistentObjectsCollection
  3
ObjectDBX Classes
 90
     1153
 91
        1
280
     0
281
     0
  0
CLASS
  1
CELLSTYLEMAP
  2
AcDbCellStyleMap
  3
ObjectDBX Classes
 90
     1152
 91
        1
280
     0
281
     0
  0
CLASS
  1
ACDBSECTIONVIEWSTYLE
  2
AcDbSectionViewStyle
  3
ObjectDBX Classes
 90
     1025
 91
        2
280
     0
281
     0
  0
CLASS
  1
ACDBDETAILVIEWSTYLE
  2
AcDbDetailViewStyle
  3
ObjectDBX Classes
 90
     1025
 91
        2
280
     0
281
     0
  0
CLASS
  1
EXACXREFPANELOBJECT
  2
ExAcXREFPanelObject
  3
EXAC_ESW
 90
     1025
 91
        1
280
     0
281
     0
  0
CLASS
  1
ACMSECTIONSTANDARDCUSTOM
  2
AmdtSectionSymStdCustom
  3
"Amdt_StdImp|Product Description: AutoCAD Mechanical|Company: Autodesk, Inc."
 90
     1024
 91
        1
280
     0
281
     0
  0
CLASS
  1
ACMDETAILTANDARDCUSTOM
  2
AmdtDetailSymStdCustom
  3
"Amdt_StdImp|Product Description: AutoCAD Mechanical|Company: Autodesk, Inc."
 90
     1024
 91
        1
280
     0
281
     0
  0
CLASS
  1
FIELD
  2
AcDbField
  3
ObjectDBX Classes
 90
     1152
 91
        4
280
     0
281
     0
  0
CLASS
  1
FIELDLIST
  2
AcDbFieldList
  3
ObjectDBX Classes
 90
     1152
 91
        1
280
     0
281
     0
  0
ENDSEC
  0
SECTION
  2
TABLES
  0
TABLE
  2
VPORT
  5
43B
102
{ACAD_XDICTIONARY
360
2381
102
}
330
0
100
AcDbSymbolTable
 70
     1
1001
ACAD
1000
DbSaveVer
1071
        8
  0
VPORT
  5
6FB
330
43B
100
AcDbSymbolTableRecord
100
AcDbViewportTableRecord
  2
*Active
 70
     0
 10
0.0
 20
0.0
 11
1.0
 21
1.0
 12
981.004155946956
 22
216.6573856549719
 13
0.0
 23
0.0
 14
10.0
 24
10.0
 15
20.0
 25
20.0
 16
0.0
 26
0.0
 36
1.0
 17
0.0
 27
0.0
 37
0.0
 40
682.906774520045
 41
2.358195211786371
 42
50.0
 43
0.0
 44
0.0
 50
0.0
 51
0.0
 71
     0
 72
   100
 73
     1
 74
     1
 75
     0
 76
     0
 77
     0
 78
     0
281
     0
 65
     1
110
0.0
120
0.0
130
0.0
111
1.0
121
0.0
131
0.0
112
0.0
122
1.0
132
0.0
 79
     0
146
0.0
348
71B
 60
     3
 61
     5
292
     1
282
     1
141
0.0
142
0.0
 63
   250
421
  3355443
1001
ACAD_NAV_VCDISPLAY
1070
     3
  0
ENDTAB
  0
TABLE
  2
LTYPE
  5
436
330
0
100
AcDbSymbolTable
 70
    21
  0
LTYPE
  5
437
330
436
100
AcDbSymbolTableRecord
100
AcDbLinetypeTableRecord
  2
BYBLOCK
 70
     0
  3

 72
    65
 73
     0
 40
0.0
  0
LTYPE
  5
438
330
436
100
AcDbSymbolTableRecord
100
AcDbLinetypeTableRecord
  2
BYLAYER
 70
     0
  3

 72
    65
 73
     0
 40
0.0
  0
LTYPE
  5
8
330
436
100
AcDbSymbolTableRecord
100
AcDbLinetypeTableRecord
  2
CONTINUOUS
 70
     0
  3
Solid line
 72
    65
 73
     0
 40
0.0
  0
LTYPE
  5
C
330
436
100
AcDbSymbolTableRecord
100
AcDbLinetypeTableRecord
  2
AUSGEZOGEN
 70
     0
  3
Ausgezogene Linie
 72
    65
 73
     0
 40
0.0
  0
LTYPE
  5
127
330
436
100
AcDbSymbolTableRecord
100
AcDbLinetypeTableRecord
  2
STRICHPUNKT
 70
     0
  3
__ . __ . __ . __ . __ . __ . __ . __ . __ . __
 72
    65
 73
     4
 40
1.0
 49
0.5
 74
     0
 49
-0.25
 74
     0
 49
0.0
 74
     0
 49
-0.25
 74
     0
  0
LTYPE
  5
274
330
436
100
AcDbSymbolTableRecord
100
AcDbLinetypeTableRecord
  2
GESTRICHELT
 70
     0
  3
__ __ __ __ __ __ __ __ __ __ __ __ __ __ __ __
 72
    65
 73
     2
 40
0.75
 49
0.5
 74
     0
 49
-0.25
 74
     0
  0
LTYPE
  5
75B
330
436
100
AcDbSymbolTableRecord
100
AcDbLinetypeTableRecord
  2
Amconstr
 70
     0
  3
_______________________
 72
    65
 73
     2
 40
9999.0
 49
9999.0
 74
     0
 49
0.0
 74
     0
  0
LTYPE
  5
78E
330
436
100
AcDbSymbolTableRecord
100
AcDbLinetypeTableRecord
  2
HIDDEN
 70
     0
  3
Skrytá __ __ __ __ __ __ __ __ __ __ __ __ __ __
 72
    65
 73
     2
 40
0.375
 49
0.25
 74
     0
 49
-0.125
 74
     0
  0
LTYPE
  5
78F
330
436
100
AcDbSymbolTableRecord
100
AcDbLinetypeTableRecord
  2
PHANTOM2
 70
     0
  3
Sdružená (.5x) ___ _ _ ___ _ _ ___ _ _ ___ _ _
 72
    65
 73
     6
 40
1.25
 49
0.625
 74
     0
 49
-0.125
 74
     0
 49
0.125
 74
     0
 49
-0.125
 74
     0
 49
0.125
 74
     0
 49
-0.125
 74
     0
  0
LTYPE
  5
790
330
436
100
AcDbSymbolTableRecord
100
AcDbLinetypeTableRecord
  2
CENTER
 70
     0
  3
Středová ____ _ ____ _ ____ _ ____ _ ____ _ ____
 72
    65
 73
     4
 40
2.0
 49
1.25
 74
     0
 49
-0.25
 74
     0
 49
0.25
 74
     0
 49
-0.25
 74
     0
  0
LTYPE
  5
7E0
330
436
100
AcDbSymbolTableRecord
100
AcDbLinetypeTableRecord
  2
CENTER2
 70
     0
  3
Center (.5x) ___ _ ___ _ ___ _ ___ _ ___ _ ___
 72
    65
 73
     4
 40
1.125
 49
0.75
 74
     0
 49
-0.125
 74
     0
 49
0.125
 74
     0
 49
-0.125
 74
     0
  0
LTYPE
  5
7E1
330
436
100
AcDbSymbolTableRecord
100
AcDbLinetypeTableRecord
  2
HIDDEN2
 70
     0
  3
Hidden (.5x) _ _ _ _ _ _ _ _ _ _ _ _ _ _ _ _ _
 72
    65
 73
     2
 40
0.1875
 49
0.125
 74
     0
 49
-0.0625
 74
     0
  0
LTYPE
  5
7E2
330
436
100
AcDbSymbolTableRecord
100
AcDbLinetypeTableRecord
  2
Amzigzag2
 70
     0
  3
/\/-/\/-/\/-/\/-/\/-/\/
 72
    65
 73
     2
 40
0.4401
 49
0.0001
 74
     4
 75
   136
340
75F
 46
0.0016
 50
0.0
 44
0.0
 45
0.0
 49
-0.4400000000000001
 74
     0
  0
LTYPE
  5
7E4
330
436
100
AcDbSymbolTableRecord
100
AcDbLinetypeTableRecord
  2
ACANSTGB
 70
     0
  3
__ . . __ . .
 72
    65
 73
     6
 40
0.35433070866
 49
0.15748031496
 74
     0
 49
-0.03937007874
 74
     0
 49
0.03937007874
 74
     0
 49
-0.03937007874
 74
     0
 49
0.03937007874
 74
     0
 49
-0.03937007874
 74
     0
  0
LTYPE
  5
7E5
330
436
100
AcDbSymbolTableRecord
100
AcDbLinetypeTableRecord
  2
ACANSTGL
 70
     0
  3
_ _ _ _ _
 72
    65
 73
     2
 40
0.11811023622
 49
0.07874015748
 74
     0
 49
-0.03937007874
 74
     0
  0
LTYPE
  5
13DD
330
436
100
AcDbSymbolTableRecord
100
AcDbLinetypeTableRecord
  2
AM_ISO02W050
 70
     0
  3
__ __ __ __ __ __ __ __ __ __ __ __ __ __ __
 72
    65
 73
     2
 40
7.5
 49
6.0
 74
     0
 49
-1.5
 74
     0
  0
LTYPE
  5
13DE
330
436
100
AcDbSymbolTableRecord
100
AcDbLinetypeTableRecord
  2
AM_ISO08W050
 70
     0
  3
____ . ____ . ____ . ____ . ____ . ____ . ____
 72
    65
 73
     4
 40
18.0
 49
12.0
 74
     0
 49
-1.5
 74
     0
 49
3.0
 74
     0
 49
-1.5
 74
     0
  0
LTYPE
  5
13DF
330
436
100
AcDbSymbolTableRecord
100
AcDbLinetypeTableRecord
  2
AM_ISO09W050
 70
     0
  3
_____ . . _____ . . _____ . . ____ .. ____
 72
    65
 73
     6
 40
22.5
 49
12.0
 74
     0
 49
-1.5
 74
     0
 49
3.0
 74
     0
 49
-1.5
 74
     0
 49
3.0
 74
     0
 49
-1.5
 74
     0
  0
LTYPE
  5
13E0
330
436
100
AcDbSymbolTableRecord
100
AcDbLinetypeTableRecord
  2
AM_ISO08W050x2
 70
     0
  3
__ . __ . __ . __ . __ . __
 72
    65
 73
     4
 40
9.0
 49
6.0
 74
     0
 49
-0.75
 74
     0
 49
1.5
 74
     0
 49
-0.75
 74
     0
  0
LTYPE
  5
13E1
330
436
100
AcDbSymbolTableRecord
100
AcDbLinetypeTableRecord
  2
AM_ISO02W050x2
 70
     0
  3
 _ _ _ _ _ _ _ _ _ _ _ _
 72
    65
 73
     2
 40
3.75
 49
3.0
 74
     0
 49
-0.75
 74
     0
  0
LTYPE
  5
13E2
330
436
100
AcDbSymbolTableRecord
100
AcDbLinetypeTableRecord
  2
Amzigzag
 70
     0
  3
/\/-/\/-/\/-/\/-/\/-/\/
 72
    65
 73
     2
 40
11.0001
 49
0.0001
 74
     4
 75
   136
340
75F
 46
0.04
 50
0.0
 44
0.0
 45
0.0
 49
-11.0
 74
     0
  0
ENDTAB
  0
TABLE
  2
LAYER
  5
433
102
{ACAD_XDICTIONARY
360
932
102
}
330
0
100
AcDbSymbolTable
 70
    19
  0
LAYER
  5
85
102
{ACAD_XDICTIONARY
360
12E4
102
}
330
433
100
AcDbSymbolTableRecord
100
AcDbLayerTableRecord
  2
0
 70
     0
 62
     7
  6
CONTINUOUS
370
    -3
390
5
347
70D
348
0
  0
LAYER
  5
15C
102
{ACAD_XDICTIONARY
360
12E6
102
}
330
433
100
AcDbSymbolTableRecord
100
AcDbLayerTableRecord
  2
SICHTBAR
 70
     0
 62
     7
  6
CONTINUOUS
370
    -3
390
5
347
70D
348
0
  0
LAYER
  5
126
102
{ACAD_XDICTIONARY
360
12E8
102
}
330
433
100
AcDbSymbolTableRecord
100
AcDbLayerTableRecord
  2
MITTE
 70
     0
 62
     1
  6
STRICHPUNKT
370
    -3
390
5
347
70D
348
0
  0
LAYER
  5
9C
102
{ACAD_XDICTIONARY
360
12EA
102
}
330
433
100
AcDbSymbolTableRecord
100
AcDbLayerTableRecord
  2
TEXT50
 70
     0
 62
     7
  6
CONTINUOUS
370
    -3
390
5
347
70D
348
0
  0
LAYER
  5
89
102
{ACAD_XDICTIONARY
360
12EC
102
}
330
433
100
AcDbSymbolTableRecord
100
AcDbLayerTableRecord
  2
TEXT35
 70
     0
 62
   143
  6
CONTINUOUS
370
    -3
390
5
347
70D
348
0
  0
LAYER
  5
8C
102
{ACAD_XDICTIONARY
360
12EE
102
}
330
433
100
AcDbSymbolTableRecord
100
AcDbLayerTableRecord
  2
TEXT25
 70
     0
 62
     3
  6
CONTINUOUS
370
    -3
390
5
347
70D
348
0
  0
LAYER
  5
B
102
{ACAD_XDICTIONARY
360
12F0
102
}
330
433
100
AcDbSymbolTableRecord
100
AcDbLayerTableRecord
  2
KOPF
 70
     0
 62
    22
  6
AUSGEZOGEN
370
    -3
390
5
347
70D
348
0
  0
LAYER
  5
170
102
{ACAD_XDICTIONARY
360
12F2
102
}
330
433
100
AcDbSymbolTableRecord
100
AcDbLayerTableRecord
  2
SCHRAFF
 70
     0
 62
     6
  6
CONTINUOUS
370
    -3
390
5
347
70D
348
0
  0
LAYER
  5
273
102
{ACAD_XDICTIONARY
360
12F4
102
}
330
433
100
AcDbSymbolTableRecord
100
AcDbLayerTableRecord
  2
VERDECKT
 70
     0
 62
     2
  6
GESTRICHELT
370
    -3
390
5
347
70D
348
0
  0
LAYER
  5
15F
102
{ACAD_XDICTIONARY
360
12F6
102
}
330
433
100
AcDbSymbolTableRecord
100
AcDbLayerTableRecord
  2
BEMASS
 70
     0
 62
     3
  6
CONTINUOUS
370
    -3
390
5
347
70D
348
0
  0
LAYER
  5
16A
330
433
100
AcDbSymbolTableRecord
100
AcDbLayerTableRecord
  2
DEFPOINTS
 70
     0
 62
     7
  6
CONTINUOUS
290
     0
370
    -3
390
5
347
70D
348
0
  0
LAYER
  5
4
102
{ACAD_XDICTIONARY
360
12F8
102
}
330
433
100
AcDbSymbolTableRecord
100
AcDbLayerTableRecord
  2
GAIN_ZRA
 70
     0
 62
     7
  6
CONTINUOUS
370
    -3
390
5
347
70D
348
0
  0
LAYER
  5
2DB
102
{ACAD_XDICTIONARY
360
12FC
102
}
330
433
100
AcDbSymbolTableRecord
100
AcDbLayerTableRecord
  2
WHITE
 70
     0
 62
     7
  6
CONTINUOUS
370
    -3
390
5
347
70D
348
0
  0
LAYER
  5
350
102
{ACAD_XDICTIONARY
360
12FE
102
}
330
433
100
AcDbSymbolTableRecord
100
AcDbLayerTableRecord
  2
DUENN
 70
     0
 62
     4
  6
CONTINUOUS
370
    -3
390
5
347
70D
348
0
  0
LAYER
  5
44D
102
{ACAD_XDICTIONARY
360
1300
102
}
330
433
100
AcDbSymbolTableRecord
100
AcDbLayerTableRecord
  2
Sperrlayer
 70
     1
 62
     7
  6
CONTINUOUS
370
    50
390
5
347
70D
348
0
  0
LAYER
  5
92B
102
{ACAD_XDICTIONARY
360
92C
102
}
330
433
100
AcDbSymbolTableRecord
100
AcDbLayerTableRecord
  2
AM_5
 70
     0
 62
     3
  6
CONTINUOUS
370
    15
390
5
347
70D
348
0
1001
AcAecLayerStandard
1000

1000

  0
LAYER
  5
92D
102
{ACAD_XDICTIONARY
360
1303
102
}
330
433
100
AcDbSymbolTableRecord
100
AcDbLayerTableRecord
  2
Viditelná (ISO)
 70
     0
 62
     7
  6
CONTINUOUS
370
    35
390
5
347
70D
348
0
  0
LAYER
  5
92E
102
{ACAD_XDICTIONARY
360
1305
102
}
330
433
100
AcDbSymbolTableRecord
100
AcDbLayerTableRecord
  2
Viditelná tenká (ISO)
 70
     0
 62
     7
  6
CONTINUOUS
370
     9
390
5
347
70D
348
0
  0
LAYER
  5
1545
102
{ACAD_XDICTIONARY
360
1546
102
}
330
433
100
AcDbSymbolTableRecord
100
AcDbLayerTableRecord
  2
SCHWEISSZ
 70
     0
 62
     1
  6
CONTINUOUS
370
    -3
390
5
347
70D
348
0
  0
ENDTAB
  0
TABLE
  2
STYLE
  5
434
330
0
100
AcDbSymbolTable
 70
    11
  0
STYLE
  5
161
330
434
100
AcDbSymbolTableRecord
100
AcDbTextStyleTableRecord
  2
STANDARD
 70
     0
 40
0.0
 41
0.8
 50
0.0
 71
     0
 42
7.5
  3
SIMPLEX.SHX
  4

  0
STYLE
  5
9D
330
434
100
AcDbSymbolTableRecord
100
AcDbTextStyleTableRecord
  2
TEXT50
 70
     0
 40
5.0
 41
0.8
 50
0.0
 71
     0
 42
5.0
  3
isocp3.shx
  4

  0
STYLE
  5
11
330
434
100
AcDbSymbolTableRecord
100
AcDbTextStyleTableRecord
  2
BEMSTIL
 70
     0
 40
3.5
 41
0.8
 50
0.0
 71
     0
 42
3.5
  3
simplex.shx
  4

  0
STYLE
  5
8A
330
434
100
AcDbSymbolTableRecord
100
AcDbTextStyleTableRecord
  2
TEXT35
 70
     0
 40
3.5
 41
0.8
 50
0.0
 71
     0
 42
3.5
  3
isocp3.shx
  4

  0
STYLE
  5
A5
330
434
100
AcDbSymbolTableRecord
100
AcDbTextStyleTableRecord
  2
TEXT25
 70
     0
 40
2.5
 41
0.8
 50
0.0
 71
     0
 42
2.5
  3
isocp3.shx
  4

  0
STYLE
  5
14B
330
434
100
AcDbSymbolTableRecord
100
AcDbTextStyleTableRecord
  2
ROMANS8
 70
     0
 40
2.1
 41
0.7
 50
0.0
 71
     0
 42
2.1
  3
ROMANS8.SHX
  4
bigfont.shx
  0
STYLE
  5
8D
330
434
100
AcDbSymbolTableRecord
100
AcDbTextStyleTableRecord
  2
TEXT20
 70
     0
 40
2.0
 41
0.8
 50
0.0
 71
     0
 42
2.0
  3
isocp3.shx
  4

  0
STYLE
  5
149
330
434
100
AcDbSymbolTableRecord
100
AcDbTextStyleTableRecord
  2
ITALICC8
 70
     0
 40
3.0
 41
0.8
 50
0.0
 71
     0
 42
3.0
  3
italicc8
  4

  0
STYLE
  5
75F
330
434
100
AcDbSymbolTableRecord
100
AcDbTextStyleTableRecord
  2

 70
     1
 40
0.0
 41
1.0
 50
0.0
 71
     0
 42
7.5
  3
genltshp.shx
  4

  0
STYLE
  5
7E3
330
434
100
AcDbSymbolTableRecord
100
AcDbTextStyleTableRecord
  2
ACANSGDT
 70
     0
 40
0.0
 41
1.0
 50
0.0
 71
     0
 42
7.5
  3
amgdt.shx
  4

  0
STYLE
  5
1449
330
434
100
AcDbSymbolTableRecord
100
AcDbTextStyleTableRecord
  2
ACANSTS
 70
     0
 40
1.0
 41
1.0
 50
0.0
 71
     0
 42
7.5
  3
romans.shx
  4

  0
ENDTAB
  0
TABLE
  2
VIEW
  5
439
330
0
100
AcDbSymbolTable
 70
     0
  0
ENDTAB
  0
TABLE
  2
UCS
  5
43A
330
0
100
AcDbSymbolTable
 70
     0
  0
ENDTAB
  0
TABLE
  2
APPID
  5
43D
330
0
100
AcDbSymbolTable
 70
    27
  0
APPID
  5
351
330
43D
100
AcDbSymbolTableRecord
100
AcDbRegAppTableRecord
  2
ACAD
 70
     0
  0
APPID
  5
4FF
330
43D
100
AcDbSymbolTableRecord
100
AcDbRegAppTableRecord
  2
DCO15
 70
     0
  0
APPID
  5
763
330
43D
100
AcDbSymbolTableRecord
100
AcDbRegAppTableRecord
  2
MCAD_NO_VIS
 70
     0
  0
APPID
  5
764
330
43D
100
AcDbSymbolTableRecord
100
AcDbRegAppTableRecord
  2
ACAD_TEMP_GRAPHIC
 70
     0
  0
APPID
  5
792
330
43D
100
AcDbSymbolTableRecord
100
AcDbRegAppTableRecord
  2
AD_DRAW
 70
     0
  0
APPID
  5
795
330
43D
100
AcDbSymbolTableRecord
100
AcDbRegAppTableRecord
  2
ACATTRIBSERVICES
 70
     0
  0
APPID
  5
7B5
330
43D
100
AcDbSymbolTableRecord
100
AcDbRegAppTableRecord
  2
DESIGNERASSEMBLIES
 70
     0
  0
APPID
  5
7BB
330
43D
100
AcDbSymbolTableRecord
100
AcDbRegAppTableRecord
  2
ACADM_DIM_EDIT
 70
     0
  0
APPID
  5
7BC
330
43D
100
AcDbSymbolTableRecord
100
AcDbRegAppTableRecord
  2
AMDT_DM_ADJ
 70
     0
  0
APPID
  5
7D2
330
43D
100
AcDbSymbolTableRecord
100
AcDbRegAppTableRecord
  2
ACAD_DSTYLE_DIMJAG
 70
     0
  0
APPID
  5
7D3
330
43D
100
AcDbSymbolTableRecord
100
AcDbRegAppTableRecord
  2
ACAD_DSTYLE_DIMBREAK
 70
     0
  0
APPID
  5
7EC
330
43D
100
AcDbSymbolTableRecord
100
AcDbRegAppTableRecord
  2
GENIUS_GENSCREG_15
 70
     0
  0
APPID
  5
7ED
330
43D
100
AcDbSymbolTableRecord
100
AcDbRegAppTableRecord
  2
GENIUS_GENOBJ-N-SDF_13
 70
     0
  0
APPID
  5
7EE
330
43D
100
AcDbSymbolTableRecord
100
AcDbRegAppTableRecord
  2
GENIUS_GENODEF_13
 70
     0
  0
APPID
  5
930
330
43D
100
AcDbSymbolTableRecord
100
AcDbRegAppTableRecord
  2
AcAecLayerStandard
 70
     0
  0
APPID
  5
931
330
43D
100
AcDbSymbolTableRecord
100
AcDbRegAppTableRecord
  2
ACAD_PSEXT
 70
     0
  0
APPID
  5
C91
330
43D
100
AcDbSymbolTableRecord
100
AcDbRegAppTableRecord
  2
ACAD_EXEMPT_FROM_CAD_STANDARDS
 70
     0
  0
APPID
  5
2045
330
43D
100
AcDbSymbolTableRecord
100
AcDbRegAppTableRecord
  2
GENIUS_GENDTOL_13
 70
     0
  0
APPID
  5
2046
330
43D
100
AcDbSymbolTableRecord
100
AcDbRegAppTableRecord
  2
ACAD_DSTYLE_DIMINSPECT
 70
     0
  0
APPID
  5
2163
330
43D
100
AcDbSymbolTableRecord
100
AcDbRegAppTableRecord
  2
ACAD_DSTYLE_DIMJOGGED_JOGANGLE_SYMBOL
 70
     0
  0
APPID
  5
23AD
330
43D
100
AcDbSymbolTableRecord
100
AcDbRegAppTableRecord
  2
ACAD_MLEADERVER
 70
     0
  0
APPID
  5
23AE
330
43D
100
AcDbSymbolTableRecord
100
AcDbRegAppTableRecord
  2
ACAD_DSTYLE_DIMARC_LENGTH_SYMBOL
 70
     0
  0
APPID
  5
23AF
330
43D
100
AcDbSymbolTableRecord
100
AcDbRegAppTableRecord
  2
ACAD_DSTYLE_DIM_LINETYPE
 70
     0
  0
APPID
  5
23B0
330
43D
100
AcDbSymbolTableRecord
100
AcDbRegAppTableRecord
  2
ACAD_DSTYLE_DIM_EXT1_LINETYPE
 70
     0
  0
APPID
  5
23B1
330
43D
100
AcDbSymbolTableRecord
100
AcDbRegAppTableRecord
  2
ACAD_DSTYLE_DIM_EXT2_LINETYPE
 70
     0
  0
APPID
  5
282F
330
43D
100
AcDbSymbolTableRecord
100
AcDbRegAppTableRecord
  2
ACAD_NAV_VCDISPLAY
 70
     0
  0
APPID
  5
2841
330
43D
100
AcDbSymbolTableRecord
100
AcDbRegAppTableRecord
  2
AcadAnnoMonitorAlertIconDisabled
 70
     0
  0
ENDTAB
  0
TABLE
  2
DIMSTYLE
  5
43E
330
0
100
AcDbSymbolTable
 70
     9
100
AcDbDimStyleTable
 71
     1
340
160
  0
DIMSTYLE
105
160
330
43E
100
AcDbSymbolTableRecord
100
AcDbDimStyleTableRecord
  2
STANDARD
 70
     0
 41
3.5
 42
0.0
 43
7.0
 44
2.0
 73
     0
 74
     0
 77
     1
 78
     8
140
5.0
141
3.0
146
0.875
147
2.0
174
     1
176
   256
177
   256
178
   256
271
     1
272
     1
284
     8
285
     8
286
     8
289
     0
340
161
  0
DIMSTYLE
105
7D1
102
{ACAD_REACTORS
330
2805
102
}
330
43E
100
AcDbSymbolTableRecord
100
AcDbDimStyleTableRecord
  2
AM_ANSI
 70
     0
  4
mm
 41
0.12
 42
0.05
 43
0.5
 44
0.1
 47
0.1
 48
0.1
 78
     7
 79
     2
 90
     1
140
0.12
141
0.0
146
0.71
147
0.06
176
   256
177
   256
178
     2
274
     4
284
     7
340
161
345
437
346
437
347
437
371
    -1
372
    -1
1001
ACAD_DSTYLE_DIMJAG
1070
   388
1040
1.5
1001
ACAD_DSTYLE_DIMBREAK
1070
   391
1040
0.125
  0
DIMSTYLE
105
7D4
330
43E
100
AcDbSymbolTableRecord
100
AcDbDimStyleTableRecord
  2
AM_ANSI$3
 70
     0
  4
mm
 41
0.12
 42
0.05
 43
0.5
 44
0.1
 47
0.1
 48
0.1
 78
     7
 79
     2
 90
     1
140
0.12
141
0.0
146
0.71
147
0.06
176
   256
177
   256
178
     2
274
     4
284
     7
288
     1
289
     0
340
161
345
437
346
437
347
437
371
    -1
372
    -1
1001
ACAD_DSTYLE_DIMBREAK
1070
   391
1040
0.125
1001
ACAD_DSTYLE_DIMJAG
1070
   388
1040
1.5
  0
DIMSTYLE
105
7D5
330
43E
100
AcDbSymbolTableRecord
100
AcDbDimStyleTableRecord
  2
AM_ANSI$4
 70
     0
  4
mm
 41
0.12
 42
0.05
 43
0.5
 44
0.1
 47
0.1
 48
0.1
 78
     7
 79
     2
 90
     1
140
0.12
141
0.0
146
0.71
147
0.06
176
   256
177
   256
178
     2
274
     4
284
     7
288
     1
289
     0
340
161
345
437
346
437
347
437
371
    -1
372
    -1
1001
ACAD_DSTYLE_DIMBREAK
1070
   391
1040
0.125
1001
ACAD_DSTYLE_DIMJAG
1070
   388
1040
1.5
  0
DIMSTYLE
105
7D6
330
43E
100
AcDbSymbolTableRecord
100
AcDbDimStyleTableRecord
  2
AM_ANSI$7
 70
     0
  4
mm
 41
0.12
 42
0.05
 43
0.5
 44
0.1
 47
0.1
 48
0.1
 78
     7
 79
     2
 90
     1
140
0.12
141
0.0
146
0.71
147
0.06
176
   256
177
   256
178
     2
274
     4
284
     7
340
161
345
437
346
437
347
437
371
    -1
372
    -1
1001
ACAD_DSTYLE_DIMBREAK
1070
   391
1040
0.125
1001
ACAD_DSTYLE_DIMJAG
1070
   388
1040
1.5
  0
DIMSTYLE
105
7D7
330
43E
100
AcDbSymbolTableRecord
100
AcDbDimStyleTableRecord
  2
AM_ANSI$SF
 70
     0
  4
mm
 41
0.12
 42
0.05
 43
0.5
 44
0.1
 47
0.1
 48
0.1
 75
     1
 76
     1
 78
     7
 79
     2
 90
     1
140
0.12
141
0.0
146
0.71
147
0.06
176
   256
177
   256
178
     2
274
     4
284
     7
340
161
345
437
346
437
347
437
371
    -1
372
    -1
1001
ACAD_DSTYLE_DIMBREAK
1070
   391
1040
0.125
1001
ACAD_DSTYLE_DIMJAG
1070
   388
1040
1.5
  0
DIMSTYLE
105
7DC
330
43E
100
AcDbSymbolTableRecord
100
AcDbDimStyleTableRecord
  2
AM_ANSI$SH
 70
     0
  4
mm
 41
0.12
 42
0.05
 43
0.5
 44
0.1
 47
0.1
 48
0.1
 75
     1
 76
     1
 78
     7
 79
     2
 90
     1
140
0.12
141
0.0
146
0.71
147
0.06
173
     1
176
   256
177
   256
178
     2
274
     4
284
     7
340
161
343
7D8
345
437
346
437
347
437
371
    -1
372
    -1
1001
ACAD_DSTYLE_DIMBREAK
1070
   391
1040
0.125
1001
ACAD_DSTYLE_DIMJAG
1070
   388
1040
1.5
  0
DIMSTYLE
105
92F
102
{ACAD_REACTORS
330
ACD
330
B47
330
B48
330
102E
330
1081
330
1072
330
1063
330
1056
330
213D
330
2206
102
}
330
43E
100
AcDbSymbolTableRecord
100
AcDbDimStyleTableRecord
  2
STANDARD$0
 70
     0
 40
5.0
 41
3.5
 42
0.0
 43
7.0
 44
2.0
 73
     0
 74
     0
 77
     1
 78
    12
140
5.0
141
3.0
147
2.399999999999999
172
     1
176
   256
177
   256
178
   256
271
     2
272
     2
340
161
371
    -1
372
    -1
  0
ENDTAB
  0
TABLE
  2
BLOCK_RECORD
  5
1
330
0
100
AcDbSymbolTable
 70
    29
  0
BLOCK_RECORD
  5
2
102
{ACAD_XDICTIONARY
360
F59
102
}
330
1
100
AcDbSymbolTableRecord
100
AcDbBlockTableRecord
  2
*MODEL_SPACE
340
42A
 70
     0
280
     1
281
     0
  0
BLOCK_RECORD
  5
42C
330
1
100
AcDbSymbolTableRecord
100
AcDbBlockTableRecord
  2
*PAPER_SPACE
340
432
 70
     0
280
     1
281
     0
  0
BLOCK_RECORD
  5
44E
330
1
100
AcDbSymbolTableRecord
100
AcDbBlockTableRecord
  2
ACO-SF
340
0
 70
     0
280
     1
281
     0
  0
BLOCK_RECORD
  5
500
330
1
100
AcDbSymbolTableRecord
100
AcDbBlockTableRecord
  2
logo_1200
340
0
 70
     0
280
     1
281
     0
  0
BLOCK_RECORD
  5
7D8
330
1
100
AcDbSymbolTableRecord
100
AcDbBlockTableRecord
  2
GENAXEH
340
0
 70
     0
280
     1
281
     0
  0
BLOCK_RECORD
  5
829
102
{ACAD_XDICTIONARY
360
11F7
102
}
330
1
100
AcDbSymbolTableRecord
100
AcDbBlockTableRecord
  2
RA_A2_pr
340
0
 70
     0
280
     1
281
     0
  0
BLOCK_RECORD
  5
871
102
{ACAD_XDICTIONARY
360
872
102
}
330
1
100
AcDbSymbolTableRecord
100
AcDbBlockTableRecord
  2
A$C09306709
340
0
102
{BLKREFS
331
BF5
102
}
 70
     0
280
     1
281
     0
  0
BLOCK_RECORD
  5
8DD
102
{ACAD_XDICTIONARY
360
8DE
102
}
330
1
100
AcDbSymbolTableRecord
100
AcDbBlockTableRecord
  2
A$C7E5D49C8
340
0
102
{BLKREFS
331
BF6
102
}
 70
     0
280
     1
281
     0
  0
BLOCK_RECORD
  5
C39
330
1
100
AcDbSymbolTableRecord
100
AcDbBlockTableRecord
  2
*D6
340
0
 70
     0
280
     1
281
     0
  0
BLOCK_RECORD
  5
C45
330
1
100
AcDbSymbolTableRecord
100
AcDbBlockTableRecord
  2
*D7
340
0
 70
     0
280
     1
281
     0
  0
BLOCK_RECORD
  5
C51
330
1
100
AcDbSymbolTableRecord
100
AcDbBlockTableRecord
  2
*D8
340
0
 70
     0
280
     1
281
     0
  0
BLOCK_RECORD
  5
EF2
102
{ACAD_XDICTIONARY
360
F95
102
}
330
1
100
AcDbSymbolTableRecord
100
AcDbBlockTableRecord
  2
A$C054D54D0
340
0
102
{BLKREFS
331
F26
102
}
 70
     0
280
     1
281
     0
  0
BLOCK_RECORD
  5
F9E
102
{ACAD_XDICTIONARY
360
FE1
102
}
330
1
100
AcDbSymbolTableRecord
100
AcDbBlockTableRecord
  2
A$C7F8511E3
340
0
102
{BLKREFS
331
FE4
102
}
 70
     0
280
     1
281
     0
  0
BLOCK_RECORD
  5
102F
330
1
100
AcDbSymbolTableRecord
100
AcDbBlockTableRecord
  2
*D11
340
0
 70
     0
280
     1
281
     0
  0
BLOCK_RECORD
  5
1057
330
1
100
AcDbSymbolTableRecord
100
AcDbBlockTableRecord
  2
*D12
340
0
 70
     0
280
     1
281
     0
  0
BLOCK_RECORD
  5
1064
330
1
100
AcDbSymbolTableRecord
100
AcDbBlockTableRecord
  2
*D13
340
0
 70
     0
280
     1
281
     0
  0
BLOCK_RECORD
  5
1073
330
1
100
AcDbSymbolTableRecord
100
AcDbBlockTableRecord
  2
*D14
340
0
 70
     0
280
     1
281
     0
  0
BLOCK_RECORD
  5
1082
330
1
100
AcDbSymbolTableRecord
100
AcDbBlockTableRecord
  2
*D15
340
0
 70
     0
280
     1
281
     0
  0
BLOCK_RECORD
  5
17FD
330
1
100
AcDbSymbolTableRecord
100
AcDbBlockTableRecord
  2
*D16
340
0
 70
     0
280
     1
281
     0
  0
BLOCK_RECORD
  5
1809
330
1
100
AcDbSymbolTableRecord
100
AcDbBlockTableRecord
  2
*D17
340
0
 70
     0
280
     1
281
     0
  0
BLOCK_RECORD
  5
1817
330
1
100
AcDbSymbolTableRecord
100
AcDbBlockTableRecord
  2
*D18
340
0
 70
     0
280
     1
281
     0
  0
BLOCK_RECORD
  5
1823
330
1
100
AcDbSymbolTableRecord
100
AcDbBlockTableRecord
  2
*D19
340
0
 70
     0
280
     1
281
     0
  0
BLOCK_RECORD
  5
182F
330
1
100
AcDbSymbolTableRecord
100
AcDbBlockTableRecord
  2
*D20
340
0
 70
     0
280
     1
281
     0
  0
BLOCK_RECORD
  5
183B
330
1
100
AcDbSymbolTableRecord
100
AcDbBlockTableRecord
  2
*D21
340
0
 70
     0
280
     1
281
     0
  0
BLOCK_RECORD
  5
1847
330
1
100
AcDbSymbolTableRecord
100
AcDbBlockTableRecord
  2
*D22
340
0
 70
     0
280
     1
281
     0
  0
BLOCK_RECORD
  5
1853
330
1
100
AcDbSymbolTableRecord
100
AcDbBlockTableRecord
  2
*D23
340
0
 70
     0
280
     1
281
     0
  0
BLOCK_RECORD
  5
213E
330
1
100
AcDbSymbolTableRecord
100
AcDbBlockTableRecord
  2
*D24
340
0
 70
     0
280
     1
281
     0
  0
BLOCK_RECORD
  5
2207
330
1
100
AcDbSymbolTableRecord
100
AcDbBlockTableRecord
  2
*D25
340
0
 70
     0
280
     1
281
     0
  0
BLOCK_RECORD
  5
281B
330
1
100
AcDbSymbolTableRecord
100
AcDbBlockTableRecord
  2
_ACMFILLEDHALF
340
0
 70
     0
280
     1
281
     0
  0
ENDTAB
  0
ENDSEC
  0
SECTION
  2
BLOCKS
  0
BLOCK
  5
428
330
2
100
AcDbEntity
  8
0
100
AcDbBlockBegin
  2
*MODEL_SPACE
 70
     0
 10
0.0
 20
0.0
 30
0.0
  3
*MODEL_SPACE
  1

  0
ENDBLK
  5
429
330
2
100
AcDbEntity
  8
0
100
AcDbBlockEnd
  0
BLOCK
  5
430
330
42C
100
AcDbEntity
 67
     1
  8
0
100
AcDbBlockBegin
  2
*PAPER_SPACE
 70
     0
 10
0.0
 20
0.0
 30
0.0
  3
*PAPER_SPACE
  1

  0
ENDBLK
  5
431
330
42C
100
AcDbEntity
 67
     1
  8
0
100
AcDbBlockEnd
  0
BLOCK
  5
4CA
330
44E
100
AcDbEntity
  8
0
100
AcDbBlockBegin
  2
ACO-SF
 70
     2
 10
0.0
 20
0.0
 30
0.0
  3
ACO-SF
  1

  0
LINE
  5
44F
330
44E
100
AcDbEntity
  8
KOPF
 62
    12
100
AcDbLine
 10
0.0
 20
5.0
 30
0.0
 11
-83.0
 21
5.0
 31
0.0
  0
LWPOLYLINE
  5
450
330
44E
100
AcDbEntity
  8
KOPF
 62
    12
100
AcDbPolyline
 90
        2
 70
     0
 43
0.5
 10
-83.0
 20
10.0
 10
0.0
 20
10.0
  0
LINE
  5
451
330
44E
100
AcDbEntity
  8
KOPF
100
AcDbLine
 10
-83.0
 20
10.0
 30
0.0
 11
0.0
 21
10.0
 31
0.0
  0
LINE
  5
452
330
44E
100
AcDbEntity
  8
KOPF
100
AcDbLine
 10
0.0
 20
5.0
 30
0.0
 11
-83.0
 21
5.0
 31
0.0
  0
LWPOLYLINE
  5
453
330
44E
100
AcDbEntity
  8
KOPF
 62
    12
100
AcDbPolyline
 90
        2
 70
     0
 43
0.5
 10
0.0
 20
68.49999999999997
 10
-182.0
 20
68.49999999999997
  0
LWPOLYLINE
  5
454
330
44E
100
AcDbEntity
  8
KOPF
 62
    12
100
AcDbPolyline
 90
        2
 70
     0
 43
0.5
 10
0.0
 20
46.99999999999997
 10
-182.0
 20
46.99999999999997
  0
LWPOLYLINE
  5
455
330
44E
100
AcDbEntity
  8
KOPF
 62
    12
100
AcDbPolyline
 90
        2
 70
     0
 43
0.5
 10
-0.2154115848244373
 20
27.23910754630094
 10
-182.1882840408789
 20
27.23910754630094
  0
LINE
  5
456
330
44E
100
AcDbEntity
  8
KOPF
 62
    12
100
AcDbLine
 10
0.0
 20
88.49999999999996
 30
0.0
 11
-182.0
 21
88.49999999999996
 31
0.0
  0
LINE
  5
457
330
44E
100
AcDbEntity
  8
KOPF
 62
    12
100
AcDbLine
 10
-182.0
 20
83.49999999999997
 30
0.0
 11
0.0
 21
83.49999999999997
 31
0.0
  0
LINE
  5
458
330
44E
100
AcDbEntity
  8
KOPF
 62
    12
100
AcDbLine
 10
0.0
 20
73.49999999999997
 30
0.0
 11
-182.0
 21
73.49999999999997
 31
0.0
  0
LINE
  5
459
330
44E
100
AcDbEntity
  8
KOPF
 62
    12
100
AcDbLine
 10
-162.682677
 20
78.49999999999997
 30
0.0
 11
0.0
 21
78.49999999999997
 31
0.0
  0
LINE
  5
45A
330
44E
100
AcDbEntity
  8
KOPF
100
AcDbLine
 10
0.0
 20
68.49999999999997
 30
0.0
 11
-182.0
 21
68.49999999999997
 31
0.0
  0
LINE
  5
45B
330
44E
100
AcDbEntity
  8
KOPF
100
AcDbLine
 10
0.0
 20
88.49999999999996
 30
0.0
 11
-182.0
 21
88.49999999999996
 31
0.0
  0
LINE
  5
45C
330
44E
100
AcDbEntity
  8
KOPF
100
AcDbLine
 10
-182.0
 20
83.49999999999997
 30
0.0
 11
0.0
 21
83.49999999999997
 31
0.0
  0
LINE
  5
45D
330
44E
100
AcDbEntity
  8
KOPF
100
AcDbLine
 10
0.0
 20
73.49999999999997
 30
0.0
 11
-182.0
 21
73.49999999999997
 31
0.0
  0
LINE
  5
45E
330
44E
100
AcDbEntity
  8
KOPF
100
AcDbLine
 10
-162.682677
 20
78.49999999999997
 30
0.0
 11
0.0
 21
78.49999999999997
 31
0.0
  0
LINE
  5
45F
330
44E
100
AcDbEntity
  8
KOPF
 62
    12
100
AcDbLine
 10
-182.0
 20
57.74999999999997
 30
0.0
 11
-100.0
 21
57.74999999999997
 31
0.0
  0
LINE
  5
460
330
44E
100
AcDbEntity
  8
KOPF
 62
    12
100
AcDbLine
 10
-182.0
 20
41.99999999999996
 30
0.0
 11
-113.4
 21
41.99999999999996
 31
0.0
  0
LINE
  5
461
330
44E
100
AcDbEntity
  8
KOPF
100
AcDbLine
 10
-182.0
 20
57.74999999999997
 30
0.0
 11
-100.0
 21
57.74999999999997
 31
0.0
  0
LINE
  5
462
330
44E
100
AcDbEntity
  8
KOPF
100
AcDbLine
 10
-182.0
 20
41.99999999999996
 30
0.0
 11
-113.4
 21
41.99999999999996
 31
0.0
  0
LINE
  5
463
330
44E
100
AcDbEntity
  8
KOPF
 62
    12
100
AcDbLine
 10
-142.0
 20
68.49999999999997
 30
0.0
 11
-142.0
 21
46.99999999999997
 31
0.0
  0
LINE
  5
464
330
44E
100
AcDbEntity
  8
KOPF
 62
    12
100
AcDbLine
 10
-142.0
 20
68.49999999999997
 30
0.0
 11
-142.0
 21
46.99999999999997
 31
0.0
  0
ATTDEF
  5
465
330
44E
100
AcDbEntity
  8
TEXT35
100
AcDbText
 10
-140.2
 20
49.4
 30
0.0
 40
3.5
  1

 41
0.8
  7
TEXT35
100
AcDbAttributeDefinition
280
     0
  3
Oberfläche:
  2
F63
 70
     0
280
     0
  0
LWPOLYLINE
  5
466
330
44E
100
AcDbEntity
  8
KOPF
 62
    12
100
AcDbPolyline
 90
        2
 70
     0
 43
0.7
 10
-182.0
 20
88.49999999999996
 10
-182.0
 20
0.0
  0
LINE
  5
467
330
44E
100
AcDbEntity
  8
KOPF
100
AcDbLine
 10
-182.0
 20
88.49999999999996
 30
0.0
 11
-182.0
 21
0.0
 31
0.0
  0
TEXT
  5
468
330
44E
100
AcDbEntity
  8
KOPF
100
AcDbText
 10
-179.738589
 20
38.32439403633659
 30
0.0
 40
2.0
  1
Gezeichnet:
 41
0.8
  7
TEXT20
100
AcDbText
  0
ATTDEF
  5
469
330
44E
100
AcDbEntity
  8
TEXT35
100
AcDbText
 10
-176.6
 20
3.399999999999999
 30
0.0
 40
3.5
  1

 41
0.8
  7
TEXT35
100
AcDbAttributeDefinition
280
     0
  3
Z-Titel 3
  2
F13
 70
     0
280
     0
  0
ATTDEF
  5
46A
330
44E
100
AcDbEntity
  8
TEXT50
100
AcDbText
 10
-176.6
 20
10.63250279796295
 30
0.0
 40
5.0
  1

 41
0.8
  7
TEXT50
100
AcDbAttributeDefinition
280
     0
  3
Z-Titel 2
  2
F3
 70
     0
280
     0
  0
ATTDEF
  5
46B
330
44E
100
AcDbEntity
  8
TEXT50
100
AcDbText
 10
-176.6
 20
18.56318324460701
 30
0.0
 40
5.0
  1

 41
0.8
  7
TEXT50
100
AcDbAttributeDefinition
280
     0
  3
Z-Titel 1
  2
F2
 70
     0
280
     0
  0
TEXT
  5
46C
330
44E
100
AcDbEntity
  8
KOPF
100
AcDbText
 10
-179.738589
 20
28.52395361420514
 30
0.0
 40
2.0
  1
Update:
 41
0.8
  7
TEXT20
100
AcDbText
  0
TEXT
  5
46D
330
44E
100
AcDbEntity
  8
KOPF
100
AcDbText
 10
-179.738589
 20
33.43577642824449
 30
0.0
 40
2.0
  1
Geprüft
 41
0.8
  7
TEXT20
100
AcDbText
  0
LINE
  5
46E
330
44E
100
AcDbEntity
  8
KOPF
 62
    12
100
AcDbLine
 10
-163.0
 20
46.99999999999997
 30
0.0
 11
-163.0
 21
27.0
 31
0.0
  0
LINE
  5
46F
330
44E
100
AcDbEntity
  8
KOPF
100
AcDbLine
 10
-163.0
 20
46.99999999999997
 30
0.0
 11
-163.0
 21
27.0
 31
0.0
  0
ATTDEF
  5
470
330
44E
100
AcDbEntity
  8
TEXT25
100
AcDbText
 10
-161.5009557098303
 20
28.32091209119023
 30
0.0
 40
2.0
  1

 41
0.8
  7
TEXT20
100
AcDbAttributeDefinition
280
     0
  3
Update am:
  2
F53
 70
     0
280
     0
  0
ATTDEF
  5
471
330
44E
100
AcDbEntity
  8
TEXT25
100
AcDbText
 10
-161.5539333606331
 20
33.12227989587696
 30
0.0
 40
2.0
  1

 41
0.8
  7
TEXT20
100
AcDbAttributeDefinition
280
     0
  3
Geprüft am:
  2
F22
 70
     0
280
     0
  0
ATTDEF
  5
472
330
44E
100
AcDbEntity
  8
TEXT25
100
AcDbText
 10
-161.5207141482394
 20
38.33983936444393
 30
0.0
 40
2.0
  1

 41
0.8
  7
TEXT20
100
AcDbAttributeDefinition
280
     0
  3
Gezeichnet am:
  2
F9
 70
     0
280
     0
  0
TEXT
  5
473
330
44E
100
AcDbEntity
  8
KOPF
100
AcDbText
 10
-155.964455
 20
43.13467299999999
 30
0.0
 40
2.0
  1
Datum
 41
0.8
  7
TEXT20
100
AcDbText
  0
LINE
  5
474
330
44E
100
AcDbEntity
  8
KOPF
 62
    12
100
AcDbLine
 10
-138.4
 20
46.99999999999997
 30
0.0
 11
-138.4
 21
27.0
 31
0.0
  0
LINE
  5
475
330
44E
100
AcDbEntity
  8
KOPF
100
AcDbLine
 10
-138.4
 20
46.99999999999997
 30
0.0
 11
-138.4
 21
27.0
 31
0.0
  0
TEXT
  5
476
330
44E
100
AcDbEntity
  8
KOPF
100
AcDbText
 10
-130.065072
 20
43.14125800000002
 30
0.0
 40
2.0
  1
Name
 41
0.8
  7
TEXT20
100
AcDbText
  0
ATTDEF
  5
477
330
44E
100
AcDbEntity
  8
TEXT25
100
AcDbText
 10
-136.2746977811447
 20
33.28471223400234
 30
0.0
 40
2.0
  1

 41
0.8
  7
TEXT20
100
AcDbAttributeDefinition
280
     0
  3
Geprüft von:
  2
F21
 70
     0
280
     0
  0
ATTDEF
  5
478
330
44E
100
AcDbEntity
  8
TEXT25
100
AcDbText
 10
-136.3996291720711
 20
28.23101841142455
 30
0.0
 40
2.0
  1

 41
0.8
  7
TEXT20
100
AcDbAttributeDefinition
280
     0
  3
Update von:
  2
F52
 70
     0
280
     0
  0
ATTDEF
  5
479
330
44E
100
AcDbEntity
  8
TEXT25
100
AcDbText
 10
-136.1922113552417
 20
38.48172579575253
 30
0.0
 40
2.0
  1

 41
0.8
  7
TEXT20
100
AcDbAttributeDefinition
280
     0
  3
Gezeichnet von
  2
F8
 70
     0
280
     0
  0
TEXT
  5
47A
330
44E
100
AcDbEntity
  8
KOPF
100
AcDbText
 10
-174.6925639999999
 20
69.53813999999997
 30
0.0
 40
2.0
  1
Index
 41
0.8
  7
TEXT20
100
AcDbText
  0
LINE
  5
47B
330
44E
100
AcDbEntity
  8
KOPF
100
AcDbLine
 10
-182.0
 20
78.49999999999997
 30
0.0
 11
-162.682677
 21
78.49999999999997
 31
0.0
  0
LINE
  5
47C
330
44E
100
AcDbEntity
  8
KOPF
100
AcDbLine
 10
-182.0
 20
78.49999999999997
 30
0.0
 11
-162.682677
 21
78.49999999999997
 31
0.0
  0
TEXT
  5
47D
330
44E
100
AcDbEntity
  8
KOPF
100
AcDbText
 10
-180.0
 20
65.166273
 30
0.0
 40
2.0
  1
Werkstoff:
 41
0.8
  7
TEXT20
100
AcDbText
  0
TEXT
  5
47E
330
44E
100
AcDbEntity
  8
KOPF
100
AcDbText
 10
-181.0
 20
54.49999999999997
 30
0.0
 40
2.0
  1
zul. Abweich.:
 41
0.8
  7
TEXT20
100
AcDbText
  0
ATTDEF
  5
47F
330
44E
100
AcDbEntity
  8
TEXT35
100
AcDbText
 10
-179.7
 20
59.6
 30
0.0
 40
3.5
  1

 41
0.8
  7
TEXT35
100
AcDbAttributeDefinition
280
     0
  3
Werkstoff:
  2
F61
 70
     0
280
     0
  0
ATTDEF
  5
480
330
44E
100
AcDbEntity
  8
TEXT35
100
AcDbText
 10
-179.7
 20
49.7
 30
0.0
 40
3.5
  1

 41
0.8
  7
TEXT35
100
AcDbAttributeDefinition
280
     0
  3
zul. Abweichung
  2
F62
 70
     0
280
     0
  0
ATTDEF
  5
481
330
44E
100
AcDbEntity
  8
TEXT25
100
AcDbText
 10
-174.360415155955
 20
74.59999999999999
 30
0.0
 40
2.0
  1

 41
0.8
  7
TEXT20
100
AcDbAttributeDefinition
280
     0
  3
Index vv.:
  2
F72
 70
     0
280
     0
  0
ATTDEF
  5
482
330
44E
100
AcDbEntity
  8
TEXT25
100
AcDbText
 10
-174.4435409453564
 20
79.47378932523601
 30
0.0
 40
2.0
  1

 41
0.8
  7
TEXT20
100
AcDbAttributeDefinition
280
     0
  3
Index v.:
  2
F68
 70
     0
280
     0
  0
ATTDEF
  5
483
330
44E
100
AcDbEntity
  8
TEXT25
100
AcDbText
 10
-174.3700408782365
 20
84.63034186138365
 30
0.0
 40
2.0
  1

 41
0.8
  7
TEXT20
100
AcDbAttributeDefinition
280
     0
  3
Index l.:
  2
F64
 70
     0
280
     0
  0
LINE
  5
484
330
44E
100
AcDbEntity
  8
KOPF
100
AcDbLine
 10
-162.682677
 20
88.49999999999996
 30
0.0
 11
-162.682677
 21
68.49999999999997
 31
0.0
  0
LINE
  5
485
330
44E
100
AcDbEntity
  8
KOPF
100
AcDbLine
 10
-162.682677
 20
88.49999999999996
 30
0.0
 11
-162.682677
 21
68.49999999999997
 31
0.0
  0
TEXT
  5
486
330
44E
100
AcDbEntity
  8
KOPF
100
AcDbText
 10
-156.706568
 20
69.53813999999997
 30
0.0
 40
2.0
  1
Datum
 41
0.8
  7
TEXT20
100
AcDbText
  0
ATTDEF
  5
487
330
44E
100
AcDbEntity
  8
TEXT25
100
AcDbText
 10
-160.9
 20
75.09999999999999
 30
0.0
 40
2.0
  1

 41
0.8
  7
TEXT20
100
AcDbAttributeDefinition
280
     0
  3
Datum vv.:
  2
F73
 70
     0
280
     0
  0
ATTDEF
  5
488
330
44E
100
AcDbEntity
  8
TEXT25
100
AcDbText
 10
-160.9
 20
79.40000000000001
 30
0.0
 40
2.0
  1

 41
0.8
  7
TEXT20
100
AcDbAttributeDefinition
280
     0
  3
Datum v.:
  2
F69
 70
     0
280
     0
  0
ATTDEF
  5
489
330
44E
100
AcDbEntity
  8
TEXT25
100
AcDbText
 10
-160.6
 20
84.50000000000001
 30
0.0
 40
2.0
  1

 41
0.8
  7
TEXT20
100
AcDbAttributeDefinition
280
     0
  3
Datum l.:
  2
F65
 70
     0
280
     0
  0
LINE
  5
48A
330
44E
100
AcDbEntity
  8
KOPF
 62
    12
100
AcDbLine
 10
-142.0
 20
68.49999999999997
 30
0.0
 11
-142.0
 21
88.49999999999996
 31
0.0
  0
LINE
  5
48B
330
44E
100
AcDbEntity
  8
KOPF
100
AcDbLine
 10
-142.0
 20
68.49999999999997
 30
0.0
 11
-142.0
 21
88.49999999999996
 31
0.0
  0
ATTDEF
  5
48C
330
44E
100
AcDbEntity
  8
TEXT35
100
AcDbText
 10
-139.9
 20
59.29999999999999
 30
0.0
 40
3.5
  1

 41
0.8
  7
TEXT35
100
AcDbAttributeDefinition
280
     0
  3
Gewicht:
  2
F60
 70
     0
280
     0
  0
TEXT
  5
48D
330
44E
100
AcDbEntity
  8
KOPF
100
AcDbText
 10
-140.387393
 20
54.54752599999996
 30
0.0
 40
2.0
  1
Oberfläche
 41
0.8
  7
TEXT20
100
AcDbText
  0
TEXT
  5
48E
330
44E
100
AcDbEntity
  8
KOPF
100
AcDbText
 10
-140.1020469999999
 20
65.166273
 30
0.0
 40
2.0
  1
Gewicht:
 41
0.8
  7
TEXT20
100
AcDbText
  0
TEXT
  5
48F
330
44E
100
AcDbEntity
  8
KOPF
100
AcDbText
 10
-140.1020469999999
 20
65.166273
 30
0.0
 40
2.0
  1
Gewicht:
 41
0.8
  7
TEXT20
100
AcDbText
  0
ATTDEF
  5
490
330
44E
100
AcDbEntity
  8
TEXT25
100
AcDbText
 10
-140.4
 20
74.59999999999999
 30
0.0
 40
2.0
  1

 41
0.8
  7
TEXT20
100
AcDbAttributeDefinition
280
     0
  3
Bennenung vv.:
  2
F74
 70
     0
280
     0
  0
ATTDEF
  5
491
330
44E
100
AcDbEntity
  8
TEXT25
100
AcDbText
 10
-140.5063960262479
 20
79.64480359078786
 30
0.0
 40
2.0
  1

 41
0.8
  7
TEXT20
100
AcDbAttributeDefinition
280
     0
  3
Benennung v.:
  2
F70
 70
     0
280
     0
  0
ATTDEF
  5
492
330
44E
100
AcDbEntity
  8
TEXT25
100
AcDbText
 10
-140.390233442385
 20
84.56120109651198
 30
0.0
 40
2.0
  1

 41
0.8
  7
TEXT20
100
AcDbAttributeDefinition
280
     0
  3
Bennenung l.:
  2
F66
 70
     0
280
     0
  0
LINE
  5
493
330
44E
100
AcDbEntity
  8
KOPF
 62
    12
100
AcDbLine
 10
-100.0
 20
68.49999999999997
 30
0.0
 11
-100.0
 21
46.99999999999997
 31
0.0
  0
LWPOLYLINE
  5
494
330
44E
100
AcDbEntity
  8
KOPF
 62
    12
100
AcDbPolyline
 90
        2
 70
     0
 43
0.5
 10
-83.0
 20
46.99999999999997
 10
-83.0
 20
0.0
  0
LINE
  5
495
330
44E
100
AcDbEntity
  8
KOPF
100
AcDbLine
 10
-83.0
 20
46.99999999999997
 30
0.0
 11
-83.0
 21
0.0
 31
0.0
  0
TEXT
  5
496
330
44E
100
AcDbEntity
  8
KOPF
100
AcDbText
 10
-81.0
 20
1.714285999999985
 30
0.0
 40
2.0
  1
Ersetzt durch:
 41
0.8
  7
TEXT20
100
AcDbText
  0
LINE
  5
497
330
44E
100
AcDbEntity
  8
KOPF
 62
    12
100
AcDbLine
 10
-113.4
 20
27.0
 30
0.0
 11
-113.4
 21
46.99999999999997
 31
0.0
  0
LWPOLYLINE
  5
498
330
44E
100
AcDbEntity
  8
KOPF
100
AcDbPolyline
 90
        2
 70
     0
 43
0.5
 10
-113.4
 20
27.0
 10
-113.4
 20
46.99999999999997
  0
LINE
  5
499
330
44E
100
AcDbEntity
  8
KOPF
100
AcDbLine
 10
-113.4
 20
27.0
 30
0.0
 11
-113.4
 21
46.99999999999997
 31
0.0
  0
LINE
  5
49A
330
44E
100
AcDbEntity
  8
KOPF
100
AcDbLine
 10
-113.4
 20
27.0
 30
0.0
 11
-113.4
 21
46.99999999999997
 31
0.0
  0
ATTDEF
  5
49B
330
44E
100
AcDbEntity
  8
TEXT35
100
AcDbText
 10
-104.4935632823758
 20
33.13408015176805
 30
0.0
 40
3.5
  1

 41
0.8
  7
TEXT35
100
AcDbAttributeDefinition
280
     0
  3
Maßstab 2:
  2
F54
 70
     0
280
     0
  0
ATTDEF
  5
49C
330
44E
100
AcDbEntity
  8
TEXT35
100
AcDbText
 10
-104.487948258847
 20
28.6
 30
0.0
 40
3.5
  1

 41
0.8
  7
TEXT35
100
AcDbAttributeDefinition
280
     0
  3
Maßstab 3:
  2
F55
 70
     0
280
     0
  0
ATTDEF
  5
49D
330
44E
100
AcDbEntity
  8
TEXT50
100
AcDbText
 10
-106.6
 20
37.8
 30
0.0
 40
5.0
  1

 41
0.8
  7
TEXT50
100
AcDbAttributeDefinition
280
     0
  3
Maßstab 1:
  2
F25
 70
     0
280
     0
  0
TEXT
  5
49E
330
44E
100
AcDbEntity
  8
KOPF
100
AcDbText
 10
-112.263457
 20
43.88678899999999
 30
0.0
 40
2.0
  1
Massstab:
 41
0.8
  7
TEXT20
100
AcDbText
  0
LINE
  5
49F
330
44E
100
AcDbEntity
  8
KOPF
 62
    12
100
AcDbLine
 10
-57.80813400000011
 20
27.0
 30
0.0
 11
-57.80813400000011
 21
46.99999999999997
 31
0.0
  0
LINE
  5
4A0
330
44E
100
AcDbEntity
  8
KOPF
100
AcDbLine
 10
-57.80813400000011
 20
27.0
 30
0.0
 11
-57.80813400000011
 21
46.99999999999997
 31
0.0
  0
TEXT
  5
4A1
330
44E
100
AcDbEntity
  8
KOPF
100
AcDbText
 10
-81.59296000000006
 20
23.69783599999999
 30
0.0
 40
2.0
  1
Zeichnung Nr.:
 41
0.8
  7
TEXT20
100
AcDbText
  0
TEXT
  5
4A2
330
44E
100
AcDbEntity
  8
KOPF
100
AcDbText
 10
-81.00375700000006
 20
5.924711999999997
 30
0.0
 40
2.0
  1
Ersatz für:
 41
0.8
  7
TEXT20
100
AcDbText
  0
TEXT
  5
4A3
330
44E
100
AcDbEntity
  8
KOPF
100
AcDbText
 10
-81.59296000000006
 20
23.69783599999999
 30
0.0
 40
2.0
  1
Zeichnung Nr.:
 41
0.8
  7
TEXT20
100
AcDbText
  0
ATTDEF
  5
4A4
330
44E
100
AcDbEntity
  8
TEXT50
100
AcDbText
 10
-78.29193986361122
 20
14.50587824180555
 30
0.0
 40
5.0
  1

 41
0.8
  7
TEXT50
100
AcDbAttributeDefinition
280
     0
  3
Standart:
  2
F1
 70
     0
280
     0
  0
TEXT
  5
4A5
330
44E
100
AcDbEntity
  8
KOPF
100
AcDbText
 10
-81.48889200000008
 20
43.86057200000001
 30
0.0
 40
2.0
  1
Masseinheit:
 41
0.8
  7
TEXT20
100
AcDbText
  0
LINE
  5
4A6
330
44E
100
AcDbEntity
  8
KOPF
 62
    12
100
AcDbLine
 10
-57.80813400000011
 20
36.213444
 30
0.0
 11
-83.0
 21
36.213444
 31
0.0
  0
LINE
  5
4A7
330
44E
100
AcDbEntity
  8
KOPF
100
AcDbLine
 10
-57.80813400000011
 20
36.213444
 30
0.0
 11
-83.0
 21
36.213444
 31
0.0
  0
ATTDEF
  5
4A8
330
44E
100
AcDbEntity
  8
TEXT35
100
AcDbText
 10
-79.40896486611496
 20
38.08722024605356
 30
0.0
 40
3.5
  1

 41
0.8
  7
TEXT35
100
AcDbAttributeDefinition
280
     0
  3
Maßeinheit:
  2
F56
 70
     0
280
     0
  0
TEXT
  5
4A9
330
44E
100
AcDbEntity
  8
KOPF
100
AcDbText
 10
-33.57569784693112
 20
42.62823225872138
 30
0.0
 40
1.54
  1
Diese Zeichnung darf weder kopiert
 41
0.8
  7
TEXT20
100
AcDbText
  0
TEXT
  5
4AA
330
44E
100
AcDbEntity
  8
KOPF
100
AcDbText
 10
-33.57569784693112
 20
40.26106040199917
 30
0.0
 40
1.54
  1
noch dritten Personen, insbesondere
 41
0.8
  7
TEXT20
100
AcDbText
  0
TEXT
  5
4AB
330
44E
100
AcDbEntity
  8
KOPF
100
AcDbText
 10
-33.57569784693112
 20
35.63814072439632
 30
0.0
 40
1.54
  1
mitgeteilt werden und bleibt unser
 41
0.8
  7
TEXT20
100
AcDbText
  0
TEXT
  5
4AC
330
44E
100
AcDbEntity
  8
KOPF
100
AcDbText
 10
-33.57569784693112
 20
33.37532604459598
 30
0.0
 40
1.54
  1
Eigentum.
 41
0.8
  7
TEXT20
100
AcDbText
  0
TEXT
  5
4AD
330
44E
100
AcDbEntity
  8
KOPF
100
AcDbText
 10
-33.57569784693112
 20
37.97994933403727
 30
0.0
 40
1.54
  1
zum Zweck anderweitiger Benutzung
 41
0.8
  7
TEXT20
100
AcDbText
  0
TEXT
  5
4AE
330
44E
100
AcDbEntity
  8
KOPF
100
AcDbText
 10
-33.7904806989385
 20
30.30982488917614
 30
0.0
 40
1.54
  1
Schutzvermerk nach DIN 34 beachten
 41
0.75
  7
TEXT20
100
AcDbText
  0
LINE
  5
4AF
330
44E
100
AcDbEntity
  8
KOPF
100
AcDbLine
 10
-34.94281200000012
 20
47.01203199999999
 30
0.0
 11
-34.94281200000012
 21
27.0
 31
0.0
  0
LINE
  5
4B0
330
44E
100
AcDbEntity
  8
KOPF
100
AcDbLine
 10
-34.94281200000012
 20
47.01203199999999
 30
0.0
 11
-34.94281200000012
 21
27.0
 31
0.0
  0
LINE
  5
4B1
330
44E
100
AcDbEntity
  8
MITTE
100
AcDbLine
 10
-45.85521401410289
 20
36.04852954632858
 30
0.0
 11
-35.23444858652556
 21
36.04852954632858
 31
0.0
  0
LINE
  5
4B2
330
44E
100
AcDbEntity
  8
TEXT50
100
AcDbLine
 10
-45.05865660703466
 20
32.02559619470341
 30
0.0
 11
-36.50894043783512
 21
34.06858135367652
 31
0.0
  0
LINE
  5
4B3
330
44E
100
AcDbEntity
  8
TEXT50
100
AcDbLine
 10
-36.50894043783512
 20
38.02847773898061
 30
0.0
 11
-45.05865660703466
 21
40.07146289795374
 31
0.0
  0
TEXT
  5
4B4
330
44E
100
AcDbEntity
  8
KOPF
100
AcDbText
 10
-57.12244047883302
 20
43.82431699999997
 30
0.0
 40
2.0
  1
Projektion: ISO-E
 41
0.8
  7
TEXT20
100
AcDbText
  0
LINE
  5
4B5
330
44E
100
AcDbEntity
  8
TEXT50
100
AcDbLine
 10
-45.05865660703466
 20
40.07146289795374
 30
0.0
 11
-45.05865660703466
 21
32.02559619470346
 31
0.0
  0
LINE
  5
4B6
330
44E
100
AcDbEntity
  8
MITTE
100
AcDbLine
 10
-51.4945506424383
 20
40.07146289795374
 30
0.0
 11
-51.4945506424383
 21
30.76413131482123
 31
0.0
  0
CIRCLE
  5
4B7
330
44E
100
AcDbEntity
  8
TEXT50
100
AcDbCircle
 10
-51.4945506424383
 20
36.04852954632858
 30
0.0
 40
4.022933351625178
  0
CIRCLE
  5
4B8
330
44E
100
AcDbEntity
  8
TEXT50
100
AcDbCircle
 10
-51.4945506424383
 20
36.04852954632858
 30
0.0
 40
1.979948192651899
  0
LINE
  5
4B9
330
44E
100
AcDbEntity
  8
MITTE
100
AcDbLine
 10
-56.48631039339966
 20
36.04852954632858
 30
0.0
 11
-46.50279089147699
 21
36.04852954632858
 31
0.0
  0
LINE
  5
4BA
330
44E
100
AcDbEntity
  8
TEXT50
100
AcDbLine
 10
-36.50894043783512
 20
38.02847773898061
 30
0.0
 11
-36.50894043783512
 21
34.06858135367652
 31
0.0
  0
LWPOLYLINE
  5
4BB
330
44E
100
AcDbEntity
  8
KOPF
 62
    12
100
AcDbPolyline
 90
        2
 70
     0
 43
0.5
 10
-12.0
 20
27.0
 10
-12.0
 20
10.0
  0
LINE
  5
4BC
330
44E
100
AcDbEntity
  8
KOPF
100
AcDbLine
 10
-12.0
 20
27.0
 30
0.0
 11
-12.0
 21
10.0
 31
0.0
  0
ATTDEF
  5
4BD
330
44E
100
AcDbEntity
  8
TEXT50
100
AcDbText
 10
-5.58570360403041
 20
17.00587824180555
 30
0.0
 40
5.0
  1

 41
0.8
  7
TEXT50
 72
     4
 11
-5.58570360403041
 21
17.00587824180555
 31
0.0
100
AcDbAttributeDefinition
280
     0
  3
Index:
  2
F1B
 70
     0
280
     0
  0
TEXT
  5
4BE
330
44E
100
AcDbEntity
  8
KOPF
100
AcDbText
 10
-8.353129999999964
 20
23.330072
 30
0.0
 40
2.0
  1
Index
 41
0.8
  7
TEXT20
100
AcDbText
  0
TEXT
  5
4BF
330
44E
100
AcDbEntity
  8
KOPF
100
AcDbText
 10
-94.40535829344497
 20
70.39773773357916
 30
0.0
 40
2.0
  1
Benennung
 41
0.8
  7
TEXT20
100
AcDbText
  0
LINE
  5
4C0
330
44E
100
AcDbEntity
  8
KOPF
100
AcDbLine
 10
-15.0
 20
88.49999999999996
 30
0.0
 11
-15.0
 21
68.49999999999997
 31
0.0
  0
LINE
  5
4C1
330
44E
100
AcDbEntity
  8
KOPF
100
AcDbLine
 10
-15.0
 20
88.49999999999996
 30
0.0
 11
-15.0
 21
68.49999999999997
 31
0.0
  0
TEXT
  5
4C2
330
44E
100
AcDbEntity
  8
KOPF
100
AcDbText
 10
-11.65833600000008
 20
69.53813999999997
 30
0.0
 40
2.0
  1
Name
 41
0.8
  7
TEXT20
100
AcDbText
  0
TEXT
  5
4C3
330
44E
100
AcDbEntity
  8
KOPF
100
AcDbText
 10
-11.65833600000008
 20
69.53813999999997
 30
0.0
 40
2.0
  1
Name
 41
0.8
  7
TEXT20
100
AcDbText
  0
ATTDEF
  5
4C4
330
44E
100
AcDbEntity
  8
TEXT25
100
AcDbText
 10
-13.39999999999998
 20
74.90000000000001
 30
0.0
 40
2.0
  1

 41
0.8
  7
TEXT20
100
AcDbAttributeDefinition
280
     0
  3
Name vv.:
  2
F75
 70
     0
280
     0
  0
ATTDEF
  5
4C5
330
44E
100
AcDbEntity
  8
TEXT25
100
AcDbText
 10
-13.39999999999998
 20
79.7
 30
0.0
 40
2.0
  1

 41
0.8
  7
TEXT20
100
AcDbAttributeDefinition
280
     0
  3
Name v.:
  2
F71
 70
     0
280
     0
  0
ATTDEF
  5
4C6
330
44E
100
AcDbEntity
  8
TEXT25
100
AcDbText
 10
-13.31006638105163
 20
84.29999999999999
 30
0.0
 40
2.0
  1

 41
0.8
  7
TEXT20
100
AcDbAttributeDefinition
280
     0
  3
Name l.:
  2
F67
 70
     0
280
     0
  0
LINE
  5
4C7
330
44E
100
AcDbEntity
  8
KOPF
100
AcDbLine
 10
-182.0
 20
36.99999999999997
 30
0.0
 11
-113.4
 21
36.99999999999997
 31
0.0
  0
LINE
  5
4C8
330
44E
100
AcDbEntity
  8
KOPF
100
AcDbLine
 10
-182.0
 20
31.99999999999997
 30
0.0
 11
-113.4
 21
31.99999999999997
 31
0.0
  0
MTEXT
  5
4C9
330
44E
100
AcDbEntity
  8
Sperrlayer
 62
     1
100
AcDbMText
 10
-166.0749851709908
 20
9.027899370527848
 30
0.0
 40
10.0
 41
771.0
 46
0.0
 71
     1
 72
     5
  1
VORABZUG - nicht FREIGEGEBEN !
  7
TEXT20
 11
0.8660254037844387
 21
0.5
 31
0.0
 73
     1
 44
1.0
  0
ENDBLK
  5
4CB
330
44E
100
AcDbEntity
  8
0
100
AcDbBlockEnd
  0
BLOCK
  5
510
330
500
100
AcDbEntity
  8
0
100
AcDbBlockBegin
  2
logo_1200
 70
     0
 10
0.0
 20
0.0
 30
0.0
  3
logo_1200
  1

  0
TEXT
  5
501
330
500
100
AcDbEntity
  8
TEXT25
100
AcDbText
 10
-62.75122066833545
 20
52.38243367792947
 30
0.0
 40
2.0
  1
582 22 Pribyslav
 41
0.8
  7
TEXT25
100
AcDbText
  0
CIRCLE
  5
502
330
500
100
AcDbEntity
  8
TEXT35
100
AcDbCircle
 10
-77.90633268923627
 20
54.91319723090533
 30
0.0
 40
2.281499999999998
  0
CIRCLE
  5
503
330
500
100
AcDbEntity
  8
TEXT35
100
AcDbCircle
 10
-77.90633268923627
 20
54.91319723090533
 30
0.0
 40
1.579499999999999
  0
LWPOLYLINE
  5
504
330
500
100
AcDbEntity
  8
TEXT35
100
AcDbPolyline
 90
        4
 70
     1
 43
0.0
 10
-83.00295180105614
 20
54.12344723090529
 42
-3.664441495333134
 10
-83.01773608902488
 20
55.72801804658638
 10
-82.4097147917411
 20
56.07905930624621
 42
3.685001202565794
 10
-82.39500196759946
 20
53.77244723090529
  0
LWPOLYLINE
  5
505
330
500
100
AcDbEntity
  8
TEXT35
100
AcDbPolyline
 90
        4
 70
     1
 43
0.0
 10
-87.16522368075901
 20
64.67896593129956
 10
-87.16522368075901
 20
51.4441636102955
 10
-81.57645417190838
 20
51.4441636102955
 10
-81.57645417190838
 20
64.67896593129956
  0
LWPOLYLINE
  5
506
330
500
100
AcDbEntity
  8
TEXT35
100
AcDbPolyline
 90
        4
 70
     1
 43
0.0
 10
-75.11194793481099
 20
64.67896593129956
 10
-75.11194793481099
 20
51.4441636102955
 10
-80.70071744366158
 20
51.4441636102955
 10
-80.70071744366158
 20
64.67896593129956
  0
TEXT
  5
507
330
500
100
AcDbEntity
  8
TEXT25
100
AcDbText
 10
-42.07144434927065
 20
52.73160429576707
 30
0.0
 40
2.1
  1
Fax: +420 569 484 848
 41
0.7
  7
ROMANS8
100
AcDbText
  0
LWPOLYLINE
  5
508
330
500
100
AcDbEntity
  8
TEXT35
100
AcDbPolyline
 90
        7
 70
     1
 43
0.0
 10
-92.41478278366415
 20
52.60099048123299
 42
-0.0323236910300514
 10
-92.37060365720655
 20
53.23414235224742
 10
-89.30008666965568
 20
53.23414235224742
 42
-0.0323236910300515
 10
-89.25590754319818
 20
52.60099048123299
 10
-88.55389974564616
 20
52.60099048123299
 42
0.2369604974400691
 10
-90.83534516343117
 20
57.0951423522472
 42
0.2369604974400691
 10
-93.11679058121619
 20
52.60099048123299
  0
LWPOLYLINE
  5
509
330
500
100
AcDbEntity
  8
TEXT35
100
AcDbPolyline
 90
        4
 70
     1
 43
0.0
 10
-93.62972991785644
 20
64.67896593129956
 10
-93.62972991785644
 20
51.4441636102955
 10
-88.04096040900587
 20
51.4441636102955
 10
-88.04096040900587
 20
64.67896593129956
  0
LWPOLYLINE
  5
50A
330
500
100
AcDbEntity
  8
TEXT25
100
AcDbPolyline
 90
        3
 70
     0
 43
0.0
 10
-57.65641467769126
 20
58.02057702122401
 10
-57.34643565818164
 20
57.67744438935747
 10
-57.06966783454433
 20
58.04271477888098
  0
TEXT
  5
50B
330
500
100
AcDbEntity
  8
TEXT25
100
AcDbText
 10
-62.46488457919316
 20
56.00873140993094
 30
0.0
 40
2.0
  1
Havlickova 260
 41
0.8
  7
TEXT25
100
AcDbText
  0
TEXT
  5
50C
330
500
100
AcDbEntity
  8
TEXT35
100
AcDbText
 10
-63.01986452254318
 20
61.20180074934168
 30
0.0
 40
3.0
  1
ACO Stavebni prvky k.s
 41
0.8
  7
ITALICC8
100
AcDbText
  0
LWPOLYLINE
  5
50D
330
500
100
AcDbEntity
  8
TEXT35
100
AcDbPolyline
 90
        3
 70
     1
 43
0.0
 10
-90.83534516343108
 20
56.18573248981441
 42
-0.1369919174131033
 10
-89.44776560816123
 20
53.93614235224742
 10
-92.22292471870108
 20
53.93614235224742
 42
-0.136991917413112
  0
TEXT
  5
50E
330
500
100
AcDbEntity
  8
TEXT25
100
AcDbText
 10
-42.12418048628376
 20
56.06021119287449
 30
0.0
 40
2.1
  1
Tel.:+420 569 491 111
 41
0.7
  7
ROMANS8
100
AcDbText
  0
LWPOLYLINE
  5
50F
330
500
100
AcDbEntity
  8
TEXT25
100
AcDbPolyline
 90
        3
 70
     0
 43
0.0
 10
-54.37217074633299
 20
54.52955947101651
 10
-54.06219172682341
 20
54.18642683914997
 10
-53.78542390318611
 20
54.55169722867349
  0
ENDBLK
  5
511
330
500
100
AcDbEntity
  8
0
100
AcDbBlockEnd
  0
BLOCK
  5
7DA
330
7D8
100
AcDbEntity
  8
0
100
AcDbBlockBegin
  2
GENAXEH
 70
     0
 10
0.0
 20
0.0
 30
0.0
  3
GENAXEH
  1

  0
LINE
  5
7D9
330
7D8
100
AcDbEntity
  8
0
100
AcDbLine
 10
-1.0
 20
0.0
 30
0.0
 11
1.0
 21
0.0
 31
0.0
  0
ENDBLK
  5
7DB
330
7D8
100
AcDbEntity
  8
0
100
AcDbBlockEnd
  0
BLOCK
  5
82A
330
829
100
AcDbEntity
  8
0
100
AcDbBlockBegin
  2
RA_A2_pr
 70
     0
 10
0.0
 20
0.0
 30
0.0
  3
RA_A2_pr
  1

  0
LWPOLYLINE
  5
82B
330
829
100
AcDbEntity
  8
KOPF
 62
    22
100
AcDbPolyline
 90
        4
 70
     1
 43
0.7
 10
588.0
 20
439.0
 10
588.0
 20
6.0
 10
21.0
 20
6.0
 10
21.0
 20
439.0
  0
LINE
  5
82C
330
829
100
AcDbEntity
  8
KOPF
 62
    22
100
AcDbLine
 10
0.0
 20
445.0
 30
0.0
 11
594.0
 21
445.0
 31
0.0
  0
LINE
  5
82D
330
829
100
AcDbEntity
  8
KOPF
 62
    22
100
AcDbLine
 10
594.0
 20
0.0
 30
0.0
 11
0.0
 21
0.0
 31
0.0
  0
LINE
  5
82E
330
829
100
AcDbEntity
  8
KOPF
 62
    22
100
AcDbLine
 10
0.0
 20
0.0
 30
0.0
 11
0.0
 21
445.0
 31
0.0
  0
TEXT
  5
82F
330
829
100
AcDbEntity
  8
KOPF
 62
    22
100
AcDbText
 10
16.12763230177199
 20
41.42224686135696
 30
0.0
 40
2.5
  1
A
 41
0.8
  7
TEXT25
100
AcDbText
  0
LINE
  5
830
330
829
100
AcDbEntity
  8
KOPF
 62
    22
100
AcDbLine
 10
21.0
 20
79.00000000000002
 30
0.0
 11
18.0
 21
79.00000000000002
 31
0.0
  0
TEXT
  5
831
330
829
100
AcDbEntity
  8
KOPF
 62
    22
100
AcDbText
 10
16.12763230177199
 20
114.422246861357
 30
0.0
 40
2.5
  1
B
 41
0.8
  7
TEXT25
100
AcDbText
  0
TEXT
  5
832
330
829
100
AcDbEntity
  8
KOPF
 62
    22
100
AcDbText
 10
56.29677316682592
 20
1.370968748636755
 30
0.0
 40
2.5
  1
1
 41
0.8
  7
TEXT25
100
AcDbText
  0
LINE
  5
833
330
829
100
AcDbEntity
  8
KOPF
 62
    22
100
AcDbLine
 10
93.0
 20
6.0
 30
0.0
 11
93.0
 21
3.0
 31
0.0
  0
TEXT
  5
834
330
829
100
AcDbEntity
  8
KOPF
 62
    22
100
AcDbText
 10
128.2967731668259
 20
1.370968748636755
 30
0.0
 40
2.5
  1
2
 41
0.8
  7
TEXT25
100
AcDbText
  0
LINE
  5
835
330
829
100
AcDbEntity
  8
KOPF
 62
    22
100
AcDbLine
 10
165.0
 20
6.0
 30
0.0
 11
165.0
 21
3.0
 31
0.0
  0
TEXT
  5
836
330
829
100
AcDbEntity
  8
KOPF
 62
    22
100
AcDbText
 10
200.2967731668259
 20
1.370968748636755
 30
0.0
 40
2.5
  1
3
 41
0.8
  7
TEXT25
100
AcDbText
  0
LINE
  5
837
330
829
100
AcDbEntity
  8
KOPF
 62
    22
100
AcDbLine
 10
210.0
 20
0.0
 30
0.0
 11
210.0
 21
6.0
 31
0.0
  0
LINE
  5
838
330
829
100
AcDbEntity
  8
KOPF
 62
    22
100
AcDbLine
 10
0.0
 20
148.5
 30
0.0
 11
10.54770188609711
 21
148.5
 31
0.0
  0
LINE
  5
839
330
829
100
AcDbEntity
  8
KOPF
 62
    22
100
AcDbLine
 10
21.0
 20
152.0
 30
0.0
 11
18.0
 21
152.0
 31
0.0
  0
TEXT
  5
83A
330
829
100
AcDbEntity
  8
KOPF
 62
    22
100
AcDbText
 10
16.12763230177199
 20
187.4222468613569
 30
0.0
 40
2.5
  1
C
 41
0.8
  7
TEXT25
100
AcDbText
  0
LINE
  5
83B
330
829
100
AcDbEntity
  8
KOPF
 62
    22
100
AcDbLine
 10
21.0
 20
225.0
 30
0.0
 11
18.0
 21
225.0
 31
0.0
  0
TEXT
  5
83C
330
829
100
AcDbEntity
  8
KOPF
 62
    22
100
AcDbText
 10
16.12763230177199
 20
260.422246861357
 30
0.0
 40
2.5
  1
D
 41
0.8
  7
TEXT25
100
AcDbText
  0
LINE
  5
83D
330
829
100
AcDbEntity
  8
KOPF
 62
    22
100
AcDbLine
 10
12.33785021057986
 20
296.9999999999999
 30
0.0
 11
21.0
 21
296.9999999999999
 31
0.0
  0
LINE
  5
83E
330
829
100
AcDbEntity
  8
KOPF
 62
    22
100
AcDbLine
 10
21.0
 20
298.0
 30
0.0
 11
18.0
 21
298.0
 31
0.0
  0
TEXT
  5
83F
330
829
100
AcDbEntity
  8
KOPF
 62
    22
100
AcDbText
 10
16.12763230177199
 20
333.422246861357
 30
0.0
 40
2.5
  1
E
 41
0.8
  7
TEXT25
100
AcDbText
  0
LINE
  5
840
330
829
100
AcDbEntity
  8
KOPF
 62
    22
100
AcDbLine
 10
21.0
 20
371.0
 30
0.0
 11
18.0
 21
371.0
 31
0.0
  0
TEXT
  5
841
330
829
100
AcDbEntity
  8
KOPF
 62
    22
100
AcDbText
 10
16.12763230177199
 20
393.4920404627393
 30
0.0
 40
2.5
  1
F
 41
0.8
  7
TEXT25
100
AcDbText
  0
TEXT
  5
842
330
829
100
AcDbEntity
  8
KOPF
 62
    22
100
AcDbText
 10
56.29677316682592
 20
440.6290312513632
 30
0.0
 40
2.5
  1
1
 41
0.8
  7
TEXT25
100
AcDbText
  0
LINE
  5
843
330
829
100
AcDbEntity
  8
KOPF
 62
    22
100
AcDbLine
 10
93.0
 20
439.0
 30
0.0
 11
93.0
 21
442.0
 31
0.0
  0
TEXT
  5
844
330
829
100
AcDbEntity
  8
KOPF
 62
    22
100
AcDbText
 10
128.2967731668259
 20
440.6290312513632
 30
0.0
 40
2.5
  1
2
 41
0.8
  7
TEXT25
100
AcDbText
  0
LINE
  5
845
330
829
100
AcDbEntity
  8
KOPF
 62
    22
100
AcDbLine
 10
165.0
 20
439.0
 30
0.0
 11
165.0
 21
442.0
 31
0.0
  0
TEXT
  5
846
330
829
100
AcDbEntity
  8
KOPF
 62
    22
100
AcDbText
 10
200.2967731668259
 20
440.6290312513632
 30
0.0
 40
2.5
  1
3
 41
0.8
  7
TEXT25
100
AcDbText
  0
LINE
  5
847
330
829
100
AcDbEntity
  8
KOPF
 62
    22
100
AcDbLine
 10
594.0
 20
445.0
 30
0.0
 11
594.0
 21
0.0
 31
0.0
  0
LINE
  5
848
330
829
100
AcDbEntity
  8
KOPF
 62
    22
100
AcDbLine
 10
237.0
 20
6.0
 30
0.0
 11
237.0
 21
3.0
 31
0.0
  0
TEXT
  5
849
330
829
100
AcDbEntity
  8
KOPF
 62
    22
100
AcDbText
 10
272.2967731668259
 20
1.370968748636755
 30
0.0
 40
2.5
  1
4
 41
0.8
  7
TEXT25
100
AcDbText
  0
LINE
  5
84A
330
829
100
AcDbEntity
  8
KOPF
 62
    22
100
AcDbLine
 10
309.0
 20
6.0
 30
0.0
 11
309.0
 21
3.0
 31
0.0
  0
TEXT
  5
84B
330
829
100
AcDbEntity
  8
KOPF
 62
    22
100
AcDbText
 10
345.2967731668259
 20
1.370968748636755
 30
0.0
 40
2.5
  1
5
 41
0.8
  7
TEXT25
100
AcDbText
  0
LINE
  5
84C
330
829
100
AcDbEntity
  8
KOPF
 62
    22
100
AcDbLine
 10
381.0
 20
6.0
 30
0.0
 11
381.0
 21
3.0
 31
0.0
  0
LINE
  5
84D
330
829
100
AcDbEntity
  8
KOPF
 62
    22
100
AcDbLine
 10
398.0
 20
6.0
 30
0.0
 11
398.0
 21
0.0
 31
0.0
  0
TEXT
  5
84E
330
829
100
AcDbEntity
  8
KOPF
 62
    22
100
AcDbText
 10
416.2967731668259
 20
1.370968748636755
 30
0.0
 40
2.5
  1
6
 41
0.8
  7
TEXT25
100
AcDbText
  0
LINE
  5
84F
330
829
100
AcDbEntity
  8
KOPF
 62
    22
100
AcDbLine
 10
525.0699601119618
 20
6.0
 30
0.0
 11
525.0699601119618
 21
3.0
 31
0.0
  0
TEXT
  5
850
330
829
100
AcDbEntity
  8
KOPF
 62
    22
100
AcDbText
 10
580.8263465050426
 20
1.370968748636755
 30
0.0
 40
3.0
  1
A2
 41
0.8
  7
BEMSTIL
100
AcDbText
  0
TEXT
  5
851
330
829
100
AcDbEntity
  8
KOPF
 62
    22
100
AcDbText
 10
589.5361572162235
 20
41.42224686135693
 30
0.0
 40
2.5
  1
A
 41
0.8
  7
TEXT25
100
AcDbText
  0
LINE
  5
852
330
829
100
AcDbEntity
  8
KOPF
 62
    22
100
AcDbLine
 10
588.0
 20
79.00000000000002
 30
0.0
 11
591.0
 21
79.00000000000002
 31
0.0
  0
TEXT
  5
853
330
829
100
AcDbEntity
  8
KOPF
 62
    22
100
AcDbText
 10
589.8161572162234
 20
114.422246861357
 30
0.0
 40
2.5
  1
B
 41
0.8
  7
TEXT25
100
AcDbText
  0
LINE
  5
854
330
829
100
AcDbEntity
  8
KOPF
 62
    22
100
AcDbLine
 10
237.0
 20
439.0
 30
0.0
 11
237.0
 21
442.0
 31
0.0
  0
TEXT
  5
855
330
829
100
AcDbEntity
  8
KOPF
 62
    22
100
AcDbText
 10
272.2967731668259
 20
440.6290312513632
 30
0.0
 40
3.0
  1
4
 41
0.8
  7
BEMSTIL
100
AcDbText
  0
LINE
  5
856
330
829
100
AcDbEntity
  8
KOPF
 62
    22
100
AcDbLine
 10
309.0
 20
439.0
 30
0.0
 11
309.0
 21
442.0
 31
0.0
  0
TEXT
  5
857
330
829
100
AcDbEntity
  8
KOPF
 62
    22
100
AcDbText
 10
345.2967731668259
 20
440.6290312513632
 30
0.0
 40
2.5
  1
5
 41
0.8
  7
TEXT25
100
AcDbText
  0
LINE
  5
858
330
829
100
AcDbEntity
  8
KOPF
 62
    22
100
AcDbLine
 10
381.0
 20
439.0
 30
0.0
 11
381.0
 21
442.0
 31
0.0
  0
LINE
  5
859
330
829
100
AcDbEntity
  8
KOPF
 62
    22
100
AcDbLine
 10
588.0
 20
152.0
 30
0.0
 11
591.0
 21
152.0
 31
0.0
  0
TEXT
  5
85A
330
829
100
AcDbEntity
  8
KOPF
 62
    22
100
AcDbText
 10
589.942117328185
 20
187.4222468613569
 30
0.0
 40
2.5
  1
C
 41
0.8
  7
TEXT25
100
AcDbText
  0
TEXT
  5
85B
330
829
100
AcDbEntity
  8
KOPF
 62
    22
100
AcDbText
 10
589.942117328185
 20
187.4222468613569
 30
0.0
 40
2.5
  1
C
 41
0.8
  7
TEXT25
100
AcDbText
  0
TEXT
  5
85C
330
829
100
AcDbEntity
  8
KOPF
 62
    22
100
AcDbText
 10
589.8721572162233
 20
187.4222468613569
 30
0.0
 40
2.5
  1
C
 41
0.8
  7
TEXT25
100
AcDbText
  0
LINE
  5
85D
330
829
100
AcDbEntity
  8
KOPF
 62
    22
100
AcDbLine
 10
588.0699601119617
 20
225.0
 30
0.0
 11
591.0699601119618
 21
225.0
 31
0.0
  0
LINE
  5
85E
330
829
100
AcDbEntity
  8
KOPF
 62
    22
100
AcDbLine
 10
588.0699601119617
 20
225.0
 30
0.0
 11
591.0699601119618
 21
225.0
 31
0.0
  0
LINE
  5
85F
330
829
100
AcDbEntity
  8
KOPF
 62
    22
100
AcDbLine
 10
588.0
 20
225.0
 30
0.0
 11
591.0
 21
225.0
 31
0.0
  0
TEXT
  5
860
330
829
100
AcDbEntity
  8
KOPF
 62
    22
100
AcDbText
 10
589.8861173281852
 20
260.422246861357
 30
0.0
 40
2.5
  1
D
 41
0.8
  7
TEXT25
100
AcDbText
  0
TEXT
  5
861
330
829
100
AcDbEntity
  8
KOPF
 62
    22
100
AcDbText
 10
589.8861173281852
 20
260.422246861357
 30
0.0
 40
2.5
  1
D
 41
0.8
  7
TEXT25
100
AcDbText
  0
TEXT
  5
862
330
829
100
AcDbEntity
  8
KOPF
 62
    22
100
AcDbText
 10
589.8161572162234
 20
260.422246861357
 30
0.0
 40
2.5
  1
D
 41
0.8
  7
TEXT25
100
AcDbText
  0
TEXT
  5
863
330
829
100
AcDbEntity
  8
KOPF
 62
    22
100
AcDbText
 10
416.2967731668259
 20
440.6290312513632
 30
0.0
 40
2.5
  1
6
 41
0.8
  7
TEXT25
100
AcDbText
  0
LINE
  5
864
330
829
100
AcDbEntity
  8
KOPF
 62
    22
100
AcDbLine
 10
453.0
 20
439.0
 30
0.0
 11
453.0
 21
442.0
 31
0.0
  0
TEXT
  5
865
330
829
100
AcDbEntity
  8
KOPF
 62
    22
100
AcDbText
 10
488.2967731668259
 20
440.6290312513632
 30
0.0
 40
2.5
  1
7
 41
0.8
  7
TEXT25
100
AcDbText
  0
LINE
  5
866
330
829
100
AcDbEntity
  8
KOPF
 62
    22
100
AcDbLine
 10
588.0699601119617
 20
298.0
 30
0.0
 11
591.0699601119618
 21
298.0
 31
0.0
  0
LINE
  5
867
330
829
100
AcDbEntity
  8
KOPF
 62
    22
100
AcDbLine
 10
588.0699601119617
 20
298.0
 30
0.0
 11
591.0699601119618
 21
298.0
 31
0.0
  0
LINE
  5
868
330
829
100
AcDbEntity
  8
KOPF
 62
    22
100
AcDbLine
 10
588.0
 20
298.0
 30
0.0
 11
591.0
 21
298.0
 31
0.0
  0
TEXT
  5
869
330
829
100
AcDbEntity
  8
KOPF
 62
    22
100
AcDbText
 10
589.8861173281852
 20
333.422246861357
 30
0.0
 40
2.5
  1
E
 41
0.8
  7
TEXT25
100
AcDbText
  0
TEXT
  5
86A
330
829
100
AcDbEntity
  8
KOPF
 62
    22
100
AcDbText
 10
589.8861173281852
 20
333.422246861357
 30
0.0
 40
2.5
  1
E
 41
0.8
  7
TEXT25
100
AcDbText
  0
TEXT
  5
86B
330
829
100
AcDbEntity
  8
KOPF
 62
    22
100
AcDbText
 10
589.8161572162234
 20
333.422246861357
 30
0.0
 40
2.5
  1
E
 41
0.8
  7
TEXT25
100
AcDbText
  0
LINE
  5
86C
330
829
100
AcDbEntity
  8
KOPF
 62
    22
100
AcDbLine
 10
525.0
 20
439.0
 30
0.0
 11
525.0
 21
442.0
 31
0.0
  0
LINE
  5
86D
330
829
100
AcDbEntity
  8
KOPF
 62
    22
100
AcDbLine
 10
588.0
 20
371.0
 30
0.0
 11
591.0
 21
371.0
 31
0.0
  0
TEXT
  5
86E
330
829
100
AcDbEntity
  8
KOPF
 62
    22
100
AcDbText
 10
560.2967731668258
 20
440.6290312513632
 30
0.0
 40
2.5
  1
8
 41
0.8
  7
TEXT25
100
AcDbText
  0
TEXT
  5
86F
330
829
100
AcDbEntity
  8
KOPF
 62
    22
100
AcDbText
 10
589.8161572162234
 20
393.4920404627393
 30
0.0
 40
2.5
  1
F
 41
0.8
  7
TEXT25
100
AcDbText
  0
ENDBLK
  5
870
330
829
100
AcDbEntity
  8
0
100
AcDbBlockEnd
  0
BLOCK
  5
874
330
871
100
AcDbEntity
  8
0
100
AcDbBlockBegin
  2
A$C09306709
 70
     0
 10
0.0
 20
0.0
 30
0.0
  3
A$C09306709
  1

  0
HATCH
  5
875
330
871
100
AcDbEntity
  8
BEMASS
100
AcDbHatch
 10
0.0
 20
0.0
 30
0.0
210
0.0
220
0.0
230
1.0
  2
ANSI31
 70
     0
 71
     0
 91
        4
 92
        7
 72
     1
 73
     1
 93
       12
 10
35.00000000000091
 20
-26.85056147415344
 42
-0.1316524975873826
 10
35.26794919243184
 20
-25.85056147415344
 42
0.0
 10
45.24796727811644
 20
-8.56466308929157
 42
-0.2679491924311257
 10
46.9800180856846
 20
-7.564663089291116
 42
0.0
 10
51.00000000000091
 20
-7.564663089291116
 42
0.0
 10
51.00000000000091
 20
-6.314663089291116
 42
0.0
 10
46.83568051838756
 20
-6.314663089291116
 42
0.2679491924311286
 10
44.23760430703441
 20
-7.814663089291116
 42
0.0
 10
34.15192378864686
 20
-25.28357417604548
 42
0.1316524975873667
 10
33.75
 20
-26.78357417604548
 42
0.0
 10
33.75
 20
-76.31466308929157
 42
0.0
 10
35.0
 20
-76.31466308929157
 42
0.0
 97
        0
 92
        7
 72
     1
 73
     1
 93
        9
 10
-43.41421356237242
 20
-41.48623596454581
 42
-0.1989123673796509
 10
-44.0
 20
-40.07202240217248
 42
0.0
 10
-44.0
 20
-10.72620582117088
 42
0.0
 10
-45.0
 20
-8.994155013600902
 42
0.0
 10
-45.0
 20
-40.07202240217248
 42
0.1989123673796606
 10
-44.12132034355908
 20
-42.19334274573202
 42
0.0
 10
-35.58578643762758
 20
-50.7288766516649
 42
-0.198912367379651
 10
-35.0
 20
-52.14309021403778
 42
0.0
 10
-35.0
 20
-49.90044952691824
 42
0.0
 97
        0
 92
        7
 72
     0
 73
     1
 93
        5
 10
-33.75
 20
-51.15044952691824
 10
-35.0
 20
-49.90044952691824
 10
-35.0
 20
-52.14309021403778
 10
-35.0
 20
-76.31466308929157
 10
-33.75
 20
-76.31466308929157
 97
        0
 92
        7
 72
     1
 73
     1
 93
        8
 10
-46.83568051838756
 20
-6.314663089291116
 42
0.0
 10
-51.0
 20
-6.314663089291116
 42
0.0
 10
-51.0
 20
-7.564663089291116
 42
0.0
 10
-46.9800180856846
 20
-7.564663089290661
 42
-0.2679491924311257
 10
-45.24796727811554
 20
-8.564663089290661
 42
0.0
 10
-44.0
 20
-10.72620582117088
 42
0.0
 10
-44.0
 20
-8.226205821170424
 42
0.0
 10
-44.23760430703441
 20
-7.814663089290661
 42
0.2679491924310747
 97
        0
 75
     0
 76
     1
 52
90.0
 41
10.0
 77
     0
 78
     1
 53
135.0
 43
1024.431775347221
 44
-371.9415525397207
 45
-0.8838834764831844
 46
-0.8838834764831842
 79
     0
 47
0.2520826021340877
 98
        4
 10
34.11826774406382
 20
-35.73581473327613
 10
-41.03026560029502
 20
-44.81078833290576
 10
-33.96932911113618
 20
-58.17116588093177
 10
-47.33467370669404
 20
-6.998398118939348
  0
LINE
  5
876
330
871
100
AcDbEntity
  8
0
100
AcDbLine
 10
0.0267000253707011
 20
-16.31454388944257
 30
0.0
 11
39.33019583898659
 21
-16.31454388944257
 31
0.0
  0
LINE
  5
877
330
871
100
AcDbEntity
  8
0
100
AcDbLine
 10
35.0
 20
-76.31466308929157
 30
0.0
 11
0.0
 21
-76.31466308929157
 31
0.0
  0
LINE
  5
878
330
871
100
AcDbEntity
  8
BEMASS
100
AcDbLine
 10
32.93069074375399
 20
-26.12410615986391
 30
0.0
 11
0.0
 21
-26.12410615986391
 31
0.0
  0
ARC
  5
879
330
871
100
AcDbEntity
  8
0
100
AcDbCircle
 10
-0.0000000000009095
 20
-91.31466308929111
 30
0.0
 40
6.0
100
AcDbArc
 50
39.36723292880172
 51
90.0
  0
LINE
  5
87A
330
871
100
AcDbEntity
  8
BEMASS
100
AcDbLine
 10
-4.277374222939215
 20
-88.38341600555351
 30
0.0
 11
3.998137836098067
 21
-88.38341600555351
 31
0.0
  0
ARC
  5
87B
330
871
100
AcDbEntity
  8
0
100
AcDbCircle
 10
-0.0000000000009095
 20
-91.31466308929111
 30
0.0
 40
7.0
100
AcDbArc
 50
39.36723292880172
 51
90.0
  0
LINE
  5
87C
330
871
100
AcDbEntity
  8
0
100
AcDbLine
 10
36.0
 20
-91.31466308929203
 30
0.0
 11
-0.0000000000009095
 21
-91.31466308929111
 31
0.0
  0
HATCH
  5
87D
330
871
100
AcDbEntity
  8
SCHRAFF
100
AcDbHatch
 10
0.0
 20
0.0
 30
0.0
210
0.0
220
0.0
230
1.0
  2
ANSI31
 70
     0
 71
     0
 91
        2
 92
        7
 72
     1
 73
     1
 93
       16
 10
-45.0
 20
-26.31466308929157
 42
0.0
 10
-46.0
 20
-26.31466308929157
 42
0.0
 10
-46.0
 20
-81.31466308929203
 42
0.4142135623730942
 10
-36.0
 20
-91.31466308929203
 42
0.0
 10
-30.17440853235348
 20
-91.31466308929203
 42
0.0290435689525829
 10
-29.82676643367268
 20
-91.29445250655363
 42
0.0
 10
-6.61022590835455
 20
-88.58585611193303
 42
0.1942822396084061
 10
-4.638578671356299
 20
-87.50893215954466
 42
-0.2245931087814048
 10
0.0
 20
-85.31466308929111
 42
0.0
 10
0.0
 20
-84.31466308929111
 42
0.2245931087814076
 10
-5.411675116582955
 20
-86.87464367125357
 42
-0.1942822396083985
 10
-6.726106607914516
 20
-87.59259297284552
 42
0.0
 10
-29.94264713323355
 20
-90.30118936746658
 42
-0.0290435689525692
 10
-30.17440853235348
 20
-90.31466308929157
 42
0.0
 10
-36.0
 20
-90.31466308929202
 42
-0.4142135623730969
 10
-45.0
 20
-81.31466308929203
 42
0.0
 97
        0
 92
        7
 72
     1
 73
     1
 93
       16
 10
6.726106607914516
 20
-87.59259297284552
 42
-0.1942822396084091
 10
5.411675116582955
 20
-86.87464367125357
 42
0.2245931087814057
 10
0.0
 20
-84.31466308929111
 42
0.0
 10
0.0
 20
-85.31466308929111
 42
-0.2245931087814008
 10
4.638578671356299
 20
-87.50893215954466
 42
0.1942822396084025
 10
6.61022590835455
 20
-88.58585611193303
 42
0.0
 10
29.82676643367268
 20
-91.29445250655363
 42
0.0290435689525839
 10
30.17440853235348
 20
-91.31466308929203
 42
0.0
 10
36.0
 20
-91.31466308929203
 42
0.4142135623731017
 10
46.0
 20
-81.31466308929248
 42
0.0
 10
46.00000000000091
 20
-26.31466308929157
 42
0.0
 10
45.00000000000091
 20
-26.31466308929203
 42
0.0
 10
45.0
 20
-81.31466308929248
 42
-0.4142135623731033
 10
36.0
 20
-90.31466308929202
 42
0.0
 10
30.17440853235348
 20
-90.31466308929202
 42
-0.0290435689525743
 10
29.94264713323355
 20
-90.30118936746658
 42
0.0
 97
        0
 75
     0
 76
     1
 52
0.0
 41
15.0
 77
     0
 78
     1
 53
45.0
 43
-306.0582986597665
 44
-486.6976486060997
 45
-1.325825214724776
 46
1.325825214724776
 79
     0
 47
0.1622631787827966
 98
        2
 10
-45.15022648904323
 20
-50.57980576354066
 10
10.85392503028652
 20
-88.38712985793018
  0
LINE
  5
87E
330
871
100
AcDbEntity
  8
VERDECKT
100
AcDbLine
 10
-35.00000000000091
 20
-26.85056147415298
 30
0.0
 11
-35.0
 21
-52.14309021403778
 31
0.0
  0
LINE
  5
87F
330
871
100
AcDbEntity
  8
0
100
AcDbLine
 10
-44.0
 20
-8.226205821170424
 30
0.0
 11
-44.0
 21
-40.07202240217248
 31
0.0
  0
LINE
  5
880
330
871
100
AcDbEntity
  8
0
100
AcDbLine
 10
-45.0
 20
-8.994155013601812
 30
0.0
 11
-45.0
 21
-81.31466308929203
 31
0.0
  0
LINE
  5
881
330
871
100
AcDbEntity
  8
0
100
AcDbLine
 10
-33.75
 20
-26.78357417604502
 30
0.0
 11
-33.75
 21
-76.31466308929157
 31
0.0
  0
LINE
  5
882
330
871
100
AcDbEntity
  8
0
100
AcDbLine
 10
-46.0
 20
-26.31466308929157
 30
0.0
 11
-46.0
 21
-81.31466308929203
 31
0.0
  0
LINE
  5
883
330
871
100
AcDbEntity
  8
0
100
AcDbLine
 10
-35.0
 20
-52.14309021403778
 30
0.0
 11
-35.0
 21
-76.31466308929157
 31
0.0
  0
LINE
  5
884
330
871
100
AcDbEntity
  8
0
100
AcDbLine
 10
-35.0
 20
-76.31466308929157
 30
0.0
 11
0.0
 21
-76.31466308929157
 31
0.0
  0
LINE
  5
885
330
871
100
AcDbEntity
  8
0
100
AcDbLine
 10
-36.0
 20
-91.31466308929203
 30
0.0
 11
-0.0000000000009095
 21
-91.31466308929203
 31
0.0
  0
LINE
  5
886
330
871
100
AcDbEntity
  8
0
100
AcDbLine
 10
-29.94264713323355
 20
-90.30118936746658
 30
0.0
 11
-6.726106607914516
 21
-87.59259297284552
 31
0.0
  0
LINE
  5
887
330
871
100
AcDbEntity
  8
0
100
AcDbLine
 10
-29.82676643367268
 20
-91.29445250655363
 30
0.0
 11
-6.61022590835455
 21
-88.58585611193303
 31
0.0
  0
ARC
  5
888
330
871
100
AcDbEntity
  8
0
100
AcDbCircle
 10
-36.0
 20
-81.31466308929203
 30
0.0
 40
9.0
100
AcDbArc
 50
180.0
 51
270.0
  0
ARC
  5
889
330
871
100
AcDbEntity
  8
0
100
AcDbCircle
 10
-36.0
 20
-81.31466308929203
 30
0.0
 40
10.0
100
AcDbArc
 50
180.0
 51
270.0
  0
LINE
  5
88A
330
871
100
AcDbEntity
  8
0
100
AcDbLine
 10
-36.0
 20
-90.31466308929202
 30
0.0
 11
-30.17440853235439
 21
-90.31466308929157
 31
0.0
  0
ARC
  5
88B
330
871
100
AcDbEntity
  8
0
100
AcDbCircle
 10
-30.17440853235439
 20
-88.31466308929156
 30
0.0
 40
2.0
100
AcDbArc
 50
270.0
 51
276.6544250460468
  0
ARC
  5
88C
330
871
100
AcDbEntity
  8
0
100
AcDbCircle
 10
-30.17440853235348
 20
-88.31466308929202
 30
0.0
 40
3.0
100
AcDbArc
 50
270.0
 51
276.6544250460468
  0
ARC
  5
88D
330
871
100
AcDbEntity
  8
0
100
AcDbCircle
 10
0.0000000000009095
 20
-91.31466308929111
 30
0.0
 40
7.0
100
AcDbArc
 50
90.0
 51
140.6327670711983
  0
ARC
  5
88E
330
871
100
AcDbEntity
  8
0
100
AcDbCircle
 10
0.0000000000009095
 20
-91.31466308929111
 30
0.0
 40
6.0
100
AcDbArc
 50
90.0
 51
140.6327670711983
  0
ARC
  5
88F
330
871
100
AcDbEntity
  8
0
100
AcDbCircle
 10
-6.957868007035358
 20
-85.60606669467142
 30
0.0
 40
3.0
100
AcDbArc
 50
276.6544250460468
 51
320.6327670711983
  0
ARC
  5
890
330
871
100
AcDbEntity
  8
0
100
AcDbCircle
 10
-6.957868007035358
 20
-85.60606669467142
 30
0.0
 40
2.0
100
AcDbArc
 50
276.6544250460468
 51
320.6327670711983
  0
LINE
  5
891
330
871
100
AcDbEntity
  8
0
100
AcDbLine
 10
-43.41421356237242
 20
-41.48623596454581
 30
0.0
 11
-33.74999999999909
 21
-51.15044952691869
 31
0.0
  0
LINE
  5
892
330
871
100
AcDbEntity
  8
0
100
AcDbLine
 10
-44.12132034355908
 20
-42.19334274573202
 30
0.0
 11
-35.58578643762758
 21
-50.7288766516649
 31
0.0
  0
ARC
  5
893
330
871
100
AcDbEntity
  8
BEMASS
100
AcDbCircle
 10
-37.0
 20
-52.14309021403778
 30
0.0
 40
2.0
100
AcDbArc
 50
0.0
 51
44.99999999998848
  0
ARC
  5
894
330
871
100
AcDbEntity
  8
BEMASS
100
AcDbCircle
 10
-42.0
 20
-40.07202240217248
 30
0.0
 40
2.0
100
AcDbArc
 50
180.0
 51
224.9999999999908
  0
ARC
  5
895
330
871
100
AcDbEntity
  8
BEMASS
100
AcDbCircle
 10
-42.0
 20
-40.07202240217248
 30
0.0
 40
3.0
100
AcDbArc
 50
180.0
 51
224.9999999999908
  0
LINE
  5
896
330
871
100
AcDbEntity
  8
0
100
AcDbLine
 10
-0.0093445956626965
 20
-11.31464853567786
 30
0.0
 11
-42.21688676740268
 21
-11.3146485356774
 31
0.0
  0
LINE
  5
897
330
871
100
AcDbEntity
  8
BEMASS
100
AcDbLine
 10
-32.93069074375308
 20
-26.12410615986391
 30
0.0
 11
0.0
 21
-26.12410615986391
 31
0.0
  0
LINE
  5
898
330
871
100
AcDbEntity
  8
0
100
AcDbLine
 10
-51.0
 20
-6.314663089291116
 30
0.0
 11
-51.0
 21
-7.564663089291116
 31
0.0
  0
ARC
  5
899
330
871
100
AcDbEntity
  8
0
100
AcDbCircle
 10
-46.83568051838756
 20
-9.314663089291116
 30
0.0
 40
3.0
100
AcDbArc
 50
30.00000000002073
 51
90.0
  0
LINE
  5
89A
330
871
100
AcDbEntity
  8
VERDECKT
100
AcDbLine
 10
-35.26794919243184
 20
-25.85056147415298
 30
0.0
 11
-44.0
 21
-10.72620582117042
 31
0.0
  0
LINE
  5
89B
330
871
100
AcDbEntity
  8
0
100
AcDbLine
 10
-34.15192378864686
 20
-25.28357417604502
 30
0.0
 11
-44.2376043070335
 21
-7.814663089291116
 31
0.0
  0
LINE
  5
89C
330
871
100
AcDbEntity
  8
0
100
AcDbLine
 10
-46.0
 20
-26.31466308929157
 30
0.0
 11
-45.0
 21
-26.31466308929157
 31
0.0
  0
LINE
  5
89D
330
871
100
AcDbEntity
  8
0
100
AcDbLine
 10
-46.9800180856846
 20
-7.564663089290661
 30
0.0
 11
-51.0
 21
-7.564663089291116
 31
0.0
  0
LINE
  5
89E
330
871
100
AcDbEntity
  8
0
100
AcDbLine
 10
-45.00000000000091
 20
-8.994155013601357
 30
0.0
 11
-45.24796727811554
 21
-8.564663089290661
 31
0.0
  0
ARC
  5
89F
330
871
100
AcDbEntity
  8
0
100
AcDbCircle
 10
-46.9800180856846
 20
-9.564663089290661
 30
0.0
 40
2.0
100
AcDbArc
 50
30.00000000002073
 51
90.0
  0
ARC
  5
8A0
330
871
100
AcDbEntity
  8
VERDECKT
100
AcDbCircle
 10
-37.00000000000091
 20
-26.85056147415298
 30
0.0
 40
2.0
100
AcDbArc
 50
0.0
 51
30.00000000002073
  0
ARC
  5
8A1
330
871
100
AcDbEntity
  8
0
100
AcDbCircle
 10
-36.75
 20
-26.78357417604502
 30
0.0
 40
3.0
100
AcDbArc
 50
0.0
 51
30.00000000002073
  0
LINE
  5
8A2
330
871
100
AcDbEntity
  8
0
100
AcDbLine
 10
33.75
 20
-26.78357417604548
 30
0.0
 11
33.75
 21
-76.31466308929157
 31
0.0
  0
LINE
  5
8A3
330
871
100
AcDbEntity
  8
0
100
AcDbLine
 10
35.00000000000091
 20
-26.85056147415298
 30
0.0
 11
35.0
 21
-76.31466308929157
 31
0.0
  0
LINE
  5
8A4
330
871
100
AcDbEntity
  8
0
100
AcDbLine
 10
45.00000000000091
 20
-26.31466308929157
 30
0.0
 11
45.0
 21
-81.31466308929203
 31
0.0
  0
LINE
  5
8A5
330
871
100
AcDbEntity
  8
0
100
AcDbLine
 10
46.00000000000091
 20
-26.31466308929157
 30
0.0
 11
46.0
 21
-81.31466308929203
 31
0.0
  0
LINE
  5
8A6
330
871
100
AcDbEntity
  8
0
100
AcDbLine
 10
36.0
 20
-90.31466308929202
 30
0.0
 11
30.17440853235348
 21
-90.31466308929202
 31
0.0
  0
LINE
  5
8A7
330
871
100
AcDbEntity
  8
0
100
AcDbLine
 10
29.82676643367268
 20
-91.29445250655363
 30
0.0
 11
6.61022590835455
 21
-88.58585611193303
 31
0.0
  0
LINE
  5
8A8
330
871
100
AcDbEntity
  8
0
100
AcDbLine
 10
29.94264713323355
 20
-90.30118936746658
 30
0.0
 11
6.726106607914516
 21
-87.59259297284552
 31
0.0
  0
ARC
  5
8A9
330
871
100
AcDbEntity
  8
0
100
AcDbCircle
 10
30.17440853235257
 20
-88.31466308929202
 30
0.0
 40
3.0
100
AcDbArc
 50
263.3455749539532
 51
270.0
  0
ARC
  5
8AA
330
871
100
AcDbEntity
  8
0
100
AcDbCircle
 10
30.17440853235439
 20
-88.31466308929202
 30
0.0
 40
2.0
100
AcDbArc
 50
263.3455749539532
 51
270.0
  0
ARC
  5
8AB
330
871
100
AcDbEntity
  8
0
100
AcDbCircle
 10
6.957868007035358
 20
-85.60606669467142
 30
0.0
 40
2.0
100
AcDbArc
 50
219.3672329288017
 51
263.3455749539532
  0
ARC
  5
8AC
330
871
100
AcDbEntity
  8
0
100
AcDbCircle
 10
6.957868007035358
 20
-85.60606669467142
 30
0.0
 40
3.0
100
AcDbArc
 50
219.3672329288017
 51
263.3455749539532
  0
ARC
  5
8AD
330
871
100
AcDbEntity
  8
0
100
AcDbCircle
 10
36.0
 20
-81.31466308929203
 30
0.0
 40
9.0
100
AcDbArc
 50
270.0
 51
0.0
  0
ARC
  5
8AE
330
871
100
AcDbEntity
  8
0
100
AcDbCircle
 10
36.0
 20
-81.31466308929203
 30
0.0
 40
10.0
100
AcDbArc
 50
270.0
 51
0.0
  0
LINE
  5
8AF
330
871
100
AcDbEntity
  8
0
100
AcDbLine
 10
51.00000000000091
 20
-6.314663089291116
 30
0.0
 11
51.00000000000091
 21
-7.564663089291116
 31
0.0
  0
ARC
  5
8B0
330
871
100
AcDbEntity
  8
0
100
AcDbCircle
 10
46.83568051838756
 20
-9.314663089291116
 30
0.0
 40
3.0
100
AcDbArc
 50
90.0
 51
149.9999999999793
  0
ARC
  5
8B1
330
871
100
AcDbEntity
  8
0
100
AcDbCircle
 10
46.9800180856846
 20
-9.564663089291116
 30
0.0
 40
2.0
100
AcDbArc
 50
90.0
 51
149.9999999999793
  0
LINE
  5
8B2
330
871
100
AcDbEntity
  8
0
100
AcDbLine
 10
35.26794919243184
 20
-25.85056147415344
 30
0.0
 11
45.24796727811644
 21
-8.564663089291116
 31
0.0
  0
LINE
  5
8B3
330
871
100
AcDbEntity
  8
0
100
AcDbLine
 10
34.15192378864686
 20
-25.28357417604548
 30
0.0
 11
44.23760430703441
 21
-7.814663089291116
 31
0.0
  0
LINE
  5
8B4
330
871
100
AcDbEntity
  8
0
100
AcDbLine
 10
45.00000000000091
 20
-26.31466308929203
 30
0.0
 11
35.07313391199659
 21
-26.31466308929203
 31
0.0
  0
ARC
  5
8B5
330
871
100
AcDbEntity
  8
0
100
AcDbCircle
 10
37.00000000000091
 20
-26.85056147415344
 30
0.0
 40
2.0
100
AcDbArc
 50
149.9999999999793
 51
180.0
  0
ARC
  5
8B6
330
871
100
AcDbEntity
  8
0
100
AcDbCircle
 10
36.75
 20
-26.78357417604548
 30
0.0
 40
3.0
100
AcDbArc
 50
149.9999999999793
 51
180.0
  0
LINE
  5
8B7
330
871
100
AcDbEntity
  8
0
100
AcDbLine
 10
46.00000000000091
 20
-26.31466308929157
 30
0.0
 11
45.00000000000091
 21
-26.31466308929203
 31
0.0
  0
LINE
  5
8B8
330
871
100
AcDbEntity
  8
0
100
AcDbLine
 10
46.9800180856846
 20
-7.564663089291116
 30
0.0
 11
51.00000000000091
 21
-7.564663089291116
 31
0.0
  0
LINE
  5
8B9
330
871
100
AcDbEntity
  8
BEMASS
 62
     0
100
AcDbLine
 10
-51.0
 20
-6.314663089291116
 30
0.0
 11
-46.83568051838756
 21
-6.314663089291116
 31
0.0
  0
LINE
  5
8BA
330
871
100
AcDbEntity
  8
BEMASS
 62
     0
100
AcDbLine
 10
46.83568051838756
 20
-6.314663089291116
 30
0.0
 11
50.99990117639936
 21
-6.313229280162431
 31
0.0
  0
LINE
  5
8BB
330
871
100
AcDbEntity
  8
0
100
AcDbLine
 10
-0.0093445956626965
 20
-16.31464853567786
 30
0.0
 11
-39.33013542145454
 21
-16.31464853567741
 31
0.0
  0
LINE
  5
8BC
330
871
100
AcDbEntity
  8
0
100
AcDbLine
 10
0.0266994903067825
 20
-11.31454388944303
 30
0.0
 11
42.21694718493472
 21
-11.31454388944303
 31
0.0
  0
LINE
  5
8BD
330
871
100
AcDbEntity
  8
MITTE
 48
10.0
100
AcDbLine
 10
0.0008407073046328
 20
-13.81466297149291
 30
0.0
 11
-43.65941333053979
 21
-13.81466297149291
 31
0.0
  0
LINE
  5
8BE
330
871
100
AcDbEntity
  8
MITTE
 48
10.0
100
AcDbLine
 10
0.0087388566562368
 20
-13.8146503613284
 30
0.0
 11
43.66899289450157
 21
-13.81465036132795
 31
0.0
  0
LINE
  5
8BF
330
871
100
AcDbEntity
  8
0
100
AcDbLine
 10
-49.83225869254511
 20
-3.75
 30
0.0
 11
-52.42887347560281
 21
-0.2045674920527745
 31
0.0
  0
LINE
  5
8C0
330
871
100
AcDbEntity
  8
0
100
AcDbLine
 10
-52.13963484606939
 20
-9.565449827206975
 30
0.0
 11
-52.84302212658713
 21
-4.238200691178462
 31
0.0
  0
ARC
  5
8C1
330
871
100
AcDbEntity
  8
0
100
AcDbCircle
 10
-51.6439370347789
 20
-9.5
 30
0.0
 40
0.5
100
AcDbArc
 50
187.5215829840724
 51
270.0
  0
LINE
  5
8C2
330
871
100
AcDbEntity
  8
0
100
AcDbLine
 10
-46.08225869254511
 20
-7.777478691409498
 30
0.0
 11
-46.08225869254602
 21
-10.0
 31
0.0
  0
LINE
  5
8C3
330
871
100
AcDbEntity
  8
0
100
AcDbLine
 10
-51.08225869254511
 20
-6.074999999997999
 30
0.0
 11
-51.08225869254511
 21
-7.674999999998362
 31
0.0
  0
LINE
  5
8C4
330
871
100
AcDbEntity
  8
0
100
AcDbLine
 10
-46.08225869254511
 20
-3.75
 30
0.0
 11
-46.08225869254511
 21
-6.074999999998453
 31
0.0
  0
ARC
  5
8C5
330
871
100
AcDbEntity
  8
0
100
AcDbCircle
 10
-52.83225869254511
 20
-0.5
 30
0.0
 40
0.5
100
AcDbArc
 50
36.21841640738958
 51
180.0
  0
LINE
  5
8C6
330
871
100
AcDbEntity
  8
0
100
AcDbLine
 10
-53.33225869254511
 20
-0.5
 30
0.0
 11
-53.99999999999898
 21
-0.4999999999998864
 31
0.0
  0
ARC
  5
8C7
330
871
100
AcDbEntity
  8
0
100
AcDbCircle
 10
-54.82581337175088
 20
-4.500000000006821
 30
0.0
 40
2.0
100
AcDbArc
 50
7.521582984072445
 51
65.61244047337826
  0
LINE
  5
8C8
330
871
100
AcDbEntity
  8
0
100
AcDbLine
 10
-49.83225869254511
 20
-3.75
 30
0.0
 11
0.0
 21
-3.75
 31
0.0
  0
LINE
  5
8C9
330
871
100
AcDbEntity
  8
0
100
AcDbLine
 10
-51.6439370347789
 20
-10.0
 30
0.0
 11
-45.0
 21
-10.0
 31
0.0
  0
LINE
  5
8CA
330
871
100
AcDbEntity
  8
0
100
AcDbLine
 10
-51.08225869254511
 20
-7.674999999998362
 30
0.0
 11
-46.32490480619276
 21
-7.674999999998419
 31
0.0
  0
LINE
  5
8CB
330
871
100
AcDbEntity
  8
0
100
AcDbLine
 10
-51.08225869254511
 20
-6.074999999997999
 30
0.0
 11
0.0
 21
-6.074999999998908
 31
0.0
  0
LINE
  5
8CC
330
871
100
AcDbEntity
  8
0
100
AcDbLine
 10
-52.83225869254511
 20
0.0
 30
0.0
 11
0.0
 21
0.0
 31
0.0
  0
LINE
  5
8CD
330
871
100
AcDbEntity
  8
0
100
AcDbLine
 10
49.83225869254693
 20
-3.75
 30
0.0
 11
0.000000000001819
 21
-3.75
 31
0.0
  0
LINE
  5
8CE
330
871
100
AcDbEntity
  8
0
100
AcDbLine
 10
52.83225869254692
 20
0.0
 30
0.0
 11
0.000000000001819
 21
0.0
 31
0.0
  0
LINE
  5
8CF
330
871
100
AcDbEntity
  8
0
100
AcDbLine
 10
49.83225869254693
 20
-3.75
 30
0.0
 11
52.42887347560463
 21
-0.2045674920527745
 31
0.0
  0
LINE
  5
8D0
330
871
100
AcDbEntity
  8
0
100
AcDbLine
 10
52.1396348460712
 20
-9.565449827206975
 30
0.0
 11
52.84302212658895
 21
-4.238200691178462
 31
0.0
  0
LINE
  5
8D1
330
871
100
AcDbEntity
  8
0
100
AcDbLine
 10
46.08225869254693
 20
-3.75
 30
0.0
 11
46.08225869254693
 21
-6.074999999998453
 31
0.0
  0
ARC
  5
8D2
330
871
100
AcDbEntity
  8
0
100
AcDbCircle
 10
52.83225869254692
 20
-0.5
 30
0.0
 40
0.5
100
AcDbArc
 50
0.0
 51
143.7815835926104
  0
LINE
  5
8D3
330
871
100
AcDbEntity
  8
0
100
AcDbLine
 10
53.33225869254693
 20
-0.5
 30
0.0
 11
54.00000000000068
 21
-0.4999999999997727
 31
0.0
  0
ARC
  5
8D4
330
871
100
AcDbEntity
  8
0
100
AcDbCircle
 10
54.8258133717527
 20
-4.500000000006821
 30
0.0
 40
2.0
100
AcDbArc
 50
114.3875595266217
 51
172.4784170159275
  0
LINE
  5
8D5
330
871
100
AcDbEntity
  8
0
100
AcDbLine
 10
51.64393703478072
 20
-10.0
 30
0.0
 11
46.08225869254693
 21
-10.00000000000005
 31
0.0
  0
ARC
  5
8D6
330
871
100
AcDbEntity
  8
0
100
AcDbCircle
 10
51.64393703478072
 20
-9.5
 30
0.0
 40
0.5
100
AcDbArc
 50
270.0
 51
352.4784170159275
  0
LINE
  5
8D7
330
871
100
AcDbEntity
  8
0
100
AcDbLine
 10
51.08225869254693
 20
-7.674999999998362
 30
0.0
 11
46.3249048061939
 21
-7.674999999998476
 31
0.0
  0
LINE
  5
8D8
330
871
100
AcDbEntity
  8
0
100
AcDbLine
 10
51.08225869254693
 20
-6.074999999997999
 30
0.0
 11
0.000000000001819
 21
-6.074999999998908
 31
0.0
  0
LINE
  5
8D9
330
871
100
AcDbEntity
  8
0
100
AcDbLine
 10
51.08225869254693
 20
-6.074999999997999
 30
0.0
 11
51.08225869254693
 21
-7.674999999998362
 31
0.0
  0
HATCH
  5
8DA
330
871
100
AcDbEntity
  8
BEMASS
100
AcDbHatch
 10
0.0
 20
0.0
 30
0.0
210
0.0
220
0.0
230
1.0
  2
ANSI37
 70
     0
 71
     0
 91
        2
 92
        1
 93
       15
 72
     1
 10
-53.99999999999898
 20
-0.4999999999998864
 11
-53.99999999999903
 21
-2.67845332889567
 72
     2
 10
-54.82581337175088
 20
-4.500000000007162
 40
2.000000000000344
 50
294.3875595266178
 51
352.4784170159326
 73
     0
 72
     1
 10
-52.84302212658713
 20
-4.238200691178462
 11
-52.13963484606847
 21
-9.565449827206975
 72
     2
 10
-51.6439370347772
 20
-9.499999999999602
 40
0.5000000000004173
 50
187.5215829840854
 51
270.0000000000163
 73
     1
 72
     1
 10
-51.64393703477708
 20
-10.0
 11
-46.08225869254511
 21
-10.0
 72
     1
 10
-46.08225869254511
 20
-10.0
 11
-46.08225869254511
 21
-7.777478691409214
 72
     2
 10
-46.98001808568335
 20
-9.564663089290206
 40
1.999999999999295
 50
63.32817086243303
 51
70.87945960760902
 73
     1
 72
     1
 10
-46.32490480619253
 20
-7.674999999998362
 11
-51.08225869254511
 21
-7.674999999998817
 72
     1
 10
-51.08225869254511
 20
-7.674999999998817
 11
-51.08225869254329
 21
-6.074999999997544
 72
     1
 10
-51.08225869254329
 20
-6.074999999997544
 11
-46.08225869254693
 21
-6.074999999998453
 72
     1
 10
-46.08225869254693
 20
-6.074999999998453
 11
-46.08225869254328
 21
-3.75
 72
     1
 10
-46.08225869254328
 20
-3.75
 11
-49.83225869254511
 21
-3.75
 72
     1
 10
-49.83225869254511
 20
-3.75
 11
-52.42887347560373
 21
-0.2045674920527745
 72
     2
 10
-52.83225869254488
 20
-0.5000000000026148
 40
0.5000000000002062
 50
36.21841640775274
 51
179.9999999997003
 73
     1
 72
     1
 10
-53.33225869254511
 20
-0.5
 11
-53.999999999999
 21
-0.4999999999998864
 97
        0
 92
        1
 93
       15
 72
     1
 10
46.08225869254693
 20
-7.777478691409385
 11
46.0822586925469
 21
-10.00000000000034
 72
     1
 10
46.08225869254693
 20
-10.00000000000034
 11
51.64393703478075
 21
-10.0
 72
     2
 10
51.6439370347789
 20
-9.499999999999602
 40
0.5000000000004174
 50
270.0000000002019
 51
352.4784170159675
 73
     1
 72
     1
 10
52.13963484607029
 20
-9.565449827206521
 11
52.84302212658895
 21
-4.238200691178462
 72
     2
 10
54.8258133717527
 20
-4.500000000007162
 40
2.000000000000351
 50
187.5215829840675
 51
245.6124404733778
 73
     0
 72
     1
 10
54.00000000000068
 20
-2.678453328895784
 11
54.00000000000068
 21
-0.4999999999998295
 72
     1
 10
54.00000000000068
 20
-0.4999999999998295
 11
53.33225869254687
 21
-0.5
 72
     2
 10
52.8322586925467
 20
-0.5000000000026148
 40
0.5000000000002134
 50
0.0000000002996337
 51
143.7815835922453
 73
     1
 72
     1
 10
52.42887347560554
 20
-0.2045674920527745
 11
49.83225869254693
 21
-3.75
 72
     1
 10
49.83225869254693
 20
-3.75
 11
46.08225869254695
 21
-3.750000000000454
 72
     1
 10
46.08225869254693
 20
-3.750000000000454
 11
46.08225869254693
 21
-6.074999999997999
 72
     1
 10
46.08225869254693
 20
-6.074999999997999
 11
51.0822586925469
 21
-6.074999999997999
 72
     1
 10
51.08225869254693
 20
-6.074999999997999
 11
51.08225869254693
 21
-7.674999999997908
 72
     1
 10
51.08225869254693
 20
-7.674999999997908
 11
46.3249048061962
 21
-7.674999999997908
 72
     2
 10
46.98001808568483
 20
-9.56466308929049
 40
1.99999999999931
 50
109.1205403923263
 51
116.6718291375582
 73
     1
 97
        0
 75
     0
 76
     1
 52
0.0
 41
10.0
 77
     0
 78
     2
 53
45.0
 43
8273.670080663325
 44
2660.481589220806
 45
-0.8838834764831842
 46
0.8838834764831844
 79
     0
 53
135.0
 43
8273.670080663325
 44
2660.481589220806
 45
-0.8838834764831844
 46
-0.8838834764831842
 79
     0
 98
        2
 10
-51.10358979178545
 20
-3.992284465779448
 10
51.24188258813683
 20
-4.707821093559687
  0
LINE
  5
8DB
330
871
100
AcDbEntity
  8
0
100
AcDbLine
 10
46.08225869254693
 20
-7.777478691409044
 30
0.0
 11
46.08225869254693
 21
-10.00000000000074
 31
0.0
  0
LINE
  5
2139
330
871
100
AcDbEntity
  8
VERDECKT
100
AcDbLine
 10
-46.32490480619276
 20
-7.674999999998419
 30
0.0
 11
46.3249048061939
 21
-7.674999999998476
 31
0.0
  0
LINE
  5
213A
330
871
100
AcDbEntity
  8
VERDECKT
100
AcDbLine
 10
-45.0
 20
-10.0
 30
0.0
 11
42.97589945336653
 21
-10.0
 31
0.0
  0
LINE
  5
213B
330
871
100
AcDbEntity
  8
SICHTBAR
100
AcDbLine
 10
42.97589945336653
 20
-10.0
 30
0.0
 11
46.08225869254693
 21
-10.00000000000074
 31
0.0
  0
ENDBLK
  5
8DC
330
871
100
AcDbEntity
  8
0
100
AcDbBlockEnd
  0
BLOCK
  5
8E0
330
8DD
100
AcDbEntity
  8
0
100
AcDbBlockBegin
  2
A$C7E5D49C8
 70
     0
 10
0.0
 20
0.0
 30
0.0
  3
A$C7E5D49C8
  1

  0
ARC
  5
8E2
330
8DD
100
AcDbEntity
  8
SICHTBAR
100
AcDbCircle
 10
-65.00000000000034
 20
-10.4083269131961
 30
0.0
 40
4.5
100
AcDbArc
 50
280.4756816963802
 51
79.52431830360635
  0
ARC
  5
8E3
330
8DD
100
AcDbEntity
  8
SICHTBAR
100
AcDbCircle
 10
-65.00000000000034
 20
-10.4083269131961
 30
0.0
 40
3.5
100
AcDbArc
 50
280.4756816963802
 51
79.52431830360635
  0
ARC
  5
8E4
330
8DD
100
AcDbEntity
  8
SICHTBAR
100
AcDbCircle
 10
65.0
 20
-10.4083269131961
 30
0.0
 40
3.5
100
AcDbArc
 50
100.4756816963936
 51
259.5243183036198
  0
ARC
  5
8E5
330
8DD
100
AcDbEntity
  8
SICHTBAR
100
AcDbCircle
 10
65.0
 20
-10.4083269131961
 30
0.0
 40
4.5
100
AcDbArc
 50
100.4756816963936
 51
259.5243183036198
  0
LINE
  5
8E6
330
8DD
100
AcDbEntity
  8
MITTE
100
AcDbLine
 10
0.000000000001819
 20
2.906884350951941
 30
0.0
 11
0.0000000000015916
 21
-104.9600983954432
 31
0.0
  0
LINE
  5
8E7
330
8DD
100
AcDbEntity
  8
SICHTBAR
100
AcDbLine
 10
-59.00000000000068
 20
-104.0000000000003
 30
0.0
 11
0.0
 21
-104.0000000000001
 31
0.0
  0
LINE
  5
8E8
330
8DD
100
AcDbEntity
  8
SICHTBAR
100
AcDbLine
 10
-59.0
 20
-103.0000000000003
 30
0.0
 11
0.0000000000002274
 21
-103.0000000000003
 31
0.0
  0
ARC
  5
8E9
330
8DD
100
AcDbEntity
  8
SICHTBAR
100
AcDbCircle
 10
-59.00000000000068
 20
-97.00000000000034
 30
0.0
 40
7.0
100
AcDbArc
 50
180.0
 51
270.0
  0
LINE
  5
8EA
330
8DD
100
AcDbEntity
  8
SICHTBAR
100
AcDbLine
 10
-65.00000000000034
 20
-15.81665382639221
 30
0.0
 11
-65.0
 21
-97.00000000000034
 31
0.0
  0
LINE
  5
8EB
330
8DD
100
AcDbEntity
  8
SICHTBAR
100
AcDbLine
 10
-66.00000000000034
 20
-15.81665382639198
 30
0.0
 11
-66.00000000000068
 21
-97.00000000000011
 31
0.0
  0
ARC
  5
8EC
330
8DD
100
AcDbEntity
  8
SICHTBAR
100
AcDbCircle
 10
-59.0
 20
-97.00000000000034
 30
0.0
 40
6.0
100
AcDbArc
 50
180.0
 51
270.0
  0
ARC
  5
8ED
330
8DD
100
AcDbEntity
  8
SICHTBAR
100
AcDbCircle
 10
-64.00000000000034
 20
-15.81665382639221
 30
0.0
 40
1.0
100
AcDbArc
 50
100.4756816963936
 51
180.0
  0
ARC
  5
8EE
330
8DD
100
AcDbEntity
  8
SICHTBAR
100
AcDbCircle
 10
-64.00000000000034
 20
-15.81665382639221
 30
0.0
 40
2.0
100
AcDbArc
 50
100.4756816963936
 51
180.0
  0
LINE
  5
8EF
330
8DD
100
AcDbEntity
  8
SICHTBAR
100
AcDbLine
 10
59.00000000000137
 20
-104.0000000000003
 30
0.0
 11
0.0
 21
-104.0000000000001
 31
0.0
  0
LINE
  5
8F0
330
8DD
100
AcDbEntity
  8
SICHTBAR
100
AcDbLine
 10
59.00000000000023
 20
-103.0000000000003
 30
0.0
 11
0.0000000000002274
 21
-103.0000000000003
 31
0.0
  0
ARC
  5
8F1
330
8DD
100
AcDbEntity
  8
SICHTBAR
100
AcDbCircle
 10
64.0
 20
-15.81665382639221
 30
0.0
 40
1.0
100
AcDbArc
 50
0.0
 51
79.52431830360635
  0
LINE
  5
8F2
330
8DD
100
AcDbEntity
  8
SICHTBAR
100
AcDbLine
 10
65.99999999999955
 20
-15.81665382639198
 30
0.0
 11
66.0
 21
-19.94853702507839
 31
0.0
  0
LINE
  5
8F3
330
8DD
100
AcDbEntity
  8
SICHTBAR
100
AcDbLine
 10
64.99999999999954
 20
-15.81665382639221
 30
0.0
 11
65.0
 21
-19.94853702507828
 31
0.0
  0
ARC
  5
8F4
330
8DD
100
AcDbEntity
  8
SICHTBAR
100
AcDbCircle
 10
64.0
 20
-15.81665382639221
 30
0.0
 40
2.0
100
AcDbArc
 50
0.0
 51
79.52431830360635
  0
ARC
  5
8F5
330
8DD
100
AcDbEntity
  8
SICHTBAR
100
AcDbCircle
 10
-64.00000000000034
 20
-5.0
 30
0.0
 40
1.0
100
AcDbArc
 50
179.9999999999935
 51
259.5243183036064
  0
LINE
  5
8F6
330
8DD
100
AcDbEntity
  8
SICHTBAR
100
AcDbLine
 10
-66.00000000000034
 20
-5.0
 30
0.0
 11
-66.00000000000034
 21
0.0
 31
0.0
  0
LINE
  5
8F7
330
8DD
100
AcDbEntity
  8
SICHTBAR
100
AcDbLine
 10
-65.00000000000034
 20
-5.0
 30
0.0
 11
-65.00000000000011
 21
0.0
 31
0.0
  0
LINE
  5
8F8
330
8DD
100
AcDbEntity
  8
SICHTBAR
100
AcDbLine
 10
-66.00000000000034
 20
0.0
 30
0.0
 11
-65.00000000000011
 21
0.0
 31
0.0
  0
ARC
  5
8F9
330
8DD
100
AcDbEntity
  8
SICHTBAR
100
AcDbCircle
 10
-64.00000000000034
 20
-5.0
 30
0.0
 40
2.0
100
AcDbArc
 50
179.9999999999935
 51
259.5243183036064
  0
ARC
  5
8FA
330
8DD
100
AcDbEntity
  8
SICHTBAR
100
AcDbCircle
 10
64.0
 20
-5.0
 30
0.0
 40
1.0
100
AcDbArc
 50
280.4756816963936
 51
0.0
  0
LINE
  5
8FB
330
8DD
100
AcDbEntity
  8
SICHTBAR
100
AcDbLine
 10
66.0
 20
-5.0
 30
0.0
 11
66.0
 21
0.0
 31
0.0
  0
LINE
  5
8FC
330
8DD
100
AcDbEntity
  8
SICHTBAR
100
AcDbLine
 10
65.0
 20
-5.0
 30
0.0
 11
65.0
 21
0.0
 31
0.0
  0
ARC
  5
8FD
330
8DD
100
AcDbEntity
  8
SICHTBAR
100
AcDbCircle
 10
64.0
 20
-5.0
 30
0.0
 40
2.0
100
AcDbArc
 50
280.4756816963936
 51
0.0
  0
LINE
  5
8FE
330
8DD
100
AcDbEntity
  8
SICHTBAR
100
AcDbLine
 10
65.0
 20
0.0
 30
0.0
 11
66.0
 21
0.0
 31
0.0
  0
LINE
  5
8FF
330
8DD
100
AcDbEntity
  8
MITTE
100
AcDbLine
 10
49.73405607110453
 20
-74.00000000000034
 30
0.0
 11
130.8148588433378
 21
-74.00000000000034
 31
0.0
  0
ELLIPSE
  5
900
330
8DD
100
AcDbEntity
  8
BEMASS
100
AcDbEllipse
 10
65.84266528123817
 20
-74.03821067857143
 30
0.0
 11
0.0360143752024186
 21
27.40856342181572
 31
0.0
210
0.0
220
0.0
230
-0.9999999999999998
 40
0.3010344438538182
 41
3.141592653589794
 42
5.134334658940224
  0
ARC
  5
901
330
8DD
100
AcDbEntity
  8
SICHTBAR
100
AcDbCircle
 10
59.00000000000023
 20
-97.00000000000034
 30
0.0
 40
6.0
100
AcDbArc
 50
270.0
 51
324.3146652873545
  0
ARC
  5
902
330
8DD
100
AcDbEntity
  8
SICHTBAR
100
AcDbCircle
 10
59.00000000000068
 20
-97.00000000000034
 30
0.0
 40
7.0
100
AcDbArc
 50
270.0
 51
319.99479911515
  0
LINE
  5
903
330
8DD
100
AcDbEntity
  8
SICHTBAR
100
AcDbLine
 10
64.36190264738252
 20
-101.5000000000003
 30
0.0
 11
69.00000000000068
 21
-101.5000000000001
 31
0.0
  0
LINE
  5
904
330
8DD
100
AcDbEntity
  8
SICHTBAR
100
AcDbLine
 10
63.87339717240479
 20
-100.5000000000001
 30
0.0
 11
69.00000000000068
 21
-100.5083269131958
 31
0.0
  0
LINE
  5
905
330
8DD
100
AcDbEntity
  8
SICHTBAR
100
AcDbLine
 10
69.00000000000068
 20
-101.5000000000001
 30
0.0
 11
68.00000000000068
 21
-101.5000000000003
 31
0.0
  0
LINE
  5
906
330
8DD
100
AcDbEntity
  8
SICHTBAR
100
AcDbLine
 10
69.00000000000068
 20
-100.508326913196
 30
0.0
 11
67.98610037780576
 21
-100.5000000000003
 31
0.0
  0
ELLIPSE
  5
907
330
8DD
100
AcDbEntity
  8
BEMASS
100
AcDbEllipse
 10
65.84266528123817
 20
-74.03821067857143
 30
0.0
 11
0.0360143752024234
 21
27.40856342181574
 31
0.0
210
0.0
220
0.0
230
-1.0
 40
0.3010344438538179
 41
-1.148850648239362
 42
0.0000000000000004
  0
LINE
  5
908
330
8DD
100
AcDbEntity
  8
SICHTBAR
100
AcDbLine
 10
68.00000000000068
 20
-46.49999999999988
 30
0.0
 11
69.00000000000068
 21
-46.49999999999988
 31
0.0
  0
LINE
  5
909
330
8DD
100
AcDbEntity
  8
SICHTBAR
100
AcDbLine
 10
69.00000000000068
 20
-47.50832691319646
 30
0.0
 11
68.00000000000046
 21
-47.49999999999988
 31
0.0
  0
LINE
  5
90A
330
8DD
100
AcDbEntity
  8
SICHTBAR
100
AcDbLine
 10
69.00000000000068
 20
-46.50000000000011
 30
0.0
 11
68.00000000000068
 21
-46.50000000000011
 31
0.0
  0
ARC
  5
90B
330
8DD
100
AcDbEntity
  8
SICHTBAR
100
AcDbCircle
 10
68.00000000000068
 20
-44.49999999999988
 30
0.0
 40
2.0
100
AcDbArc
 50
180.0
 51
270.0
  0
ARC
  5
90C
330
8DD
100
AcDbEntity
  8
SICHTBAR
100
AcDbCircle
 10
68.00000000000022
 20
-44.49999999999988
 30
0.0
 40
3.0
100
AcDbArc
 50
180.0
 51
270.0
  0
LINE
  5
90D
330
8DD
100
AcDbEntity
  8
SICHTBAR
100
AcDbLine
 10
66.0
 20
-15.81665382639198
 30
0.0
 11
66.00000000000068
 21
-44.49999999999988
 31
0.0
  0
LINE
  5
90E
330
8DD
100
AcDbEntity
  8
SICHTBAR
100
AcDbLine
 10
65.0
 20
-15.81665382639221
 30
0.0
 11
65.00000000000023
 21
-44.49999999999988
 31
0.0
  0
LINE
  5
90F
330
8DD
100
AcDbEntity
  8
SICHTBAR
100
AcDbLine
 10
69.00000000000068
 20
-101.5000000000001
 30
0.0
 11
69.00000000000068
 21
-46.50000000000011
 31
0.0
  0
HATCH
  5
910
330
8DD
100
AcDbEntity
  8
BEMASS
 62
     6
100
AcDbHatch
 10
0.0
 20
0.0
 30
0.0
210
0.0
220
0.0
230
1.0
  2
ANSI31
 70
     0
 71
     0
 91
        3
 92
        7
 72
     0
 73
     1
 93
        6
 10
124.407241539267
 20
-49.00832691319578
 10
104.7733999449192
 20
-49.00832691319578
 10
104.0274106042116
 20
-50.00832691319613
 10
124.2755890416799
 20
-50.00832691319579
 10
127.7411809548975
 20
-50.93692946763849
 10
128.0000000000004
 20
-49.9710036413494
 97
        0
 92
        7
 72
     1
 73
     1
 93
        8
 10
104.7733999449192
 20
-49.00832691319578
 42
0.0
 10
77.76305461424181
 20
-49.00832691319624
 42
-0.07586627076342
 10
76.27167964856221
 20
-48.78072680337152
 42
0.0
 10
69.28469750889735
 20
-46.5972948847268
 42
0.0
 10
69.00000000000068
 20
-47.50832691319646
 42
0.0
 10
76.12601557827293
 20
-49.73520678140665
 42
0.0758662707634397
 10
77.91566553708889
 20
-50.00832691319647
 42
0.0
 10
104.0274106042116
 20
-50.00832691319613
 42
0.0
 97
        0
 92
        7
 72
     1
 73
     1
 93
       10
 10
76.27167964856198
 20
-99.23592702302109
 42
-0.075866270763414
 10
77.76305461424136
 20
-99.00832691319624
 42
0.0
 10
124.128656845595
 20
-99.00832691319568
 42
0.0
 10
128.0000000000004
 20
-97.97100364134895
 42
0.0
 10
127.741180954898
 20
-97.00507781505985
 42
0.0
 10
124.009130147328
 20
-98.00832691319602
 42
0.0
 10
77.91566553708889
 20
-98.00832691319602
 42
0.0758662707634361
 10
76.12601557827293
 20
-98.28144704498596
 42
0.0
 10
69.00000000000068
 20
-100.508326913196
 42
0.0
 10
69.28469750889735
 20
-101.4193589416659
 42
0.0
 97
        0
 75
     0
 76
     1
 52
90.0
 41
20.0
 77
     0
 78
     1
 53
135.0
 43
-153.6765303382675
 44
-256.577392241169
 45
-1.767766952966368
 46
-1.767766952966368
 79
     0
 47
0.0751033638555349
 98
        3
 10
112.1146658906232
 20
-49.69648872146172
 10
89.87691128626876
 20
-49.5462822534821
 10
73.94987137077169
 20
-99.41491608428965
1001
ACAD
1010
0.0
1020
0.0
1030
0.0
  0
LINE
  5
911
330
8DD
100
AcDbEntity
  8
SICHTBAR
100
AcDbLine
 10
124.009130147328
 20
-98.00832691319602
 30
0.0
 11
77.91566553708867
 21
-98.00832691319602
 31
0.0
  0
LINE
  5
912
330
8DD
100
AcDbEntity
  8
SICHTBAR
100
AcDbLine
 10
124.128656845595
 20
-99.00832691319568
 30
0.0
 11
77.76305461424158
 21
-99.00832691319624
 31
0.0
  0
LINE
  5
913
330
8DD
100
AcDbEntity
  8
SICHTBAR
100
AcDbLine
 10
69.00000000000068
 20
-100.508326913196
 30
0.0
 11
76.12601557827293
 21
-98.28144704498596
 31
0.0
  0
LINE
  5
914
330
8DD
100
AcDbEntity
  8
SICHTBAR
100
AcDbLine
 10
76.27167964856198
 20
-99.23592702302109
 30
0.0
 11
69.28469750889735
 21
-101.4193589416659
 31
0.0
  0
ARC
  5
915
330
8DD
100
AcDbEntity
  8
SICHTBAR
100
AcDbCircle
 10
77.91566553708889
 20
-104.008326913196
 30
0.0
 40
6.0
100
AcDbArc
 50
90.0
 51
107.3540246362601
  0
ARC
  5
916
330
8DD
100
AcDbEntity
  8
SICHTBAR
100
AcDbCircle
 10
77.76305461424158
 20
-104.0083269131962
 30
0.0
 40
5.0
100
AcDbArc
 50
90.0
 51
107.3540246362601
  0
LINE
  5
917
330
8DD
100
AcDbEntity
  8
SICHTBAR
100
AcDbLine
 10
77.91566553708889
 20
-50.00832691319647
 30
0.0
 11
124.2755890416799
 21
-50.00832691319579
 31
0.0
  0
LINE
  5
918
330
8DD
100
AcDbEntity
  8
SICHTBAR
100
AcDbLine
 10
124.407241539267
 20
-49.00832691319578
 30
0.0
 11
77.76305461424044
 21
-49.00832691319578
 31
0.0
  0
LINE
  5
919
330
8DD
100
AcDbEntity
  8
SICHTBAR
100
AcDbLine
 10
128.0000000000004
 20
-50.04565018504241
 30
0.0
 11
128.0000000000004
 21
-97.97100364134895
 31
0.0
  0
LINE
  5
91A
330
8DD
100
AcDbEntity
  8
SICHTBAR
100
AcDbLine
 10
128.0000000000004
 20
-49.9710036413494
 30
0.0
 11
128.0000000000004
 21
-97.97100364134895
 31
0.0
  0
LINE
  5
91B
330
8DD
100
AcDbEntity
  8
SICHTBAR
100
AcDbLine
 10
124.009130147328
 20
-98.00832691319602
 30
0.0
 11
127.741180954898
 21
-97.00507781505985
 31
0.0
  0
LINE
  5
91C
330
8DD
100
AcDbEntity
  8
SICHTBAR
100
AcDbLine
 10
124.128656845595
 20
-99.00832691319568
 30
0.0
 11
128.0000000000004
 21
-97.97100364134895
 31
0.0
  0
LINE
  5
91D
330
8DD
100
AcDbEntity
  8
SICHTBAR
100
AcDbLine
 10
124.2755890416799
 20
-50.00832691319579
 30
0.0
 11
127.7411809548975
 21
-50.93692946763849
 31
0.0
  0
LINE
  5
91E
330
8DD
100
AcDbEntity
  8
SICHTBAR
100
AcDbLine
 10
124.407241539267
 20
-49.00832691319578
 30
0.0
 11
128.0000000000004
 21
-49.9710036413494
 31
0.0
  0
LINE
  5
91F
330
8DD
100
AcDbEntity
  8
SICHTBAR
100
AcDbLine
 10
69.00000000000068
 20
-47.50832691319646
 30
0.0
 11
76.12601557827293
 21
-49.73520678140676
 31
0.0
  0
LINE
  5
920
330
8DD
100
AcDbEntity
  8
SICHTBAR
100
AcDbLine
 10
76.27167964856198
 20
-48.7807268033714
 30
0.0
 11
69.28469750889735
 21
-46.5972948847268
 31
0.0
  0
ARC
  5
921
330
8DD
100
AcDbEntity
  8
SICHTBAR
100
AcDbCircle
 10
77.91566553708889
 20
-44.00832691319647
 30
0.0
 40
6.0
100
AcDbArc
 50
252.6459753637398
 51
270.0
  0
ARC
  5
922
330
8DD
100
AcDbEntity
  8
SICHTBAR
100
AcDbCircle
 10
77.76305461424158
 20
-44.00832691319624
 30
0.0
 40
5.0
100
AcDbArc
 50
252.6459753637398
 51
270.0
  0
LINE
  5
923
330
8DD
100
AcDbEntity
  8
SICHTBAR
100
AcDbLine
 10
128.0000000000004
 20
-49.9710036413494
 30
0.0
 11
127.7411809548975
 21
-50.93692946763849
 31
0.0
  0
LINE
  5
924
330
8DD
100
AcDbEntity
  8
SICHTBAR
100
AcDbLine
 10
128.0000000000004
 20
-97.97100364134895
 30
0.0
 11
127.741180954898
 21
-97.00507781505985
 31
0.0
  0
LINE
  5
925
330
8DD
100
AcDbEntity
  8
SICHTBAR
100
AcDbLine
 10
127.741180954898
 20
-97.00507781505985
 30
0.0
 11
127.7411809548975
 21
-50.93692946763849
 31
0.0
  0
LINE
  5
926
330
8DD
100
AcDbEntity
  8
SICHTBAR
100
AcDbLine
 10
69.00000000000068
 20
-47.50832691319646
 30
0.0
 11
69.28469750889735
 21
-46.5972948847268
 31
0.0
  0
LINE
  5
927
330
8DD
100
AcDbEntity
  8
SICHTBAR
100
AcDbLine
 10
69.00000000000068
 20
-100.508326913196
 30
0.0
 11
69.28469750889735
 21
-101.4193589416659
 31
0.0
  0
LINE
  5
928
330
8DD
100
AcDbEntity
  8
SICHTBAR
100
AcDbLine
 10
69.00000000000068
 20
-100.508326913196
 30
0.0
 11
69.00000000000068
 21
-47.50832691319646
 31
0.0
  0
LINE
  5
929
330
8DD
100
AcDbEntity
  8
BEMASS
100
AcDbLine
 10
77.01048025474642
 20
-49.93965388147518
 30
0.0
 11
77.01048025474642
 21
-98.07699994491731
 31
0.0
  0
ENDBLK
  5
92A
330
8DD
100
AcDbEntity
  8
0
100
AcDbBlockEnd
  0
BLOCK
  5
C3A
330
C39
100
AcDbEntity
  8
0
100
AcDbBlockBegin
  2
*D6
 70
     1
 10
0.0
 20
0.0
 30
0.0
  3
*D6
  1

  0
LINE
  5
21B1
330
C39
100
AcDbEntity
  8
BEMASS
440
 16777216
370
    -2
100
AcDbLine
 10
984.6933832723015
 20
275.4653143950718
 30
0.0
 11
885.6980741429591
 21
275.4653143950719
 31
0.0
  0
LINE
  5
21B2
330
C39
100
AcDbEntity
  8
BEMASS
440
 16777216
370
    -2
100
AcDbLine
 10
970.1933832723021
 20
397.2612639961657
 30
0.0
 11
885.6980741429591
 21
397.2612639961657
 31
0.0
  0
LINE
  5
21B3
330
C39
100
AcDbEntity
  8
BEMASS
440
 16777216
370
    -2
100
AcDbLine
 10
887.8980741429591
 20
279.3153143950719
 30
0.0
 11
887.8980741429591
 21
393.4112639961657
 31
0.0
  0
SOLID
  5
21B4
330
C39
100
AcDbEntity
  8
BEMASS
440
 16777216
100
AcDbTrace
 10
887.2564074762925
 20
279.3153143950719
 30
0.0
 11
888.5397408096258
 21
279.3153143950719
 31
0.0
 12
887.8980741429591
 22
275.4653143950719
 32
0.0
 13
887.8980741429591
 23
275.4653143950719
 33
0.0
  0
SOLID
  5
21B5
330
C39
100
AcDbEntity
  8
BEMASS
440
 16777216
100
AcDbTrace
 10
887.2564074762925
 20
393.4112639961657
 30
0.0
 11
888.5397408096258
 21
393.4112639961657
 31
0.0
 12
887.8980741429591
 22
397.2612639961657
 32
0.0
 13
887.8980741429591
 23
397.2612639961657
 33
0.0
  0
MTEXT
  5
21B6
330
C39
100
AcDbEntity
  8
BEMASS
440
 16777216
100
AcDbMText
 10
883.773074142959
 20
336.3632891956189
 30
0.0
 40
3.85
 41
0.0
 46
0.0
 71
     5
 72
     1
  1
\A1;120-179
 11
0.0000000000000001
 21
1.0
 31
0.0
 73
     1
 44
1.0
  0
POINT
  5
21B7
330
C39
100
AcDbEntity
  8
DEFPOINTS
 62
     0
440
 16777216
100
AcDbPoint
 10
984.6933832723015
 20
275.4653143950718
 30
0.0
  0
POINT
  5
21B8
330
C39
100
AcDbEntity
  8
DEFPOINTS
 62
     0
440
 16777216
100
AcDbPoint
 10
970.1933832723021
 20
397.2612639961657
 30
0.0
  0
POINT
  5
21B9
330
C39
100
AcDbEntity
  8
DEFPOINTS
 62
     0
440
 16777216
100
AcDbPoint
 10
887.8980741429591
 20
397.2612639961657
 30
0.0
  0
ENDBLK
  5
C3B
330
C39
100
AcDbEntity
  8
0
100
AcDbBlockEnd
  0
BLOCK
  5
C46
330
C45
100
AcDbEntity
  8
0
100
AcDbBlockBegin
  2
*D7
 70
     1
 10
0.0
 20
0.0
 30
0.0
  3
*D7
  1

  0
LINE
  5
21BA
330
C45
100
AcDbEntity
  8
BEMASS
440
 16777216
370
    -2
100
AcDbLine
 10
968.693383272302
 20
394.9991357395319
 30
0.0
 11
968.693383272302
 21
414.4612639961654
 31
0.0
  0
LINE
  5
21BB
330
C45
100
AcDbEntity
  8
BEMASS
440
 16777216
370
    -2
100
AcDbLine
 10
1118.693383272302
 20
395.7612639961654
 30
0.0
 11
1118.693383272302
 21
414.4612639961654
 31
0.0
  0
LINE
  5
21BC
330
C45
100
AcDbEntity
  8
BEMASS
440
 16777216
370
    -2
100
AcDbLine
 10
972.5433832723021
 20
412.2612639961654
 30
0.0
 11
1114.843383272303
 21
412.2612639961654
 31
0.0
  0
SOLID
  5
21BD
330
C45
100
AcDbEntity
  8
BEMASS
440
 16777216
100
AcDbTrace
 10
972.5433832723021
 20
412.9029306628321
 30
0.0
 11
972.5433832723021
 21
411.6195973294987
 31
0.0
 12
968.693383272302
 22
412.2612639961654
 32
0.0
 13
968.693383272302
 23
412.2612639961654
 33
0.0
  0
SOLID
  5
21BE
330
C45
100
AcDbEntity
  8
BEMASS
440
 16777216
100
AcDbTrace
 10
1114.843383272303
 20
412.9029306628321
 30
0.0
 11
1114.843383272303
 21
411.6195973294987
 31
0.0
 12
1118.693383272302
 22
412.2612639961654
 32
0.0
 13
1118.693383272302
 23
412.2612639961654
 33
0.0
  0
MTEXT
  5
21BF
330
C45
100
AcDbEntity
  8
BEMASS
440
 16777216
100
AcDbMText
 10
1043.693383272302
 20
416.3862639961654
 30
0.0
 40
3.85
 41
0.0
 46
0.0
 71
     5
 72
     1
  1
\A1;150x150
 73
     1
 44
1.0
  0
POINT
  5
21C0
330
C45
100
AcDbEntity
  8
DEFPOINTS
 62
     0
440
 16777216
100
AcDbPoint
 10
968.693383272302
 20
394.9991357395319
 30
0.0
  0
POINT
  5
21C1
330
C45
100
AcDbEntity
  8
DEFPOINTS
 62
     0
440
 16777216
100
AcDbPoint
 10
1118.693383272302
 20
395.7612639961654
 30
0.0
  0
POINT
  5
21C2
330
C45
100
AcDbEntity
  8
DEFPOINTS
 62
     0
440
 16777216
100
AcDbPoint
 10
1118.693383272302
 20
412.2612639961654
 30
0.0
  0
ENDBLK
  5
C47
330
C45
100
AcDbEntity
  8
0
100
AcDbBlockEnd
  0
BLOCK
  5
C52
330
C51
100
AcDbEntity
  8
0
100
AcDbBlockBegin
  2
*D8
 70
     1
 10
0.0
 20
0.0
 30
0.0
  3
*D8
  1

  0
LINE
  5
21C3
330
C51
100
AcDbEntity
  8
BEMASS
440
 16777216
370
    -2
100
AcDbLine
 10
968.6933832723017
 20
387.2612639961657
 30
0.0
 11
896.592454092198
 21
387.2612639961657
 31
0.0
  0
LINE
  5
21C4
330
C51
100
AcDbEntity
  8
BEMASS
440
 16777216
370
    -2
100
AcDbLine
 10
970.1933832723021
 20
397.2612639961657
 30
0.0
 11
896.592454092198
 21
397.2612639961657
 31
0.0
  0
LINE
  5
21C5
330
C51
100
AcDbEntity
  8
BEMASS
440
 16777216
370
    -2
100
AcDbLine
 10
898.792454092198
 20
383.4112639961656
 30
0.0
 11
898.792454092198
 21
379.5612639961657
 31
0.0
  0
LINE
  5
21C6
330
C51
100
AcDbEntity
  8
BEMASS
440
 16777216
370
    -2
100
AcDbLine
 10
898.792454092198
 20
401.1112639961656
 30
0.0
 11
898.792454092198
 21
423.4412639961656
 31
0.0
  0
LINE
  5
21C7
330
C51
100
AcDbEntity
  8
BEMASS
440
 16777216
370
    -2
100
AcDbLine
 10
898.792454092198
 20
387.2612639961657
 30
0.0
 11
898.792454092198
 21
397.2612639961657
 31
0.0
  0
SOLID
  5
21C8
330
C51
100
AcDbEntity
  8
BEMASS
440
 16777216
100
AcDbTrace
 10
898.1507874255314
 20
383.4112639961656
 30
0.0
 11
899.4341207588647
 21
383.4112639961656
 31
0.0
 12
898.792454092198
 22
387.2612639961657
 32
0.0
 13
898.792454092198
 23
387.2612639961657
 33
0.0
  0
SOLID
  5
21C9
330
C51
100
AcDbEntity
  8
BEMASS
440
 16777216
100
AcDbTrace
 10
898.1507874255314
 20
401.1112639961656
 30
0.0
 11
899.4341207588647
 21
401.1112639961656
 31
0.0
 12
898.792454092198
 22
397.2612639961657
 32
0.0
 13
898.792454092198
 23
397.2612639961657
 33
0.0
  0
MTEXT
  5
21CA
330
C51
100
AcDbEntity
  8
BEMASS
440
 16777216
100
AcDbMText
 10
894.667454092198
 20
414.2012639961658
 30
0.0
 40
3.85
 41
0.0
 46
0.0
 71
     5
 72
     1
  1
\A1;10-50
 11
0.0000000000000001
 21
1.0
 31
0.0
 73
     1
 44
1.0
  0
POINT
  5
21CB
330
C51
100
AcDbEntity
  8
DEFPOINTS
 62
     0
440
 16777216
100
AcDbPoint
 10
968.6933832723017
 20
387.2612639961657
 30
0.0
  0
POINT
  5
21CC
330
C51
100
AcDbEntity
  8
DEFPOINTS
 62
     0
440
 16777216
100
AcDbPoint
 10
970.1933832723021
 20
397.2612639961657
 30
0.0
  0
POINT
  5
21CD
330
C51
100
AcDbEntity
  8
DEFPOINTS
 62
     0
440
 16777216
100
AcDbPoint
 10
898.792454092198
 20
397.2612639961657
 30
0.0
  0
ENDBLK
  5
C53
330
C51
100
AcDbEntity
  8
0
100
AcDbBlockEnd
  0
BLOCK
  5
F24
330
EF2
100
AcDbEntity
  8
0
100
AcDbBlockBegin
  2
A$C054D54D0
 70
     0
 10
0.0
 20
0.0
 30
0.0
  3
A$C054D54D0
  1

  0
LINE
  5
EF3
330
EF2
100
AcDbEntity
  8
SICHTBAR
100
AcDbLine
 10
46.00000000000068
 20
-62.28185604809005
 30
0.0
 11
55.00000000000023
 21
-62.28185604809005
 31
0.0
  0
LINE
  5
EF4
330
EF2
100
AcDbEntity
  8
SICHTBAR
100
AcDbLine
 10
-55.0
 20
-62.28185604809005
 30
0.0
 11
-45.99999999999932
 21
-62.28185604809334
 31
0.0
  0
LINE
  5
EF5
330
EF2
100
AcDbEntity
  8
SICHTBAR
100
AcDbLine
 10
-55.00000000000056
 20
-41.67463671366022
 30
0.0
 11
-54.99999999999989
 21
-62.28185604809005
 31
0.0
  0
LINE
  5
EF6
330
EF2
100
AcDbEntity
  8
SICHTBAR
100
AcDbLine
 10
-53.99999999999988
 20
-41.67463671366022
 30
0.0
 11
-54.00000000000023
 21
-62.28185604809005
 31
0.0
  0
LINE
  5
EF7
330
EF2
100
AcDbEntity
  8
SICHTBAR
100
AcDbLine
 10
-54.99999999999989
 20
-62.28185604809005
 30
0.0
 11
-46.00000000000068
 21
-62.28185604809301
 31
0.0
  0
LINE
  5
EF8
330
EF2
100
AcDbEntity
  8
SICHTBAR
100
AcDbLine
 10
-55.0
 20
-49.28185604809005
 30
0.0
 11
-53.99999999999841
 21
-49.28185604809119
 31
0.0
  0
LINE
  5
EF9
330
EF2
100
AcDbEntity
  8
MITTE
 48
0.5
100
AcDbLine
 10
-51.47646199322469
 20
-37.28185604809119
 30
0.0
 11
-56.02705995015696
 21
-37.28185604809119
 31
0.0
  0
ARC
  5
EFA
330
EF2
100
AcDbEntity
  8
SICHTBAR
100
AcDbCircle
 10
-53.97646199322458
 20
-37.2818560480921
 30
0.0
 40
3.5
100
AcDbArc
 50
282.5323936822637
 51
77.46760631773622
  0
CIRCLE
  5
EFB
330
EF2
100
AcDbEntity
  8
SICHTBAR
100
AcDbCircle
 10
-53.75176097169083
 20
-37.2818560480921
 30
0.0
 40
2.275298978466195
  0
ARC
  5
EFC
330
EF2
100
AcDbEntity
  8
SICHTBAR
100
AcDbCircle
 10
-53.97646199322458
 20
-37.2818560480921
 30
0.0
 40
2.5
100
AcDbArc
 50
282.5323936822637
 51
77.46760631773622
  0
HATCH
  5
EFD
330
EF2
100
AcDbEntity
  8
SCHRAFF
100
AcDbHatch
 10
0.0
 20
0.0
 30
0.0
210
0.0
220
0.0
230
1.0
  2
ANSI37
 70
     0
 71
     0
 91
        2
 92
        7
 72
     1
 73
     1
 93
        4
 10
-56.00000000000022
 20
-36.93198934060001
 42
-0.3696864746281689
 10
-53.75176097169492
 20
-35.00655706962902
 42
0.0
 10
-53.75176097169447
 20
-39.55715502656108
 42
-0.3696864746281446
 10
-56.0
 20
-37.63172275559009
 42
0.0
 97
        0
 92
        7
 72
     1
 73
     1
 93
        3
 10
-53.75176097169447
 20
-39.55715502656108
 42
0.0
 10
-53.75176097169492
 20
-35.00655706962902
 42
-0.4142135623730951
 10
-51.47646199322855
 20
-37.28185604809505
 42
-0.4142135623730951
 97
        0
 75
     0
 76
     1
 52
90.0
 41
8.0
 77
     0
 78
     2
 53
135.0
 43
-1043.693383272304
 44
-334.4622001900128
 45
-0.7071067811865476
 46
-0.7071067811865475
 79
     0
 53
225.0
 43
-1043.693383272304
 44
-334.4622001900128
 45
0.7071067811865475
 46
-0.7071067811865476
 79
     0
 47
0.0729994043330289
 98
        2
 10
-55.43065773998728
 20
-37.48862381902609
 10
-52.65595860280132
 20
-37.92662021874708
  0
ARC
  5
EFE
330
EF2
100
AcDbEntity
  8
SICHTBAR
100
AcDbCircle
 10
-53.97646199322696
 20
-11.96660718432986
 30
0.0
 40
2.5
100
AcDbArc
 50
282.5323936822637
 51
77.46760631773622
  0
ARC
  5
EFF
330
EF2
100
AcDbEntity
  8
SICHTBAR
100
AcDbCircle
 10
-53.97646199322696
 20
-11.96660718432986
 30
0.0
 40
3.5
100
AcDbArc
 50
282.5323936822637
 51
77.46760631773622
  0
LINE
  5
F00
330
EF2
100
AcDbEntity
  8
SICHTBAR
100
AcDbLine
 10
-55.00000000000148
 20
-16.35938784989775
 30
0.0
 11
-55.00000000000068
 21
-32.8890753825242
 31
0.0
  0
LINE
  5
F01
330
EF2
100
AcDbEntity
  8
SICHTBAR
100
AcDbLine
 10
-53.99999999999931
 20
-16.35938784989775
 30
0.0
 11
-53.99999999999988
 21
-32.8890753825242
 31
0.0
  0
LINE
  5
F02
330
EF2
100
AcDbEntity
  8
MITTE
 48
0.5
100
AcDbLine
 10
-53.75176097169083
 20
-39.55715502655829
 30
0.0
 11
-53.75176097169083
 21
-35.0065570696259
 31
0.0
  0
ARC
  5
F03
330
EF2
100
AcDbEntity
  8
SICHTBAR
100
AcDbCircle
 10
-52.99999999999932
 20
-41.67463671366022
 30
0.0
 40
2.0
100
AcDbArc
 50
102.5323936822637
 51
180.0
  0
ARC
  5
F04
330
EF2
100
AcDbEntity
  8
SICHTBAR
100
AcDbCircle
 10
-52.99999999999932
 20
-41.67463671366022
 30
0.0
 40
1.0
100
AcDbArc
 50
102.5323936822637
 51
180.0
  0
LINE
  5
F05
330
EF2
100
AcDbEntity
  8
SICHTBAR
100
AcDbLine
 10
-54.99999999999989
 20
-48.28185604809005
 30
0.0
 11
-53.99999999999818
 21
-48.28185604809118
 31
0.0
  0
ARC
  5
F06
330
EF2
100
AcDbEntity
  8
SICHTBAR
100
AcDbCircle
 10
-52.99999999999932
 20
-32.8890753825242
 30
0.0
 40
1.0
100
AcDbArc
 50
180.0
 51
257.4676063177363
  0
ARC
  5
F07
330
EF2
100
AcDbEntity
  8
SICHTBAR
100
AcDbCircle
 10
-52.99999999999932
 20
-32.8890753825242
 30
0.0
 40
2.0
100
AcDbArc
 50
180.0
 51
257.4676063177363
  0
ARC
  5
F08
330
EF2
100
AcDbEntity
  8
SICHTBAR
100
AcDbCircle
 10
-53.00000000000159
 20
-16.35938784989775
 30
0.0
 40
2.0
100
AcDbArc
 50
102.5323936822637
 51
180.0
  0
ARC
  5
F09
330
EF2
100
AcDbEntity
  8
SICHTBAR
100
AcDbCircle
 10
-53.00000000000159
 20
-16.35938784989775
 30
0.0
 40
1.0
100
AcDbArc
 50
102.5323936822637
 51
180.0
  0
ARC
  5
F0A
330
EF2
100
AcDbEntity
  8
SICHTBAR
100
AcDbCircle
 10
-53.00000000000159
 20
-7.573826518761961
 30
0.0
 40
1.0
100
AcDbArc
 50
180.0
 51
257.4676063177363
  0
ARC
  5
F0B
330
EF2
100
AcDbEntity
  8
SICHTBAR
100
AcDbCircle
 10
-53.00000000000159
 20
-7.573826518761961
 30
0.0
 40
2.0
100
AcDbArc
 50
180.0
 51
257.4676063177363
  0
LINE
  5
F0C
330
EF2
100
AcDbEntity
  8
SICHTBAR
100
AcDbLine
 10
55.0
 20
-41.67463671369501
 30
0.0
 11
55.0
 21
-62.28185604809005
 31
0.0
  0
LINE
  5
F0D
330
EF2
100
AcDbEntity
  8
SICHTBAR
100
AcDbLine
 10
54.0
 20
-41.6746367137041
 30
0.0
 11
54.0
 21
-62.28185604809005
 31
0.0
  0
LINE
  5
F0E
330
EF2
100
AcDbEntity
  8
SICHTBAR
100
AcDbLine
 10
55.0
 20
-16.19278066556808
 30
0.0
 11
55.0
 21
-32.88907538256012
 31
0.0
  0
LINE
  5
F0F
330
EF2
100
AcDbEntity
  8
SICHTBAR
100
AcDbLine
 10
54.0
 20
-16.19278066556808
 30
0.0
 11
54.0
 21
-32.88907538256012
 31
0.0
  0
ARC
  5
F13
330
EF2
100
AcDbEntity
  8
SICHTBAR
100
AcDbCircle
 10
53.97646199322321
 20
-37.28185604812689
 30
0.0
 40
3.5
100
AcDbArc
 50
102.5323936822637
 51
257.4676063177363
  0
ARC
  5
F14
330
EF2
100
AcDbEntity
  8
SICHTBAR
100
AcDbCircle
 10
53.97646199322321
 20
-37.28185604812689
 30
0.0
 40
2.5
100
AcDbArc
 50
102.5323936822637
 51
257.4676063177363
  0
ARC
  5
F15
330
EF2
100
AcDbEntity
  8
SICHTBAR
100
AcDbCircle
 10
52.99999999999295
 20
-41.6746367137041
 30
0.0
 40
1.000000000009322
100
AcDbArc
 50
0.0000000004755056
 51
77.467606317549
  0
ARC
  5
F16
330
EF2
100
AcDbEntity
  8
SICHTBAR
100
AcDbCircle
 10
52.99999999999795
 20
-41.67463671369501
 30
0.0
 40
2.0
100
AcDbArc
 50
0.0
 51
77.46760631773622
  0
ARC
  5
F17
330
EF2
100
AcDbEntity
  8
SICHTBAR
100
AcDbCircle
 10
52.99999999999795
 20
-32.88907538256012
 30
0.0
 40
1.0
100
AcDbArc
 50
282.5323936822637
 51
0.0
  0
ARC
  5
F18
330
EF2
100
AcDbEntity
  8
SICHTBAR
100
AcDbCircle
 10
52.99999999999795
 20
-32.88907538256012
 30
0.0
 40
2.0
100
AcDbArc
 50
282.5323936822637
 51
0.0
  0
ARC
  5
F19
330
EF2
100
AcDbEntity
  8
SICHTBAR
100
AcDbCircle
 10
52.99999999999591
 20
-16.19278066556808
 30
0.0
 40
2.0
100
AcDbArc
 50
0.0
 51
77.46760631773622
  0
ARC
  5
F1A
330
EF2
100
AcDbEntity
  8
SICHTBAR
100
AcDbCircle
 10
53.97646199322116
 20
-11.79999999999995
 30
0.0
 40
3.5
100
AcDbArc
 50
102.5323936822637
 51
257.4676063177363
  0
ARC
  5
F1B
330
EF2
100
AcDbEntity
  8
SICHTBAR
100
AcDbCircle
 10
52.99999999999068
 20
-16.19278066557604
 30
0.0
 40
1.000000000009322
100
AcDbArc
 50
0.0000000004755056
 51
77.467606317549
  0
ARC
  5
F1C
330
EF2
100
AcDbEntity
  8
SICHTBAR
100
AcDbCircle
 10
52.99999999999591
 20
-7.407219334432056
 30
0.0
 40
1.0
100
AcDbArc
 50
282.5323936822637
 51
0.0
  0
ARC
  5
F1D
330
EF2
100
AcDbEntity
  8
SICHTBAR
100
AcDbCircle
 10
52.99999999999591
 20
-7.407219334432056
 30
0.0
 40
2.0
100
AcDbArc
 50
282.5323936822637
 51
0.0
  0
ARC
  5
F1E
330
EF2
100
AcDbEntity
  8
SICHTBAR
100
AcDbCircle
 10
53.97646199322116
 20
-11.79999999999995
 30
0.0
 40
2.5
100
AcDbArc
 50
102.5323936822637
 51
257.4676063177363
  0
LINE
  5
F1F
330
EF2
100
AcDbEntity
  8
SICHTBAR
100
AcDbLine
 10
-55.00000000000159
 20
-7.573826518761961
 30
0.0
 11
-55.00000000000159
 21
0.0
 31
0.0
  0
LINE
  5
F20
330
EF2
100
AcDbEntity
  8
SICHTBAR
100
AcDbLine
 10
-54.00000000000159
 20
-7.57382651875605
 30
0.0
 11
-53.98111434129749
 21
0.0000000000009095
 31
0.0
  0
LINE
  5
F21
330
EF2
100
AcDbEntity
  8
SICHTBAR
100
AcDbLine
 10
55.00000000000023
 20
0.0
 30
0.0
 11
54.99999999999591
 21
-7.407219334432056
 31
0.0
  0
LINE
  5
F22
330
EF2
100
AcDbEntity
  8
SICHTBAR
100
AcDbLine
 10
53.9999999999959
 20
-7.407219334432056
 30
0.0
 11
53.9999999999959
 21
0.0
 31
0.0
  0
HATCH
  5
F23
330
EF2
100
AcDbEntity
  8
SCHRAFF
100
AcDbHatch
 10
0.0
 20
0.0
 30
0.0
210
0.0
220
0.0
230
1.0
  2
ANSI31
 70
     0
 71
     0
 91
        8
 92
        7
 72
     1
 73
     1
 93
       12
 10
-55.00000000000068
 20
-32.88907538252431
 42
0.3515064061570162
 10
-53.43398310810016
 20
-34.84142234499859
 42
-0.351506406156984
 10
-51.47646199322458
 20
-37.28185604809119
 42
0.0
 10
-50.47646199322457
 20
-37.28185604809119
 42
0.3515064061569083
 10
-53.2169915540494
 20
-33.86524886376151
 42
-0.3515064061571089
 10
-53.99999999999988
 20
-32.8890753825242
 42
0.0
 10
-53.99999999999931
 20
-16.35938784989775
 42
-0.3515064061569784
 10
-53.21699155404985
 20
-15.38321436865999
 42
0.3515064061568304
 10
-50.47646199322696
 20
-11.96660718432986
 42
0.0
 10
-51.47646199322696
 20
-11.96660718432986
 42
-0.3515064061569877
 10
-53.43398310810176
 20
-14.40704088742313
 42
0.3515064061569754
 10
-55.00000000000148
 20
-16.35938784989775
 42
0.0
 97
        0
 92
        7
 72
     1
 73
     1
 93
       13
 10
-55.00000000000159
 20
-7.573826518761961
 42
0.1455265229952838
 10
-54.67506131737491
 20
-8.666607184330132
 42
0.0
 10
-52.81027161425709
 20
-8.666607184330132
 42
0.0302494821581871
 10
-53.21699155405167
 20
-8.549999999999272
 42
-0.3529078364385553
 10
-53.99998756457012
 20
-7.568839464671441
 42
0.0
 10
-53.99896375080107
 20
-7.158253421803578
 42
0.0
 10
-53.99999999999931
 20
-7.157217172605442
 42
0.0
 10
-53.99895857001957
 20
-7.156175742625691
 42
0.0
 10
-53.99212356507792
 20
-4.415093607527524
 42
0.0
 10
-53.9999999999992
 20
-4.407217172606351
 42
0.0
 10
-53.99208418643434
 20
-4.399301359041373
 42
0.0
 10
-53.98111434129749
 20
0.0
 42
0.0
 10
-55.00000000000159
 20
0.0
 42
0.0
 97
        0
 92
        7
 72
     1
 73
     1
 93
        5
 10
-51.47646199322707
 20
-11.96660718432986
 42
0.0
 10
-50.47646199322696
 20
-11.96660718432986
 42
0.3178769741287839
 10
-52.81027161425709
 20
-8.666607184330132
 42
0.0
 10
-54.67506131737491
 20
-8.666607184330132
 42
0.1959560446334435
 10
-53.43398310810176
 20
-9.526173481236583
 42
-0.3515064061569852
 97
        0
 92
        7
 72
     1
 73
     1
 93
        8
 10
-53.99999999999988
 20
-41.67463671366022
 42
-0.3515064061570331
 10
-53.21699155404985
 20
-40.6984632324228
 42
0.3515064061571063
 10
-50.47646199322446
 20
-37.28185604809119
 42
0.0
 10
-51.47646199322469
 20
-37.28185604809119
 42
-0.3515064061571027
 10
-53.43398310809948
 20
-39.72228975118549
 42
0.3515064061571275
 10
-55.00000000000056
 20
-41.6746367136601
 42
0.0
 10
-55.00000000000034
 20
-48.28185604809005
 42
0.0
 10
-54.0
 20
-48.28185604809118
 42
0.0
 97
        0
 92
        7
 72
     0
 73
     1
 93
        4
 10
-54.0
 20
-49.28185604809119
 10
-55.00000000000034
 20
-49.28185604809005
 10
-54.99999999999989
 20
-62.28185604809005
 10
-54.00000000000023
 20
-62.28185604809027
 97
        0
 92
        7
 72
     1
 73
     1
 93
        8
 10
55.0
 20
-41.67463671369501
 42
0.3515064061570756
 10
53.43398310809902
 20
-39.7222897512205
 42
-0.3515064061571567
 10
51.47646199322275
 20
-37.28185604812689
 42
0.0
 10
50.47646199322321
 20
-37.28185604812689
 42
0.3515064061568276
 10
53.21699155404576
 20
-40.69846323245724
 42
-0.3515064061562434
 10
54.0
 20
-41.67463671370342
 42
0.0
 10
54.0
 20
-62.28185604809005
 42
0.0
 10
55.0
 20
-62.28185604809005
 42
0.0
 97
        0
 92
        7
 72
     1
 73
     1
 93
       15
 10
54.0
 20
-32.88907538256012
 42
-0.3515064061567874
 10
53.2169915540494
 20
-33.8652488637963
 42
0.3515064061570525
 10
50.47646199322366
 20
-37.28185604812689
 42
0.0
 10
51.47646199322321
 20
-37.28185604812689
 42
-0.0082592560848848
 10
51.4778261133306
 20
-37.19928038758826
 42
-0.0086575423591567
 10
51.47646199323071
 20
-37.12050411377891
 42
-0.3314271542536003
 10
53.0996947191677
 20
-34.94064286963476
 42
-0.0349127542189096
 10
53.43398310809789
 20
-34.84142234503406
 42
0.3515064061572188
 10
55.0
 20
-32.88907538255955
 42
0.0
 10
55.0
 20
-16.19278066556808
 42
0.3515064061571461
 10
53.43398310809812
 20
-14.2404337030938
 42
-0.3515064061572795
 10
51.47646199322093
 20
-11.79999999999995
 42
0.0
 10
50.47646199322116
 20
-11.79999999999995
 42
0.351506406156782
 10
53.21699155404349
 20
-15.21660718432986
 42
-0.3515064061567685
 10
54.0
 20
-16.19278066557615
 42
0.0
 97
        0
 92
        7
 72
     1
 73
     1
 93
        8
 10
53.43398310809584
 20
-9.359566296906677
 42
0.3515064061568222
 10
54.99999999999591
 20
-7.407219334433193
 42
0.0
 10
55.00000000000023
 20
0.0
 42
0.0
 10
53.9999999999959
 20
0.0
 42
0.0
 10
53.9999999999959
 20
-7.407219334432056
 42
-0.3515064061569979
 10
53.21699155404599
 20
-8.383392815669367
 42
0.3515064061569848
 10
50.47646199322116
 20
-11.79999999999995
 42
0.0
 10
51.47646199322116
 20
-11.79999999999995
 42
-0.3515064061569903
 97
        0
 75
     0
 76
     1
 52
90.0
 41
20.0
 77
     0
 78
     1
 53
135.0
 43
-306.039413001065
 44
-495.5944042811393
 45
-1.767766952966368
 46
-1.767766952966368
 79
     0
 47
0.1354483175880743
 98
        8
 10
-54.65128063123348
 20
-26.96101979550986
 10
-54.50909141248803
 20
-6.49564539189032
 10
-52.6606706009402
 20
-9.338057263599694
 10
-54.36690707276056
 20
-45.01034050291491
 10
-54.2247227330331
 20
-53.25334076796116
 10
54.5790890378862
 20
-50.37111651316672
 10
54.4435743156314
 20
-30.8665579220883
 10
51.59784321257894
 20
-10.54930824518806
  0
LINE
  5
F91
330
EF2
100
AcDbEntity
  8
MITTE
 48
0.5
100
AcDbLine
 10
51.4764619932248
 20
-37.28185604809119
 30
0.0
 11
56.02705995015686
 21
-37.28185604809119
 31
0.0
  0
CIRCLE
  5
F92
330
EF2
100
AcDbEntity
  8
SICHTBAR
100
AcDbCircle
 10
53.75176097169083
 20
-37.2818560480921
 30
0.0
 40
2.275298978466195
  0
HATCH
  5
F93
330
EF2
100
AcDbEntity
  8
SCHRAFF
100
AcDbHatch
 10
0.0
 20
0.0
 30
0.0
210
0.0
220
0.0
230
1.0
  2
ANSI37
 70
     0
 71
     0
 91
        2
 92
        7
 72
     1
 73
     1
 93
        4
 10
56.00000000000022
 20
-36.93198934060001
 42
0.3696864746281689
 10
53.75176097169492
 20
-35.00655706962902
 42
0.0
 10
53.75176097169447
 20
-39.55715502656108
 42
0.3696864746281446
 10
56.0
 20
-37.63172275559009
 42
0.0
 97
        0
 92
        7
 72
     1
 73
     1
 93
        3
 10
53.75176097169447
 20
-39.55715502656108
 42
0.0
 10
53.75176097169492
 20
-35.00655706962902
 42
0.4142135623730951
 10
51.47646199322844
 20
-37.28185604809505
 42
0.4142135623730951
 97
        0
 75
     0
 76
     1
 52
90.0
 41
8.0
 77
     0
 78
     2
 53
45.0
 43
1043.693383272304
 44
-334.4622001900128
 45
0.7071067811865476
 46
-0.7071067811865475
 79
     0
 53
315.0
 43
1043.693383272304
 44
-334.4622001900128
 45
-0.7071067811865475
 46
-0.7071067811865476
 79
     0
 47
0.0729994043330289
 98
        2
 10
55.43065773998728
 20
-37.48862381902609
 10
52.65595860280132
 20
-37.92662021874708
  0
LINE
  5
F94
330
EF2
100
AcDbEntity
  8
MITTE
 48
0.5
100
AcDbLine
 10
53.75176097169083
 20
-39.55715502655829
 30
0.0
 11
53.75176097169083
 21
-35.0065570696259
 31
0.0
  0
ENDBLK
  5
F25
330
EF2
100
AcDbEntity
  8
0
100
AcDbBlockEnd
  0
BLOCK
  5
FE2
330
F9E
100
AcDbEntity
  8
0
100
AcDbBlockBegin
  2
A$C7F8511E3
 70
     0
 10
0.0
 20
0.0
 30
0.0
  3
A$C7F8511E3
  1

  0
LINE
  5
F9F
330
F9E
100
AcDbEntity
  8
SICHTBAR
100
AcDbLine
 10
-57.99999999999954
 20
9.795949601093525
 30
0.0
 11
-10.00000000000023
 21
9.795949601092843
 31
0.0
  0
LINE
  5
FA0
102
{ACAD_REACTORS
330
FDC
102
}
330
F9E
100
AcDbEntity
  8
SICHTBAR
100
AcDbLine
 10
-57.99999999999954
 20
9.795949601093525
 30
0.0
 11
5.018815116686937
 21
9.795949601092615
 31
0.0
  0
LINE
  5
FA1
102
{ACAD_REACTORS
330
FDC
102
}
330
F9E
100
AcDbEntity
  8
SICHTBAR
100
AcDbLine
 10
-49.64238345442573
 20
9.652902982863906
 30
0.0
 11
-45.17880827278713
 21
7.867472910208334
 31
0.0
  0
LINE
  5
FA2
102
{ACAD_REACTORS
330
FDC
102
}
330
F9E
100
AcDbEntity
  8
SICHTBAR
100
AcDbLine
 10
-50.0137741307808
 20
8.724426291978943
 30
0.0
 11
-45.55019894914176
 21
6.938996219323144
 31
0.0
  0
ARC
  5
FA3
102
{ACAD_REACTORS
330
FDC
102
}
330
F9E
100
AcDbEntity
  8
SICHTBAR
100
AcDbCircle
 10
-57.99999999999954
 20
7.795949601093525
 30
0.0
 40
1.0
100
AcDbArc
 50
90.0
 51
180.0
  0
LINE
  5
FA4
102
{ACAD_REACTORS
330
FDC
102
}
330
F9E
100
AcDbEntity
  8
SICHTBAR
100
AcDbLine
 10
-58.99999999999955
 20
7.795949601093525
 30
0.0
 11
-59.0
 21
6.795949601093525
 31
0.0
  0
LINE
  5
FA5
102
{ACAD_REACTORS
330
FDC
102
}
330
F9E
100
AcDbEntity
  8
SICHTBAR
100
AcDbLine
 10
-60.0
 20
6.795949601093525
 30
0.0
 11
-59.0
 21
6.795949601093525
 31
0.0
  0
LINE
  5
FA6
102
{ACAD_REACTORS
330
FDC
102
}
330
F9E
100
AcDbEntity
  8
SICHTBAR
100
AcDbLine
 10
-59.99999999999954
 20
7.795949601093525
 30
0.0
 11
-60.0
 21
6.795949601093525
 31
0.0
  0
ARC
  5
FA7
102
{ACAD_REACTORS
330
FDC
102
}
330
F9E
100
AcDbEntity
  8
SICHTBAR
100
AcDbCircle
 10
-57.99999999999954
 20
7.795949601093525
 30
0.0
 40
2.0
100
AcDbArc
 50
90.0
 51
179.9999999999935
  0
ARC
  5
FA8
102
{ACAD_REACTORS
330
FDC
102
}
330
F9E
100
AcDbEntity
  8
SICHTBAR
100
AcDbCircle
 10
-50.38516480713497
 20
7.795949601093525
 30
0.0
 40
1.0
100
AcDbArc
 50
68.19859051365182
 51
90.0
  0
LINE
  5
FA9
102
{ACAD_REACTORS
330
FDC
102
}
330
F9E
100
AcDbEntity
  8
SICHTBAR
100
AcDbLine
 10
-57.99999999999954
 20
8.795949601093525
 30
0.0
 11
-50.38516480713497
 21
8.795949601093525
 31
0.0
  0
ARC
  5
FAA
102
{ACAD_REACTORS
330
FDC
102
}
330
F9E
100
AcDbEntity
  8
SICHTBAR
100
AcDbCircle
 10
-50.38516480713406
 20
7.795949601093298
 30
0.0
 40
2.0
100
AcDbArc
 50
68.19859051365182
 51
90.0
  0
ARC
  5
FAB
102
{ACAD_REACTORS
330
FDC
102
}
330
F9E
100
AcDbEntity
  8
SICHTBAR
100
AcDbCircle
 10
-44.80741759643296
 20
8.795949601093525
 30
0.0
 40
1.0
100
AcDbArc
 50
248.1985905136518
 51
270.0
  0
ARC
  5
FAC
102
{ACAD_REACTORS
330
FDC
102
}
330
F9E
100
AcDbEntity
  8
SICHTBAR
100
AcDbCircle
 10
-44.80741759643342
 20
8.795949601093525
 30
0.0
 40
2.0
100
AcDbArc
 50
248.1985905136446
 51
270.0
  0
LINE
  5
FAD
102
{ACAD_REACTORS
330
FDC
102
}
330
F9E
100
AcDbEntity
  8
SICHTBAR
100
AcDbLine
 10
9.0
 20
2.542854363605329
 30
0.0
 11
8.999999999999772
 21
-39.20351949103906
 31
0.0
  0
LINE
  5
FAE
102
{ACAD_REACTORS
330
FDC
102
}
330
F9E
100
AcDbEntity
  8
SICHTBAR
100
AcDbLine
 10
8.000000000003637
 20
2.542854363604874
 30
0.0
 11
8.0
 21
-33.26794919243094
 31
0.0
  0
LINE
  5
FAF
102
{ACAD_REACTORS
330
FDC
102
}
330
F9E
100
AcDbEntity
  8
SICHTBAR
100
AcDbLine
 10
7.684040286650997
 20
4.422239605177082
 30
0.0
 11
-1.253765421684875
 21
7.675334842665733
 31
0.0
  0
LINE
  5
FB0
102
{ACAD_REACTORS
330
FDC
102
}
330
F9E
100
AcDbEntity
  8
SICHTBAR
100
AcDbLine
 10
7.342020143325726
 20
3.482546984390864
 30
0.0
 11
-1.595785565009919
 21
6.735642221879288
 31
0.0
  0
LINE
  5
FB1
102
{ACAD_REACTORS
330
FDE
102
}
330
F9E
100
AcDbEntity
  8
SICHTBAR
100
AcDbLine
 10
123.2387847436254
 20
7.795949601093298
 30
0.0
 11
140.0000000000005
 21
7.795949601093298
 31
0.0
  0
LINE
  5
FB2
330
F9E
100
AcDbEntity
  8
SICHTBAR
100
AcDbLine
 10
6.76121525637518
 20
7.795949601093525
 30
0.0
 11
-10.00000000000023
 21
7.795949601093525
 31
0.0
  0
LINE
  5
FB3
102
{ACAD_REACTORS
330
FDE
102
}
330
F9E
100
AcDbEntity
  8
SICHTBAR
100
AcDbLine
 10
122.0000000000001
 20
2.078336557050988
 30
0.0
 11
121.000000000001
 21
2.078336557050988
 31
0.0
  0
LINE
  5
FB4
102
{ACAD_REACTORS
330
FDC
102
}
330
F9E
100
AcDbEntity
  8
SICHTBAR
100
AcDbLine
 10
-44.80741759643296
 20
7.795949601093525
 30
0.0
 11
-1.937805708336327
 21
7.79594960109398
 31
0.0
  0
LINE
  5
FB5
102
{ACAD_REACTORS
330
FDC
102
}
330
F9E
100
AcDbEntity
  8
SICHTBAR
100
AcDbLine
 10
-44.80741759643296
 20
6.795949601093525
 30
0.0
 11
-1.937805708335417
 21
6.795949601093525
 31
0.0
  0
ARC
  5
FB6
102
{ACAD_REACTORS
330
FDC
102
}
330
F9E
100
AcDbEntity
  8
SICHTBAR
100
AcDbCircle
 10
-1.937805708335417
 20
5.795949601093525
 30
0.0
 40
1.0
100
AcDbArc
 50
70.00000000000354
 51
90.0
  0
ARC
  5
FB7
102
{ACAD_REACTORS
330
FDC
102
}
330
F9E
100
AcDbEntity
  8
SICHTBAR
100
AcDbCircle
 10
-1.937805708336327
 20
5.79594960109398
 30
0.0
 40
2.0
100
AcDbArc
 50
70.00000000000354
 51
90.0
  0
ARC
  5
FB8
102
{ACAD_REACTORS
330
FDC
102
}
330
F9E
100
AcDbEntity
  8
SICHTBAR
100
AcDbCircle
 10
6.999999999999545
 20
2.542854363605329
 30
0.0
 40
2.0
100
AcDbArc
 50
0.0
 51
70.00000000000354
  0
ARC
  5
FB9
102
{ACAD_REACTORS
330
FDC
102
}
330
F9E
100
AcDbEntity
  8
SICHTBAR
100
AcDbCircle
 10
7.0
 20
2.542854363604874
 30
0.0
 40
1.0
100
AcDbArc
 50
0.0
 51
70.00000000000354
  0
LINE
  5
FBA
330
F9E
100
AcDbEntity
  8
SICHTBAR
100
AcDbLine
 10
-59.0
 20
6.795949601093525
 30
0.0
 11
-44.80741759643342
 21
6.795949601093525
 31
0.0
  0
LINE
  5
FBB
102
{ACAD_REACTORS
330
FDE
102
}
330
F9E
100
AcDbEntity
  8
SICHTBAR
100
AcDbLine
 10
174.8074175964335
 20
6.795949601093525
 30
0.0
 11
131.9378057083355
 21
6.795949601093525
 31
0.0
  0
LINE
  5
FBC
102
{ACAD_REACTORS
330
FDE
102
}
330
F9E
100
AcDbEntity
  8
SICHTBAR
100
AcDbLine
 10
174.8074175964335
 20
7.795949601093525
 30
0.0
 11
131.9378057083364
 21
7.79594960109398
 31
0.0
  0
LINE
  5
FBD
330
F9E
100
AcDbEntity
  8
SICHTBAR
100
AcDbLine
 10
188.0000000000001
 20
9.795949601093525
 30
0.0
 11
124.9811848833141
 21
9.795949601092843
 31
0.0
  0
LINE
  5
FBE
102
{ACAD_REACTORS
330
FDE
102
}
330
F9E
100
AcDbEntity
  8
SICHTBAR
100
AcDbLine
 10
188.0000000000001
 20
9.795949601093525
 30
0.0
 11
124.9811848833141
 21
9.795949601092615
 31
0.0
  0
LINE
  5
FBF
330
F9E
100
AcDbEntity
  8
SICHTBAR
100
AcDbLine
 10
189.0000000000005
 20
6.795949601093525
 30
0.0
 11
174.807417596434
 21
6.795949601093525
 31
0.0
  0
LINE
  5
FC0
102
{ACAD_REACTORS
330
FDE
102
}
330
F9E
100
AcDbEntity
  8
SICHTBAR
100
AcDbLine
 10
188.0000000000001
 20
8.795949601093525
 30
0.0
 11
180.3851648071355
 21
8.795949601093525
 31
0.0
  0
ARC
  5
FC1
102
{ACAD_REACTORS
330
FDE
102
}
330
F9E
100
AcDbEntity
  8
SICHTBAR
100
AcDbCircle
 10
188.0000000000001
 20
7.795949601093525
 30
0.0
 40
2.0
100
AcDbArc
 50
0.0000000000065138
 51
90.0
  0
LINE
  5
FC2
102
{ACAD_REACTORS
330
FDE
102
}
330
F9E
100
AcDbEntity
  8
SICHTBAR
100
AcDbLine
 10
190.0000000000001
 20
7.795949601093525
 30
0.0
 11
190.0000000000005
 21
6.795949601093525
 31
0.0
  0
LINE
  5
FC3
102
{ACAD_REACTORS
330
FDE
102
}
330
F9E
100
AcDbEntity
  8
SICHTBAR
100
AcDbLine
 10
190.0000000000005
 20
6.795949601093525
 30
0.0
 11
189.0000000000005
 21
6.795949601093525
 31
0.0
  0
LINE
  5
FC4
102
{ACAD_REACTORS
330
FDE
102
}
330
F9E
100
AcDbEntity
  8
SICHTBAR
100
AcDbLine
 10
189.0000000000001
 20
7.795949601093525
 30
0.0
 11
189.0000000000005
 21
6.795949601093525
 31
0.0
  0
ARC
  5
FC5
102
{ACAD_REACTORS
330
FDE
102
}
330
F9E
100
AcDbEntity
  8
SICHTBAR
100
AcDbCircle
 10
188.0000000000001
 20
7.795949601093525
 30
0.0
 40
1.0
100
AcDbArc
 50
0.0
 51
90.0
  0
ARC
  5
FC6
102
{ACAD_REACTORS
330
FDE
102
}
330
F9E
100
AcDbEntity
  8
SICHTBAR
100
AcDbCircle
 10
174.807417596434
 20
8.795949601093525
 30
0.0
 40
2.0
100
AcDbArc
 50
270.0
 51
291.8014094863555
  0
ARC
  5
FC7
102
{ACAD_REACTORS
330
FDE
102
}
330
F9E
100
AcDbEntity
  8
SICHTBAR
100
AcDbCircle
 10
174.8074175964335
 20
8.795949601093525
 30
0.0
 40
1.0
100
AcDbArc
 50
270.0
 51
291.8014094863481
  0
ARC
  5
FC8
102
{ACAD_REACTORS
330
FDE
102
}
330
F9E
100
AcDbEntity
  8
SICHTBAR
100
AcDbCircle
 10
180.3851648071346
 20
7.795949601093298
 30
0.0
 40
2.0
100
AcDbArc
 50
90.0
 51
111.8014094863481
  0
ARC
  5
FC9
102
{ACAD_REACTORS
330
FDE
102
}
330
F9E
100
AcDbEntity
  8
SICHTBAR
100
AcDbCircle
 10
180.3851648071355
 20
7.795949601093525
 30
0.0
 40
1.0
100
AcDbArc
 50
90.0
 51
111.8014094863481
  0
LINE
  5
FCA
102
{ACAD_REACTORS
330
FDE
102
}
330
F9E
100
AcDbEntity
  8
SICHTBAR
100
AcDbLine
 10
180.0137741307813
 20
8.724426291978943
 30
0.0
 11
175.5501989491423
 21
6.938996219323144
 31
0.0
  0
LINE
  5
FCB
102
{ACAD_REACTORS
330
FDE
102
}
330
F9E
100
AcDbEntity
  8
SICHTBAR
100
AcDbLine
 10
179.6423834544263
 20
9.652902982863906
 30
0.0
 11
175.1788082727877
 21
7.867472910208334
 31
0.0
  0
LINE
  5
FCC
102
{ACAD_REACTORS
330
FDE
102
}
330
F9E
100
AcDbEntity
  8
SICHTBAR
100
AcDbLine
 10
122.6579798566746
 20
3.482546984390864
 30
0.0
 11
131.59578556501
 21
6.735642221879288
 31
0.0
  0
LINE
  5
FCD
102
{ACAD_REACTORS
330
FDE
102
}
330
F9E
100
AcDbEntity
  8
SICHTBAR
100
AcDbLine
 10
122.3159597133495
 20
4.422239605177082
 30
0.0
 11
131.5851517469178
 21
7.795949601093298
 31
0.0
  0
ARC
  5
FCE
102
{ACAD_REACTORS
330
FDE
102
}
330
F9E
100
AcDbEntity
  8
SICHTBAR
100
AcDbCircle
 10
123.0000000000005
 20
2.542854363605329
 30
0.0
 40
2.0
100
AcDbArc
 50
109.9999999999964
 51
180.0
  0
ARC
  5
FCF
102
{ACAD_REACTORS
330
FDE
102
}
330
F9E
100
AcDbEntity
  8
SICHTBAR
100
AcDbCircle
 10
123.0000000000001
 20
2.542854363604874
 30
0.0
 40
1.0
100
AcDbArc
 50
109.9999999999964
 51
180.0
  0
LINE
  5
FD0
102
{ACAD_REACTORS
330
FDE
102
}
330
F9E
100
AcDbEntity
  8
SICHTBAR
100
AcDbLine
 10
121.0000000000005
 20
2.542854363605329
 30
0.0
 11
121.0000000000001
 21
-39.20351949103906
 31
0.0
  0
LINE
  5
FD1
102
{ACAD_REACTORS
330
FDE
102
}
330
F9E
100
AcDbEntity
  8
SICHTBAR
100
AcDbLine
 10
122.0000000000001
 20
2.542854363604874
 30
0.0
 11
122.0000000000005
 21
-39.20351949103906
 31
0.0
  0
LINE
  5
FD2
330
F9E
100
AcDbEntity
  8
SICHTBAR
100
AcDbLine
 10
2.0
 20
-34.0
 30
0.0
 11
7.0
 21
-34.0
 31
0.0
  0
LINE
  5
FD3
330
F9E
100
AcDbEntity
  8
SICHTBAR
100
AcDbLine
 10
2.0
 20
-33.0
 30
0.0
 11
7.0
 21
-33.0
 31
0.0
  0
LINE
  5
FD4
330
F9E
100
AcDbEntity
  8
SICHTBAR
100
AcDbLine
 10
8.0
 20
-25.0
 30
0.0
 11
9.0
 21
-25.0
 31
0.0
  0
ARC
  5
FD5
330
F9E
100
AcDbEntity
  8
SICHTBAR
100
AcDbCircle
 10
7.0
 20
-35.0
 30
0.0
 40
1.0
100
AcDbArc
 50
0.0
 51
90.0
  0
ARC
  5
FD6
330
F9E
100
AcDbEntity
  8
SICHTBAR
100
AcDbCircle
 10
7.0
 20
-35.0
 30
0.0
 40
2.0
100
AcDbArc
 50
0.0
 51
90.0
  0
LINE
  5
FD7
330
F9E
100
AcDbEntity
  8
SICHTBAR
100
AcDbLine
 10
8.0
 20
-35.0
 30
0.0
 11
7.999999999999545
 21
-39.20351949103883
 31
0.0
  0
LINE
  5
FD8
330
F9E
100
AcDbEntity
  8
SICHTBAR
100
AcDbLine
 10
2.0
 20
-33.0
 30
0.0
 11
2.0
 21
-34.0
 31
0.0
  0
LINE
  5
FD9
102
{ACAD_REACTORS
330
FDC
102
}
330
F9E
100
AcDbEntity
  8
SICHTBAR
100
AcDbLine
 10
9.0
 20
2.078336557051443
 30
0.0
 11
8.000000000003637
 21
2.078336557051443
 31
0.0
  0
LINE
  5
FDA
330
F9E
100
AcDbEntity
  8
SICHTBAR
100
AcDbLine
 10
120.0000000000001
 20
-39.20351949103883
 30
0.0
 11
122.0000000000005
 21
-39.20351949103906
 31
0.0
  0
HATCH
  5
FDB
330
F9E
100
AcDbEntity
  8
SCHRAFF
100
AcDbHatch
 10
0.0
 20
0.0
 30
0.0
210
0.0
220
0.0
230
1.0
  2
ANSI31
 70
     0
 71
     0
 91
        5
 92
        7
 72
     0
 73
     1
 93
        4
 10
9.0
 20
2.078336557051443
 10
8.000000000003637
 20
2.078336557051443
 10
8.000000000002273
 20
-10.4083269131961
 10
9.0
 20
-10.40832691319599
 97
        0
 92
        7
 72
     0
 73
     1
 93
        4
 10
9.0
 20
-10.4083269131961
 10
8.000000000002273
 20
-10.4083269131961
 10
8.000000000000909
 20
-25.0
 10
8.999999999999886
 20
-25.0
 97
        0
 92
        7
 72
     1
 73
     1
 93
        8
 10
7.0
 20
-33.0
 42
0.0
 10
2.0
 20
-33.0
 42
0.0
 10
2.0
 20
-34.0
 42
0.0
 10
7.0
 20
-34.0
 42
-0.4142135623731291
 10
8.0
 20
-35.00000000000011
 42
0.0
 10
7.999999999999545
 20
-39.20351949103883
 42
0.0
 10
8.999999999999772
 20
-39.20351949103906
 42
0.0
 10
8.999999999999772
 20
-35.0
 42
0.4142135623730662
 97
        0
 92
        7
 72
     0
 73
     1
 93
        4
 10
121.0000000000001
 20
-39.20351949103883
 10
122.0000000000005
 20
-39.20351949103906
 10
122.0000000000001
 20
-10.4083269131961
 10
121.0000000000005
 20
-10.4083269131961
 97
        0
 92
        7
 72
     0
 73
     1
 93
        4
 10
122.0000000000001
 20
2.078336557050988
 10
121.0000000000005
 20
2.078336557050988
 10
121.0000000000005
 20
-10.4083269131961
 10
122.0000000000001
 20
-10.4083269131961
 97
        0
 75
     0
 76
     1
 52
0.0
 41
20.0
 77
     0
 78
     1
 53
45.0
 43
-241.0582986597649
 44
-493.5160677240883
 45
-1.767766952966368
 46
1.767766952966368
 79
     0
 47
0.1251130105790822
 98
        5
 10
8.569248961344783
 20
-1.580322308204813
 10
8.569248961344783
 20
-17.59478841407053
 10
7.818280677928669
 20
-33.60925451993535
 10
121.464998685543
 20
-26.72803826621566
 10
121.5901636476775
 20
-7.460633500026233
  0
HATCH
  5
FDC
330
F9E
100
AcDbEntity
  8
SCHRAFF
100
AcDbHatch
 10
0.0
 20
0.0
 30
0.0
210
0.0
220
0.0
230
1.0
  2
ANSI31
 70
     0
 71
     1
 91
        1
 92
        7
 72
     1
 73
     1
 93
       24
 10
-1.937805708335417
 20
6.795949601093525
 42
-0.0874886635259163
 10
-1.595785565009805
 20
6.735642221879459
 42
0.0
 10
7.342020143325612
 20
3.482546984390808
 42
-0.3152987888790137
 10
8.0
 20
2.54285436360476
 42
0.0
 10
8.0
 20
2.078336557051443
 42
0.0
 10
9.0
 20
2.078336557051443
 42
0.0
 10
8.999999999999545
 20
2.542854363605329
 42
0.3152987888789916
 10
7.684040286650883
 20
4.422239605177139
 42
0.0
 10
-1.253765421684988
 20
7.67533484266579
 42
0.0874886635259223
 10
-1.937805708336327
 20
7.79594960109398
 42
0.0
 10
-44.80741759643296
 20
7.795949601093525
 42
-0.0954145723997686
 10
-45.17880827278713
 20
7.867472910208277
 42
0.0
 10
-49.64238345442584
 20
9.652902982863793
 42
0.0954145723997663
 10
-50.38516480713406
 20
9.795949601093298
 42
0.0
 10
-57.99999999999943
 20
9.795949601093525
 42
0.4142135623729701
 10
-59.99999999999954
 20
7.795949601094434
 42
0.0
 10
-60.0
 20
6.795949601093525
 42
0.0
 10
-59.0
 20
6.795949601093525
 42
0.0
 10
-58.99999999999955
 20
7.79594960109398
 42
-0.414213562372962
 10
-57.99999999999954
 20
8.795949601093525
 42
0.0
 10
-50.38516480713486
 20
8.795949601093525
 42
-0.095414572399768
 10
-50.0137741307808
 20
8.724426291978772
 42
0.0
 10
-45.55019894914176
 20
6.93899621932303
 42
0.0954145723997608
 10
-44.80741759643353
 20
6.795949601093525
 42
0.0
 97
       24
330
FB7
330
FB4
330
FAB
330
FA1
330
FAA
330
FA0
330
FA7
330
FA6
330
FA5
330
FA4
330
FA3
330
FA9
330
FA8
330
FA2
330
FAC
330
FB5
330
FB6
330
FB0
330
FB9
330
FAE
330
FD9
330
FAD
330
FB8
330
FAF
 75
     0
 76
     1
 52
90.0
 41
10.0
 77
     0
 78
     1
 53
135.0
 43
959.4305251920587
 44
-788.060836878361
 45
-0.8838834764831844
 46
-0.8838834764831842
 79
     0
 47
0.2425809842051153
 98
        1
 10
-20.79315749406669
 20
6.989132125940159
  0
ARC
  5
FDD
102
{ACAD_REACTORS
330
FDE
102
}
330
F9E
100
AcDbEntity
  8
SICHTBAR
100
AcDbCircle
 10
131.9378057083355
 20
5.795949601093525
 30
0.0
 40
1.0
100
AcDbArc
 50
90.0
 51
109.9999999999964
  0
HATCH
  5
FDE
330
F9E
100
AcDbEntity
  8
SCHRAFF
100
AcDbHatch
 10
0.0
 20
0.0
 30
0.0
210
0.0
220
0.0
230
1.0
  2
ANSI31
 70
     0
 71
     1
 91
        1
 92
        7
 72
     1
 73
     1
 93
       24
 10
174.807417596434
 20
6.795949601093525
 42
0.0954145723997688
 10
175.5501989491423
 20
6.93899621932303
 42
0.0
 10
180.0137741307813
 20
8.724426291978772
 42
-0.0954145723997745
 10
180.3851648071355
 20
8.795949601093525
 42
0.0
 10
188.0000000000001
 20
8.795949601093525
 42
-0.4142135623729619
 10
189.0000000000001
 20
7.79594960109398
 42
0.0
 10
189.0000000000005
 20
6.795949601093525
 42
0.0
 10
190.0000000000005
 20
6.795949601093525
 42
0.0
 10
190.0000000000001
 20
7.795949601094434
 42
0.414213562372966
 10
188.0000000000001
 20
9.795949601093525
 42
0.0
 10
180.3851648071346
 20
9.795949601093298
 42
0.0954145723997629
 10
179.6423834544263
 20
9.652902982863793
 42
0.0
 10
175.1788082727875
 20
7.867472910208221
 42
-0.0954145723997617
 10
174.8074175964335
 20
7.795949601093525
 42
0.0
 10
131.9378057083364
 20
7.79594960109398
 42
0.0
 10
131.5851517469196
 20
7.79594960109398
 42
0.0
 10
122.3159597133493
 20
4.422239605177139
 42
0.3152987888789819
 10
121.0000000000005
 20
2.542854363605385
 42
0.0
 10
121.0000000000005
 20
2.078336557050988
 42
0.0
 10
122.0000000000001
 20
2.078336557050988
 42
0.0
 10
122.0000000000001
 20
2.54285436360476
 42
-0.3152987888789931
 10
122.6579798566746
 20
3.482546984390751
 42
0.0
 10
131.59578556501
 20
6.735642221879459
 42
-0.0874886635259201
 10
131.9378057083355
 20
6.795949601093525
 42
0.0
 97
       24
330
FC9
330
FC0
330
FC5
330
FC4
330
FC3
330
FC2
330
FC1
330
FBE
330
FC8
330
FCB
330
FC7
330
FBC
330
FB1
330
FCD
330
FCE
330
FD0
330
FB3
330
FD1
330
FCF
330
FCC
330
FDD
330
FBB
330
FC6
330
FCA
 75
     0
 76
     1
 52
90.0
 41
10.0
 77
     0
 78
     1
 53
135.0
 43
959.4305251920587
 44
-788.060836878361
 45
-0.8838834764831844
 46
-0.8838834764831842
 79
     0
 47
0.0744933714375735
 98
        1
 10
159.0052576321969
 20
6.964301044413332
  0
LINE
  5
FDF
330
F9E
100
AcDbEntity
  8
SICHTBAR
100
AcDbLine
 10
7.999999999999545
 20
-39.20351949103883
 30
0.0
 11
8.999999999999772
 21
-39.20351949103906
 31
0.0
  0
LINE
  5
FE0
330
F9E
100
AcDbEntity
  8
SICHTBAR
100
AcDbLine
 10
120.0000000000015
 20
-39.2035194910386
 30
0.0
 11
122.0000000000019
 21
-39.20351949103883
 31
0.0
  0
ENDBLK
  5
FE3
330
F9E
100
AcDbEntity
  8
0
100
AcDbBlockEnd
  0
BLOCK
  5
1030
330
102F
100
AcDbEntity
  8
0
100
AcDbBlockBegin
  2
*D11
 70
     1
 10
0.0
 20
0.0
 30
0.0
  3
*D11
  1

  0
LINE
  5
21CE
330
102F
100
AcDbEntity
  8
BEMASS
440
 16777216
370
    -2
100
AcDbLine
 10
984.6933832723014
 20
275.4653143950718
 30
0.0
 11
896.592454092198
 21
275.4653143950718
 31
0.0
  0
LINE
  5
21CF
330
102F
100
AcDbEntity
  8
BEMASS
440
 16777216
370
    -2
100
AcDbLine
 10
933.8859656758689
 20
387.2612639961657
 30
0.0
 11
896.592454092198
 21
387.2612639961657
 31
0.0
  0
LINE
  5
21D0
330
102F
100
AcDbEntity
  8
BEMASS
440
 16777216
370
    -2
100
AcDbLine
 10
898.792454092198
 20
279.3153143950718
 30
0.0
 11
898.792454092198
 21
383.4112639961656
 31
0.0
  0
SOLID
  5
21D1
330
102F
100
AcDbEntity
  8
BEMASS
440
 16777216
100
AcDbTrace
 10
898.1507874255314
 20
279.3153143950718
 30
0.0
 11
899.4341207588647
 21
279.3153143950718
 31
0.0
 12
898.792454092198
 22
275.4653143950718
 32
0.0
 13
898.792454092198
 23
275.4653143950718
 33
0.0
  0
SOLID
  5
21D2
330
102F
100
AcDbEntity
  8
BEMASS
440
 16777216
100
AcDbTrace
 10
898.1507874255314
 20
383.4112639961656
 30
0.0
 11
899.4341207588647
 21
383.4112639961656
 31
0.0
 12
898.792454092198
 22
387.2612639961657
 32
0.0
 13
898.792454092198
 23
387.2612639961657
 33
0.0
  0
MTEXT
  5
21D3
330
102F
100
AcDbEntity
  8
BEMASS
440
 16777216
100
AcDbMText
 10
894.667454092198
 20
331.3632891956189
 30
0.0
 40
3.85
 41
0.0
 46
0.0
 71
     5
 72
     1
  1
\A1;110-125
 11
0.0000000000000001
 21
1.0
 31
0.0
 73
     1
 44
1.0
  0
POINT
  5
21D4
330
102F
100
AcDbEntity
  8
DEFPOINTS
 62
     0
440
 16777216
100
AcDbPoint
 10
984.6933832723014
 20
275.4653143950718
 30
0.0
  0
POINT
  5
21D5
330
102F
100
AcDbEntity
  8
DEFPOINTS
 62
     0
440
 16777216
100
AcDbPoint
 10
933.8859656758689
 20
387.2612639961657
 30
0.0
  0
POINT
  5
21D6
330
102F
100
AcDbEntity
  8
DEFPOINTS
 62
     0
440
 16777216
100
AcDbPoint
 10
898.792454092198
 20
387.2612639961657
 30
0.0
  0
ENDBLK
  5
1031
330
102F
100
AcDbEntity
  8
0
100
AcDbBlockEnd
  0
BLOCK
  5
1058
330
1057
100
AcDbEntity
  8
0
100
AcDbBlockBegin
  2
*D12
 70
     1
 10
0.0
 20
0.0
 30
0.0
  3
*D12
  1

  0
LINE
  5
289D
330
1057
100
AcDbEntity
  8
BEMASS
440
 16777216
370
    -2
100
AcDbLine
 10
977.6933832723013
 20
282.4653143950718
 30
0.0
 11
977.6933832723013
 21
262.8136018567502
 31
0.0
  0
LINE
  5
289E
330
1057
100
AcDbEntity
  8
BEMASS
440
 16777216
370
    -2
100
AcDbLine
 10
1171.693383272302
 20
281.4943107537232
 30
0.0
 11
1171.693383272302
 21
262.8136018567502
 31
0.0
  0
LINE
  5
289F
330
1057
100
AcDbEntity
  8
BEMASS
440
 16777216
370
    -2
100
AcDbLine
 10
981.5433832723014
 20
265.0136018567502
 30
0.0
 11
1167.843383272302
 21
265.0136018567502
 31
0.0
  0
SOLID
  5
28A0
330
1057
100
AcDbEntity
  8
BEMASS
440
 16777216
100
AcDbTrace
 10
981.5433832723014
 20
265.6552685234168
 30
0.0
 11
981.5433832723014
 21
264.3719351900835
 31
0.0
 12
977.6933832723013
 22
265.0136018567502
 32
0.0
 13
977.6933832723013
 23
265.0136018567502
 33
0.0
  0
SOLID
  5
28A1
330
1057
100
AcDbEntity
  8
BEMASS
440
 16777216
100
AcDbTrace
 10
1167.843383272302
 20
265.6552685234168
 30
0.0
 11
1167.843383272302
 21
264.3719351900835
 31
0.0
 12
1171.693383272302
 22
265.0136018567502
 32
0.0
 13
1171.693383272302
 23
265.0136018567502
 33
0.0
  0
MTEXT
  5
28A2
330
1057
100
AcDbEntity
  8
BEMASS
440
 16777216
100
AcDbMText
 10
1075.693383272302
 20
269.1386018567502
 30
0.0
 40
3.85
 41
0.0
 46
0.0
 71
     5
 72
     1
  1
\A1;194
 73
     1
 44
1.0
  0
POINT
  5
28A3
330
1057
100
AcDbEntity
  8
DEFPOINTS
 62
     0
440
 16777216
100
AcDbPoint
 10
977.6933832723013
 20
282.4653143950718
 30
0.0
  0
POINT
  5
28A4
330
1057
100
AcDbEntity
  8
DEFPOINTS
 62
     0
440
 16777216
100
AcDbPoint
 10
1171.693383272302
 20
281.4943107537232
 30
0.0
  0
POINT
  5
28A5
330
1057
100
AcDbEntity
  8
DEFPOINTS
 62
     0
440
 16777216
100
AcDbPoint
 10
1171.693383272302
 20
265.0136018567502
 30
0.0
  0
ENDBLK
  5
1059
330
1057
100
AcDbEntity
  8
0
100
AcDbBlockEnd
  0
BLOCK
  5
1065
330
1064
100
AcDbEntity
  8
0
100
AcDbBlockBegin
  2
*D13
 70
     1
 10
0.0
 20
0.0
 30
0.0
  3
*D13
  1

  0
LINE
  5
21E0
330
1064
100
AcDbEntity
  8
BEMASS
440
 16777216
370
    -2
100
AcDbLine
 10
1112.693383272302
 20
277.9653143950718
 30
0.0
 11
1112.693383272302
 21
291.1666656970251
 31
0.0
  0
LINE
  5
21E1
330
1064
100
AcDbEntity
  8
BEMASS
440
 16777216
370
    -2
100
AcDbLine
 10
1171.693383272302
 20
281.4943107537232
 30
0.0
 11
1171.693383272302
 21
291.1666656970251
 31
0.0
  0
LINE
  5
21E2
330
1064
100
AcDbEntity
  8
BEMASS
440
 16777216
370
    -2
100
AcDbLine
 10
1116.543383272302
 20
288.9666656970251
 30
0.0
 11
1167.843383272302
 21
288.9666656970251
 31
0.0
  0
SOLID
  5
21E3
330
1064
100
AcDbEntity
  8
BEMASS
440
 16777216
100
AcDbTrace
 10
1116.543383272302
 20
289.6083323636918
 30
0.0
 11
1116.543383272302
 21
288.3249990303585
 31
0.0
 12
1112.693383272302
 22
288.9666656970251
 32
0.0
 13
1112.693383272302
 23
288.9666656970251
 33
0.0
  0
SOLID
  5
21E4
330
1064
100
AcDbEntity
  8
BEMASS
440
 16777216
100
AcDbTrace
 10
1167.843383272302
 20
289.6083323636918
 30
0.0
 11
1167.843383272302
 21
288.3249990303585
 31
0.0
 12
1171.693383272302
 22
288.9666656970251
 32
0.0
 13
1171.693383272302
 23
288.9666656970251
 33
0.0
  0
MTEXT
  5
21E5
330
1064
100
AcDbEntity
  8
BEMASS
440
 16777216
100
AcDbMText
 10
1140.193383272302
 20
293.0916656970251
 30
0.0
 40
3.85
 41
0.0
 46
0.0
 71
     5
 72
     1
  1
\A1;59
 73
     1
 44
1.0
  0
POINT
  5
21E6
330
1064
100
AcDbEntity
  8
DEFPOINTS
 62
     0
440
 16777216
100
AcDbPoint
 10
1112.693383272302
 20
277.9653143950718
 30
0.0
  0
POINT
  5
21E7
330
1064
100
AcDbEntity
  8
DEFPOINTS
 62
     0
440
 16777216
100
AcDbPoint
 10
1171.693383272302
 20
281.4943107537232
 30
0.0
  0
POINT
  5
21E8
330
1064
100
AcDbEntity
  8
DEFPOINTS
 62
     0
440
 16777216
100
AcDbPoint
 10
1171.693383272302
 20
288.9666656970251
 30
0.0
  0
ENDBLK
  5
1066
330
1064
100
AcDbEntity
  8
0
100
AcDbBlockEnd
  0
BLOCK
  5
1074
330
1073
100
AcDbEntity
  8
0
100
AcDbBlockBegin
  2
*D14
 70
     1
 10
0.0
 20
0.0
 30
0.0
  3
*D14
  1

  0
LINE
  5
21E9
330
1073
100
AcDbEntity
  8
BEMASS
440
 16777216
370
    -2
100
AcDbLine
 10
1167.822040117897
 20
280.4569874818765
 30
0.0
 11
1191.457587885361
 21
280.4569874818765
 31
0.0
  0
LINE
  5
21EA
330
1073
100
AcDbEntity
  8
BEMASS
440
 16777216
370
    -2
100
AcDbLine
 10
1168.100624811569
 20
330.4569874818763
 30
0.0
 11
1191.457587885361
 21
330.4569874818763
 31
0.0
  0
LINE
  5
21EB
330
1073
100
AcDbEntity
  8
BEMASS
440
 16777216
370
    -2
100
AcDbLine
 10
1189.257587885361
 20
284.3069874818765
 30
0.0
 11
1189.257587885361
 21
326.6069874818763
 31
0.0
  0
SOLID
  5
21EC
330
1073
100
AcDbEntity
  8
BEMASS
440
 16777216
100
AcDbTrace
 10
1188.615921218694
 20
284.3069874818765
 30
0.0
 11
1189.899254552027
 21
284.3069874818765
 31
0.0
 12
1189.257587885361
 22
280.4569874818765
 32
0.0
 13
1189.257587885361
 23
280.4569874818765
 33
0.0
  0
SOLID
  5
21ED
330
1073
100
AcDbEntity
  8
BEMASS
440
 16777216
100
AcDbTrace
 10
1188.615921218694
 20
326.6069874818763
 30
0.0
 11
1189.899254552027
 21
326.6069874818763
 31
0.0
 12
1189.257587885361
 22
330.4569874818763
 32
0.0
 13
1189.257587885361
 23
330.4569874818763
 33
0.0
  0
MTEXT
  5
21EE
330
1073
100
AcDbEntity
  8
BEMASS
440
 16777216
100
AcDbMText
 10
1185.132587885361
 20
305.4569874818767
 30
0.0
 40
3.85
 41
0.0
 46
0.0
 71
     5
 72
     1
  1
\A1;%%c50
 11
0.0000000000000001
 21
1.0
 31
0.0
 73
     1
 44
1.0
  0
POINT
  5
21EF
330
1073
100
AcDbEntity
  8
DEFPOINTS
 62
     0
440
 16777216
100
AcDbPoint
 10
1167.822040117897
 20
280.4569874818765
 30
0.0
  0
POINT
  5
21F0
330
1073
100
AcDbEntity
  8
DEFPOINTS
 62
     0
440
 16777216
100
AcDbPoint
 10
1168.100624811569
 20
330.4569874818763
 30
0.0
  0
POINT
  5
21F1
330
1073
100
AcDbEntity
  8
DEFPOINTS
 62
     0
440
 16777216
100
AcDbPoint
 10
1189.257587885361
 20
330.4569874818763
 30
0.0
  0
ENDBLK
  5
1075
330
1073
100
AcDbEntity
  8
0
100
AcDbBlockEnd
  0
BLOCK
  5
1083
330
1082
100
AcDbEntity
  8
0
100
AcDbBlockBegin
  2
*D15
 70
     1
 10
0.0
 20
0.0
 30
0.0
  3
*D15
  1

  0
LINE
  5
21F2
330
1082
100
AcDbEntity
  8
BEMASS
440
 16777216
370
    -2
100
AcDbLine
 10
1102.693383272303
 20
275.4653143950718
 30
0.0
 11
1203.663490457031
 21
275.4653143950717
 31
0.0
  0
LINE
  5
21F3
330
1082
100
AcDbEntity
  8
BEMASS
440
 16777216
370
    -2
100
AcDbLine
 10
1190.980521052662
 20
305.4653143950718
 30
0.0
 11
1203.663490457031
 21
305.4653143950718
 31
0.0
  0
LINE
  5
21F4
330
1082
100
AcDbEntity
  8
BEMASS
440
 16777216
370
    -2
100
AcDbLine
 10
1201.463490457031
 20
279.3153143950718
 30
0.0
 11
1201.463490457031
 21
301.6153143950718
 31
0.0
  0
SOLID
  5
21F5
330
1082
100
AcDbEntity
  8
BEMASS
440
 16777216
100
AcDbTrace
 10
1200.821823790364
 20
279.3153143950718
 30
0.0
 11
1202.105157123697
 21
279.3153143950718
 31
0.0
 12
1201.463490457031
 22
275.4653143950717
 32
0.0
 13
1201.463490457031
 23
275.4653143950717
 33
0.0
  0
SOLID
  5
21F6
330
1082
100
AcDbEntity
  8
BEMASS
440
 16777216
100
AcDbTrace
 10
1200.821823790364
 20
301.6153143950718
 30
0.0
 11
1202.105157123697
 21
301.6153143950718
 31
0.0
 12
1201.463490457031
 22
305.4653143950718
 32
0.0
 13
1201.463490457031
 23
305.4653143950718
 33
0.0
  0
MTEXT
  5
21F7
330
1082
100
AcDbEntity
  8
BEMASS
440
 16777216
100
AcDbMText
 10
1197.33849045703
 20
290.465314395072
 30
0.0
 40
3.85
 41
0.0
 46
0.0
 71
     5
 72
     1
  1
\A1;30
 11
0.0000000000000001
 21
1.0
 31
0.0
 73
     1
 44
1.0
  0
POINT
  5
21F8
330
1082
100
AcDbEntity
  8
DEFPOINTS
 62
     0
440
 16777216
100
AcDbPoint
 10
1102.693383272303
 20
275.4653143950718
 30
0.0
  0
POINT
  5
21F9
330
1082
100
AcDbEntity
  8
DEFPOINTS
 62
     0
440
 16777216
100
AcDbPoint
 10
1190.980521052662
 20
305.4653143950718
 30
0.0
  0
POINT
  5
21FA
330
1082
100
AcDbEntity
  8
DEFPOINTS
 62
     0
440
 16777216
100
AcDbPoint
 10
1201.463490457031
 20
305.4653143950718
 30
0.0
  0
ENDBLK
  5
1084
330
1082
100
AcDbEntity
  8
0
100
AcDbBlockEnd
  0
BLOCK
  5
17FE
330
17FD
100
AcDbEntity
  8
0
100
AcDbBlockBegin
  2
*D16
 70
     1
 10
0.0
 20
0.0
 30
0.0
  3
*D16
  1

  0
LINE
  5
185F
330
17FD
100
AcDbEntity
  8
BEMASS
440
 16777216
370
    -2
100
AcDbLine
 10
993.7072665731568
 20
603.1413683446726
 30
0.0
 11
993.7072665731568
 21
622.6034966013063
 31
0.0
  0
LINE
  5
1860
330
17FD
100
AcDbEntity
  8
BEMASS
440
 16777216
370
    -2
100
AcDbLine
 10
1143.707266573157
 20
603.9034966013063
 30
0.0
 11
1143.707266573157
 21
622.6034966013063
 31
0.0
  0
LINE
  5
1861
330
17FD
100
AcDbEntity
  8
BEMASS
440
 16777216
370
    -2
100
AcDbLine
 10
997.5572665731569
 20
620.4034966013063
 30
0.0
 11
1139.857266573157
 21
620.4034966013063
 31
0.0
  0
SOLID
  5
1862
330
17FD
100
AcDbEntity
  8
BEMASS
440
 16777216
100
AcDbTrace
 10
997.5572665731569
 20
621.0451632679729
 30
0.0
 11
997.5572665731569
 21
619.7618299346396
 31
0.0
 12
993.7072665731568
 22
620.4034966013063
 32
0.0
 13
993.7072665731568
 23
620.4034966013063
 33
0.0
  0
SOLID
  5
1863
330
17FD
100
AcDbEntity
  8
BEMASS
440
 16777216
100
AcDbTrace
 10
1139.857266573157
 20
621.0451632679729
 30
0.0
 11
1139.857266573157
 21
619.7618299346396
 31
0.0
 12
1143.707266573157
 22
620.4034966013063
 32
0.0
 13
1143.707266573157
 23
620.4034966013063
 33
0.0
  0
MTEXT
  5
1864
330
17FD
100
AcDbEntity
  8
BEMASS
440
 16777216
100
AcDbMText
 10
1068.707266573157
 20
624.5284966013063
 30
0.0
 40
3.85
 41
0.0
 46
0.0
 71
     5
 72
     1
  1
\A1;150x150
 73
     1
 44
1.0
  0
POINT
  5
1865
330
17FD
100
AcDbEntity
  8
DEFPOINTS
 62
     0
440
 16777216
100
AcDbPoint
 10
993.7072665731568
 20
603.1413683446726
 30
0.0
  0
POINT
  5
1866
330
17FD
100
AcDbEntity
  8
DEFPOINTS
 62
     0
440
 16777216
100
AcDbPoint
 10
1143.707266573157
 20
603.9034966013063
 30
0.0
  0
POINT
  5
1867
330
17FD
100
AcDbEntity
  8
DEFPOINTS
 62
     0
440
 16777216
100
AcDbPoint
 10
1143.707266573157
 20
620.4034966013063
 30
0.0
  0
ENDBLK
  5
17FF
330
17FD
100
AcDbEntity
  8
0
100
AcDbBlockEnd
  0
BLOCK
  5
180A
330
1809
100
AcDbEntity
  8
0
100
AcDbBlockBegin
  2
*D17
 70
     1
 10
0.0
 20
0.0
 30
0.0
  3
*D17
  1

  0
LINE
  5
1868
330
1809
100
AcDbEntity
  8
BEMASS
440
 16777216
370
    -2
100
AcDbLine
 10
993.7072665731564
 20
595.4034966013065
 30
0.0
 11
921.6063373930529
 21
595.4034966013065
 31
0.0
  0
LINE
  5
1869
330
1809
100
AcDbEntity
  8
BEMASS
440
 16777216
370
    -2
100
AcDbLine
 10
995.2072665731568
 20
605.4034966013065
 30
0.0
 11
921.6063373930529
 21
605.4034966013065
 31
0.0
  0
LINE
  5
186A
330
1809
100
AcDbEntity
  8
BEMASS
440
 16777216
370
    -2
100
AcDbLine
 10
923.8063373930529
 20
591.5534966013065
 30
0.0
 11
923.8063373930529
 21
587.7034966013065
 31
0.0
  0
LINE
  5
186B
330
1809
100
AcDbEntity
  8
BEMASS
440
 16777216
370
    -2
100
AcDbLine
 10
923.8063373930529
 20
609.2534966013065
 30
0.0
 11
923.8063373930529
 21
631.5834966013065
 31
0.0
  0
LINE
  5
186C
330
1809
100
AcDbEntity
  8
BEMASS
440
 16777216
370
    -2
100
AcDbLine
 10
923.8063373930529
 20
595.4034966013065
 30
0.0
 11
923.8063373930529
 21
605.4034966013065
 31
0.0
  0
SOLID
  5
186D
330
1809
100
AcDbEntity
  8
BEMASS
440
 16777216
100
AcDbTrace
 10
923.1646707263863
 20
591.5534966013065
 30
0.0
 11
924.4480040597196
 21
591.5534966013065
 31
0.0
 12
923.8063373930529
 22
595.4034966013065
 32
0.0
 13
923.8063373930529
 23
595.4034966013065
 33
0.0
  0
SOLID
  5
186E
330
1809
100
AcDbEntity
  8
BEMASS
440
 16777216
100
AcDbTrace
 10
923.1646707263863
 20
609.2534966013065
 30
0.0
 11
924.4480040597196
 21
609.2534966013065
 31
0.0
 12
923.8063373930529
 22
605.4034966013065
 32
0.0
 13
923.8063373930529
 23
605.4034966013065
 33
0.0
  0
MTEXT
  5
186F
330
1809
100
AcDbEntity
  8
BEMASS
440
 16777216
100
AcDbMText
 10
919.6813373930528
 20
622.3434966013067
 30
0.0
 40
3.85
 41
0.0
 46
0.0
 71
     5
 72
     1
  1
\A1;10-50
 11
0.0000000000000001
 21
1.0
 31
0.0
 73
     1
 44
1.0
  0
POINT
  5
1870
330
1809
100
AcDbEntity
  8
DEFPOINTS
 62
     0
440
 16777216
100
AcDbPoint
 10
993.7072665731564
 20
595.4034966013065
 30
0.0
  0
POINT
  5
1871
330
1809
100
AcDbEntity
  8
DEFPOINTS
 62
     0
440
 16777216
100
AcDbPoint
 10
995.2072665731568
 20
605.4034966013065
 30
0.0
  0
POINT
  5
1872
330
1809
100
AcDbEntity
  8
DEFPOINTS
 62
     0
440
 16777216
100
AcDbPoint
 10
923.8063373930529
 20
605.4034966013065
 30
0.0
  0
ENDBLK
  5
180B
330
1809
100
AcDbEntity
  8
0
100
AcDbBlockEnd
  0
BLOCK
  5
1818
330
1817
100
AcDbEntity
  8
0
100
AcDbBlockBegin
  2
*D18
 70
     1
 10
0.0
 20
0.0
 30
0.0
  3
*D18
  1

  0
LINE
  5
1873
330
1817
100
AcDbEntity
  8
BEMASS
440
 16777216
370
    -2
100
AcDbLine
 10
1009.707266573156
 20
483.6075470002127
 30
0.0
 11
921.6063373930529
 21
483.6075470002127
 31
0.0
  0
LINE
  5
1874
330
1817
100
AcDbEntity
  8
BEMASS
440
 16777216
370
    -2
100
AcDbLine
 10
958.8998489767238
 20
595.4034966013065
 30
0.0
 11
921.6063373930529
 21
595.4034966013065
 31
0.0
  0
LINE
  5
1875
330
1817
100
AcDbEntity
  8
BEMASS
440
 16777216
370
    -2
100
AcDbLine
 10
923.8063373930529
 20
487.4575470002127
 30
0.0
 11
923.8063373930529
 21
591.5534966013065
 31
0.0
  0
SOLID
  5
1876
330
1817
100
AcDbEntity
  8
BEMASS
440
 16777216
100
AcDbTrace
 10
923.1646707263863
 20
487.4575470002127
 30
0.0
 11
924.4480040597196
 21
487.4575470002127
 31
0.0
 12
923.8063373930529
 22
483.6075470002127
 32
0.0
 13
923.8063373930529
 23
483.6075470002127
 33
0.0
  0
SOLID
  5
1877
330
1817
100
AcDbEntity
  8
BEMASS
440
 16777216
100
AcDbTrace
 10
923.1646707263863
 20
591.5534966013065
 30
0.0
 11
924.4480040597196
 21
591.5534966013065
 31
0.0
 12
923.8063373930529
 22
595.4034966013065
 32
0.0
 13
923.8063373930529
 23
595.4034966013065
 33
0.0
  0
MTEXT
  5
1878
330
1817
100
AcDbEntity
  8
BEMASS
440
 16777216
100
AcDbMText
 10
919.6813373930528
 20
539.5055218007598
 30
0.0
 40
3.85
 41
0.0
 46
0.0
 71
     5
 72
     1
  1
\A1;110-125
 11
0.0000000000000001
 21
1.0
 31
0.0
 73
     1
 44
1.0
  0
POINT
  5
1879
330
1817
100
AcDbEntity
  8
DEFPOINTS
 62
     0
440
 16777216
100
AcDbPoint
 10
1009.707266573156
 20
483.6075470002127
 30
0.0
  0
POINT
  5
187A
330
1817
100
AcDbEntity
  8
DEFPOINTS
 62
     0
440
 16777216
100
AcDbPoint
 10
958.8998489767238
 20
595.4034966013065
 30
0.0
  0
POINT
  5
187B
330
1817
100
AcDbEntity
  8
DEFPOINTS
 62
     0
440
 16777216
100
AcDbPoint
 10
923.8063373930529
 20
595.4034966013065
 30
0.0
  0
ENDBLK
  5
1819
330
1817
100
AcDbEntity
  8
0
100
AcDbBlockEnd
  0
BLOCK
  5
1824
330
1823
100
AcDbEntity
  8
0
100
AcDbBlockBegin
  2
*D19
 70
     1
 10
0.0
 20
0.0
 30
0.0
  3
*D19
  1

  0
LINE
  5
187C
330
1823
100
AcDbEntity
  8
BEMASS
440
 16777216
370
    -2
100
AcDbLine
 10
1002.707266573156
 20
490.6075470002126
 30
0.0
 11
1002.707266573156
 21
468.7558344618911
 31
0.0
  0
LINE
  5
187D
330
1823
100
AcDbEntity
  8
BEMASS
440
 16777216
370
    -2
100
AcDbLine
 10
1198.707266573157
 20
489.636543358864
 30
0.0
 11
1198.707266573157
 21
468.7558344618911
 31
0.0
  0
LINE
  5
187E
330
1823
100
AcDbEntity
  8
BEMASS
440
 16777216
370
    -2
100
AcDbLine
 10
1006.557266573156
 20
470.955834461891
 30
0.0
 11
1194.857266573157
 21
470.955834461891
 31
0.0
  0
SOLID
  5
187F
330
1823
100
AcDbEntity
  8
BEMASS
440
 16777216
100
AcDbTrace
 10
1006.557266573156
 20
471.5975011285577
 30
0.0
 11
1006.557266573156
 21
470.3141677952244
 31
0.0
 12
1002.707266573156
 22
470.955834461891
 32
0.0
 13
1002.707266573156
 23
470.955834461891
 33
0.0
  0
SOLID
  5
1880
330
1823
100
AcDbEntity
  8
BEMASS
440
 16777216
100
AcDbTrace
 10
1194.857266573157
 20
471.5975011285577
 30
0.0
 11
1194.857266573157
 21
470.3141677952244
 31
0.0
 12
1198.707266573157
 22
470.955834461891
 32
0.0
 13
1198.707266573157
 23
470.955834461891
 33
0.0
  0
MTEXT
  5
1881
330
1823
100
AcDbEntity
  8
BEMASS
440
 16777216
100
AcDbMText
 10
1100.707266573157
 20
475.080834461891
 30
0.0
 40
3.85
 41
0.0
 46
0.0
 71
     5
 72
     1
  1
\A1;196
 73
     1
 44
1.0
  0
POINT
  5
1882
330
1823
100
AcDbEntity
  8
DEFPOINTS
 62
     0
440
 16777216
100
AcDbPoint
 10
1002.707266573156
 20
490.6075470002126
 30
0.0
  0
POINT
  5
1883
330
1823
100
AcDbEntity
  8
DEFPOINTS
 62
     0
440
 16777216
100
AcDbPoint
 10
1198.707266573157
 20
489.636543358864
 30
0.0
  0
POINT
  5
1884
330
1823
100
AcDbEntity
  8
DEFPOINTS
 62
     0
440
 16777216
100
AcDbPoint
 10
1198.707266573157
 20
470.955834461891
 30
0.0
  0
ENDBLK
  5
1825
330
1823
100
AcDbEntity
  8
0
100
AcDbBlockEnd
  0
BLOCK
  5
1830
330
182F
100
AcDbEntity
  8
0
100
AcDbBlockBegin
  2
*D20
 70
     1
 10
0.0
 20
0.0
 30
0.0
  3
*D20
  1

  0
LINE
  5
1885
330
182F
100
AcDbEntity
  8
BEMASS
440
 16777216
370
    -2
100
AcDbLine
 10
1139.707266573157
 20
486.1075470002126
 30
0.0
 11
1139.707266573157
 21
498.9755649688326
 31
0.0
  0
LINE
  5
1886
330
182F
100
AcDbEntity
  8
BEMASS
440
 16777216
370
    -2
100
AcDbLine
 10
1198.707266573157
 20
489.636543358864
 30
0.0
 11
1198.707266573157
 21
498.9755649688326
 31
0.0
  0
LINE
  5
1887
330
182F
100
AcDbEntity
  8
BEMASS
440
 16777216
370
    -2
100
AcDbLine
 10
1143.557266573157
 20
496.7755649688326
 30
0.0
 11
1194.857266573157
 21
496.7755649688326
 31
0.0
  0
SOLID
  5
1888
330
182F
100
AcDbEntity
  8
BEMASS
440
 16777216
100
AcDbTrace
 10
1143.557266573157
 20
497.4172316354993
 30
0.0
 11
1143.557266573157
 21
496.133898302166
 31
0.0
 12
1139.707266573157
 22
496.7755649688326
 32
0.0
 13
1139.707266573157
 23
496.7755649688326
 33
0.0
  0
SOLID
  5
1889
330
182F
100
AcDbEntity
  8
BEMASS
440
 16777216
100
AcDbTrace
 10
1194.857266573157
 20
497.4172316354993
 30
0.0
 11
1194.857266573157
 21
496.133898302166
 31
0.0
 12
1198.707266573157
 22
496.7755649688326
 32
0.0
 13
1198.707266573157
 23
496.7755649688326
 33
0.0
  0
MTEXT
  5
188A
330
182F
100
AcDbEntity
  8
BEMASS
440
 16777216
100
AcDbMText
 10
1169.207266573157
 20
500.9005649688326
 30
0.0
 40
3.85
 41
0.0
 46
0.0
 71
     5
 72
     1
  1
\A1;59
 73
     1
 44
1.0
  0
POINT
  5
188B
330
182F
100
AcDbEntity
  8
DEFPOINTS
 62
     0
440
 16777216
100
AcDbPoint
 10
1139.707266573157
 20
486.1075470002126
 30
0.0
  0
POINT
  5
188C
330
182F
100
AcDbEntity
  8
DEFPOINTS
 62
     0
440
 16777216
100
AcDbPoint
 10
1198.707266573157
 20
489.636543358864
 30
0.0
  0
POINT
  5
188D
330
182F
100
AcDbEntity
  8
DEFPOINTS
 62
     0
440
 16777216
100
AcDbPoint
 10
1198.707266573157
 20
496.7755649688326
 30
0.0
  0
ENDBLK
  5
1831
330
182F
100
AcDbEntity
  8
0
100
AcDbBlockEnd
  0
BLOCK
  5
183C
330
183B
100
AcDbEntity
  8
0
100
AcDbBlockBegin
  2
*D21
 70
     1
 10
0.0
 20
0.0
 30
0.0
  3
*D21
  1

  0
LINE
  5
188E
330
183B
100
AcDbEntity
  8
BEMASS
440
 16777216
370
    -2
100
AcDbLine
 10
1194.835923418752
 20
488.5992200870173
 30
0.0
 11
1216.471471186215
 21
488.5992200870173
 31
0.0
  0
LINE
  5
188F
330
183B
100
AcDbEntity
  8
BEMASS
440
 16777216
370
    -2
100
AcDbLine
 10
1195.114508112424
 20
538.5992200870171
 30
0.0
 11
1216.471471186215
 21
538.5992200870171
 31
0.0
  0
LINE
  5
1890
330
183B
100
AcDbEntity
  8
BEMASS
440
 16777216
370
    -2
100
AcDbLine
 10
1214.271471186215
 20
492.4492200870173
 30
0.0
 11
1214.271471186215
 21
534.7492200870171
 31
0.0
  0
SOLID
  5
1891
330
183B
100
AcDbEntity
  8
BEMASS
440
 16777216
100
AcDbTrace
 10
1213.629804519549
 20
492.4492200870173
 30
0.0
 11
1214.913137852882
 21
492.4492200870173
 31
0.0
 12
1214.271471186215
 22
488.5992200870173
 32
0.0
 13
1214.271471186215
 23
488.5992200870173
 33
0.0
  0
SOLID
  5
1892
330
183B
100
AcDbEntity
  8
BEMASS
440
 16777216
100
AcDbTrace
 10
1213.629804519549
 20
534.7492200870171
 30
0.0
 11
1214.913137852882
 21
534.7492200870171
 31
0.0
 12
1214.271471186215
 22
538.5992200870171
 32
0.0
 13
1214.271471186215
 23
538.5992200870171
 33
0.0
  0
MTEXT
  5
1893
330
183B
100
AcDbEntity
  8
BEMASS
440
 16777216
100
AcDbMText
 10
1210.146471186215
 20
513.5992200870174
 30
0.0
 40
3.85
 41
0.0
 46
0.0
 71
     5
 72
     1
  1
\A1;%%c50
 11
0.0000000000000001
 21
1.0
 31
0.0
 73
     1
 44
1.0
  0
POINT
  5
1894
330
183B
100
AcDbEntity
  8
DEFPOINTS
 62
     0
440
 16777216
100
AcDbPoint
 10
1194.835923418752
 20
488.5992200870173
 30
0.0
  0
POINT
  5
1895
330
183B
100
AcDbEntity
  8
DEFPOINTS
 62
     0
440
 16777216
100
AcDbPoint
 10
1195.114508112424
 20
538.5992200870171
 30
0.0
  0
POINT
  5
1896
330
183B
100
AcDbEntity
  8
DEFPOINTS
 62
     0
440
 16777216
100
AcDbPoint
 10
1214.271471186215
 20
538.5992200870171
 30
0.0
  0
ENDBLK
  5
183D
330
183B
100
AcDbEntity
  8
0
100
AcDbBlockEnd
  0
BLOCK
  5
1848
330
1847
100
AcDbEntity
  8
0
100
AcDbBlockBegin
  2
*D22
 70
     1
 10
0.0
 20
0.0
 30
0.0
  3
*D22
  1

  0
LINE
  5
1897
330
1847
100
AcDbEntity
  8
BEMASS
440
 16777216
370
    -2
100
AcDbLine
 10
1127.707266573158
 20
483.6075470002127
 30
0.0
 11
1228.677373757885
 21
483.6075470002126
 31
0.0
  0
LINE
  5
1898
330
1847
100
AcDbEntity
  8
BEMASS
440
 16777216
370
    -2
100
AcDbLine
 10
1215.994404353517
 20
513.6075470002126
 30
0.0
 11
1228.677373757885
 21
513.6075470002126
 31
0.0
  0
LINE
  5
1899
330
1847
100
AcDbEntity
  8
BEMASS
440
 16777216
370
    -2
100
AcDbLine
 10
1226.477373757885
 20
487.4575470002126
 30
0.0
 11
1226.477373757885
 21
509.7575470002126
 31
0.0
  0
SOLID
  5
189A
330
1847
100
AcDbEntity
  8
BEMASS
440
 16777216
100
AcDbTrace
 10
1225.835707091218
 20
487.4575470002126
 30
0.0
 11
1227.119040424552
 21
487.4575470002126
 31
0.0
 12
1226.477373757885
 22
483.6075470002126
 32
0.0
 13
1226.477373757885
 23
483.6075470002126
 33
0.0
  0
SOLID
  5
189B
330
1847
100
AcDbEntity
  8
BEMASS
440
 16777216
100
AcDbTrace
 10
1225.835707091218
 20
509.7575470002126
 30
0.0
 11
1227.119040424552
 21
509.7575470002126
 31
0.0
 12
1226.477373757885
 22
513.6075470002126
 32
0.0
 13
1226.477373757885
 23
513.6075470002126
 33
0.0
  0
MTEXT
  5
189C
330
1847
100
AcDbEntity
  8
BEMASS
440
 16777216
100
AcDbMText
 10
1222.352373757885
 20
498.6075470002128
 30
0.0
 40
3.85
 41
0.0
 46
0.0
 71
     5
 72
     1
  1
\A1;30
 11
0.0000000000000001
 21
1.0
 31
0.0
 73
     1
 44
1.0
  0
POINT
  5
189D
330
1847
100
AcDbEntity
  8
DEFPOINTS
 62
     0
440
 16777216
100
AcDbPoint
 10
1127.707266573158
 20
483.6075470002127
 30
0.0
  0
POINT
  5
189E
330
1847
100
AcDbEntity
  8
DEFPOINTS
 62
     0
440
 16777216
100
AcDbPoint
 10
1215.994404353517
 20
513.6075470002126
 30
0.0
  0
POINT
  5
189F
330
1847
100
AcDbEntity
  8
DEFPOINTS
 62
     0
440
 16777216
100
AcDbPoint
 10
1226.477373757885
 20
513.6075470002126
 30
0.0
  0
ENDBLK
  5
1849
330
1847
100
AcDbEntity
  8
0
100
AcDbBlockEnd
  0
BLOCK
  5
1854
330
1853
100
AcDbEntity
  8
0
100
AcDbBlockBegin
  2
*D23
 70
     1
 10
0.0
 20
0.0
 30
0.0
  3
*D23
  1

  0
LINE
  5
18A0
330
1853
100
AcDbEntity
  8
BEMASS
440
 16777216
370
    -2
100
AcDbLine
 10
1009.707266573156
 20
483.6075470002127
 30
0.0
 11
910.7119574438138
 21
483.6075470002127
 31
0.0
  0
LINE
  5
18A1
330
1853
100
AcDbEntity
  8
BEMASS
440
 16777216
370
    -2
100
AcDbLine
 10
995.2072665731568
 20
605.4034966013065
 30
0.0
 11
910.7119574438138
 21
605.4034966013065
 31
0.0
  0
LINE
  5
18A2
330
1853
100
AcDbEntity
  8
BEMASS
440
 16777216
370
    -2
100
AcDbLine
 10
912.9119574438139
 20
487.4575470002127
 30
0.0
 11
912.9119574438139
 21
601.5534966013064
 31
0.0
  0
SOLID
  5
18A3
330
1853
100
AcDbEntity
  8
BEMASS
440
 16777216
100
AcDbTrace
 10
912.2702907771472
 20
487.4575470002127
 30
0.0
 11
913.5536241104805
 21
487.4575470002127
 31
0.0
 12
912.9119574438139
 22
483.6075470002127
 32
0.0
 13
912.9119574438139
 23
483.6075470002127
 33
0.0
  0
SOLID
  5
18A4
330
1853
100
AcDbEntity
  8
BEMASS
440
 16777216
100
AcDbTrace
 10
912.2702907771472
 20
601.5534966013064
 30
0.0
 11
913.5536241104805
 21
601.5534966013064
 31
0.0
 12
912.9119574438139
 22
605.4034966013065
 32
0.0
 13
912.9119574438139
 23
605.4034966013065
 33
0.0
  0
MTEXT
  5
18A5
330
1853
100
AcDbEntity
  8
BEMASS
440
 16777216
100
AcDbMText
 10
908.7869574438137
 20
544.5055218007598
 30
0.0
 40
3.85
 41
0.0
 46
0.0
 71
     5
 72
     1
  1
\A1;120-179
 11
0.0000000000000001
 21
1.0
 31
0.0
 73
     1
 44
1.0
  0
POINT
  5
18A6
330
1853
100
AcDbEntity
  8
DEFPOINTS
 62
     0
440
 16777216
100
AcDbPoint
 10
1009.707266573156
 20
483.6075470002127
 30
0.0
  0
POINT
  5
18A7
330
1853
100
AcDbEntity
  8
DEFPOINTS
 62
     0
440
 16777216
100
AcDbPoint
 10
995.2072665731568
 20
605.4034966013065
 30
0.0
  0
POINT
  5
18A8
330
1853
100
AcDbEntity
  8
DEFPOINTS
 62
     0
440
 16777216
100
AcDbPoint
 10
912.9119574438139
 20
605.4034966013065
 30
0.0
  0
ENDBLK
  5
1855
330
1853
100
AcDbEntity
  8
0
100
AcDbBlockEnd
  0
BLOCK
  5
213F
330
213E
100
AcDbEntity
  8
0
100
AcDbBlockBegin
  2
*D24
 70
     1
 10
0.0
 20
0.0
 30
0.0
  3
*D24
  1

  0
LINE
  5
21FB
330
213E
100
AcDbEntity
  8
BEMASS
440
 16777216
370
    -2
100
AcDbLine
 10
968.6933832723017
 20
391.2612639961661
 30
0.0
 11
908.4757755987462
 21
391.2612639961661
 31
0.0
  0
LINE
  5
21FC
330
213E
100
AcDbEntity
  8
BEMASS
440
 16777216
370
    -2
100
AcDbLine
 10
968.693383272302
 20
397.2612639961657
 30
0.0
 11
908.4757755987462
 21
397.2612639961657
 31
0.0
  0
LINE
  5
21FD
330
213E
100
AcDbEntity
  8
BEMASS
440
 16777216
370
    -2
100
AcDbLine
 10
910.6757755987462
 20
387.411263996166
 30
0.0
 11
910.6757755987462
 21
383.5612639961661
 31
0.0
  0
LINE
  5
21FE
330
213E
100
AcDbEntity
  8
BEMASS
440
 16777216
370
    -2
100
AcDbLine
 10
910.6757755987462
 20
401.1112639961656
 30
0.0
 11
910.6757755987462
 21
411.2679306628323
 31
0.0
  0
LINE
  5
21FF
330
213E
100
AcDbEntity
  8
BEMASS
440
 16777216
370
    -2
100
AcDbLine
 10
910.6757755987462
 20
391.2612639961661
 30
0.0
 11
910.6757755987462
 21
397.2612639961657
 31
0.0
  0
SOLID
  5
2200
330
213E
100
AcDbEntity
  8
BEMASS
440
 16777216
100
AcDbTrace
 10
910.0341089320796
 20
387.411263996166
 30
0.0
 11
911.3174422654129
 21
387.411263996166
 31
0.0
 12
910.6757755987462
 22
391.2612639961661
 32
0.0
 13
910.6757755987462
 23
391.2612639961661
 33
0.0
  0
SOLID
  5
2201
330
213E
100
AcDbEntity
  8
BEMASS
440
 16777216
100
AcDbTrace
 10
910.0341089320796
 20
401.1112639961656
 30
0.0
 11
911.3174422654129
 21
401.1112639961656
 31
0.0
 12
910.6757755987462
 22
397.2612639961657
 32
0.0
 13
910.6757755987462
 23
397.2612639961657
 33
0.0
  0
MTEXT
  5
2202
330
213E
100
AcDbEntity
  8
BEMASS
440
 16777216
100
AcDbMText
 10
906.5507755987463
 20
408.1145973294992
 30
0.0
 40
3.85
 41
0.0
 46
0.0
 71
     5
 72
     1
  1
\A1;6
 11
0.0000000000000001
 21
1.0
 31
0.0
 73
     1
 44
1.0
  0
POINT
  5
2203
330
213E
100
AcDbEntity
  8
DEFPOINTS
 62
     0
440
 16777216
100
AcDbPoint
 10
968.6933832723017
 20
391.2612639961661
 30
0.0
  0
POINT
  5
2204
330
213E
100
AcDbEntity
  8
DEFPOINTS
 62
     0
440
 16777216
100
AcDbPoint
 10
968.693383272302
 20
397.2612639961657
 30
0.0
  0
POINT
  5
2205
330
213E
100
AcDbEntity
  8
DEFPOINTS
 62
     0
440
 16777216
100
AcDbPoint
 10
910.6757755987462
 20
397.2612639961657
 30
0.0
  0
ENDBLK
  5
2140
330
213E
100
AcDbEntity
  8
0
100
AcDbBlockEnd
  0
BLOCK
  5
2208
330
2207
100
AcDbEntity
  8
0
100
AcDbBlockBegin
  2
*D25
 70
     1
 10
0.0
 20
0.0
 30
0.0
  3
*D25
  1

  0
LINE
  5
2231
330
2207
100
AcDbEntity
  8
BEMASS
440
 16777216
370
    -2
100
AcDbLine
 10
918.6933832723019
 20
422.0704882748236
 30
0.0
 11
918.6933832723019
 21
428.7397428878463
 31
0.0
  0
LINE
  5
2232
330
2207
100
AcDbEntity
  8
BEMASS
440
 16777216
370
    -2
100
AcDbLine
 10
1168.693383272302
 20
386.2612639961657
 30
0.0
 11
1168.693383272302
 21
428.7397428878463
 31
0.0
  0
LINE
  5
2233
330
2207
100
AcDbEntity
  8
BEMASS
440
 16777216
370
    -2
100
AcDbLine
 10
922.543383272302
 20
426.5397428878463
 30
0.0
 11
1164.843383272303
 21
426.5397428878463
 31
0.0
  0
SOLID
  5
2234
330
2207
100
AcDbEntity
  8
BEMASS
440
 16777216
100
AcDbTrace
 10
922.543383272302
 20
427.181409554513
 30
0.0
 11
922.543383272302
 21
425.8980762211796
 31
0.0
 12
918.6933832723019
 22
426.5397428878463
 32
0.0
 13
918.6933832723019
 23
426.5397428878463
 33
0.0
  0
SOLID
  5
2235
330
2207
100
AcDbEntity
  8
BEMASS
440
 16777216
100
AcDbTrace
 10
1164.843383272303
 20
427.181409554513
 30
0.0
 11
1164.843383272303
 21
425.8980762211796
 31
0.0
 12
1168.693383272302
 22
426.5397428878463
 32
0.0
 13
1168.693383272302
 23
426.5397428878463
 33
0.0
  0
MTEXT
  5
2236
330
2207
100
AcDbEntity
  8
BEMASS
440
 16777216
100
AcDbMText
 10
1043.693383272302
 20
430.6647428878464
 30
0.0
 40
3.85
 41
0.0
 46
0.0
 71
     5
 72
     1
  1
\A1;%%c250
 73
     1
 44
1.0
  0
POINT
  5
2237
330
2207
100
AcDbEntity
  8
DEFPOINTS
 62
     0
440
 16777216
100
AcDbPoint
 10
918.6933832723019
 20
422.0704882748236
 30
0.0
  0
POINT
  5
2238
330
2207
100
AcDbEntity
  8
DEFPOINTS
 62
     0
440
 16777216
100
AcDbPoint
 10
1168.693383272302
 20
386.2612639961657
 30
0.0
  0
POINT
  5
2239
330
2207
100
AcDbEntity
  8
DEFPOINTS
 62
     0
440
 16777216
100
AcDbPoint
 10
1168.693383272302
 20
426.5397428878463
 30
0.0
  0
ENDBLK
  5
2209
330
2207
100
AcDbEntity
  8
0
100
AcDbBlockEnd
  0
BLOCK
  5
281C
330
281B
100
AcDbEntity
  8
0
100
AcDbBlockBegin
  2
_ACMFILLEDHALF
 70
     0
 10
0.0
 20
0.0
 30
0.0
  3
_ACMFILLEDHALF
  1

  0
TRACE
  5
281E
330
281B
100
AcDbEntity
  8
BEMASS
 62
     0
100
AcDbTrace
 10
-0.8
 20
0.0
 30
0.0
 11
-1.0
 21
0.166666666
 31
0.0
 12
0.0
 22
0.0
 32
0.0
 13
0.0
 23
0.0
 33
0.0
  0
LINE
  5
281F
330
281B
100
AcDbEntity
  8
BEMASS
 62
     0
100
AcDbLine
 10
-1.0
 20
0.0
 30
0.0
 11
-0.8
 21
0.0
 31
0.0
  0
ENDBLK
  5
281D
330
281B
100
AcDbEntity
  8
0
100
AcDbBlockEnd
  0
ENDSEC
  0
SECTION
  2
ENTITIES
  0
LINE
  5
ABC
330
2
100
AcDbEntity
  8
SICHTBAR
100
AcDbLine
 10
968.693383272302
 20
60.07219278630555
 30
0.0
 11
968.693383272302
 21
206.0721927863056
 31
0.0
  0
LINE
  5
ABD
330
2
100
AcDbEntity
  8
SICHTBAR
100
AcDbLine
 10
1118.693383272302
 20
60.07219278630555
 30
0.0
 11
1118.693383272302
 21
206.0721927863056
 31
0.0
  0
LINE
  5
ABE
330
2
100
AcDbEntity
  8
SICHTBAR
100
AcDbLine
 10
976.6933832723021
 20
65.07219278630578
 30
0.0
 11
1110.693383272302
 21
65.07219278630555
 31
0.0
  0
LINE
  5
ABF
330
2
100
AcDbEntity
  8
SICHTBAR
100
AcDbLine
 10
970.693383272302
 20
58.07219278630554
 30
0.0
 11
1116.693383272302
 21
58.07219278630554
 31
0.0
  0
LINE
  5
AC0
330
2
100
AcDbEntity
  8
SICHTBAR
100
AcDbLine
 10
976.6933832723021
 20
201.0721927863058
 30
0.0
 11
1110.693383272302
 21
201.0721927863055
 31
0.0
  0
LINE
  5
AC1
330
2
100
AcDbEntity
  8
SICHTBAR
100
AcDbLine
 10
977.1933832723023
 20
199.5721927863058
 30
0.0
 11
1110.193383272302
 21
199.5721927863055
 31
0.0
  0
LINE
  5
AC2
330
2
100
AcDbEntity
  8
SICHTBAR
100
AcDbLine
 10
975.6933832723021
 20
66.07219278630577
 30
0.0
 11
975.6933832723021
 21
200.0721927863058
 31
0.0
  0
ARC
  5
AC3
330
2
100
AcDbEntity
  8
SICHTBAR
100
AcDbCircle
 10
970.693383272302
 20
60.07219278630555
 30
0.0
 40
2.0
100
AcDbArc
 50
180.0
 51
270.0
  0
ARC
  5
AC4
330
2
100
AcDbEntity
  8
SICHTBAR
100
AcDbCircle
 10
976.6933832723021
 20
66.07219278630577
 30
0.0
 40
1.0
100
AcDbArc
 50
180.0
 51
270.0
  0
LINE
  5
AC5
330
2
100
AcDbEntity
  8
SICHTBAR
100
AcDbLine
 10
977.193383272302
 20
133.0721927863057
 30
0.0
 11
977.1933832723023
 21
199.5721927863058
 31
0.0
  0
ARC
  5
AC6
330
2
100
AcDbEntity
  8
SICHTBAR
100
AcDbCircle
 10
976.6933832723021
 20
200.0721927863058
 30
0.0
 40
1.0
100
AcDbArc
 50
90.0
 51
180.0
  0
LINE
  5
AC7
330
2
100
AcDbEntity
  8
SICHTBAR
100
AcDbLine
 10
1111.693383272302
 20
66.07219278630555
 30
0.0
 11
1111.693383272302
 21
200.0721927863056
 31
0.0
  0
ARC
  5
AC8
330
2
100
AcDbEntity
  8
SICHTBAR
100
AcDbCircle
 10
1110.693383272302
 20
66.07219278630555
 30
0.0
 40
1.0
100
AcDbArc
 50
270.0
 51
0.0
  0
ARC
  5
AC9
330
2
100
AcDbEntity
  8
SICHTBAR
100
AcDbCircle
 10
1116.693383272302
 20
60.07219278630555
 30
0.0
 40
2.0
100
AcDbArc
 50
270.0
 51
0.0
  0
LINE
  5
ACA
330
2
100
AcDbEntity
  8
MITTE
100
AcDbLine
 10
1043.693383272302
 20
133.0721927863057
 30
0.0
 11
968.693383272302
 21
133.0721927863057
 31
0.0
  0
LINE
  5
ACB
330
2
100
AcDbEntity
  8
SICHTBAR
100
AcDbLine
 10
1110.193383272302
 20
133.0721927863057
 30
0.0
 11
1110.193383272302
 21
199.5721927863055
 31
0.0
  0
ARC
  5
ACC
330
2
100
AcDbEntity
  8
SICHTBAR
100
AcDbCircle
 10
1110.693383272302
 20
200.0721927863056
 30
0.0
 40
1.0
100
AcDbArc
 50
0.0
 51
90.0
  0
DIMENSION
  5
ACD
330
2
100
AcDbEntity
  8
BEMASS
100
AcDbDimension
280
     0
  2
*D6
 10
887.8980741429591
 20
397.2612639961657
 30
0.0
 11
883.773074142959
 21
336.3632891956189
 31
0.0
 70
    32
  1
120-179
 71
     5
 42
121.7959496010939
 73
     0
 74
     0
 75
     0
  3
STANDARD$0
100
AcDbAlignedDimension
 13
984.6933832723015
 23
275.4653143950718
 33
0.0
 14
970.1933832723021
 24
397.2612639961657
 34
0.0
 50
90.0
100
AcDbRotatedDimension
1001
ACAD
1000
DSTYLE
1002
{
1070
    40
1040
1.1
1070
    78
1070
     8
1070
   140
1040
3.5
1070
   146
1040
0.875
1070
   147
1040
2.0
1070
   174
1070
     1
1070
   271
1070
     1
1070
   272
1070
     1
1070
   284
1070
     8
1070
   285
1070
     8
1070
   286
1070
     8
1070
   289
1070
     0
1070
   371
1070
    -2
1070
   372
1070
    -2
1002
}
  0
LINE
  5
ACE
330
2
100
AcDbEntity
  8
SICHTBAR
100
AcDbLine
 10
984.6933832723021
 20
375.8183271731522
 30
0.0
 11
984.6933832723021
 21
366.4653143950726
 31
0.0
  0
LINE
  5
ACF
330
2
100
AcDbEntity
  8
SICHTBAR
100
AcDbLine
 10
1102.693383272302
 20
375.8183271731522
 30
0.0
 11
1102.693383272302
 21
366.4653143950726
 31
0.0
  0
LINE
  5
AD0
330
2
100
AcDbEntity
  8
SICHTBAR
100
AcDbLine
 10
970.693383272302
 20
208.0721927863055
 30
0.0
 11
1116.693383272302
 21
208.0721927863055
 31
0.0
  0
ARC
  5
AD1
330
2
100
AcDbEntity
  8
SICHTBAR
100
AcDbCircle
 10
970.693383272302
 20
206.0721927863056
 30
0.0
 40
2.0
100
AcDbArc
 50
90.0
 51
180.0
  0
LINE
  5
AD2
330
2
100
AcDbEntity
  8
SICHTBAR
100
AcDbLine
 10
981.0721500934697
 20
365.2371094196191
 30
0.0
 11
982.6750267343452
 21
361.4653143950722
 31
0.0
  0
LINE
  5
AD3
330
2
100
AcDbEntity
  8
SICHTBAR
100
AcDbLine
 10
982.6750267343451
 20
361.4653143950722
 30
0.0
 11
988.6933832723013
 21
361.4653143950721
 31
0.0
  0
LINE
  5
AD4
330
2
100
AcDbEntity
  8
SICHTBAR
100
AcDbLine
 10
988.6933832723011
 20
362.4653143950734
 30
0.0
 11
984.6933832723022
 21
366.4653143950724
 31
0.0
  0
ARC
  5
AD7
330
2
100
AcDbEntity
  8
SICHTBAR
100
AcDbCircle
 10
1116.693383272302
 20
206.0721927863056
 30
0.0
 40
2.0
100
AcDbArc
 50
0.0
 51
90.0
  0
LINE
  5
AD8
330
2
100
AcDbEntity
  8
SICHTBAR
100
AcDbLine
 10
1104.711739810259
 20
361.4653143950722
 30
0.0
 11
1098.693383272302
 21
361.4653143950722
 31
0.0
  0
LINE
  5
ADB
330
2
100
AcDbEntity
  8
SICHTBAR
100
AcDbLine
 10
1098.693383272302
 20
362.4653143950719
 30
0.0
 11
1102.693383272302
 21
366.4653143950721
 31
0.0
  0
LINE
  5
ADC
330
2
100
AcDbEntity
  8
SICHTBAR
100
AcDbLine
 10
1106.314616451135
 20
365.2371094196191
 30
0.0
 11
1104.711739810259
 21
361.4653143950719
 31
0.0
  0
HATCH
  5
ADD
330
2
100
AcDbEntity
  8
SCHRAFF
100
AcDbHatch
 10
0.0
 20
0.0
 30
0.0
210
0.0
220
0.0
230
1.0
  2
ANSI31
 70
     0
 71
     0
 91
        2
 92
        1
 93
       24
 72
     1
 10
968.6933832723017
 20
391.261263996166
 11
969.6933832723022
 21
391.261263996166
 72
     1
 10
969.6933832723022
 20
391.261263996166
 11
969.6933832723022
 21
395.7612639961657
 72
     2
 10
970.1933832723023
 20
395.7612639961657
 40
0.5000000000000015
 50
180.0
 51
270.0
 73
     0
 72
     1
 10
970.1933832723023
 20
396.2612639961657
 11
974.1933832723022
 21
396.2612639961657
 72
     2
 10
974.1933832723022
 20
395.7612639961657
 40
0.5000000000000031
 50
270.0
 51
360.0
 73
     0
 72
     1
 10
974.6933832723023
 20
395.7612639961657
 11
974.6933832723023
 21
394.7612639961657
 72
     2
 10
976.1933832723023
 20
394.7612639961657
 40
1.499999999999999
 50
180.0
 51
270.0
 73
     1
 72
     1
 10
976.1933832723023
 20
393.2612639961657
 11
979.7723291412504
 21
393.2612639961657
 72
     2
 10
979.7723291412504
 20
392.2612639961658
 40
0.9999999999998626
 50
269.9999999999935
 51
318.9376177131209
 73
     0
 72
     1
 10
980.5263239727624
 20
392.9181443460417
 11
988.4473781038146
 21
383.8260260080986
 72
     2
 10
987.6933832723024
 20
383.169145658223
 40
0.9999999999999962
 50
318.9376177131435
 51
360.0000000000195
 73
     0
 72
     1
 10
988.6933832723023
 20
383.1691456582226
 11
988.6933832723023
 21
381.5436509521236
 72
     1
 10
988.6933832723023
 20
381.5436509521236
 11
989.6933832723023
 21
381.5436509521236
 72
     1
 10
989.6933832723023
 20
381.5436509521236
 11
989.6933832723023
 21
383.1691456582229
 72
     2
 10
987.6933832723024
 20
383.1691456582231
 40
1.999999999999941
 50
359.9999999999935
 51
401.0623822868678
 73
     1
 72
     1
 10
989.2013729353266
 20
384.4829063579747
 11
981.2803188042744
 21
393.5750246959175
 72
     2
 10
979.7723291412504
 20
392.2612639961659
 40
1.999999999999791
 50
41.06238228686997
 51
90.0
 73
     1
 72
     1
 10
979.7723291412504
 20
394.2612639961657
 11
976.1933832723023
 21
394.2612639961657
 72
     2
 10
976.1933832723023
 20
394.7612639961657
 40
0.5000000000000018
 50
90.0
 51
180.0
 73
     0
 72
     1
 10
975.6933832723023
 20
394.7612639961657
 11
975.6933832723023
 21
395.7612639961657
 72
     2
 10
974.1933832723022
 20
395.7612639961657
 40
1.499999999999999
 50
0.0
 51
90.0
 73
     1
 72
     1
 10
974.1933832723022
 20
397.2612639961657
 11
970.1933832723021
 21
397.2612639961657
 72
     2
 10
970.1933832723019
 20
395.7612639961657
 40
1.499999999999917
 50
89.99999999999568
 51
179.9999999999935
 73
     1
 72
     1
 10
968.693383272302
 20
395.7612639961659
 11
968.6933832723017
 21
391.261263996166
 97
        0
 92
        1
 93
       24
 72
     1
 10
1117.693383272302
 20
391.2612639961659
 11
1118.693383272302
 21
391.2612639961659
 72
     1
 10
1118.693383272302
 20
391.2612639961659
 11
1118.693383272302
 21
395.7612639961654
 72
     2
 10
1117.193383272302
 20
395.7612639961654
 40
1.500000000000031
 50
0.0000000000021755
 51
90.0
 73
     1
 72
     1
 10
1117.193383272302
 20
397.2612639961655
 11
1113.193383272302
 21
397.2612639961655
 72
     2
 10
1113.193383272302
 20
395.7612639961655
 40
1.499999999999942
 50
90.00000000000003
 51
179.9999999999935
 73
     1
 72
     1
 10
1111.693383272302
 20
395.7612639961657
 11
1111.693383272302
 21
394.7612639961655
 72
     2
 10
1111.193383272302
 20
394.7612639961655
 40
0.5000000000000018
 50
360.0
 51
450.0
 73
     0
 72
     1
 10
1111.193383272302
 20
394.2612639961654
 11
1107.614437403354
 21
394.2612639961654
 72
     2
 10
1107.614437403354
 20
392.2612639961656
 40
1.999999999999913
 50
90.0
 51
138.9376177131275
 73
     1
 72
     1
 10
1106.10644774033
 20
393.5750246959173
 11
1098.185393609278
 21
384.4829063579745
 72
     2
 10
1099.693383272302
 20
383.1691456582228
 40
2.000000000000107
 50
138.9376177131331
 51
180.0000000000049
 73
     1
 72
     1
 10
1097.693383272302
 20
383.1691456582226
 11
1097.693383272302
 21
381.5436509521232
 72
     1
 10
1097.693383272302
 20
381.5436509521232
 11
1098.693383272302
 21
381.5436509521232
 72
     1
 10
1098.693383272302
 20
381.5436509521232
 11
1098.693383272302
 21
383.1691456582224
 72
     2
 10
1099.693383272302
 20
383.1691456582226
 40
0.9999999999997204
 50
179.999999999987
 51
221.0623822868602
 73
     0
 72
     1
 10
1098.93938844079
 20
383.8260260080982
 11
1106.860442571842
 21
392.9181443460415
 72
     2
 10
1107.614437403354
 20
392.2612639961655
 40
0.9999999999999563
 50
221.0623822868774
 51
270.0
 73
     0
 72
     1
 10
1107.614437403354
 20
393.2612639961654
 11
1111.193383272302
 21
393.2612639961654
 72
     2
 10
1111.193383272302
 20
394.7612639961655
 40
1.499999999999999
 50
270.0
 51
360.0
 73
     1
 72
     1
 10
1112.693383272302
 20
394.7612639961655
 11
1112.693383272302
 21
395.7612639961654
 72
     2
 10
1113.193383272302
 20
395.7612639961654
 40
0.5000000000000031
 50
180.0
 51
270.0
 73
     0
 72
     1
 10
1113.193383272302
 20
396.2612639961654
 11
1117.193383272302
 21
396.2612639961654
 72
     2
 10
1117.193383272302
 20
395.7612639961654
 40
0.5000000000000014
 50
270.0
 51
360.0
 73
     0
 72
     1
 10
1117.693383272302
 20
395.7612639961654
 11
1117.693383272302
 21
391.2612639961659
 97
        0
 75
     0
 76
     1
 52
0.0
 41
10.0
 77
     0
 78
     1
 53
45.0
 43
824.1755722102286
 44
176.2351126528709
 45
-0.8838834764831842
 46
0.8838834764831844
 79
     0
 98
        2
 10
981.8945973952175
 20
392.0030456571566
 10
1106.800235182739
 20
393.8559485937657
  0
LINE
  5
ADE
330
2
100
AcDbEntity
  8
SICHTBAR
100
AcDbLine
 10
1043.693383272302
 20
397.2612639961657
 30
0.0
 11
970.1933832723021
 21
397.2612639961657
 31
0.0
  0
LINE
  5
ADF
330
2
100
AcDbEntity
  8
SICHTBAR
100
AcDbLine
 10
974.1933832723022
 20
396.2612639961657
 30
0.0
 11
970.1933832723023
 21
396.2612639961657
 31
0.0
  0
LINE
  5
AE0
330
2
100
AcDbEntity
  8
SICHTBAR
100
AcDbLine
 10
971.6933832723018
 20
374.4653143950722
 30
0.0
 11
977.693383272302
 21
374.4653143950722
 31
0.0
  0
LINE
  5
AE1
330
2
100
AcDbEntity
  8
SICHTBAR
100
AcDbLine
 10
971.693383272302
 20
383.4653143950721
 30
0.0
 11
984.6933832723022
 21
383.4653143950721
 31
0.0
  0
LINE
  5
AE2
330
2
100
AcDbEntity
  8
SICHTBAR
100
AcDbLine
 10
971.693383272302
 20
374.4653143950722
 30
0.0
 11
977.6933832723019
 21
374.4653143950722
 31
0.0
  0
LINE
  5
AE3
330
2
100
AcDbEntity
  8
SICHTBAR
100
AcDbLine
 10
985.4545985286772
 20
387.2612639961657
 30
0.0
 11
968.6933832723019
 21
387.2612639961657
 31
0.0
  0
LINE
  5
AE4
330
2
100
AcDbEntity
  8
SICHTBAR
100
AcDbLine
 10
969.6933832723022
 20
395.7612639961657
 30
0.0
 11
969.6933832723019
 21
391.261263996166
 31
0.0
  0
LINE
  5
AE5
330
2
100
AcDbEntity
  8
SICHTBAR
100
AcDbLine
 10
968.693383272302
 20
395.7612639961659
 30
0.0
 11
968.6933832723017
 21
391.2612639961661
 31
0.0
  0
LINE
  5
AE6
330
2
100
AcDbEntity
  8
SICHTBAR
100
AcDbLine
 10
971.6933832723018
 20
374.4653143950722
 30
0.0
 11
971.693383272302
 21
383.4653143950721
 31
0.0
  0
ARC
  5
AE7
330
2
100
AcDbEntity
  8
SICHTBAR
100
AcDbCircle
 10
970.1933832723023
 20
395.7612639961657
 30
0.0
 40
0.5
100
AcDbArc
 50
90.0
 51
180.0
  0
ARC
  5
AE8
330
2
100
AcDbEntity
  8
SICHTBAR
100
AcDbCircle
 10
970.1933832723021
 20
395.7612639961657
 30
0.0
 40
1.5
100
AcDbArc
 50
90.0
 51
179.9999999999977
  0
LINE
  5
AE9
330
2
100
AcDbEntity
  8
SICHTBAR
100
AcDbLine
 10
981.2803188042744
 20
393.5750246959175
 30
0.0
 11
989.2013729353266
 21
384.4829063579745
 31
0.0
  0
LINE
  5
AEA
330
2
100
AcDbEntity
  8
SICHTBAR
100
AcDbLine
 10
980.5263239727624
 20
392.9181443460417
 30
0.0
 11
988.4473781038146
 21
383.8260260080986
 31
0.0
  0
ARC
  5
AEB
330
2
100
AcDbEntity
  8
SICHTBAR
100
AcDbCircle
 10
987.6933832723024
 20
383.1691456582229
 30
0.0
 40
2.0
100
AcDbArc
 50
0.0
 51
41.06238228687331
  0
LINE
  5
AEC
330
2
100
AcDbEntity
  8
SICHTBAR
100
AcDbLine
 10
984.6933832723021
 20
380.8183271731522
 30
0.0
 11
984.6933832723021
 21
378.4653143950722
 31
0.0
  0
LINE
  5
AED
330
2
100
AcDbEntity
  8
SICHTBAR
100
AcDbLine
 10
984.6933832723021
 20
379.4653143950724
 30
0.0
 11
984.6933832723021
 21
380.8183271731522
 31
0.0
  0
LINE
  5
AEE
330
2
100
AcDbEntity
  8
SICHTBAR
100
AcDbLine
 10
985.8187496059972
 20
380.8183271731522
 30
0.0
 11
985.8187496059972
 21
379.4653143950726
 31
0.0
  0
LINE
  5
AEF
330
2
100
AcDbEntity
  8
SICHTBAR
100
AcDbLine
 10
978.6933832723018
 20
374.4653143950722
 30
0.0
 11
978.693383272302
 21
379.4653143950721
 31
0.0
  0
LINE
  5
AF0
330
2
100
AcDbEntity
  8
SICHTBAR
100
AcDbLine
 10
977.6933832723019
 20
379.4653143950721
 30
0.0
 11
978.693383272302
 21
379.4653143950721
 31
0.0
  0
LINE
  5
AF1
330
2
100
AcDbEntity
  8
SICHTBAR
100
AcDbLine
 10
977.6933832723019
 20
379.4653143950721
 30
0.0
 11
976.781890833719
 21
374.4653143950722
 31
0.0
  0
LINE
  5
AF2
330
2
100
AcDbEntity
  8
SICHTBAR
100
AcDbLine
 10
985.8187496059972
 20
379.4653143950726
 30
0.0
 11
988.6933832723007
 21
379.4653143950726
 31
0.0
  0
LINE
  5
AF3
330
2
100
AcDbEntity
  8
SICHTBAR
100
AcDbLine
 10
985.8187496059972
 20
375.8183271731522
 30
0.0
 11
985.8187496059972
 21
374.4653143950726
 31
0.0
  0
LINE
  5
AF4
330
2
100
AcDbEntity
  8
SICHTBAR
100
AcDbLine
 10
985.8187496059972
 20
374.4653143950724
 30
0.0
 11
988.6933832723009
 21
374.4653143950716
 31
0.0
  0
LINE
  5
AF5
330
2
100
AcDbEntity
  8
SICHTBAR
100
AcDbLine
 10
984.6933832723022
 20
378.4653143950722
 30
0.0
 11
988.6933832723007
 21
375.2653143950731
 31
0.0
  0
LINE
  5
AF6
330
2
100
AcDbEntity
  8
SICHTBAR
100
AcDbLine
 10
984.6933832723021
 20
375.8183271731522
 30
0.0
 11
985.8187496059972
 21
375.8183271731522
 31
0.0
  0
LINE
  5
AF7
330
2
100
AcDbEntity
  8
SICHTBAR
100
AcDbLine
 10
988.6933832723023
 20
383.1691456582229
 30
0.0
 11
988.6933832723023
 21
381.5436509521236
 31
0.0
  0
ARC
  5
AF8
330
2
100
AcDbEntity
  8
SICHTBAR
100
AcDbCircle
 10
987.6933832723024
 20
383.1691456582229
 30
0.0
 40
1.0
100
AcDbArc
 50
359.9999999999984
 51
41.06238228687331
  0
LINE
  5
AF9
330
2
100
AcDbEntity
  8
SICHTBAR
100
AcDbLine
 10
984.6933832723022
 20
383.4653143950721
 30
0.0
 11
988.6933832723007
 21
380.2653143950736
 31
0.0
  0
LINE
  5
AFA
330
2
100
AcDbEntity
  8
SICHTBAR
100
AcDbLine
 10
984.6933832723021
 20
380.8183271731522
 30
0.0
 11
985.8187496059972
 21
380.8183271731522
 31
0.0
  0
LINE
  5
AFB
330
2
100
AcDbEntity
  8
SICHTBAR
100
AcDbLine
 10
989.6933832723023
 20
383.1691456582229
 30
0.0
 11
989.6933832723023
 21
381.5436509521236
 31
0.0
  0
ARC
  5
AFC
330
2
100
AcDbEntity
  8
SICHTBAR
100
AcDbCircle
 10
979.7723291412504
 20
392.2612639961656
 30
0.0
 40
1.0
100
AcDbArc
 50
41.06238228687331
 51
90.0
  0
ARC
  5
AFD
330
2
100
AcDbEntity
  8
SICHTBAR
100
AcDbCircle
 10
979.7723291412504
 20
392.2612639961656
 30
0.0
 40
2.0
100
AcDbArc
 50
41.06238228687331
 51
90.0
  0
ARC
  5
AFE
330
2
100
AcDbEntity
  8
SICHTBAR
100
AcDbCircle
 10
976.1933832723023
 20
394.7612639961657
 30
0.0
 40
1.5
100
AcDbArc
 50
180.0
 51
270.0
  0
LINE
  5
AFF
330
2
100
AcDbEntity
  8
SICHTBAR
100
AcDbLine
 10
974.6933832723023
 20
395.7612639961657
 30
0.0
 11
974.6933832723023
 21
394.7612639961657
 31
0.0
  0
ARC
  5
B00
330
2
100
AcDbEntity
  8
SICHTBAR
100
AcDbCircle
 10
974.1933832723022
 20
395.7612639961657
 30
0.0
 40
0.5
100
AcDbArc
 50
0.0000000000010178
 51
90.0
  0
ARC
  5
B01
330
2
100
AcDbEntity
  8
SICHTBAR
100
AcDbCircle
 10
974.1933832723022
 20
395.7612639961657
 30
0.0
 40
1.5
100
AcDbArc
 50
0.0
 51
90.0
  0
LINE
  5
B02
330
2
100
AcDbEntity
  8
SICHTBAR
100
AcDbLine
 10
975.6933832723023
 20
395.7612639961657
 30
0.0
 11
975.6933832723023
 21
394.7612639961657
 31
0.0
  0
ARC
  5
B03
330
2
100
AcDbEntity
  8
SICHTBAR
100
AcDbCircle
 10
976.1933832723023
 20
394.7612639961657
 30
0.0
 40
0.5
100
AcDbArc
 50
180.0
 51
270.0
  0
LINE
  5
B04
330
2
100
AcDbEntity
  8
SICHTBAR
100
AcDbLine
 10
979.7723291412504
 20
393.2612639961657
 30
0.0
 11
976.1933832723023
 21
393.2612639961657
 31
0.0
  0
LINE
  5
B05
330
2
100
AcDbEntity
  8
SICHTBAR
100
AcDbLine
 10
983.6933832723017
 20
394.2612639961657
 30
0.0
 11
976.1933832723023
 21
394.2612639961657
 31
0.0
  0
LINE
  5
B06
330
2
100
AcDbEntity
  8
SICHTBAR
100
AcDbLine
 10
1043.693383272302
 20
397.2612639961657
 30
0.0
 11
1117.193383272302
 21
397.2612639961655
 31
0.0
  0
POINT
  5
B07
330
2
100
AcDbEntity
  8
SICHTBAR
100
AcDbPoint
 10
1042.193383272302
 20
397.2612639961657
 30
0.0
  0
LINE
  5
B08
330
2
100
AcDbEntity
  8
SICHTBAR
100
AcDbLine
 10
1115.693383272302
 20
383.4653143950721
 30
0.0
 11
1102.693383272302
 21
383.4653143950721
 31
0.0
  0
LINE
  5
B09
330
2
100
AcDbEntity
  8
SICHTBAR
100
AcDbLine
 10
1101.932168015927
 20
387.2612639961655
 30
0.0
 11
1118.693383272303
 21
387.2612639961655
 31
0.0
  0
LINE
  5
B0A
330
2
100
AcDbEntity
  8
SICHTBAR
100
AcDbLine
 10
1106.860442571842
 20
392.9181443460415
 30
0.0
 11
1098.93938844079
 21
383.8260260080982
 31
0.0
  0
LINE
  5
B0B
330
2
100
AcDbEntity
  8
SICHTBAR
100
AcDbLine
 10
1106.10644774033
 20
393.5750246959173
 30
0.0
 11
1098.185393609278
 21
384.4829063579745
 31
0.0
  0
LINE
  5
B0C
330
2
100
AcDbEntity
  8
SICHTBAR
100
AcDbLine
 10
1102.693383272302
 20
380.8183271731522
 30
0.0
 11
1102.693383272302
 21
378.4653143950722
 31
0.0
  0
LINE
  5
B0D
330
2
100
AcDbEntity
  8
SICHTBAR
100
AcDbLine
 10
1101.568016938607
 20
380.8183271731522
 30
0.0
 11
1101.568016938607
 21
379.4653143950724
 31
0.0
  0
LINE
  5
B0E
330
2
100
AcDbEntity
  8
SICHTBAR
100
AcDbLine
 10
1102.693383272302
 20
379.4653143950721
 30
0.0
 11
1102.693383272302
 21
380.8183271731522
 31
0.0
  0
LINE
  5
B0F
330
2
100
AcDbEntity
  8
SICHTBAR
100
AcDbLine
 10
1101.568016938607
 20
375.8183271731522
 30
0.0
 11
1101.568016938607
 21
374.4653143950726
 31
0.0
  0
LINE
  5
B10
330
2
100
AcDbEntity
  8
SICHTBAR
100
AcDbLine
 10
1102.693383272302
 20
375.8183271731522
 30
0.0
 11
1101.568016938607
 21
375.8183271731522
 31
0.0
  0
LINE
  5
B11
330
2
100
AcDbEntity
  8
SICHTBAR
100
AcDbLine
 10
1102.693383272302
 20
378.4653143950722
 30
0.0
 11
1098.693383272302
 21
375.2653143950725
 31
0.0
  0
LINE
  5
B12
330
2
100
AcDbEntity
  8
SICHTBAR
100
AcDbLine
 10
1101.568016938607
 20
374.4653143950722
 30
0.0
 11
1098.693383272302
 21
374.465314395072
 31
0.0
  0
LINE
  5
B13
330
2
100
AcDbEntity
  8
SICHTBAR
100
AcDbLine
 10
1101.568016938607
 20
379.4653143950724
 30
0.0
 11
1098.693383272302
 21
379.4653143950723
 31
0.0
  0
LINE
  5
B14
330
2
100
AcDbEntity
  8
SICHTBAR
100
AcDbLine
 10
1102.693383272302
 20
383.4653143950721
 30
0.0
 11
1098.693383272302
 21
380.2653143950729
 31
0.0
  0
LINE
  5
B15
330
2
100
AcDbEntity
  8
SICHTBAR
100
AcDbLine
 10
1102.693383272302
 20
380.8183271731522
 30
0.0
 11
1101.568016938607
 21
380.8183271731522
 31
0.0
  0
ARC
  5
B16
330
2
100
AcDbEntity
  8
SICHTBAR
100
AcDbCircle
 10
1099.693383272302
 20
383.1691456582224
 30
0.0
 40
1.0
100
AcDbArc
 50
138.9376177131264
 51
180.0000000000014
  0
LINE
  5
B17
330
2
100
AcDbEntity
  8
SICHTBAR
100
AcDbLine
 10
1098.693383272302
 20
383.1691456582224
 30
0.0
 11
1098.693383272302
 21
381.5436509521232
 31
0.0
  0
LINE
  5
B18
330
2
100
AcDbEntity
  8
SICHTBAR
100
AcDbLine
 10
1097.693383272302
 20
383.1691456582226
 30
0.0
 11
1097.693383272302
 21
381.5436509521232
 31
0.0
  0
ARC
  5
B19
330
2
100
AcDbEntity
  8
SICHTBAR
100
AcDbCircle
 10
1099.693383272302
 20
383.1691456582224
 30
0.0
 40
2.0
100
AcDbArc
 50
138.9376177131264
 51
179.9999999999996
  0
LINE
  5
B1A
330
2
100
AcDbEntity
  8
SICHTBAR
100
AcDbLine
 10
1118.693383272302
 20
395.7612639961654
 30
0.0
 11
1118.693383272302
 21
391.261263996166
 31
0.0
  0
LINE
  5
B1B
330
2
100
AcDbEntity
  8
SICHTBAR
100
AcDbLine
 10
1117.693383272302
 20
395.7612639961654
 30
0.0
 11
1117.693383272302
 21
391.261263996166
 31
0.0
  0
LINE
  5
B1C
330
2
100
AcDbEntity
  8
SICHTBAR
100
AcDbLine
 10
1115.693383272302
 20
374.4653143950722
 30
0.0
 11
1115.693383272302
 21
383.4653143950721
 31
0.0
  0
LINE
  5
B1D
330
2
100
AcDbEntity
  8
SICHTBAR
100
AcDbLine
 10
1115.693383272302
 20
374.4653143950722
 30
0.0
 11
1109.693383272302
 21
374.4653143950722
 31
0.0
  0
LINE
  5
B1E
330
2
100
AcDbEntity
  8
SICHTBAR
100
AcDbLine
 10
1115.693383272302
 20
374.4653143950722
 30
0.0
 11
1109.693383272302
 21
374.4653143950722
 31
0.0
  0
LINE
  5
B1F
330
2
100
AcDbEntity
  8
SICHTBAR
100
AcDbLine
 10
1109.693383272302
 20
379.4653143950721
 30
0.0
 11
1110.604875710885
 21
374.4653143950722
 31
0.0
  0
LINE
  5
B20
330
2
100
AcDbEntity
  8
SICHTBAR
100
AcDbLine
 10
1108.693383272302
 20
374.4653143950722
 30
0.0
 11
1108.693383272302
 21
379.4653143950721
 31
0.0
  0
LINE
  5
B21
330
2
100
AcDbEntity
  8
SICHTBAR
100
AcDbLine
 10
1108.693383272302
 20
379.4653143950721
 30
0.0
 11
1109.693383272302
 21
379.4653143950721
 31
0.0
  0
ARC
  5
B22
330
2
100
AcDbEntity
  8
SICHTBAR
100
AcDbCircle
 10
1111.193383272302
 20
394.7612639961655
 30
0.0
 40
1.5
100
AcDbArc
 50
270.0
 51
359.9999999999996
  0
ARC
  5
B23
330
2
100
AcDbEntity
  8
SICHTBAR
100
AcDbCircle
 10
1113.193383272302
 20
395.7612639961654
 30
0.0
 40
1.5
100
AcDbArc
 50
90.0
 51
179.9999999999996
  0
ARC
  5
B24
330
2
100
AcDbEntity
  8
SICHTBAR
100
AcDbCircle
 10
1113.193383272302
 20
395.7612639961654
 30
0.0
 40
0.5
100
AcDbArc
 50
90.0
 51
179.9999999999986
  0
ARC
  5
B25
330
2
100
AcDbEntity
  8
SICHTBAR
100
AcDbCircle
 10
1111.193383272302
 20
394.7612639961655
 30
0.0
 40
0.5
100
AcDbArc
 50
270.0
 51
359.9999999999996
  0
LINE
  5
B26
330
2
100
AcDbEntity
  8
SICHTBAR
100
AcDbLine
 10
1111.693383272302
 20
395.7612639961654
 30
0.0
 11
1111.693383272302
 21
394.7612639961655
 31
0.0
  0
LINE
  5
B27
330
2
100
AcDbEntity
  8
SICHTBAR
100
AcDbLine
 10
1112.693383272302
 20
395.7612639961654
 30
0.0
 11
1112.693383272302
 21
394.7612639961655
 31
0.0
  0
ARC
  5
B28
330
2
100
AcDbEntity
  8
SICHTBAR
100
AcDbCircle
 10
1107.614437403354
 20
392.2612639961654
 30
0.0
 40
1.0
100
AcDbArc
 50
90.0
 51
138.9376177131266
  0
ARC
  5
B29
330
2
100
AcDbEntity
  8
SICHTBAR
100
AcDbCircle
 10
1107.614437403354
 20
392.2612639961654
 30
0.0
 40
2.0
100
AcDbArc
 50
90.0
 51
138.9376177131264
  0
LINE
  5
B2A
330
2
100
AcDbEntity
  8
SICHTBAR
100
AcDbLine
 10
1107.614437403354
 20
393.2612639961654
 30
0.0
 11
1111.193383272302
 21
393.2612639961654
 31
0.0
  0
LINE
  5
B2B
330
2
100
AcDbEntity
  8
SICHTBAR
100
AcDbLine
 10
1107.614437403354
 20
394.2612639961654
 30
0.0
 11
1111.193383272302
 21
394.2612639961654
 31
0.0
  0
ARC
  5
B2C
330
2
100
AcDbEntity
  8
SICHTBAR
100
AcDbCircle
 10
1117.193383272302
 20
395.7612639961654
 30
0.0
 40
1.5
100
AcDbArc
 50
0.000000000001832
 51
90.0
  0
ARC
  5
B2D
330
2
100
AcDbEntity
  8
SICHTBAR
100
AcDbCircle
 10
1117.193383272302
 20
395.7612639961654
 30
0.0
 40
0.5
100
AcDbArc
 50
359.9999999999996
 51
90.0
  0
LINE
  5
B2E
330
2
100
AcDbEntity
  8
SICHTBAR
100
AcDbLine
 10
1113.193383272302
 20
396.2612639961654
 30
0.0
 11
1117.193383272302
 21
396.2612639961654
 31
0.0
  0
LINE
  5
B2F
330
2
100
AcDbEntity
  8
SICHTBAR
100
AcDbLine
 10
977.1933832723023
 20
394.2612639961656
 30
0.0
 11
977.1933832723023
 21
396.2612639961657
 31
0.0
  0
LINE
  5
B30
330
2
100
AcDbEntity
  8
SICHTBAR
100
AcDbLine
 10
997.6933832723018
 20
392.7612639961657
 30
0.0
 11
997.6933832723018
 21
394.7612639961657
 31
0.0
  0
LINE
  5
B31
330
2
100
AcDbEntity
  8
SICHTBAR
100
AcDbLine
 10
1003.693383272302
 20
392.7612639961657
 30
0.0
 11
1003.693383272302
 21
394.7612639961657
 31
0.0
  0
LINE
  5
B32
330
2
100
AcDbEntity
  8
SICHTBAR
100
AcDbLine
 10
1021.693383272301
 20
392.7612639961657
 30
0.0
 11
1021.693383272301
 21
394.7612639961657
 31
0.0
  0
LINE
  5
B33
330
2
100
AcDbEntity
  8
SICHTBAR
100
AcDbLine
 10
1027.693383272302
 20
392.7612639961657
 30
0.0
 11
1027.693383272302
 21
394.7612639961657
 31
0.0
  0
LINE
  5
B34
330
2
100
AcDbEntity
  8
SICHTBAR
100
AcDbLine
 10
1043.693383272302
 20
396.2612639961657
 30
0.0
 11
977.1933832723023
 21
396.2612639961657
 31
0.0
  0
LINE
  5
B35
330
2
100
AcDbEntity
  8
SICHTBAR
100
AcDbLine
 10
1043.693383272302
 20
392.7612639961657
 30
0.0
 11
993.6933832723024
 21
392.7612639961657
 31
0.0
  0
LINE
  5
B36
330
2
100
AcDbEntity
  8
SICHTBAR
100
AcDbLine
 10
1043.693383272302
 20
394.7612639961657
 30
0.0
 11
993.6933832723022
 21
394.7612639961657
 31
0.0
  0
LINE
  5
B37
330
2
100
AcDbEntity
  8
SICHTBAR
100
AcDbLine
 10
983.6933832723024
 20
396.2612639961657
 30
0.0
 11
993.6933832723026
 21
394.7612639961657
 31
0.0
  0
LINE
  5
B38
330
2
100
AcDbEntity
  8
SICHTBAR
100
AcDbLine
 10
983.6933832723024
 20
394.2612639961657
 30
0.0
 11
993.6933832723026
 21
392.7612639961657
 31
0.0
  0
LINE
  5
B39
330
2
100
AcDbEntity
  8
SICHTBAR
100
AcDbLine
 10
1043.693383272302
 20
394.7612639961657
 30
0.0
 11
1093.693383272303
 21
394.7612639961654
 31
0.0
  0
LINE
  5
B3A
330
2
100
AcDbEntity
  8
SICHTBAR
100
AcDbLine
 10
1043.693383272302
 20
392.7612639961657
 30
0.0
 11
1093.693383272302
 21
392.7612639961653
 31
0.0
  0
LINE
  5
B3B
330
2
100
AcDbEntity
  8
SICHTBAR
100
AcDbLine
 10
1043.693383272302
 20
396.2612639961657
 30
0.0
 11
1110.193383272302
 21
396.2612639961652
 31
0.0
  0
LINE
  5
B3C
330
2
100
AcDbEntity
  8
SICHTBAR
100
AcDbLine
 10
1103.693383272302
 20
394.2612639961652
 30
0.0
 11
1093.693383272302
 21
392.7612639961653
 31
0.0
  0
LINE
  5
B3D
330
2
100
AcDbEntity
  8
SICHTBAR
100
AcDbLine
 10
1103.693383272302
 20
396.2612639961652
 30
0.0
 11
1093.693383272302
 21
394.7612639961653
 31
0.0
  0
LINE
  5
B3E
330
2
100
AcDbEntity
  8
SICHTBAR
100
AcDbLine
 10
1089.693383272303
 20
392.7612639961654
 30
0.0
 11
1089.693383272303
 21
394.7612639961653
 31
0.0
  0
LINE
  5
B3F
330
2
100
AcDbEntity
  8
SICHTBAR
100
AcDbLine
 10
1083.693383272303
 20
392.7612639961655
 30
0.0
 11
1083.693383272303
 21
394.7612639961654
 31
0.0
  0
LINE
  5
B40
330
2
100
AcDbEntity
  8
SICHTBAR
100
AcDbLine
 10
1065.693383272303
 20
392.7612639961655
 30
0.0
 11
1065.693383272303
 21
394.7612639961655
 31
0.0
  0
LINE
  5
B41
330
2
100
AcDbEntity
  8
SICHTBAR
100
AcDbLine
 10
1059.693383272303
 20
392.7612639961656
 30
0.0
 11
1059.693383272303
 21
394.7612639961656
 31
0.0
  0
LINE
  5
B42
330
2
100
AcDbEntity
  8
SICHTBAR
100
AcDbLine
 10
1103.693383272303
 20
394.2612639961653
 30
0.0
 11
1111.193383272302
 21
394.2612639961652
 31
0.0
  0
LINE
  5
B43
330
2
100
AcDbEntity
  8
SICHTBAR
100
AcDbLine
 10
1110.193383272302
 20
394.2612639961652
 30
0.0
 11
1110.193383272302
 21
396.2612639961652
 31
0.0
  0
HATCH
  5
B44
330
2
100
AcDbEntity
  8
SCHRAFF
100
AcDbHatch
 10
0.0
 20
0.0
 30
0.0
210
0.0
220
0.0
230
1.0
  2
ANSI31
 70
     0
 71
     0
 91
        6
 92
        7
 72
     0
 73
     1
 93
        8
 10
997.6933832723018
 20
394.7612639961657
 10
993.6933832723019
 20
394.7612639961657
 10
983.6933832723023
 20
396.2612639961657
 10
977.1933832723023
 20
396.2612639961657
 10
977.1933832723023
 20
394.2612639961656
 10
983.6933832723021
 20
394.2612639961657
 10
993.6933832723026
 20
392.7612639961657
 10
997.6933832723018
 20
392.7612639961657
 97
        0
 92
        7
 72
     0
 73
     1
 93
        4
 10
1021.693383272301
 20
394.7612639961657
 10
1003.693383272302
 20
394.7612639961657
 10
1003.693383272302
 20
392.7612639961657
 10
1021.693383272301
 20
392.7612639961657
 97
        0
 92
        7
 72
     0
 73
     1
 93
        4
 10
1043.693383272302
 20
394.7612639961657
 10
1027.693383272302
 20
394.7612639961658
 10
1027.693383272302
 20
392.7612639961657
 10
1043.693383272302
 20
392.7612639961656
 97
        0
 92
        7
 72
     0
 73
     1
 93
        4
 10
1059.693383272303
 20
394.7612639961656
 10
1043.693383272302
 20
394.7612639961657
 10
1043.693383272302
 20
392.7612639961657
 10
1059.693383272303
 20
392.7612639961655
 97
        0
 92
        7
 72
     0
 73
     1
 93
        4
 10
1083.693383272303
 20
394.7612639961654
 10
1065.693383272303
 20
394.7612639961656
 10
1065.693383272303
 20
392.7612639961655
 10
1083.693383272303
 20
392.7612639961655
 97
        0
 92
        7
 72
     0
 73
     1
 93
        8
 10
1103.693383272303
 20
394.2612639961653
 10
1110.193383272302
 20
394.2612639961652
 10
1110.193383272302
 20
396.2612639961652
 10
1103.693383272303
 20
396.2612639961652
 10
1093.693383272302
 20
394.7612639961653
 10
1089.693383272303
 20
394.7612639961654
 10
1089.693383272303
 20
392.7612639961653
 10
1093.693383272302
 20
392.7612639961653
 97
        0
 75
     0
 76
     1
 52
90.0
 41
25.0
 77
     0
 78
     1
 53
135.0
 43
814.7486634405098
 44
-7.273511919299153
 45
-2.209708691207961
 46
-2.20970869120796
 79
     0
 47
0.138524483993227
 98
        6
 10
984.3920970386728
 20
394.5724986427793
 10
1008.643996269179
 20
393.3257780752458
 10
1038.300599263886
 20
393.1872554067847
 10
1047.447028859992
 20
393.1872554067847
 10
1072.114673345822
 20
393.1872554067847
 10
1096.505154328103
 20
393.6028275500141
  0
HATCH
  5
B45
330
2
100
AcDbEntity
  8
SCHRAFF
100
AcDbHatch
 10
0.0
 20
0.0
 30
0.0
210
0.0
220
0.0
230
1.0
  2
ANSI37
 70
     0
 71
     0
 91
        2
 92
        7
 72
     1
 73
     1
 93
       21
 10
984.6933832723021
 20
380.8183271731522
 42
0.0
 10
985.8187496059972
 20
380.8183271731522
 42
0.0
 10
985.8187496059972
 20
379.4653143950726
 42
0.0
 10
988.6933832723007
 20
379.4653143950726
 42
0.0
 10
988.6933832723007
 20
380.2653143950736
 42
0.0
 10
984.6933832723024
 20
383.4653143950721
 42
0.0
 10
971.693383272302
 20
383.4653143950721
 42
0.0
 10
971.6933832723018
 20
374.4653143950722
 42
0.0
 10
976.781890833719
 20
374.4653143950721
 42
0.0
 10
977.6933832723019
 20
379.4653143950721
 42
0.0
 10
978.693383272302
 20
379.4653143950721
 42
0.0
 10
978.6933832723018
 20
374.4653143950722
 42
0.3616214947865191
 10
979.5115650904836
 20
373.4819822290364
 42
-0.3616214947864915
 10
983.193383272302
 20
369.056987481876
 42
0.0
 10
984.6933832723021
 20
369.056987481876
 42
0.0
 10
984.6933832723021
 20
375.8183271731522
 42
0.0
 10
985.8187496059972
 20
375.8183271731522
 42
0.0
 10
985.8187496059972
 20
374.4653143950724
 42
0.0
 10
988.6933832723009
 20
374.4653143950716
 42
0.0
 10
988.6933832723009
 20
375.265314395073
 42
0.0
 10
984.6933832723021
 20
378.4653143950724
 42
0.0
 97
        0
 92
        7
 72
     1
 73
     1
 93
        7
 10
984.6933832723021
 20
366.4653143950726
 42
0.0
 10
984.6933832723021
 20
369.056987481876
 42
0.0
 10
983.1933832723018
 20
369.056987481876
 42
-0.2590276817037736
 10
981.0721500934697
 20
365.2371094196192
 42
0.0
 10
982.6750267343452
 20
361.4653143950722
 42
0.0
 10
988.6933832723013
 20
361.4653143950722
 42
0.0
 10
988.6933832723013
 20
362.4653143950733
 42
0.0
 97
        0
 75
     0
 76
     1
 52
90.0
 41
18.0
 77
     0
 78
     2
 53
135.0
 43
814.7486634405098
 44
-7.273511919299153
 45
-1.590990257669732
 46
-1.590990257669731
 79
     0
 53
225.0
 43
814.7486634405098
 44
-7.273511919299153
 45
1.590990257669731
 46
-1.590990257669732
 79
     0
 47
0.1677662990277251
 98
        2
 10
982.9773139794705
 20
378.5224625120161
 10
983.4673094982047
 20
363.277700854908
  0
HATCH
  5
B46
330
2
100
AcDbEntity
  8
SCHRAFF
100
AcDbHatch
 10
0.0
 20
0.0
 30
0.0
210
0.0
220
0.0
230
1.0
  2
ANSI37
 70
     0
 71
     0
 91
        2
 92
        7
 72
     1
 73
     1
 93
       22
 10
1115.693383272302
 20
383.4653143950721
 42
0.0
 10
1102.693383272302
 20
383.4653143950721
 42
0.0
 10
1098.693383272302
 20
380.2653143950729
 42
0.0
 10
1098.693383272302
 20
379.4653143950723
 42
0.0
 10
1101.568016938607
 20
379.4653143950724
 42
0.0
 10
1101.568016938607
 20
380.8183271731522
 42
0.0
 10
1102.693383272302
 20
380.8183271731522
 42
0.0
 10
1102.693383272302
 20
379.4653143950721
 42
0.0
 10
1102.693383272302
 20
378.4653143950722
 42
0.0
 10
1098.693383272302
 20
375.2653143950725
 42
0.0
 10
1098.693383272302
 20
374.465314395072
 42
0.0
 10
1101.568016938607
 20
374.4653143950721
 42
0.0
 10
1101.568016938607
 20
375.8183271731521
 42
0.0
 10
1102.693383272302
 20
375.8183271731522
 42
0.0
 10
1102.693383272302
 20
369.0569874818761
 42
0.0
 10
1104.193383272302
 20
369.056987481876
 42
-0.3616214947864826
 10
1107.87520145412
 20
373.4819822290364
 42
0.3616214947864709
 10
1108.693383272302
 20
374.465314395072
 42
0.0
 10
1108.693383272302
 20
379.4653143950721
 42
0.0
 10
1109.693383272302
 20
379.4653143950721
 42
0.0
 10
1110.604875710885
 20
374.4653143950722
 42
0.0
 10
1115.693383272302
 20
374.4653143950722
 42
0.0
 97
        0
 92
        7
 72
     1
 73
     1
 93
        7
 10
1106.314616451135
 20
365.2371094196189
 42
-0.2590276817037973
 10
1104.193383272302
 20
369.056987481876
 42
0.0
 10
1102.693383272302
 20
369.0569874818761
 42
0.0
 10
1102.693383272302
 20
366.4653143950726
 42
0.0
 10
1098.693383272302
 20
362.465314395072
 42
0.0
 10
1098.693383272302
 20
361.4653143950722
 42
0.0
 10
1104.711739810259
 20
361.4653143950721
 42
0.0
 97
        0
 75
     0
 76
     1
 52
90.0
 41
18.0
 77
     0
 78
     2
 53
135.0
 43
814.7486634405098
 44
-7.273511919299153
 45
-1.590990257669732
 46
-1.590990257669731
 79
     0
 53
225.0
 43
814.7486634405098
 44
-7.273511919299153
 45
1.590990257669731
 46
-1.590990257669732
 79
     0
 47
0.1677662990277251
 98
        2
 10
1105.111979085243
 20
379.7636590552226
 10
1104.440634626777
 20
364.3291606104806
  0
DIMENSION
  5
B47
330
2
100
AcDbEntity
  8
BEMASS
100
AcDbDimension
280
     0
  2
*D7
 10
1118.693383272302
 20
412.2612639961654
 30
0.0
 11
1043.693383272302
 21
416.3862639961654
 31
0.0
 70
    32
  1
150x150
 71
     5
 42
150.0000000000004
 73
     0
 74
     0
 75
     0
  3
STANDARD$0
100
AcDbAlignedDimension
 13
968.693383272302
 23
394.9991357395319
 33
0.0
 14
1118.693383272302
 24
395.7612639961654
 34
0.0
100
AcDbRotatedDimension
1001
ACAD
1000
DSTYLE
1002
{
1070
    40
1040
1.1
1070
    78
1070
     8
1070
   140
1040
3.5
1070
   146
1040
0.875
1070
   147
1040
2.0
1070
   174
1070
     1
1070
   271
1070
     1
1070
   272
1070
     1
1070
   284
1070
     8
1070
   285
1070
     8
1070
   286
1070
     8
1070
   289
1070
     0
1070
   371
1070
    -2
1070
   372
1070
    -2
1002
}
  0
DIMENSION
  5
B48
330
2
100
AcDbEntity
  8
BEMASS
100
AcDbDimension
280
     0
  2
*D8
 10
898.792454092198
 20
397.2612639961657
 30
0.0
 11
898.792454092198
 21
414.2012639961658
 31
0.0
 70
   160
  1
<>-50
 71
     5
 42
10.0
 73
     0
 74
     0
 75
     0
  3
STANDARD$0
100
AcDbAlignedDimension
 13
968.6933832723017
 23
387.2612639961657
 33
0.0
 14
970.1933832723021
 24
397.2612639961657
 34
0.0
 50
90.0
100
AcDbRotatedDimension
1001
ACAD
1000
DSTYLE
1002
{
1070
    40
1040
1.1
1070
    78
1070
     8
1070
   140
1040
3.5
1070
   146
1040
0.875
1070
   147
1040
2.0
1070
   174
1070
     1
1070
   271
1070
     1
1070
   272
1070
     1
1070
   284
1070
     8
1070
   285
1070
     8
1070
   286
1070
     8
1070
   289
1070
     0
1070
   371
1070
    -2
1070
   372
1070
    -2
1002
}
  0
ARC
  5
B49
330
2
100
AcDbEntity
  8
WHITE
  6
Continuous
100
AcDbCircle
 10
998.1933832723022
 20
133.0721927863059
 30
0.0
 40
3.0
100
AcDbArc
 50
359.9999999999968
 51
180.0000000000032
  0
ARC
  5
B4A
330
2
100
AcDbEntity
  8
DUENN
100
AcDbCircle
 10
1043.693383272302
 20
133.0721927863057
 30
0.0
 40
49.99999999999994
100
AcDbArc
 50
0.0
 51
180.0
  0
LINE
  5
B4B
330
2
100
AcDbEntity
  8
DUENN
100
AcDbLine
 10
982.1933832723022
 20
178.7695808141866
 30
0.0
 11
997.9959952444215
 21
194.5721927863058
 31
0.0
  0
LINE
  5
B4C
330
2
100
AcDbEntity
  8
SICHTBAR
100
AcDbLine
 10
977.1933832723023
 20
199.5721927863058
 30
0.0
 11
1110.193383272302
 21
199.5721927863055
 31
0.0
  0
LINE
  5
B4D
330
2
100
AcDbEntity
  8
0
100
AcDbLine
 10
977.193383272302
 20
199.5721927863058
 30
0.0
 11
1110.193383272301
 21
199.572192786306
 31
0.0
  0
LINE
  5
B4E
330
2
100
AcDbEntity
  8
DUENN
100
AcDbLine
 10
982.193383272302
 20
133.0721927863057
 30
0.0
 11
982.1933832723022
 21
178.7695808141867
 31
0.0
  0
LINE
  5
B4F
330
2
100
AcDbEntity
  8
SICHTBAR
100
AcDbLine
 10
977.193383272302
 20
133.0721927863057
 30
0.0
 11
977.1933832723023
 21
199.5721927863058
 31
0.0
  0
LINE
  5
B50
330
2
100
AcDbEntity
  8
0
100
AcDbLine
 10
977.1933832723014
 20
199.572192786306
 30
0.0
 11
977.1933832723014
 21
133.0721927863057
 31
0.0
  0
ARC
  5
B51
330
2
100
AcDbEntity
  8
WHITE
  6
Continuous
100
AcDbCircle
 10
1053.196204272302
 20
133.0721927863057
 30
0.0
 40
2.321865
100
AcDbArc
 50
0.0
 51
180.0
  0
ARC
  5
B52
330
2
100
AcDbEntity
  8
WHITE
  6
Continuous
100
AcDbCircle
 10
1053.196204272302
 20
133.0721927863057
 30
0.0
 40
3.353805
100
AcDbArc
 50
0.0
 51
180.0
  0
LINE
  5
B53
330
2
100
AcDbEntity
  8
DUENN
100
AcDbLine
 10
997.9959952444215
 20
194.5721927863058
 30
0.0
 11
1089.390771300183
 21
194.5721927863058
 31
0.0
  0
CIRCLE
  5
B54
330
2
100
AcDbEntity
  8
WHITE
  6
Continuous
100
AcDbCircle
 10
1056.145049320582
 20
176.835259550669
 30
0.0
 40
3.0
  0
CIRCLE
  5
B55
330
2
100
AcDbEntity
  8
WHITE
  6
Continuous
100
AcDbCircle
 10
1051.97503872155
 20
158.5605074230159
 30
0.0
 40
3.0
  0
CIRCLE
  5
B56
330
2
100
AcDbEntity
  8
WHITE
  6
Continuous
100
AcDbCircle
 10
1053.634516340097
 20
147.4744104394447
 30
0.0
 40
3.0
  0
CIRCLE
  5
B57
330
2
100
AcDbEntity
  8
WHITE
  6
Continuous
100
AcDbCircle
 10
1010.068477538762
 20
163.7253445722241
 30
0.0
 40
3.0
  0
CIRCLE
  5
B58
330
2
100
AcDbEntity
  8
WHITE
  6
Continuous
100
AcDbCircle
 10
1025.643383272302
 20
164.335709862924
 30
0.0
 40
3.0
  0
CIRCLE
  5
B59
330
2
100
AcDbEntity
  8
WHITE
  6
Continuous
100
AcDbCircle
 10
1043.693383272302
 20
159.8721927863058
 30
0.0
 40
3.0
  0
CIRCLE
  5
B5A
330
2
100
AcDbEntity
  8
WHITE
  6
Continuous
100
AcDbCircle
 10
1022.011727823054
 20
148.8248375477441
 30
0.0
 40
3.0
  0
CIRCLE
  5
B5B
330
2
100
AcDbEntity
  8
WHITE
  6
Continuous
100
AcDbCircle
 10
1026.701901467346
 20
137.2602169113381
 30
0.0
 40
3.0
  0
CIRCLE
  5
B5C
330
2
100
AcDbEntity
  8
WHITE
  6
Continuous
100
AcDbCircle
 10
998.9681072366847
 20
141.4327958469597
 30
0.0
 40
3.0
  0
CIRCLE
  5
B5D
330
2
100
AcDbEntity
  8
WHITE
  6
Continuous
100
AcDbCircle
 10
1018.205068635592
 20
141.3538482355543
 30
0.0
 40
3.0
  0
CIRCLE
  5
B5E
330
2
100
AcDbEntity
  8
WHITE
  6
Continuous
100
AcDbCircle
 10
1007.837478557818
 20
137.2631469862266
 30
0.0
 40
3.0
  0
ARC
  5
B5F
330
2
100
AcDbEntity
  8
WHITE
  6
Continuous
100
AcDbCircle
 10
1016.893383272302
 20
133.0721927863057
 30
0.0
 40
3.0
100
AcDbArc
 50
0.0
 51
180.0
  0
CIRCLE
  5
B60
330
2
100
AcDbEntity
  8
WHITE
  6
Continuous
100
AcDbCircle
 10
1009.770479661931
 20
145.4191199603624
 30
0.0
 40
3.0
  0
CIRCLE
  5
B61
330
2
100
AcDbEntity
  8
WHITE
  6
Continuous
100
AcDbCircle
 10
1001.265896834404
 20
149.5086885978213
 30
0.0
 40
3.0
  0
CIRCLE
  5
B62
330
2
100
AcDbEntity
  8
WHITE
  6
Continuous
100
AcDbCircle
 10
1005.008503596604
 20
157.0248561972255
 30
0.0
 40
3.0
  0
CIRCLE
  5
B63
330
2
100
AcDbEntity
  8
WHITE
  6
Continuous
100
AcDbCircle
 10
1013.532273280295
 20
152.9094668946618
 30
0.0
 40
3.0
  0
CIRCLE
  5
B64
330
2
100
AcDbEntity
  8
WHITE
  6
Continuous
100
AcDbCircle
 10
1018.920060145241
 20
159.3303812470928
 30
0.0
 40
3.0
  0
CIRCLE
  5
B65
330
2
100
AcDbEntity
  8
WHITE
  6
Continuous
100
AcDbCircle
 10
1030.594445179308
 20
144.6768393055198
 30
0.0
 40
3.0
  0
ARC
  5
B66
330
2
100
AcDbEntity
  8
WHITE
  6
Continuous
100
AcDbCircle
 10
1039.092193272302
 20
129.6368507863058
 30
0.0
 40
8.255475
100
AcDbArc
 50
126.4231450000002
 51
155.4095691140427
  0
ARC
  5
B67
330
2
100
AcDbEntity
  8
WHITE
  6
Continuous
100
AcDbCircle
 10
1029.288826272302
 20
129.6368447863058
 30
0.0
 40
7.223595
100
AcDbArc
 50
28.39667587379648
 51
47.26783700000117
  0
ARC
  5
B68
330
2
100
AcDbEntity
  8
WHITE
  6
Continuous
100
AcDbCircle
 10
1039.092193272302
 20
129.6368507863058
 30
0.0
 40
7.223525999999999
100
AcDbArc
 50
132.7316660000011
 51
151.6030823455425
  0
ARC
  5
B69
330
2
100
AcDbEntity
  8
WHITE
  6
Continuous
100
AcDbCircle
 10
1029.288826272302
 20
129.6368447863058
 30
0.0
 40
8.255535
100
AcDbArc
 50
24.59028611455741
 51
53.57637100000264
  0
ARC
  5
B6A
330
2
100
AcDbEntity
  8
WHITE
  6
Continuous
100
AcDbCircle
 10
1043.693383272302
 20
133.0721927863057
 30
0.0
 40
3.353801999999999
100
AcDbArc
 50
30.7309510000008
 51
180.0
  0
LINE
  5
B6B
330
2
100
AcDbEntity
  8
WHITE
  6
Continuous
100
AcDbLine
 10
1045.682443272302
 20
134.2699787863057
 30
0.0
 11
1046.576233272302
 21
134.7860117863057
 31
0.0
  0
LINE
  5
B6C
330
2
100
AcDbEntity
  8
MITTE
100
AcDbLine
 10
1043.693383272302
 20
133.0721927863057
 30
0.0
 11
1043.693383272305
 21
208.0721927863055
 31
0.0
  0
ARC
  5
B6D
330
2
100
AcDbEntity
  8
WHITE
  6
Continuous
100
AcDbCircle
 10
1043.693383272302
 20
133.0721927863057
 30
0.0
 40
2.321862
100
AcDbArc
 50
31.05578300000218
 51
180.0
  0
CIRCLE
  5
B6E
330
2
100
AcDbEntity
  8
WHITE
  6
Continuous
100
AcDbCircle
 10
1037.487797749058
 20
149.4349770333004
 30
0.0
 40
3.0
  0
CIRCLE
  5
B6F
330
2
100
AcDbEntity
  8
WHITE
  6
Continuous
100
AcDbCircle
 10
1027.940738510864
 20
154.7538482355544
 30
0.0
 40
3.0
  0
CIRCLE
  5
B70
330
2
100
AcDbEntity
  8
WHITE
  6
Continuous
100
AcDbCircle
 10
1035.411727823054
 20
158.5605074230159
 30
0.0
 40
3.0
  0
CIRCLE
  5
B71
330
2
100
AcDbEntity
  8
WHITE
  6
Continuous
100
AcDbCircle
 10
1045.80277517677
 20
150.4445980830218
 30
0.0
 40
3.0
  0
CIRCLE
  5
B72
330
2
100
AcDbEntity
  8
WHITE
  6
Continuous
100
AcDbCircle
 10
1023.41228808447
 20
173.8021225429611
 30
0.0
 40
3.0
  0
CIRCLE
  5
B73
330
2
100
AcDbEntity
  8
WHITE
  6
Continuous
100
AcDbCircle
 10
1016.273507317046
 20
169.3819766275567
 30
0.0
 40
3.0
  0
CIRCLE
  5
B74
330
2
100
AcDbEntity
  8
WHITE
  6
Continuous
100
AcDbCircle
 10
1041.594354948634
 20
169.1111172998985
 30
0.0
 40
3.0
  0
CIRCLE
  5
B75
330
2
100
AcDbEntity
  8
WHITE
  6
Continuous
100
AcDbCircle
 10
1039.495172916722
 20
178.3780978077299
 30
0.0
 40
3.0
  0
CIRCLE
  5
B76
330
2
100
AcDbEntity
  8
WHITE
  6
Continuous
100
AcDbCircle
 10
1033.339786571432
 20
167.655614180895
 30
0.0
 40
3.0
  0
CIRCLE
  5
B77
330
2
100
AcDbEntity
  8
WHITE
  6
Continuous
100
AcDbCircle
 10
1031.241717224022
 20
176.835259550669
 30
0.0
 40
3.0
  0
CIRCLE
  5
B78
330
2
100
AcDbEntity
  8
WHITE
  6
Continuous
100
AcDbCircle
 10
1049.962082486078
 20
168.6237526700465
 30
0.0
 40
3.0
  0
CIRCLE
  5
B79
330
2
100
AcDbEntity
  8
WHITE
  6
Continuous
100
AcDbCircle
 10
1047.891593627882
 20
178.3780978077298
 30
0.0
 40
3.0
  0
LINE
  5
B7A
330
2
100
AcDbEntity
  8
DUENN
100
AcDbLine
 10
1105.193383272302
 20
133.0721927863057
 30
0.0
 11
1105.193383272302
 21
178.7695808141867
 31
0.0
  0
CIRCLE
  5
B7B
330
2
100
AcDbEntity
  8
WHITE
  6
Continuous
100
AcDbCircle
 10
1065.250808432772
 20
162.0288400447628
 30
0.0
 40
3.0
  0
CIRCLE
  5
B7C
330
2
100
AcDbEntity
  8
WHITE
  6
Continuous
100
AcDbCircle
 10
1077.318289005842
 20
163.7253445722241
 30
0.0
 40
3.0
  0
LINE
  5
B7D
330
2
100
AcDbEntity
  8
SICHTBAR
100
AcDbLine
 10
1110.193383272302
 20
133.0721927863057
 30
0.0
 11
1110.193383272302
 21
199.5721927863055
 31
0.0
  0
ARC
  5
B7E
330
2
100
AcDbEntity
  8
WHITE
  6
Continuous
100
AcDbCircle
 10
1079.793383272302
 20
133.0721927863057
 30
0.0
 40
3.0
100
AcDbArc
 50
0.0
 51
180.0
  0
CIRCLE
  5
B7F
330
2
100
AcDbEntity
  8
WHITE
  6
Continuous
100
AcDbCircle
 10
1082.378262947999
 20
157.0248561972254
 30
0.0
 40
3.0
  0
CIRCLE
  5
B80
330
2
100
AcDbEntity
  8
WHITE
  6
Continuous
100
AcDbCircle
 10
1078.820303100234
 20
141.3974257201078
 30
0.0
 40
3.0
  0
CIRCLE
  5
B81
330
2
100
AcDbEntity
  8
WHITE
  6
Continuous
100
AcDbCircle
 10
1059.188863721233
 20
141.2048482970716
 30
0.0
 40
3.0
  0
CIRCLE
  5
B82
330
2
100
AcDbEntity
  8
WHITE
  6
Continuous
100
AcDbCircle
 10
1069.181697909012
 20
141.3538482355544
 30
0.0
 40
3.0
  0
ARC
  5
B83
330
2
100
AcDbEntity
  8
WHITE
  6
Continuous
100
AcDbCircle
 10
1070.493383272302
 20
133.0721927863057
 30
0.0
 40
3.0
100
AcDbArc
 50
0.0
 51
180.0
  0
ARC
  5
B84
330
2
100
AcDbEntity
  8
WHITE
  6
Continuous
100
AcDbCircle
 10
1061.193383272302
 20
133.0721927863057
 30
0.0
 40
3.0
100
AcDbArc
 50
0.0
 51
180.0
  0
CIRCLE
  5
B85
330
2
100
AcDbEntity
  8
WHITE
  6
Continuous
100
AcDbCircle
 10
1065.375038721551
 20
148.824837547744
 30
0.0
 40
3.0
  0
CIRCLE
  5
B86
330
2
100
AcDbEntity
  8
WHITE
  6
Continuous
100
AcDbCircle
 10
1059.44602803374
 20
154.7538482355543
 30
0.0
 40
3.0
  0
CIRCLE
  5
B87
330
2
100
AcDbEntity
  8
WHITE
  6
Continuous
100
AcDbCircle
 10
1075.953521587977
 20
149.2738431915425
 30
0.0
 40
3.0
  0
CIRCLE
  5
B88
330
2
100
AcDbEntity
  8
WHITE
  6
Continuous
100
AcDbCircle
 10
1071.347587668897
 20
156.2768254959897
 30
0.0
 40
3.0
  0
CIRCLE
  5
B89
330
2
100
AcDbEntity
  8
WHITE
  6
Continuous
100
AcDbCircle
 10
1088.41865930792
 20
141.4327958469597
 30
0.0
 40
3.0
  0
ARC
  5
B8A
330
2
100
AcDbEntity
  8
WHITE
  6
Continuous
100
AcDbCircle
 10
1089.193383272302
 20
133.0721927863057
 30
0.0
 40
3.0
100
AcDbArc
 50
0.0
 51
180.0
  0
CIRCLE
  5
B8B
330
2
100
AcDbEntity
  8
WHITE
  6
Continuous
100
AcDbCircle
 10
1086.1208697102
 20
149.5086885978212
 30
0.0
 40
3.0
  0
CIRCLE
  5
B8C
330
2
100
AcDbEntity
  8
WHITE
  6
Continuous
100
AcDbCircle
 10
1063.974478460135
 20
173.8021225429611
 30
0.0
 40
3.0
  0
CIRCLE
  5
B8D
330
2
100
AcDbEntity
  8
WHITE
  6
Continuous
100
AcDbCircle
 10
1057.991862826316
 20
166.2197942446836
 30
0.0
 40
3.0
  0
CIRCLE
  5
B8E
330
2
100
AcDbEntity
  8
WHITE
  6
Continuous
100
AcDbCircle
 10
1071.113259227558
 20
169.3819766275567
 30
0.0
 40
3.0
  0
LINE
  5
B8F
330
2
100
AcDbEntity
  8
DUENN
100
AcDbLine
 10
1105.193383272302
 20
178.7695808141867
 30
0.0
 11
1089.390771300182
 21
194.5721927863058
 31
0.0
  0
LWPOLYLINE
  5
B90
330
2
100
AcDbEntity
  8
0
100
AcDbPolyline
 90
        6
 70
     1
 43
0.0
 10
1105.836084946634
 20
193.7082317556262
 10
1105.082753594129
 20
195.0130399330999
 10
1103.576090889118
 20
195.0130399330999
 10
1102.822759536613
 20
193.7082317556262
 10
1103.576090889118
 20
192.4034235781525
 10
1105.082753594129
 20
192.4034235781525
  0
CIRCLE
  5
B91
330
2
100
AcDbEntity
  8
0
100
AcDbCircle
 10
1104.363145098108
 20
193.741954612112
 30
0.0
 40
3.849999999999999
  0
CIRCLE
  5
B92
330
2
100
AcDbEntity
  8
0
100
AcDbCircle
 10
1104.363145098108
 20
193.741954612112
 30
0.0
 40
4.349999999999999
  0
LINE
  5
B93
330
2
100
AcDbEntity
  8
MITTE
100
AcDbLine
 10
1104.329422241623
 20
189.2082317556262
 30
0.0
 11
1104.329422241624
 21
198.2082317556262
 31
0.0
  0
LINE
  5
B94
330
2
100
AcDbEntity
  8
MITTE
100
AcDbLine
 10
1108.829422241623
 20
193.7082317556264
 30
0.0
 11
1099.829422241623
 21
193.7082317556262
 31
0.0
  0
LINE
  5
B9A
330
2
100
AcDbEntity
  8
0
100
AcDbLine
 10
995.7585316505438
 20
130.5721927863058
 30
0.0
 11
1091.62823489406
 21
130.5721927863058
 31
0.0
  0
ARC
  5
B9B
330
2
100
AcDbEntity
  8
0
100
AcDbCircle
 10
1043.693383272302
 20
133.0721927863057
 30
0.0
 40
32.75
100
AcDbArc
 50
184.3779825400443
 51
355.6220174599557
  0
ARC
  5
B9C
330
2
100
AcDbEntity
  8
VERDECKT
100
AcDbCircle
 10
1043.693383272302
 20
133.0721927863057
 30
0.0
 40
34.0
100
AcDbArc
 50
180.0
 51
0.0
  0
ARC
  5
B9D
330
2
100
AcDbEntity
  8
VERDECKT
100
AcDbCircle
 10
1043.693383272302
 20
133.0721927863057
 30
0.0
 40
46.0
100
AcDbArc
 50
180.0
 51
0.0
  0
ARC
  5
B9E
330
2
100
AcDbEntity
  8
VERDECKT
100
AcDbCircle
 10
1043.693383272302
 20
133.0721927863057
 30
0.0
 40
45.0
100
AcDbArc
 50
180.0
 51
0.0
  0
ARC
  5
B9F
330
2
100
AcDbEntity
  8
0
100
AcDbCircle
 10
1043.693383272302
 20
133.0721927863057
 30
0.0
 40
48.0
100
AcDbArc
 50
180.0
 51
0.0
  0
ARC
  5
BA0
330
2
100
AcDbEntity
  8
0
100
AcDbCircle
 10
1043.693383272302
 20
133.0721927863057
 30
0.0
 40
54.0
100
AcDbArc
 50
180.0
 51
0.0
  0
ARC
  5
BA1
330
2
100
AcDbEntity
  8
0
100
AcDbCircle
 10
1043.693383272302
 20
133.0721927863057
 30
0.0
 40
52.0
100
AcDbArc
 50
180.0
 51
0.0
  0
ARC
  5
BA2
330
2
100
AcDbEntity
  8
VERDECKT
100
AcDbCircle
 10
1043.693383272302
 20
133.0721927863057
 30
0.0
 40
51.0
100
AcDbArc
 50
180.0
 51
0.0
  0
ARC
  5
BA3
330
2
100
AcDbEntity
  8
VERDECKT
100
AcDbCircle
 10
1043.693383272302
 20
133.0721927863057
 30
0.0
 40
32.75
100
AcDbArc
 50
355.6220174599557
 51
0.0
  0
LINE
  5
BA4
330
2
100
AcDbEntity
  8
0
100
AcDbLine
 10
1002.613439926441
 20
125.1157078934084
 30
0.0
 11
1013.008352232848
 21
119.1142024751017
 31
0.0
  0
LINE
  5
BA5
330
2
100
AcDbEntity
  8
VERDECKT
100
AcDbLine
 10
1001.87684791343
 20
124.0976038174291
 30
0.0
 11
1012.324678137428
 21
118.0655462251562
 31
0.0
  0
ARC
  5
BA6
330
2
100
AcDbEntity
  8
VERDECKT
100
AcDbCircle
 10
1009.824678137428
 20
113.735419206234
 30
0.0
 40
5.0
100
AcDbArc
 50
29.72348740874341
 51
59.99999999999905
  0
ARC
  5
BA7
330
2
100
AcDbEntity
  8
0
100
AcDbCircle
 10
1010.008352232848
 20
113.918050052395
 30
0.0
 40
6.0
100
AcDbArc
 50
29.62363229711128
 51
59.99999999999911
  0
ARC
  5
BA8
330
2
100
AcDbEntity
  8
0
100
AcDbCircle
 10
1043.693383272302
 20
133.0721927863057
 30
0.0
 40
43.75
100
AcDbArc
 50
183.2758289597996
 51
185.3697930325251
  0
ARC
  5
BA9
330
2
100
AcDbEntity
  8
VERDECKT
100
AcDbCircle
 10
1043.693383272302
 20
133.0721927863057
 30
0.0
 40
45.0
100
AcDbArc
 50
180.0
 51
185.5597071083675
  0
ARC
  5
BAA
330
2
100
AcDbEntity
  8
VERDECKT
100
AcDbCircle
 10
1043.693383272302
 20
133.0721927863057
 30
0.0
 40
44.0
100
AcDbArc
 50
180.0
 51
183.2571961610121
  0
ARC
  5
BAB
330
2
100
AcDbEntity
  8
0
100
AcDbCircle
 10
1005.113439926441
 20
129.4458349123306
 30
0.0
 40
5.0
100
AcDbArc
 50
185.3697930325251
 51
239.9999999999991
  0
ARC
  5
BAC
330
2
100
AcDbEntity
  8
VERDECKT
100
AcDbCircle
 10
1004.87684791343
 20
129.2937562401357
 30
0.0
 40
6.0
100
AcDbArc
 50
185.5597071083675
 51
239.9999999999991
  0
ARC
  5
BAD
330
2
100
AcDbEntity
  8
VERDECKT
100
AcDbCircle
 10
1043.693383272302
 20
133.0721927863057
 30
0.0
 40
55.0
100
AcDbArc
 50
180.0
 51
0.0
  0
LINE
  5
BB1
330
2
100
AcDbEntity
  8
VERDECKT
100
AcDbLine
 10
988.6933832723023
 20
381.5436509521236
 30
0.0
 11
1043.693383272302
 21
381.5436509521236
 31
0.0
  0
LINE
  5
BBF
330
2
100
AcDbEntity
  8
VERDECKT
100
AcDbLine
 10
1098.693383272302
 20
381.5436509521232
 30
0.0
 11
1043.693383272302
 21
381.5436509521236
 31
0.0
  0
LINE
  5
BD1
330
2
100
AcDbEntity
  8
MITTE
100
AcDbLine
 10
1043.693383272302
 20
133.0721927863057
 30
0.0
 11
1173.693383272302
 21
133.0721927863057
 31
0.0
  0
LINE
  5
BD2
330
2
100
AcDbEntity
  8
MITTE
100
AcDbLine
 10
1043.693383272302
 20
133.0721927863055
 30
0.0
 11
1043.693383272304
 21
58.07219278630578
 31
0.0
  0
INSERT
  5
BF5
330
2
100
AcDbEntity
  8
SICHTBAR
100
AcDbBlockReference
  2
A$C09306709
 10
1043.693383272302
 20
382.3739688878033
 30
0.0
  0
INSERT
  5
BF6
330
2
100
AcDbEntity
  8
MITTE
 48
10.0
100
AcDbBlockReference
  2
A$C7E5D49C8
 10
1043.693383272302
 20
379.4653143950721
 30
0.0
  0
LINE
  5
BF7
330
2
100
AcDbEntity
  8
MITTE
100
AcDbLine
 10
1043.693383272304
 20
382.3721987460241
 30
0.0
 11
1043.693383272304
 21
399.839418050901
 31
0.0
  0
LINE
  5
C1A
330
2
100
AcDbEntity
  8
SICHTBAR
100
AcDbLine
 10
980.693383272302
 20
86.69960978427491
 30
0.0
 11
980.693383272302
 21
133.0721927863054
 31
0.0
  0
LINE
  5
C1B
330
2
100
AcDbEntity
  8
SICHTBAR
100
AcDbLine
 10
989.0070917712868
 20
78.38590128529017
 30
0.0
 11
980.693383272302
 21
86.69960978427491
 31
0.0
  0
LINE
  5
C1C
330
2
100
AcDbEntity
  8
SICHTBAR
100
AcDbLine
 10
997.3208002702717
 20
70.07219278630543
 30
0.0
 11
1043.693383272302
 21
70.07219278630555
 31
0.0
  0
LINE
  5
C1D
330
2
100
AcDbEntity
  8
SICHTBAR
100
AcDbLine
 10
989.0070917712868
 20
78.38590128529017
 30
0.0
 11
997.3208002702717
 21
70.07219278630543
 31
0.0
  0
LINE
  5
C1E
330
2
100
AcDbEntity
  8
SICHTBAR
100
AcDbLine
 10
1106.693383272302
 20
86.69960978427491
 30
0.0
 11
1106.693383272302
 21
133.0721927863054
 31
0.0
  0
LINE
  5
C1F
330
2
100
AcDbEntity
  8
SICHTBAR
100
AcDbLine
 10
1090.065966274332
 20
70.07219278630543
 30
0.0
 11
1043.693383272302
 21
70.07219278630555
 31
0.0
  0
LINE
  5
C20
330
2
100
AcDbEntity
  8
SICHTBAR
100
AcDbLine
 10
1098.379674773317
 20
78.38590128529017
 30
0.0
 11
1106.693383272302
 21
86.69960978427491
 31
0.0
  0
LINE
  5
C21
330
2
100
AcDbEntity
  8
SICHTBAR
100
AcDbLine
 10
1098.379674773317
 20
78.38590128529017
 30
0.0
 11
1090.065966274332
 21
70.07219278630543
 31
0.0
  0
CIRCLE
  5
C22
330
2
100
AcDbEntity
  8
Viditelná tenká (ISO)
100
AcDbCircle
 10
984.1196369573351
 20
73.4984464713391
 30
0.0
 40
4.625000000000012
  0
CIRCLE
  5
C23
330
2
100
AcDbEntity
  8
Viditelná (ISO)
100
AcDbCircle
 10
984.1196369573351
 20
73.4984464713391
 30
0.0
 40
4.500000000000006
  0
CIRCLE
  5
C24
330
2
100
AcDbEntity
  8
Viditelná (ISO)
100
AcDbCircle
 10
984.1196369573353
 20
73.4984464713391
 30
0.0
 40
3.0
  0
CIRCLE
  5
C25
330
2
100
AcDbEntity
  8
VERDECKT
100
AcDbCircle
 10
984.1196369573356
 20
73.4984464713391
 30
0.0
 40
2.948757037391595
  0
CIRCLE
  5
C26
330
2
100
AcDbEntity
  8
VERDECKT
100
AcDbCircle
 10
984.1196369573356
 20
73.4984464713391
 30
0.0
 40
3.362752691628281
  0
CIRCLE
  5
C27
330
2
100
AcDbEntity
  8
VERDECKT
100
AcDbCircle
 10
984.1196369573355
 20
73.4984464713391
 30
0.0
 40
4.752717918585857
  0
CIRCLE
  5
C28
330
2
100
AcDbEntity
  8
VERDECKT
100
AcDbCircle
 10
984.1196369573351
 20
73.4984464713391
 30
0.0
 40
5.535810112164057
  0
CIRCLE
  5
C29
330
2
100
AcDbEntity
  8
VERDECKT
100
AcDbCircle
 10
984.1196369573351
 20
73.4984464713391
 30
0.0
 40
5.548076923076936
  0
INSERT
  5
F26
330
2
100
AcDbEntity
  8
BEMASS
100
AcDbBlockReference
  2
A$C054D54D0
 10
1043.693383272304
 20
381.5436509521236
 30
0.0
  0
INSERT
  5
FE4
330
2
100
AcDbEntity
  8
BEMASS
100
AcDbBlockReference
  2
A$C7F8511E3
 10
978.693383272302
 20
379.4653143950721
 30
0.0
  0
DIMENSION
  5
102E
330
2
100
AcDbEntity
  8
BEMASS
100
AcDbDimension
280
     0
  2
*D11
 10
898.792454092198
 20
387.2612639961657
 30
0.0
 11
894.667454092198
 21
331.3632891956189
 31
0.0
 70
    32
  1
110-125
 71
     5
 42
111.7959496010938
 73
     0
 74
     0
 75
     0
  3
STANDARD$0
100
AcDbAlignedDimension
 13
984.6933832723014
 23
275.4653143950718
 33
0.0
 14
933.8859656758689
 24
387.2612639961657
 34
0.0
 50
90.0
100
AcDbRotatedDimension
1001
ACAD
1000
DSTYLE
1002
{
1070
    40
1040
1.1
1070
    78
1070
     8
1070
   140
1040
3.5
1070
   146
1040
0.875
1070
   147
1040
2.0
1070
   174
1070
     1
1070
   271
1070
     1
1070
   272
1070
     1
1070
   284
1070
     8
1070
   285
1070
     8
1070
   286
1070
     8
1070
   289
1070
     0
1070
   371
1070
    -2
1070
   372
1070
    -2
1002
}
  0
DIMENSION
  5
1056
330
2
100
AcDbEntity
  8
BEMASS
100
AcDbDimension
280
     0
  2
*D12
 10
1171.693383272302
 20
265.0136018567502
 30
0.0
 11
1075.693383272302
 21
265.0136018567502
 31
0.0
 70
   160
  1
<>
 71
     5
 42
194.0000000000011
 73
     0
 74
     0
 75
     0
  3
STANDARD$0
100
AcDbAlignedDimension
 13
977.6933832723013
 23
282.4653143950718
 33
0.0
 14
1171.693383272302
 24
281.4943107537232
 34
0.0
100
AcDbRotatedDimension
1001
ACAD_DSTYLE_DIMINSPECT
1070
   396
1000
100%
1070
   395
1000

1070
   394
1070
    33
1070
   393
1070
     0
1001
ACAD
1000
DSTYLE
1002
{
1070
     3
1000

1070
    40
1040
1.1
1070
    78
1070
     8
1070
   140
1040
3.5
1070
   146
1040
0.875
1070
   147
1040
2.0
1070
   174
1070
     1
1070
   271
1070
     1
1070
   272
1070
     1
1070
   285
1070
     8
1070
   289
1070
     0
1070
   371
1070
    -2
1070
   372
1070
    -2
1002
}
  0
DIMENSION
  5
1063
330
2
100
AcDbEntity
  8
BEMASS
100
AcDbDimension
280
     0
  2
*D13
 10
1171.693383272302
 20
288.9666656970251
 30
0.0
 11
1140.193383272302
 21
288.9666656970251
 31
0.0
 70
   160
 71
     5
 42
58.99999999999977
 73
     0
 74
     0
 75
     0
  3
STANDARD$0
100
AcDbAlignedDimension
 13
1112.693383272302
 23
277.9653143950718
 33
0.0
 14
1171.693383272302
 24
281.4943107537232
 34
0.0
100
AcDbRotatedDimension
1001
ACAD
1000
DSTYLE
1002
{
1070
    40
1040
1.1
1070
    78
1070
     8
1070
   140
1040
3.5
1070
   146
1040
0.875
1070
   147
1040
2.0
1070
   174
1070
     1
1070
   271
1070
     1
1070
   272
1070
     1
1070
   284
1070
     8
1070
   285
1070
     8
1070
   286
1070
     8
1070
   289
1070
     0
1070
   371
1070
    -2
1070
   372
1070
    -2
1002
}
  0
DIMENSION
  5
1072
330
2
100
AcDbEntity
  8
BEMASS
100
AcDbDimension
280
     0
  2
*D14
 10
1189.257587885361
 20
330.4569874818763
 30
0.0
 11
1185.132587885361
 21
305.4569874818767
 31
0.0
 70
    32
  1
%%c<>
 71
     5
 42
49.99999999999989
 73
     0
 74
     0
 75
     0
  3
STANDARD$0
100
AcDbAlignedDimension
 13
1167.822040117897
 23
280.4569874818765
 33
0.0
 14
1168.100624811569
 24
330.4569874818763
 34
0.0
 50
90.0
100
AcDbRotatedDimension
1001
ACAD
1000
DSTYLE
1002
{
1070
    40
1040
1.1
1070
    78
1070
     8
1070
   140
1040
3.5
1070
   146
1040
0.875
1070
   147
1040
2.0
1070
   174
1070
     1
1070
   271
1070
     1
1070
   272
1070
     1
1070
   284
1070
     8
1070
   285
1070
     8
1070
   286
1070
     8
1070
   289
1070
     0
1070
   371
1070
    -2
1070
   372
1070
    -2
1002
}
  0
DIMENSION
  5
1081
330
2
100
AcDbEntity
  8
BEMASS
100
AcDbDimension
280
     0
  2
*D15
 10
1201.463490457031
 20
305.4653143950718
 30
0.0
 11
1197.33849045703
 21
290.465314395072
 31
0.0
 70
    32
 71
     5
 42
30.00000000000006
 73
     0
 74
     0
 75
     0
  3
STANDARD$0
100
AcDbAlignedDimension
 13
1102.693383272303
 23
275.4653143950718
 33
0.0
 14
1190.980521052662
 24
305.4653143950718
 34
0.0
 50
90.0
100
AcDbRotatedDimension
1001
ACAD
1000
DSTYLE
1002
{
1070
    40
1040
1.1
1070
    78
1070
     8
1070
   140
1040
3.5
1070
   146
1040
0.875
1070
   147
1040
2.0
1070
   174
1070
     1
1070
   271
1070
     1
1070
   272
1070
     1
1070
   284
1070
     8
1070
   285
1070
     8
1070
   286
1070
     8
1070
   289
1070
     0
1070
   371
1070
    -2
1070
   372
1070
    -2
1002
}
  0
CIRCLE
  5
114B
330
2
100
AcDbEntity
  8
SICHTBAR
100
AcDbCircle
 10
1043.693383272303
 20
133.0721927863057
 30
0.0
 40
125.0000000000018
  0
CIRCLE
  5
114C
330
2
100
AcDbEntity
  8
VERDECKT
100
AcDbCircle
 10
1043.693383272303
 20
133.0721927863057
 30
0.0
 40
124.0000000000015
  0
CIRCLE
  5
114D
330
2
100
AcDbEntity
  8
0
100
AcDbCircle
 10
1043.693383272303
 20
130.5721927863058
 30
0.0
 40
114.6423834544274
  0
CIRCLE
  5
114E
330
2
100
AcDbEntity
  8
0
100
AcDbCircle
 10
1043.693383272303
 20
130.5721927863058
 30
0.0
 40
109.9965251175896
  0
ARC
  5
1153
330
2
100
AcDbEntity
  8
VERDECKT
100
AcDbCircle
 10
1043.693383272302
 20
133.0721927863055
 30
0.0
 40
66.00000000000091
100
AcDbArc
 50
180.0
 51
334.2895431710886
  0
ARC
  5
1155
330
2
100
AcDbEntity
  8
VERDECKT
100
AcDbCircle
 10
1043.693383272302
 20
133.0721927863055
 30
0.0
 40
64.75000000000091
100
AcDbArc
 50
180.0
 51
333.8961188626603
  0
ARC
  5
1164
330
2
100
AcDbEntity
  8
VERDECKT
100
AcDbCircle
 10
1043.693383272302
 20
133.0721927863055
 30
0.0
 40
64.75000000000091
100
AcDbArc
 50
333.8961188626603
 51
0.0
  0
ARC
  5
1165
330
2
100
AcDbEntity
  8
VERDECKT
100
AcDbCircle
 10
1043.693383272302
 20
133.0721927863055
 30
0.0
 40
66.00000000000091
100
AcDbArc
 50
334.2895431710886
 51
0.0
  0
LINE
  5
1E58
330
2
100
AcDbEntity
  8
SICHTBAR
100
AcDbLine
 10
968.6933832723017
 20
391.2612639961661
 30
0.0
 11
969.6933832723019
 21
391.2612639961661
 31
0.0
  0
LINE
  5
1E59
330
2
100
AcDbEntity
  8
SICHTBAR
100
AcDbLine
 10
969.6933832723019
 20
391.2612639961661
 30
0.0
 11
981.9697982492984
 21
391.2612639961661
 31
0.0
  0
LINE
  5
1EEA
330
2
100
AcDbEntity
  8
SICHTBAR
100
AcDbLine
 10
1118.693383272302
 20
391.261263996166
 30
0.0
 11
1117.693383272302
 21
391.261263996166
 31
0.0
  0
LINE
  5
1EEB
330
2
100
AcDbEntity
  8
SICHTBAR
100
AcDbLine
 10
1117.693383272302
 20
391.261263996166
 30
0.0
 11
1105.416968295307
 21
391.261263996166
 31
0.0
  0
DIMENSION
  5
213D
330
2
100
AcDbEntity
  8
BEMASS
100
AcDbDimension
280
     0
  2
*D24
 10
910.6757755987462
 20
397.2612639961657
 30
0.0
 11
910.6757755987462
 21
408.1145973294992
 31
0.0
 70
   160
 71
     5
 42
5.999999999999602
 73
     0
 74
     0
 75
     0
  3
STANDARD$0
100
AcDbAlignedDimension
 13
968.6933832723017
 23
391.2612639961661
 33
0.0
 14
968.693383272302
 24
397.2612639961657
 34
0.0
 50
90.0
100
AcDbRotatedDimension
1001
ACAD
1000
DSTYLE
1002
{
1070
    40
1040
1.1
1070
    78
1070
     8
1070
   140
1040
3.5
1070
   146
1040
0.875
1070
   147
1040
2.0
1070
   174
1070
     1
1070
   271
1070
     1
1070
   272
1070
     1
1070
   284
1070
     8
1070
   285
1070
     8
1070
   286
1070
     8
1070
   289
1070
     0
1070
   371
1070
    -2
1070
   372
1070
    -2
1002
}
  0
DIMENSION
  5
2206
330
2
100
AcDbEntity
  8
BEMASS
100
AcDbDimension
280
     0
  2
*D25
 10
1168.693383272302
 20
426.5397428878463
 30
0.0
 11
1043.693383272302
 21
430.6647428878464
 31
0.0
 70
    32
  1
%%c<>
 71
     5
 42
250.0000000000006
 73
     0
 74
     0
 75
     0
  3
STANDARD$0
100
AcDbAlignedDimension
 13
918.6933832723019
 23
422.0704882748236
 33
0.0
 14
1168.693383272302
 24
386.2612639961657
 34
0.0
100
AcDbRotatedDimension
1001
ACAD
1000
DSTYLE
1002
{
1070
    40
1040
1.1
1070
    78
1070
     8
1070
   140
1040
3.5
1070
   146
1040
0.875
1070
   147
1040
2.0
1070
   174
1070
     1
1070
   271
1070
     1
1070
   272
1070
     1
1070
   285
1070
     8
1070
   289
1070
     0
1070
   371
1070
    -2
1070
   372
1070
    -2
1002
}
1001
ACAD_DSTYLE_DIMINSPECT
1070
   396
1000
100%
1070
   395
1000

1070
   394
1070
    33
1070
   393
1070
     0
  0
LINE
  5
2227
330
2
100
AcDbEntity
  8
BEMASS
100
AcDbLine
 10
918.6933832723019
 20
422.0704882748236
 30
0.0
 11
918.6933832723019
 21
386.2612639961657
 31
0.0
  0
LINE
  5
269D
330
2
100
AcDbEntity
  8
VERDECKT
100
AcDbLine
 10
1167.861260366783
 20
157.1222834152298
 30
0.0
 11
1171.719842006949
 21
156.088379580818
 31
0.0
  0
LINE
  5
269E
330
2
100
AcDbEntity
  8
SICHTBAR
100
AcDbLine
 10
1167.98779119938
 20
158.123655761228
 30
0.0
 11
1171.719842006949
 21
157.1236557612279
 31
0.0
  0
LINE
  5
269F
330
2
100
AcDbEntity
  8
SICHTBAR
100
AcDbLine
 10
1171.719842006949
 20
157.1236557612279
 30
0.0
 11
1171.719842006949
 21
133.0721927863055
 31
0.0
  0
LINE
  5
26A0
330
2
100
AcDbEntity
  8
SICHTBAR
100
AcDbLine
 10
1166.157354312018
 20
158.1236557612279
 30
0.0
 11
1167.98779119938
 21
158.123655761228
 31
0.0
  0
LINE
  5
26A1
330
2
100
AcDbEntity
  8
VERDECKT
100
AcDbLine
 10
1166.357938628529
 20
157.1222834152296
 30
0.0
 11
1167.861260366783
 21
157.1222834152298
 31
0.0
  0
LINE
  5
26A2
330
2
100
AcDbEntity
  8
SICHTBAR
100
AcDbLine
 10
1167.987791199381
 20
108.0207298113828
 30
0.0
 11
1171.719842006949
 21
109.0207298113832
 31
0.0
  0
LINE
  5
26A3
330
2
100
AcDbEntity
  8
VERDECKT
100
AcDbLine
 10
1167.861260366784
 20
109.0221021573815
 30
0.0
 11
1171.719842006949
 21
110.0560059917932
 31
0.0
  0
LINE
  5
26A4
330
2
100
AcDbEntity
  8
VERDECKT
100
AcDbLine
 10
1121.63607518518
 20
109.023104008189
 30
0.0
 11
1167.861260366784
 21
109.0221021573815
 31
0.0
  0
LINE
  5
26A5
330
2
100
AcDbEntity
  8
VERDECKT
100
AcDbLine
 10
1121.483464262333
 20
108.0231040081887
 30
0.0
 11
1166.157354312018
 21
108.0207298113828
 31
0.0
  0
LINE
  5
26A6
330
2
100
AcDbEntity
  8
SICHTBAR
100
AcDbLine
 10
1167.861260366784
 20
109.3233468450012
 30
0.0
 11
1167.861260366784
 21
118.672946352895
 31
0.0
  0
LINE
  5
26A7
330
2
100
AcDbEntity
  8
SICHTBAR
100
AcDbLine
 10
1171.71984200695
 20
109.0207298113832
 30
0.0
 11
1171.719842006949
 21
133.0721927863057
 31
0.0
  0
ARC
  5
26A8
330
2
100
AcDbEntity
  8
VERDECKT
100
AcDbCircle
 10
1106.792737281462
 20
100.523104008189
 30
0.0
 40
5.0
100
AcDbArc
 50
90.0
 51
153.2071689779401
  0
ARC
  5
26A9
330
2
100
AcDbEntity
  8
VERDECKT
100
AcDbCircle
 10
1107.063280429258
 20
99.56713893140628
 30
0.0
 40
6.961224299233603
100
AcDbArc
 50
92.22732162261831
 51
147.1567652373655
  0
LINE
  5
26AA
330
2
100
AcDbEntity
  8
SICHTBAR
100
AcDbLine
 10
1167.987791199381
 20
108.0207298113828
 30
0.0
 11
1166.157354312018
 21
108.0207298113828
 31
0.0
  0
LINE
  5
26AB
330
2
100
AcDbEntity
  8
SICHTBAR
100
AcDbLine
 10
1167.861260366784
 20
147.471439219716
 30
0.0
 11
1167.861260366784
 21
157.9378477556233
 31
0.0
  0
LINE
  5
26AC
330
2
100
AcDbEntity
  8
VERDECKT
100
AcDbLine
 10
1112.720409648092
 20
106.523104008189
 30
0.0
 11
1119.846425226364
 21
108.749983876399
 31
0.0
  0
LINE
  5
26AD
330
2
100
AcDbEntity
  8
VERDECKT
100
AcDbLine
 10
1119.992089296653
 20
107.7955038983639
 30
0.0
 11
1112.720409648092
 21
105.523104008189
 31
0.0
  0
ARC
  5
26AE
330
2
100
AcDbEntity
  8
VERDECKT
100
AcDbCircle
 10
1121.63607518518
 20
103.023104008189
 30
0.0
 40
6.0
100
AcDbArc
 50
90.0
 51
107.3540246362596
  0
ARC
  5
26AF
330
2
100
AcDbEntity
  8
VERDECKT
100
AcDbCircle
 10
1121.483464262333
 20
103.0231040081887
 30
0.0
 40
5.0
100
AcDbArc
 50
90.0
 51
107.3540246362596
  0
LINE
  5
26B0
330
2
100
AcDbEntity
  8
VERDECKT
100
AcDbLine
 10
1112.720409648092
 20
106.523104008189
 30
0.0
 11
1106.792737281462
 21
106.523104008189
 31
0.0
  0
LINE
  5
26B1
330
2
100
AcDbEntity
  8
VERDECKT
100
AcDbLine
 10
1106.792737281462
 20
105.523104008189
 30
0.0
 11
1112.720409648092
 21
105.523104008189
 31
0.0
  0
LINE
  5
26B2
330
2
100
AcDbEntity
  8
VERDECKT
100
AcDbLine
 10
1112.720409648092
 20
105.523104008189
 30
0.0
 11
1112.720409648092
 21
133.0721927863055
 31
0.0
  0
VIEWPORT
  5
42D
330
42C
100
AcDbEntity
 67
     1
  8
0
100
AcDbViewport
 10
208.5
 20
172.772378516624
 30
0.0
 40
417.0
 41
345.5447570332481
 68
     1
 69
     1
 12
208.5
 22
172.772378516624
 13
0.0
 23
0.0
 14
10.0
 24
10.0
 15
10.0
 25
10.0
 16
0.0
 26
0.0
 36
1.0
 17
0.0
 27
0.0
 37
0.0
 42
50.0
 43
0.0
 44
0.0
 45
345.5447570332481
 50
0.0
 51
0.0
 72
   100
 90
    32800
  1

281
     0
 71
     1
 74
     0
110
0.0
120
0.0
130
0.0
111
1.0
121
0.0
131
0.0
112
0.0
122
1.0
132
0.0
 79
     0
146
0.0
170
     0
 61
     5
348
71B
292
     1
282
     1
141
0.0
142
0.0
 63
   250
421
  3355443
1001
GENIUS_GENOBJ-N-SDF_13
1002
{
1000
OWNER
1000
GEN
1002
}
1001
GENIUS_GENODEF_13
1002
{
1000
HIER
1070
     0
1002
}
1002
{
1000
MANEDIT
1070
     0
1002
}
1002
{
1000
NOSEL
1070
     0
1002
}
1002
{
1000
BEHIND
1070
     0
1002
}
1002
{
1000
OTHER
1070
     0
1002
}
1002
{
1000
REACTOR
1002
}
1001
GENIUS_GENSCREG_15
1000
PF
1040
1.0
1000
DF
1040
1.0
1000
MIN
1011
0.0
1021
0.0
1031
0.0
1000
MAX
1011
417.0
1021
345.5447570332481
1031
0.0
1000
FLAGS
1070
     4
  0
ENDSEC
  0
SECTION
  2
OBJECTS
  0
DICTIONARY
  5
7
330
0
100
AcDbDictionary
281
     1
  3
ACAD_CIP_PREVIOUS_PRODUCT_INFO
350
27D8
  3
ACAD_COLOR
350
446
  3
ACAD_DETAILVIEWSTYLE
350
27CB
  3
ACAD_FIELDLIST
350
2825
  3
ACAD_GROUP
350
440
  3
ACAD_LAYOUT
350
42B
  3
ACAD_MATERIAL
350
445
  3
ACAD_MLEADERSTYLE
350
74B
  3
ACAD_MLINESTYLE
350
441
  3
ACAD_PLOTSETTINGS
350
442
  3
ACAD_PLOTSTYLENAME
350
6
  3
ACAD_SCALELIST
350
729
  3
ACAD_SECTIONVIEWSTYLE
350
27C9
  3
ACAD_TABLESTYLE
350
447
  3
ACAD_VISUALSTYLE
350
715
  3
ACDB_RECOMPOSE_DATA
350
28AD
  3
AcDbVariableDictionary
350
514
  3
AcmDictionary
350
7B6
  3
AEC_PROPERTY_SET_DEFS
350
AB6
  3
AMG
350
754
  3
AMGSNAPSETTINGS
350
7EF
  0
DICTIONARY
  5
2381
330
43B
100
AcDbDictionary
280
     1
281
     1
  0
DICTIONARY
  5
932
330
433
100
AcDbDictionary
280
     1
281
     1
  3
ACAD_LAYERSTATES
360
933
  0
DICTIONARY
  5
12E4
330
85
100
AcDbDictionary
280
     1
281
     1
  3
ADSK_XREC_LAYER_RECONCILED
360
12E5
  0
DICTIONARY
  5
12E6
330
15C
100
AcDbDictionary
280
     1
281
     1
  3
ADSK_XREC_LAYER_RECONCILED
360
12E7
  0
DICTIONARY
  5
12E8
330
126
100
AcDbDictionary
280
     1
281
     1
  3
ADSK_XREC_LAYER_RECONCILED
360
12E9
  0
DICTIONARY
  5
12EA
330
9C
100
AcDbDictionary
280
     1
281
     1
  3
ADSK_XREC_LAYER_RECONCILED
360
12EB
  0
DICTIONARY
  5
12EC
330
89
100
AcDbDictionary
280
     1
281
     1
  3
ADSK_XREC_LAYER_RECONCILED
360
12ED
  0
DICTIONARY
  5
12EE
330
8C
100
AcDbDictionary
280
     1
281
     1
  3
ADSK_XREC_LAYER_RECONCILED
360
12EF
  0
DICTIONARY
  5
12F0
330
B
100
AcDbDictionary
280
     1
281
     1
  3
ADSK_XREC_LAYER_RECONCILED
360
12F1
  0
DICTIONARY
  5
12F2
330
170
100
AcDbDictionary
280
     1
281
     1
  3
ADSK_XREC_LAYER_RECONCILED
360
12F3
  0
DICTIONARY
  5
12F4
330
273
100
AcDbDictionary
280
     1
281
     1
  3
ADSK_XREC_LAYER_RECONCILED
360
12F5
  0
DICTIONARY
  5
12F6
330
15F
100
AcDbDictionary
280
     1
281
     1
  3
ADSK_XREC_LAYER_RECONCILED
360
12F7
  0
DICTIONARY
  5
12F8
330
4
100
AcDbDictionary
280
     1
281
     1
  3
ADSK_XREC_LAYER_RECONCILED
360
12F9
  0
DICTIONARY
  5
12FC
330
2DB
100
AcDbDictionary
280
     1
281
     1
  3
ADSK_XREC_LAYER_RECONCILED
360
12FD
  0
DICTIONARY
  5
12FE
330
350
100
AcDbDictionary
280
     1
281
     1
  3
ADSK_XREC_LAYER_RECONCILED
360
12FF
  0
DICTIONARY
  5
1300
330
44D
100
AcDbDictionary
280
     1
281
     1
  3
ADSK_XREC_LAYER_RECONCILED
360
1301
  0
DICTIONARY
  5
92C
330
92B
100
AcDbDictionary
280
     1
281
     1
  3
ADSK_XREC_LAYER_RECONCILED
360
1302
  0
DICTIONARY
  5
1303
330
92D
100
AcDbDictionary
280
     1
281
     1
  3
ADSK_XREC_LAYER_RECONCILED
360
1304
  0
DICTIONARY
  5
1305
330
92E
100
AcDbDictionary
280
     1
281
     1
  3
ADSK_XREC_LAYER_RECONCILED
360
1306
  0
DICTIONARY
  5
1546
330
1545
100
AcDbDictionary
280
     1
281
     1
  0
DICTIONARY
  5
F59
330
2
100
AcDbDictionary
280
     1
281
     1
  3
ACAD_SORTENTS
360
1150
  0
DICTIONARY
  5
11F7
330
829
100
AcDbDictionary
280
     1
281
     1
  3
ACAD_SORTENTS
360
1287
  0
DICTIONARY
  5
872
330
871
100
AcDbDictionary
280
     1
281
     1
  3
ACAD_SORTENTS
360
213C
  0
DICTIONARY
  5
8DE
330
8DD
100
AcDbDictionary
280
     1
281
     1
  3
ACAD_SORTENTS
360
2017
  0
DICTIONARY
  5
F95
330
EF2
100
AcDbDictionary
280
     1
281
     1
  3
ACAD_SORTENTS
360
F96
  0
DICTIONARY
  5
FE1
330
F9E
100
AcDbDictionary
280
     1
281
     1
  3
ACAD_SORTENTS
360
1EE9
  0
XRECORD
  5
27D8
102
{ACAD_REACTORS
330
7
102
}
330
7
100
AcDbXrecord
280
     1
300
AMECH_PP
300
2017
300
AMECH_PP_F_S
  0
DICTIONARY
  5
446
102
{ACAD_REACTORS
330
7
102
}
330
7
100
AcDbDictionary
281
     1
  0
DICTIONARY
  5
27CB
102
{ACAD_REACTORS
330
7
102
}
330
7
100
AcDbDictionary
281
     1
  3
Imperial24
350
27CC
  0
FIELDLIST
  5
2825
102
{ACAD_REACTORS
330
7
102
}
330
7
100
AcDbIdSet
 90
        4
330
2823
330
2824
330
2826
330
2827
100
AcDbFieldList
  0
DICTIONARY
  5
440
102
{ACAD_REACTORS
330
7
102
}
330
7
100
AcDbDictionary
281
     1
  0
DICTIONARY
  5
42B
102
{ACAD_REACTORS
330
7
102
}
330
7
100
AcDbDictionary
281
     1
  3
Layout1
350
432
  3
Model
350
42A
  0
DICTIONARY
  5
445
102
{ACAD_REACTORS
330
7
102
}
330
7
100
AcDbDictionary
281
     1
  3
ByBlock
350
705
  3
ByLayer
350
6FD
  3
Global
350
70D
  0
DICTIONARY
  5
74B
102
{ACAD_REACTORS
330
7
102
}
330
7
100
AcDbDictionary
281
     1
  3
Standard
350
74C
  0
DICTIONARY
  5
441
102
{ACAD_REACTORS
330
7
102
}
330
7
100
AcDbDictionary
281
     1
  3
STANDARD
350
443
  0
DICTIONARY
  5
442
102
{ACAD_REACTORS
330
7
102
}
330
7
100
AcDbDictionary
281
     1
  0
ACDBDICTIONARYWDFLT
  5
6
102
{ACAD_REACTORS
330
7
102
}
330
7
100
AcDbDictionary
281
     1
  3
Normal
350
5
100
AcDbDictionaryWithDefault
340
5
  0
DICTIONARY
  5
729
102
{ACAD_REACTORS
330
7
102
}
330
7
100
AcDbDictionary
281
     1
  3
A0
350
72A
  3
A1
350
72B
  3
A2
350
72C
  3
A3
350
72D
  3
A4
350
72E
  3
A5
350
72F
  3
A6
350
730
  3
A7
350
731
  3
A8
350
732
  3
A9
350
733
  3
B0
350
734
  3
B1
350
735
  3
B2
350
736
  3
B3
350
737
  3
B4
350
738
  3
B5
350
739
  3
B6
350
73A
  3
B7
350
73B
  3
B8
350
73C
  3
B9
350
73D
  3
C0
350
73E
  3
C1
350
73F
  3
C2
350
740
  3
C3
350
741
  3
C4
350
742
  3
C5
350
743
  3
C6
350
744
  3
C7
350
745
  3
C8
350
746
  3
C9
350
747
  3
D0
350
748
  3
D1
350
749
  3
D2
350
74A
  0
DICTIONARY
  5
27C9
102
{ACAD_REACTORS
330
7
102
}
330
7
100
AcDbDictionary
281
     1
  3
Imperial24
350
27CA
  0
DICTIONARY
  5
447
102
{ACAD_REACTORS
330
7
102
}
330
7
100
AcDbDictionary
281
     1
  3
Standard
350
448
  0
DICTIONARY
  5
715
102
{ACAD_REACTORS
330
7
102
}
330
7
100
AcDbDictionary
281
     1
  3
2dWireframe
350
71B
  3
3D Hidden
350
71D
  3
3dWireframe
350
71C
  3
Basic
350
71A
  3
Brighten
350
721
  3
ColorChange
350
725
  3
Conceptual
350
71E
  3
Dim
350
720
  3
EdgeColorOff
350
728
  3
Facepattern
350
724
  3
Flat
350
716
  3
FlatWithEdges
350
717
  3
Gouraud
350
718
  3
GouraudWithEdges
350
719
  3
Hidden
350
27C3
  3
JitterOff
350
726
  3
Linepattern
350
723
  3
OverhangOff
350
727
  3
Realistic
350
71F
  3
Shaded
350
27C8
  3
Shaded with edges
350
27C7
  3
Shades of Gray
350
27C4
  3
Sketchy
350
27C5
  3
Thicken
350
722
  3
Wireframe
350
27C2
  3
X-Ray
350
27C6
  0
XRECORD
  5
28AD
102
{ACAD_REACTORS
330
7
102
}
330
7
100
AcDbXrecord
280
     1
 90
        1
330
448
330
27CA
330
27CC
  0
DICTIONARY
  5
514
102
{ACAD_REACTORS
330
7
102
}
330
7
100
AcDbDictionary
281
     1
  3
CANNOSCALE
350
13CC
  3
CMLEADERSTYLE
350
13CA
  3
CTABLESTYLE
350
515
  3
CVIEWDETAILSTYLE
350
28A6
  3
CVIEWSECTIONSTYLE
350
28A7
  3
DIMASSOC
350
23B5
  3
INDEXCTL
350
23B3
  3
LAYEREVAL
350
13CE
  3
LAYERNOTIFY
350
13CF
  3
LIGHTINGUNITS
350
13CD
  3
MSLTSCALE
350
13CB
  3
SORTENTS
350
23B2
  0
DICTIONARY
  5
7B6
102
{ACAD_REACTORS
330
7
102
}
330
7
100
AcDbDictionary
281
     1
  3
AcmStdDictionary
350
7C0
  0
DICTIONARY
  5
AB6
102
{ACAD_REACTORS
330
7
102
}
330
7
100
AcDbDictionary
281
     1
  0
DICTIONARY
  5
754
102
{ACAD_REACTORS
330
7
102
}
330
7
100
AcDbDictionary
281
     1
  0
DICTIONARY
  5
7EF
102
{ACAD_REACTORS
330
7
102
}
330
7
100
AcDbDictionary
281
     1
  0
DICTIONARY
  5
933
102
{ACAD_REACTORS
330
932
102
}
330
932
100
AcDbDictionary
281
     1
  0
XRECORD
  5
12E5
102
{ACAD_REACTORS
330
12E4
102
}
330
12E4
100
AcDbXrecord
280
     1
290
     1
  0
XRECORD
  5
12E7
102
{ACAD_REACTORS
330
12E6
102
}
330
12E6
100
AcDbXrecord
280
     1
290
     1
  0
XRECORD
  5
12E9
102
{ACAD_REACTORS
330
12E8
102
}
330
12E8
100
AcDbXrecord
280
     1
290
     1
  0
XRECORD
  5
12EB
102
{ACAD_REACTORS
330
12EA
102
}
330
12EA
100
AcDbXrecord
280
     1
290
     1
  0
XRECORD
  5
12ED
102
{ACAD_REACTORS
330
12EC
102
}
330
12EC
100
AcDbXrecord
280
     1
290
     1
  0
XRECORD
  5
12EF
102
{ACAD_REACTORS
330
12EE
102
}
330
12EE
100
AcDbXrecord
280
     1
290
     1
  0
XRECORD
  5
12F1
102
{ACAD_REACTORS
330
12F0
102
}
330
12F0
100
AcDbXrecord
280
     1
290
     1
  0
XRECORD
  5
12F3
102
{ACAD_REACTORS
330
12F2
102
}
330
12F2
100
AcDbXrecord
280
     1
290
     1
  0
XRECORD
  5
12F5
102
{ACAD_REACTORS
330
12F4
102
}
330
12F4
100
AcDbXrecord
280
     1
290
     1
  0
XRECORD
  5
12F7
102
{ACAD_REACTORS
330
12F6
102
}
330
12F6
100
AcDbXrecord
280
     1
290
     1
  0
XRECORD
  5
12F9
102
{ACAD_REACTORS
330
12F8
102
}
330
12F8
100
AcDbXrecord
280
     1
290
     1
  0
XRECORD
  5
12FD
102
{ACAD_REACTORS
330
12FC
102
}
330
12FC
100
AcDbXrecord
280
     1
290
     1
  0
XRECORD
  5
12FF
102
{ACAD_REACTORS
330
12FE
102
}
330
12FE
100
AcDbXrecord
280
     1
290
     1
  0
XRECORD
  5
1301
102
{ACAD_REACTORS
330
1300
102
}
330
1300
100
AcDbXrecord
280
     1
290
     1
  0
XRECORD
  5
1302
102
{ACAD_REACTORS
330
92C
102
}
330
92C
100
AcDbXrecord
280
     1
290
     1
  0
XRECORD
  5
1304
102
{ACAD_REACTORS
330
1303
102
}
330
1303
100
AcDbXrecord
280
     1
290
     1
  0
XRECORD
  5
1306
102
{ACAD_REACTORS
330
1305
102
}
330
1305
100
AcDbXrecord
280
     1
290
     1
  0
SORTENTSTABLE
  5
1150
102
{ACAD_REACTORS
330
F59
102
}
330
F59
100
AcDbSortentsTable
330
2
331
C23
  5
C29
331
C27
  5
C2D
331
B83
  5
B87
331
BD2
  5
BF6
331
B0B
  5
B0D
331
B4A
  5
B4E
331
B87
  5
B8B
331
B0F
  5
B11
331
B4E
  5
B52
331
B8B
  5
B8F
331
B13
  5
B15
331
B52
  5
B56
331
B8F
  5
B93
331
B17
  5
B19
331
B56
  5
B5A
331
AE3
  5
AE3
331
AE7
  5
AE9
331
114B
  5
1154
331
1153
  5
1158
331
102E
  5
1135
331
B93
  5
B9C
331
B1B
  5
B1E
331
B5A
  5
B5E
331
B1F
  5
B23
331
B5E
  5
B62
331
B9B
  5
B9F
331
B23
  5
B27
331
B9F
  5
BA3
331
B27
  5
B2B
331
ABC
  5
ABC
331
B60
  5
B64
331
AE8
  5
AEA
331
BA3
  5
BA7
331
B64
  5
B68
331
AEC
  5
AEE
331
B2B
  5
B2F
331
BA7
  5
BAB
331
B68
  5
B6C
331
AF0
  5
AF2
331
B2F
  5
B33
331
BAB
  5
BBF
331
B6C
  5
B70
331
AF4
  5
AF6
331
B33
  5
B37
331
B37
  5
B3B
331
AC0
  5
AC0
331
AC4
  5
AC4
331
AC8
  5
AC8
331
ACC
  5
ACC
331
B70
  5
B74
331
AF8
  5
AFA
331
B74
  5
B78
331
AFC
  5
AFE
331
B3B
  5
B3F
331
C1C
  5
C22
331
B78
  5
B7C
331
B00
  5
B02
331
B3F
  5
B43
331
B7C
  5
B80
331
B04
  5
B06
331
B43
  5
B47
331
BBF
  5
BD3
331
B47
  5
B4B
331
AD0
  5
AD0
331
AD4
  5
AD4
331
AD8
  5
AD8
331
ADC
  5
ADC
331
C20
  5
C26
331
C24
  5
C2A
331
B80
  5
B84
331
B08
  5
B0A
331
C28
  5
C2E
331
B84
  5
B88
331
B0C
  5
B0E
331
B4B
  5
B4F
331
B88
  5
B8C
331
B10
  5
B12
331
B4F
  5
B53
331
B8C
  5
B90
331
B14
  5
B16
331
B53
  5
B57
331
B57
  5
B5B
331
AE0
  5
AE0
331
AE4
  5
AE4
331
114C
  5
1155
331
B90
  5
B94
331
B18
  5
B1A
331
B94
  5
B9D
331
B1C
  5
B20
331
B5B
  5
B5F
331
B20
  5
B24
331
B5F
  5
B63
331
B9C
  5
BA0
331
B24
  5
B28
331
ABD
  5
ABD
331
1164
  5
1166
331
BA0
  5
BA4
331
B61
  5
B65
331
BA4
  5
BA8
331
B65
  5
B69
331
AE9
  5
AEB
331
B28
  5
B2C
331
BA8
  5
BAC
331
B69
  5
B6D
331
AED
  5
AEF
331
B2C
  5
B30
331
BF5
  5
BF9
331
BAC
  5
BD0
331
B6D
  5
B71
331
AF1
  5
AF3
331
B30
  5
B34
331
AF5
  5
AF7
331
B34
  5
B38
331
AC1
  5
AC1
331
AC5
  5
AC5
331
AC9
  5
AC9
331
ACD
  5
ACD
331
B71
  5
B75
331
B75
  5
B79
331
AF9
  5
AFB
331
B38
  5
B3C
331
B79
  5
B7D
331
AFD
  5
AFF
331
B3C
  5
B40
331
C1D
  5
C23
331
B7D
  5
B81
331
B01
  5
B03
331
B40
  5
B44
331
B05
  5
B07
331
B44
  5
B48
331
AD1
  5
AD1
331
ADD
  5
ADD
331
C21
  5
C27
331
1081
  5
113F
331
B81
  5
B85
331
C25
  5
C2B
331
B85
  5
B89
331
B09
  5
B0B
331
B48
  5
B4C
331
FE4
  5
1134
331
C29
  5
C2F
331
B89
  5
B8D
331
B0D
  5
B0F
331
B4C
  5
B50
331
B8D
  5
B91
331
B11
  5
B13
331
B50
  5
B54
331
B15
  5
B17
331
B54
  5
B58
331
AE1
  5
AE1
331
AE5
  5
AE6
331
114D
  5
1156
331
B91
  5
B9A
331
1155
  5
1164
331
B19
  5
B1B
331
B58
  5
B5C
331
B1D
  5
B21
331
B5C
  5
B60
331
B9D
  5
BA1
331
B21
  5
B25
331
B25
  5
B29
331
ABE
  5
ABE
331
1165
  5
1163
331
B62
  5
B66
331
BA1
  5
BA5
331
1056
  5
1136
331
B66
  5
B6A
331
BA5
  5
BA9
331
F26
  5
1081
331
AEA
  5
AEC
331
B29
  5
B2D
331
B6A
  5
B6E
331
BA9
  5
BAD
331
AEE
  5
AF0
331
B2D
  5
B31
331
BF6
  5
BFA
331
B6E
  5
B72
331
BAD
  5
BD1
331
AF2
  5
AF4
331
B31
  5
B35
331
AF6
  5
AF8
331
B35
  5
B39
331
AC2
  5
AC2
331
AC6
  5
AC6
331
ACA
  5
ACA
331
ACE
  5
ACE
331
B72
  5
B76
331
BB1
  5
BD2
331
B76
  5
B7A
331
AFA
  5
AFC
331
B39
  5
B3D
331
C1A
  5
C20
331
B7A
  5
B7E
331
AFE
  5
B00
331
B3D
  5
B41
331
C1E
  5
C24
331
B7E
  5
B82
331
B02
  5
B04
331
B41
  5
B45
331
B06
  5
B08
331
B45
  5
B49
331
AD2
  5
AD2
331
ADE
  5
ADE
331
1072
  5
113E
331
C22
  5
C28
331
B82
  5
B86
331
BD1
  5
BF5
331
C26
  5
C2C
331
B86
  5
B8A
331
B0A
  5
B0C
331
B49
  5
B4D
331
B8A
  5
B8E
331
B0E
  5
B10
331
B4D
  5
B51
331
B8E
  5
B92
331
B12
  5
B14
331
B51
  5
B55
331
B16
  5
B18
331
B55
  5
B59
331
AE2
  5
AE2
331
AE6
  5
AE8
331
114E
  5
1157
331
B92
  5
B9B
331
B1A
  5
B1C
331
B59
  5
B5D
331
B9A
  5
B9E
331
B1E
  5
B22
331
B5D
  5
B61
331
B9E
  5
BA2
331
B22
  5
B26
331
B26
  5
B2A
331
ABF
  5
ABF
331
BA2
  5
BA6
331
B63
  5
B67
331
AEB
  5
AED
331
B2A
  5
B2E
331
BA6
  5
BAA
331
B67
  5
B6B
331
AEF
  5
AF1
331
B2E
  5
B32
331
BAA
  5
BB1
331
BF7
  5
BFB
331
B6B
  5
B6F
331
AF3
  5
AF5
331
B32
  5
B36
331
B6F
  5
B73
331
AF7
  5
AF9
331
B36
  5
B3A
331
AC3
  5
AC3
331
AC7
  5
AC7
331
ACB
  5
ACB
331
ACF
  5
ACF
331
1063
  5
113D
331
B73
  5
B77
331
AFB
  5
AFD
331
B3A
  5
B3E
331
C1B
  5
C21
331
B77
  5
B7B
331
AFF
  5
B01
331
B3E
  5
B42
331
C1F
  5
C25
331
B7B
  5
B7F
331
B03
  5
B05
331
B42
  5
B46
331
B7F
  5
B83
331
B07
  5
B09
331
B46
  5
B4A
331
AD3
  5
AD3
331
AD7
  5
AD7
331
ADB
  5
ADB
331
ADF
  5
ADF
  0
SORTENTSTABLE
  5
1287
102
{ACAD_REACTORS
330
11F7
102
}
330
11F7
100
AcDbSortentsTable
330
829
  0
SORTENTSTABLE
  5
213C
102
{ACAD_REACTORS
330
872
102
}
330
872
100
AcDbSortentsTable
330
871
  0
SORTENTSTABLE
  5
2017
102
{ACAD_REACTORS
330
8DE
102
}
330
8DE
100
AcDbSortentsTable
330
8DD
  0
SORTENTSTABLE
  5
F96
102
{ACAD_REACTORS
330
F95
102
}
330
F95
100
AcDbSortentsTable
330
EF2
  0
SORTENTSTABLE
  5
1EE9
102
{ACAD_REACTORS
330
FE1
102
}
330
FE1
100
AcDbSortentsTable
330
F9E
  0
ACDBDETAILVIEWSTYLE
  5
27CC
102
{ACAD_XDICTIONARY
360
28AB
102
}
102
{ACAD_REACTORS
330
27CB
330
2819
102
}
330
27CB
100
AcDbModelDocViewStyle
 70
     0
  3
Imperial24
290
     0
100
AcDbDetailViewStyle
 70
     0
 71
     0
 90
        3
 71
     1
340
161
 62
   256
 40
0.24
340
0
 62
   256
 40
0.24
300

 40
0.36
280
     3
 71
     2
340
8
 90
       25
 62
   256
 71
     3
340
161
 62
   256
 40
0.24
 90
        1
 40
0.75
 90
        1
300
%<\AcVar ViewType \f "%tc1">% %<\AcVar ViewDetailId>%\PSCALE %<\AcVar ViewScale \f "%sn">%
 71
     4
340
8
 90
       25
 62
   256
340
8
 90
       25
 62
   256
280
     0
  0
LAYOUT
  5
432
102
{ACAD_REACTORS
330
42B
102
}
330
42B
100
AcDbPlotSettings
  1

  2
\\ACO_CAD_PRV\HPLJ5000N
  4

  6

 40
0.0
 41
0.0
 42
0.0
 43
0.0
 44
0.0
 45
0.0
 46
0.0
 47
0.0
 48
0.0
 49
0.0
140
0.0
141
0.0
142
1.0
143
1.0
 70
   688
 72
     0
 73
     0
 74
     5
  7
monochrome.ctb
 75
    16
147
1.0
 76
     0
 77
     2
 78
   300
148
0.0
149
0.0
100
AcDbLayout
  1
Layout1
 70
     0
 71
     1
 10
0.0
 20
0.0
 11
417.0
 21
288.0
 12
0.0
 22
0.0
 32
0.0
 14
1.000000000000000E+20
 24
1.000000000000000E+20
 34
1.000000000000000E+20
 15
-1.000000000000000E+20
 25
-1.000000000000000E+20
 35
-1.000000000000000E+20
146
0.0
 13
0.0
 23
0.0
 33
0.0
 16
1.0
 26
0.0
 36
0.0
 17
0.0
 27
1.0
 37
0.0
 76
     0
330
42C
331
42D
  0
LAYOUT
  5
42A
102
{ACAD_XDICTIONARY
360
13C8
102
}
102
{ACAD_REACTORS
330
42B
102
}
330
42B
100
AcDbPlotSettings
  1

  2
\\ACO_CAD_PRV\HPLJ5000N
  4
A4
  6

 40
6.720416545867919
 41
6.720423221588134
 42
7.694076538085937
 43
4.011077880859375
 44
209.9733276367187
 45
296.9683227539062
 46
0.0
 47
0.0
 48
0.0
 49
0.0
140
841.0
141
594.0
142
1.0
143
77.15120635948115
 70
 11952
 72
     0
 73
     1
 74
     4
  7
monochrome.ctb
 75
     0
147
0.0129615601257168
 76
     0
 77
     2
 78
   300
148
0.0
149
0.0
100
AcDbLayout
  1
Model
 70
     1
 71
     0
 10
0.0
 20
0.0
 11
12.0
 21
9.0
 12
0.0
 22
0.0
 32
0.0
 14
0.0
 24
0.0
 34
0.0
 15
0.0
 25
0.0
 35
0.0
146
0.0
 13
0.0
 23
0.0
 33
0.0
 16
1.0
 26
0.0
 36
0.0
 17
0.0
 27
1.0
 37
0.0
 76
     0
330
2
331
6FB
  0
MATERIAL
  5
705
102
{ACAD_XDICTIONARY
360
706
102
}
102
{ACAD_REACTORS
330
445
102
}
330
445
100
AcDbMaterial
  1
ByBlock
 72
     0
 43
0.0208333333333333
 43
0.0
 43
0.0
 43
0.0
 43
0.0
 43
0.0208333333333333
 43
0.0
 43
0.0
 43
0.0
 43
0.0
 43
1.0
 43
0.0
 43
0.0
 43
0.0
 43
0.0
 43
1.0
 77
     0
 47
0.0208333333333333
 47
0.0
 47
0.0
 47
0.0
 47
0.0
 47
0.0208333333333333
 47
0.0
 47
0.0
 47
0.0
 47
0.0
 47
1.0
 47
0.0
 47
0.0
 47
0.0
 47
0.0
 47
1.0
171
     0
 49
0.0208333333333333
 49
0.0
 49
0.0
 49
0.0
 49
0.0
 49
0.0208333333333333
 49
0.0
 49
0.0
 49
0.0
 49
0.0
 49
1.0
 49
0.0
 49
0.0
 49
0.0
 49
0.0
 49
1.0
175
     0
142
0.0208333333333333
142
0.0
142
0.0
142
0.0
142
0.0
142
0.0208333333333333
142
0.0
142
0.0
142
0.0
142
0.0
142
1.0
142
0.0
142
0.0
142
0.0
142
0.0
142
1.0
179
     0
144
0.0208333333333333
144
0.0
144
0.0
144
0.0
144
0.0
144
0.0208333333333333
144
0.0
144
0.0
144
0.0
144
0.0
144
1.0
144
0.0
144
0.0
144
0.0
144
0.0
144
1.0
147
0.0208333333333333
147
0.0
147
0.0
147
0.0
147
0.0
147
0.0208333333333333
147
0.0
147
0.0
147
0.0
147
0.0
147
1.0
147
0.0
147
0.0
147
0.0
147
0.0
147
1.0
  0
MATERIAL
  5
6FD
102
{ACAD_XDICTIONARY
360
6FE
102
}
102
{ACAD_REACTORS
330
445
102
}
330
445
100
AcDbMaterial
  1
ByLayer
 72
     0
 43
0.0208333333333333
 43
0.0
 43
0.0
 43
0.0
 43
0.0
 43
0.0208333333333333
 43
0.0
 43
0.0
 43
0.0
 43
0.0
 43
1.0
 43
0.0
 43
0.0
 43
0.0
 43
0.0
 43
1.0
 77
     0
 47
0.0208333333333333
 47
0.0
 47
0.0
 47
0.0
 47
0.0
 47
0.0208333333333333
 47
0.0
 47
0.0
 47
0.0
 47
0.0
 47
1.0
 47
0.0
 47
0.0
 47
0.0
 47
0.0
 47
1.0
171
     0
 49
0.0208333333333333
 49
0.0
 49
0.0
 49
0.0
 49
0.0
 49
0.0208333333333333
 49
0.0
 49
0.0
 49
0.0
 49
0.0
 49
1.0
 49
0.0
 49
0.0
 49
0.0
 49
0.0
 49
1.0
175
     0
142
0.0208333333333333
142
0.0
142
0.0
142
0.0
142
0.0
142
0.0208333333333333
142
0.0
142
0.0
142
0.0
142
0.0
142
1.0
142
0.0
142
0.0
142
0.0
142
0.0
142
1.0
179
     0
144
0.0208333333333333
144
0.0
144
0.0
144
0.0
144
0.0
144
0.0208333333333333
144
0.0
144
0.0
144
0.0
144
0.0
144
1.0
144
0.0
144
0.0
144
0.0
144
0.0
144
1.0
147
0.0208333333333333
147
0.0
147
0.0
147
0.0
147
0.0
147
0.0208333333333333
147
0.0
147
0.0
147
0.0
147
0.0
147
1.0
147
0.0
147
0.0
147
0.0
147
0.0
147
1.0
  0
MATERIAL
  5
70D
102
{ACAD_XDICTIONARY
360
70E
102
}
102
{ACAD_REACTORS
330
445
102
}
330
445
100
AcDbMaterial
  1
Global
 72
     0
 43
0.0208333333333333
 43
0.0
 43
0.0
 43
0.0
 43
0.0
 43
0.0208333333333333
 43
0.0
 43
0.0
 43
0.0
 43
0.0
 43
1.0
 43
0.0
 43
0.0
 43
0.0
 43
0.0
 43
1.0
 77
     0
 47
0.0208333333333333
 47
0.0
 47
0.0
 47
0.0
 47
0.0
 47
0.0208333333333333
 47
0.0
 47
0.0
 47
0.0
 47
0.0
 47
1.0
 47
0.0
 47
0.0
 47
0.0
 47
0.0
 47
1.0
171
     0
 49
0.0208333333333333
 49
0.0
 49
0.0
 49
0.0
 49
0.0
 49
0.0208333333333333
 49
0.0
 49
0.0
 49
0.0
 49
0.0
 49
1.0
 49
0.0
 49
0.0
 49
0.0
 49
0.0
 49
1.0
175
     0
142
0.0208333333333333
142
0.0
142
0.0
142
0.0
142
0.0
142
0.0208333333333333
142
0.0
142
0.0
142
0.0
142
0.0
142
1.0
142
0.0
142
0.0
142
0.0
142
0.0
142
1.0
179
     0
144
0.0208333333333333
144
0.0
144
0.0
144
0.0
144
0.0
144
0.0208333333333333
144
0.0
144
0.0
144
0.0
144
0.0
144
1.0
144
0.0
144
0.0
144
0.0
144
0.0
144
1.0
147
0.0208333333333333
147
0.0
147
0.0
147
0.0
147
0.0
147
0.0208333333333333
147
0.0
147
0.0
147
0.0
147
0.0
147
1.0
147
0.0
147
0.0
147
0.0
147
0.0
147
1.0
  0
MLEADERSTYLE
  5
74C
102
{ACAD_REACTORS
330
74B
102
}
330
74B
100
AcDbMLeaderStyle
179
     2
170
     2
171
     1
172
     0
 90
        2
 40
0.0
 41
0.0
173
     1
 91
-1056964608
340
437
 92
       -2
290
     1
 42
0.09
291
     1
 43
0.36
  3
Standard
 44
0.18
300

342
161
174
     1
178
     6
175
     1
176
     0
 93
-1056964608
 45
0.18
292
     0
297
     0
 46
0.18
 94
-1056964608
 47
1.0
 49
1.0
140
1.0
293
     1
141
0.0
294
     1
177
     0
142
1.0
295
     0
296
     0
143
0.125
271
     0
272
     9
273
     9
298
     0
  0
MLINESTYLE
  5
443
102
{ACAD_REACTORS
330
441
102
}
330
441
100
AcDbMlineStyle
  2
STANDARD
 70
     0
  3

 62
   256
 51
90.0
 52
90.0
 71
     2
 49
0.5
 62
   256
  6
BYLAYER
 49
-0.5
 62
   256
  6
BYLAYER
  0
ACDBPLACEHOLDER
  5
5
102
{ACAD_REACTORS
330
6
102
}
330
6
  0
SCALE
  5
72A
102
{ACAD_REACTORS
330
729
102
}
330
729
100
AcDbScale
 70
     0
300
1:1
140
1.0
141
1.0
290
     1
  0
SCALE
  5
72B
102
{ACAD_REACTORS
330
729
102
}
330
729
100
AcDbScale
 70
     0
300
1:2
140
1.0
141
2.0
290
     0
  0
SCALE
  5
72C
102
{ACAD_REACTORS
330
729
102
}
330
729
100
AcDbScale
 70
     0
300
1:4
140
1.0
141
4.0
290
     0
  0
SCALE
  5
72D
102
{ACAD_REACTORS
330
729
102
}
330
729
100
AcDbScale
 70
     0
300
1:5
140
1.0
141
5.0
290
     0
  0
SCALE
  5
72E
102
{ACAD_REACTORS
330
729
102
}
330
729
100
AcDbScale
 70
     0
300
1:8
140
1.0
141
8.0
290
     0
  0
SCALE
  5
72F
102
{ACAD_REACTORS
330
729
102
}
330
729
100
AcDbScale
 70
     0
300
1:10
140
1.0
141
10.0
290
     0
  0
SCALE
  5
730
102
{ACAD_REACTORS
330
729
102
}
330
729
100
AcDbScale
 70
     0
300
1:16
140
1.0
141
16.0
290
     0
  0
SCALE
  5
731
102
{ACAD_REACTORS
330
729
102
}
330
729
100
AcDbScale
 70
     0
300
1:20
140
1.0
141
20.0
290
     0
  0
SCALE
  5
732
102
{ACAD_REACTORS
330
729
102
}
330
729
100
AcDbScale
 70
     0
300
1:30
140
1.0
141
30.0
290
     0
  0
SCALE
  5
733
102
{ACAD_REACTORS
330
729
102
}
330
729
100
AcDbScale
 70
     0
300
1:40
140
1.0
141
40.0
290
     0
  0
SCALE
  5
734
102
{ACAD_REACTORS
330
729
102
}
330
729
100
AcDbScale
 70
     0
300
1:50
140
1.0
141
50.0
290
     0
  0
SCALE
  5
735
102
{ACAD_REACTORS
330
729
102
}
330
729
100
AcDbScale
 70
     0
300
1:100
140
1.0
141
100.0
290
     0
  0
SCALE
  5
736
102
{ACAD_REACTORS
330
729
102
}
330
729
100
AcDbScale
 70
     0
300
2:1
140
2.0
141
1.0
290
     0
  0
SCALE
  5
737
102
{ACAD_REACTORS
330
729
102
}
330
729
100
AcDbScale
 70
     0
300
4:1
140
4.0
141
1.0
290
     0
  0
SCALE
  5
738
102
{ACAD_REACTORS
330
729
102
}
330
729
100
AcDbScale
 70
     0
300
8:1
140
8.0
141
1.0
290
     0
  0
SCALE
  5
739
102
{ACAD_REACTORS
330
729
102
}
330
729
100
AcDbScale
 70
     0
300
10:1
140
10.0
141
1.0
290
     0
  0
SCALE
  5
73A
102
{ACAD_REACTORS
330
729
102
}
330
729
100
AcDbScale
 70
     0
300
100:1
140
100.0
141
1.0
290
     0
  0
SCALE
  5
73B
102
{ACAD_REACTORS
330
729
102
}
330
729
100
AcDbScale
 70
     0
300
1/128" = 1'-0"
140
0.0078125
141
12.0
290
     0
  0
SCALE
  5
73C
102
{ACAD_REACTORS
330
729
102
}
330
729
100
AcDbScale
 70
     0
300
1/64" = 1'-0"
140
0.015625
141
12.0
290
     0
  0
SCALE
  5
73D
102
{ACAD_REACTORS
330
729
102
}
330
729
100
AcDbScale
 70
     0
300
1/32" = 1'-0"
140
0.03125
141
12.0
290
     0
  0
SCALE
  5
73E
102
{ACAD_REACTORS
330
729
102
}
330
729
100
AcDbScale
 70
     0
300
1/16" = 1'-0"
140
0.0625
141
12.0
290
     0
  0
SCALE
  5
73F
102
{ACAD_REACTORS
330
729
102
}
330
729
100
AcDbScale
 70
     0
300
3/32" = 1'-0"
140
0.09375
141
12.0
290
     0
  0
SCALE
  5
740
102
{ACAD_REACTORS
330
729
102
}
330
729
100
AcDbScale
 70
     0
300
1/8" = 1'-0"
140
0.125
141
12.0
290
     0
  0
SCALE
  5
741
102
{ACAD_REACTORS
330
729
102
}
330
729
100
AcDbScale
 70
     0
300
3/16" = 1'-0"
140
0.1875
141
12.0
290
     0
  0
SCALE
  5
742
102
{ACAD_REACTORS
330
729
102
}
330
729
100
AcDbScale
 70
     0
300
1/4" = 1'-0"
140
0.25
141
12.0
290
     0
  0
SCALE
  5
743
102
{ACAD_REACTORS
330
729
102
}
330
729
100
AcDbScale
 70
     0
300
3/8" = 1'-0"
140
0.375
141
12.0
290
     0
  0
SCALE
  5
744
102
{ACAD_REACTORS
330
729
102
}
330
729
100
AcDbScale
 70
     0
300
1/2" = 1'-0"
140
0.5
141
12.0
290
     0
  0
SCALE
  5
745
102
{ACAD_REACTORS
330
729
102
}
330
729
100
AcDbScale
 70
     0
300
3/4" = 1'-0"
140
0.75
141
12.0
290
     0
  0
SCALE
  5
746
102
{ACAD_REACTORS
330
729
102
}
330
729
100
AcDbScale
 70
     0
300
1" = 1'-0"
140
1.0
141
12.0
290
     0
  0
SCALE
  5
747
102
{ACAD_REACTORS
330
729
102
}
330
729
100
AcDbScale
 70
     0
300
1-1/2" = 1'-0"
140
1.5
141
12.0
290
     0
  0
SCALE
  5
748
102
{ACAD_REACTORS
330
729
102
}
330
729
100
AcDbScale
 70
     0
300
3" = 1'-0"
140
3.0
141
12.0
290
     0
  0
SCALE
  5
749
102
{ACAD_REACTORS
330
729
102
}
330
729
100
AcDbScale
 70
     0
300
6" = 1'-0"
140
6.0
141
12.0
290
     0
  0
SCALE
  5
74A
102
{ACAD_REACTORS
330
729
102
}
330
729
100
AcDbScale
 70
     0
300
1'-0" = 1'-0"
140
12.0
141
12.0
290
     0
  0
ACDBSECTIONVIEWSTYLE
  5
27CA
102
{ACAD_XDICTIONARY
360
28A9
102
}
102
{ACAD_REACTORS
330
27C9
330
2818
102
}
330
27C9
100
AcDbModelDocViewStyle
 70
     0
  3
Imperial24
290
     0
100
AcDbSectionViewStyle
 70
     0
 71
     0
 90
       78
 71
     1
340
161
 62
   256
 40
0.24
340
0
340
0
 62
   256
 40
0.24
300
I, O, Q, S, X, Z
 40
0.48
 90
        3
 40
0.18
 90
        1
 71
     2
340
8
 90
       25
 62
   256
340
8
 90
       50
 62
   256
 40
0.24
 40
0.0
 40
0.24
 71
     3
340
161
 62
   256
 40
0.24
 90
        1
 40
0.75
 90
        1
300
%<\AcVar ViewType \f "%tc1">% %<\AcVar ViewSectionStartId>%-%<\AcVar ViewSectionEndId>%\PSCALE %<\AcVar ViewScale \f "%sn">%
 71
     4
 62
   256
 62
   257
300
ANSI31
 40
1.0
 90
        0
290
     0
290
     0
 90
        6
 40
0.0
 40
1.570796326794896
 40
0.2617993877991494
 40
1.308996938995747
 40
-0.2617993877991494
 40
1.832595714594046
  0
TABLESTYLE
  5
448
102
{ACAD_XDICTIONARY
360
2378
102
}
102
{ACAD_REACTORS
330
447
102
}
330
447
100
AcDbTableStyle
280
     0
  3
Standard
 70
     0
 71
     0
 40
0.06
 41
0.06
280
     0
281
     0
  7
STANDARD
140
0.18
170
     2
 62
     0
 63
     7
283
     0
 90
        4
 91
        0
  1

274
    -2
284
     1
 64
     0
275
    -2
285
     1
 65
     0
276
    -2
286
     1
 66
     0
277
    -2
287
     1
 67
     0
278
    -2
288
     1
 68
     0
279
    -2
289
     1
 69
     0
  7
STANDARD
140
0.25
170
     5
 62
     0
 63
     7
283
     0
 90
        4
 91
        0
  1

274
    -2
284
     1
 64
     0
275
    -2
285
     1
 65
     0
276
    -2
286
     1
 66
     0
277
    -2
287
     1
 67
     0
278
    -2
288
     1
 68
     0
279
    -2
289
     1
 69
     0
  7
STANDARD
140
0.18
170
     5
 62
     0
 63
     7
283
     0
 90
        4
 91
        0
  1

274
    -2
284
     1
 64
     0
275
    -2
285
     1
 65
     0
276
    -2
286
     1
 66
     0
277
    -2
287
     1
 67
     0
278
    -2
288
     1
 68
     0
279
    -2
289
     1
 69
     0
  0
VISUALSTYLE
  5
71B
102
{ACAD_REACTORS
330
715
102
}
330
715
100
AcDbVisualStyle
  2
2dWireframe
 70
     4
177
     3
291
     0
 70
    58
 90
        0
176
     1
 90
        2
176
     1
 90
        0
176
     1
 90
        0
176
     1
 40
0.6
176
     1
 40
30.0
176
     1
 62
     7
176
     1
 90
        1
176
     1
 90
        4
176
     1
 62
     7
176
     1
 62
   257
176
     1
 90
        1
176
     1
 90
        1
176
     1
 40
1.0
176
     1
 90
        0
176
     1
 62
   257
176
     1
 40
1.0
176
     1
 90
        1
176
     1
 90
        6
176
     1
 90
        2
176
     1
 62
     7
176
     1
 90
        5
176
     1
 90
        0
176
     1
 90
        0
176
     1
290
     0
176
     1
 90
        1
176
     1
 40
0.0
176
     1
 90
        0
176
     1
290
     1
176
     1
290
     1
176
     1
290
     0
176
     1
290
     0
176
     1
290
     0
176
     1
290
     0
176
     1
290
     0
176
     1
290
     0
176
     1
290
     0
176
     1
 90
       50
176
     1
 40
0.0
176
     1
 40
1.0
176
     1
 90
        0
176
     1
 62
    18
420
        0
176
     1
 90
       50
176
     1
 90
        3
176
     1
 62
     5
420
      255
176
     1
290
     0
176
     1
 90
       50
176
     1
 90
       50
176
     1
 90
       50
176
     1
290
     0
176
     1
 90
       50
176
     1
 62
   256
176
     0
 40
1.0
176
     0
 90
        2
176
     1
  1
strokes_ogs.tif
176
     1
290
     0
176
     1
 40
1.0
176
     1
 40
1.0
176
     1
  0
VISUALSTYLE
  5
71D
102
{ACAD_REACTORS
330
715
102
}
330
715
100
AcDbVisualStyle
  2
3D Hidden
 70
     6
177
     3
291
     0
 70
    58
 90
        1
176
     1
 90
        2
176
     1
 90
        2
176
     1
 90
        0
176
     1
 40
0.6
176
     1
 40
30.0
176
     1
 62
     7
176
     1
 90
        2
176
     1
 90
        2
176
     1
 62
     7
176
     1
 62
   257
176
     1
 90
        2
176
     1
 90
        1
176
     1
 40
179.0
176
     1
 90
        0
176
     1
 62
   257
176
     1
 40
1.0
176
     1
 90
        1
176
     1
 90
        6
176
     1
 90
        2
176
     1
 62
     7
176
     1
 90
        3
176
     1
 90
        0
176
     1
 90
        0
176
     1
290
     0
176
     1
 90
        1
176
     1
 40
0.0
176
     1
 90
        0
176
     1
290
     0
176
     1
290
     1
176
     1
290
     1
176
     1
290
     0
176
     1
290
     0
176
     1
290
     0
176
     1
290
     0
176
     1
290
     0
176
     1
290
     0
176
     1
 90
       50
176
     1
 40
0.0
176
     1
 40
1.0
176
     1
 90
        0
176
     1
 62
    18
420
        0
176
     1
 90
       50
176
     1
 90
        3
176
     1
 62
     5
420
      255
176
     1
290
     0
176
     1
 90
       50
176
     1
 90
       50
176
     1
 90
       50
176
     1
290
     0
176
     1
 90
       50
176
     1
 62
   256
176
     0
 40
1.0
176
     0
 90
        2
176
     1
  1
strokes_ogs.tif
176
     1
290
     0
176
     1
 40
1.0
176
     1
 40
1.0
176
     1
  0
VISUALSTYLE
  5
71C
102
{ACAD_REACTORS
330
715
102
}
330
715
100
AcDbVisualStyle
  2
3dWireframe
 70
     5
177
     3
291
     0
 70
    58
 90
        0
176
     1
 90
        2
176
     1
 90
        0
176
     1
 90
        0
176
     1
 40
0.6
176
     1
 40
30.0
176
     1
 62
     7
176
     1
 90
        1
176
     1
 90
        4
176
     1
 62
     7
176
     1
 62
   257
176
     1
 90
        1
176
     1
 90
        1
176
     1
 40
1.0
176
     1
 90
        0
176
     1
 62
   257
176
     1
 40
1.0
176
     1
 90
        1
176
     1
 90
        6
176
     1
 90
        2
176
     1
 62
     7
176
     1
 90
        5
176
     1
 90
        0
176
     1
 90
        0
176
     1
290
     0
176
     1
 90
        1
176
     1
 40
0.0
176
     1
 90
        0
176
     1
290
     0
176
     1
290
     1
176
     1
290
     1
176
     1
290
     0
176
     1
290
     0
176
     1
290
     0
176
     1
290
     0
176
     1
290
     0
176
     1
290
     0
176
     1
 90
       50
176
     1
 40
0.0
176
     1
 40
1.0
176
     1
 90
        0
176
     1
 62
    18
420
        0
176
     1
 90
       50
176
     1
 90
        3
176
     1
 62
     5
420
      255
176
     1
290
     0
176
     1
 90
       50
176
     1
 90
       50
176
     1
 90
       50
176
     1
290
     0
176
     1
 90
       50
176
     1
 62
   256
176
     0
 40
1.0
176
     0
 90
        2
176
     1
  1
strokes_ogs.tif
176
     1
290
     0
176
     1
 40
1.0
176
     1
 40
1.0
176
     1
  0
VISUALSTYLE
  5
71A
102
{ACAD_REACTORS
330
715
102
}
330
715
100
AcDbVisualStyle
  2
Basic
 70
     7
177
     3
291
     1
 70
    58
 90
        1
176
     1
 90
        0
176
     1
 90
        1
176
     1
 90
        0
176
     1
 40
0.6
176
     1
 40
30.0
176
     1
 62
     7
176
     1
 90
        0
176
     1
 90
        4
176
     1
 62
     7
176
     1
 62
   257
176
     1
 90
        1
176
     1
 90
        1
176
     1
 40
1.0
176
     1
 90
        8
176
     1
 62
     7
176
     1
 40
1.0
176
     1
 90
        1
176
     1
 90
        6
176
     1
 90
        2
176
     1
 62
     7
176
     1
 90
        5
176
     1
 90
        0
176
     1
 90
        0
176
     1
290
     0
176
     1
 90
        1
176
     1
 40
0.0
176
     1
 90
        0
176
     1
290
     0
176
     1
290
     1
176
     1
290
     1
176
     1
290
     0
176
     1
290
     0
176
     1
290
     0
176
     1
290
     0
176
     1
290
     0
176
     1
290
     0
176
     1
 90
       50
176
     1
 40
0.0
176
     1
 40
1.0
176
     1
 90
        0
176
     1
 62
    18
420
        0
176
     1
 90
       50
176
     1
 90
        3
176
     1
 62
     5
420
      255
176
     1
290
     0
176
     1
 90
       50
176
     1
 90
       50
176
     1
 90
       50
176
     1
290
     0
176
     1
 90
       50
176
     1
 62
   256
176
     0
 40
1.0
176
     0
 90
        2
176
     1
  1
strokes_ogs.tif
176
     1
290
     0
176
     1
 40
1.0
176
     1
 40
1.0
176
     1
  0
VISUALSTYLE
  5
721
102
{ACAD_REACTORS
330
715
102
}
330
715
100
AcDbVisualStyle
  2
Brighten
 70
    12
177
     3
291
     1
 70
    58
 90
        2
176
     1
 90
        2
176
     1
 90
        0
176
     1
 90
        0
176
     1
 40
0.6
176
     1
 40
30.0
176
     1
 62
     7
176
     1
 90
        1
176
     1
 90
        4
176
     1
 62
     7
176
     1
 62
   257
176
     1
 90
        1
176
     1
 90
        1
176
     1
 40
1.0
176
     1
 90
        8
176
     1
 62
     7
176
     1
 40
1.0
176
     1
 90
        1
176
     1
 90
        6
176
     1
 90
        2
176
     1
 62
     7
176
     1
 90
        5
176
     1
 90
        0
176
     1
 90
        0
176
     1
290
     0
176
     1
 90
        1
176
     1
 40
50.0
176
     1
 90
        0
176
     1
290
     0
176
     1
290
     1
176
     1
290
     1
176
     1
290
     0
176
     1
290
     0
176
     1
290
     0
176
     1
290
     0
176
     1
290
     0
176
     1
290
     0
176
     1
 90
       50
176
     1
 40
0.0
176
     1
 40
1.0
176
     1
 90
        0
176
     1
 62
    18
420
        0
176
     1
 90
       50
176
     1
 90
        3
176
     1
 62
     5
420
      255
176
     1
290
     0
176
     1
 90
       50
176
     1
 90
       50
176
     1
 90
       50
176
     1
290
     0
176
     1
 90
       50
176
     1
 62
   256
176
     0
 40
1.0
176
     0
 90
        2
176
     1
  1
strokes_ogs.tif
176
     1
290
     0
176
     1
 40
1.0
176
     1
 40
1.0
176
     1
  0
VISUALSTYLE
  5
725
102
{ACAD_REACTORS
330
715
102
}
330
715
100
AcDbVisualStyle
  2
ColorChange
 70
    16
177
     3
291
     1
 70
    58
 90
        2
176
     1
 90
        2
176
     1
 90
        3
176
     1
 90
        0
176
     1
 40
0.6
176
     1
 40
30.0
176
     1
 62
     8
176
     1
 90
        1
176
     1
 90
        4
176
     1
 62
     7
176
     1
 62
   257
176
     1
 90
        1
176
     1
 90
        1
176
     1
 40
1.0
176
     1
 90
        8
176
     1
 62
     8
176
     1
 40
1.0
176
     1
 90
        1
176
     1
 90
        6
176
     1
 90
        2
176
     1
 62
     7
176
     1
 90
        5
176
     1
 90
        0
176
     1
 90
        0
176
     1
290
     0
176
     1
 90
        1
176
     1
 40
0.0
176
     1
 90
        0
176
     1
290
     0
176
     1
290
     1
176
     1
290
     1
176
     1
290
     0
176
     1
290
     0
176
     1
290
     0
176
     1
290
     0
176
     1
290
     0
176
     1
290
     0
176
     1
 90
       50
176
     1
 40
0.0
176
     1
 40
1.0
176
     1
 90
        0
176
     1
 62
    18
420
        0
176
     1
 90
       50
176
     1
 90
        3
176
     1
 62
     5
420
      255
176
     1
290
     0
176
     1
 90
       50
176
     1
 90
       50
176
     1
 90
       50
176
     1
290
     0
176
     1
 90
       50
176
     1
 62
   256
176
     0
 40
1.0
176
     0
 90
        2
176
     1
  1
strokes_ogs.tif
176
     1
290
     0
176
     1
 40
1.0
176
     1
 40
1.0
176
     1
  0
VISUALSTYLE
  5
71E
102
{ACAD_REACTORS
330
715
102
}
330
715
100
AcDbVisualStyle
  2
Conceptual
 70
     9
177
     3
291
     0
 70
    58
 90
        3
176
     1
 90
        2
176
     1
 90
        0
176
     1
 90
        0
176
     1
 40
0.6
176
     1
 40
30.0
176
     1
 62
     7
176
     1
 90
        2
176
     1
 90
        2
176
     1
 62
     7
176
     1
 62
   257
176
     1
 90
        1
176
     1
 90
        1
176
     1
 40
179.0
176
     1
 90
        8
176
     1
 62
     7
176
     1
 40
1.0
176
     1
 90
        1
176
     1
 90
        6
176
     1
 90
        2
176
     1
 62
     7
176
     1
 90
        3
176
     1
 90
        0
176
     1
 90
        0
176
     1
290
     0
176
     1
 90
        1
176
     1
 40
0.0
176
     1
 90
        0
176
     1
290
     0
176
     1
290
     1
176
     1
290
     1
176
     1
290
     0
176
     1
290
     0
176
     1
290
     0
176
     1
290
     0
176
     1
290
     0
176
     1
290
     0
176
     1
 90
       50
176
     1
 40
0.0
176
     1
 40
1.0
176
     1
 90
        0
176
     1
 62
    18
420
        0
176
     1
 90
       50
176
     1
 90
        3
176
     1
 62
     5
420
      255
176
     1
290
     0
176
     1
 90
       50
176
     1
 90
       50
176
     1
 90
       50
176
     1
290
     0
176
     1
 90
       50
176
     1
 62
   256
176
     0
 40
1.0
176
     0
 90
        2
176
     1
  1
strokes_ogs.tif
176
     1
290
     0
176
     1
 40
1.0
176
     1
 40
1.0
176
     1
  0
VISUALSTYLE
  5
720
102
{ACAD_REACTORS
330
715
102
}
330
715
100
AcDbVisualStyle
  2
Dim
 70
    11
177
     3
291
     1
 70
    58
 90
        2
176
     1
 90
        2
176
     1
 90
        0
176
     1
 90
        0
176
     1
 40
0.6
176
     1
 40
30.0
176
     1
 62
     7
176
     1
 90
        1
176
     1
 90
        4
176
     1
 62
     7
176
     1
 62
   257
176
     1
 90
        1
176
     1
 90
        1
176
     1
 40
1.0
176
     1
 90
        8
176
     1
 62
     7
176
     1
 40
1.0
176
     1
 90
        1
176
     1
 90
        6
176
     1
 90
        2
176
     1
 62
     7
176
     1
 90
        5
176
     1
 90
        0
176
     1
 90
        0
176
     1
290
     0
176
     1
 90
        1
176
     1
 40
-50.0
176
     1
 90
        0
176
     1
290
     0
176
     1
290
     1
176
     1
290
     1
176
     1
290
     0
176
     1
290
     0
176
     1
290
     0
176
     1
290
     0
176
     1
290
     0
176
     1
290
     0
176
     1
 90
       50
176
     1
 40
0.0
176
     1
 40
1.0
176
     1
 90
        0
176
     1
 62
    18
420
        0
176
     1
 90
       50
176
     1
 90
        3
176
     1
 62
     5
420
      255
176
     1
290
     0
176
     1
 90
       50
176
     1
 90
       50
176
     1
 90
       50
176
     1
290
     0
176
     1
 90
       50
176
     1
 62
   256
176
     0
 40
1.0
176
     0
 90
        2
176
     1
  1
strokes_ogs.tif
176
     1
290
     0
176
     1
 40
1.0
176
     1
 40
1.0
176
     1
  0
VISUALSTYLE
  5
728
102
{ACAD_REACTORS
330
715
102
}
330
715
100
AcDbVisualStyle
  2
EdgeColorOff
 70
    22
177
     3
291
     1
 70
    58
 90
        2
176
     0
 90
        2
176
     0
 90
        0
176
     0
 90
        0
176
     0
 40
0.6
176
     0
 40
30.0
176
     0
 62
     7
176
     0
 90
        1
176
     0
 90
        4
176
     0
 62
     7
176
     0
 62
   257
176
     0
 90
        1
176
     0
 90
        1
176
     0
 40
1.0
176
     0
 90
        8
176
     2
 62
     7
176
     0
 40
1.0
176
     0
 90
        1
176
     0
 90
        6
176
     0
 90
        2
176
     0
 62
     7
176
     0
 90
        5
176
     0
 90
        0
176
     0
 90
        0
176
     0
290
     0
176
     0
 90
        1
176
     0
 40
0.0
176
     0
 90
        0
176
     0
290
     0
176
     1
290
     1
176
     1
290
     1
176
     1
290
     0
176
     1
290
     0
176
     1
290
     0
176
     1
290
     0
176
     1
290
     0
176
     1
290
     0
176
     1
 90
       50
176
     1
 40
0.0
176
     1
 40
1.0
176
     1
 90
        0
176
     1
 62
    18
420
        0
176
     1
 90
       50
176
     1
 90
        3
176
     1
 62
     5
420
      255
176
     1
290
     0
176
     1
 90
       50
176
     1
 90
       50
176
     1
 90
       50
176
     1
290
     0
176
     1
 90
       50
176
     1
 62
   256
176
     0
 40
1.0
176
     0
 90
        2
176
     1
  1
strokes_ogs.tif
176
     1
290
     0
176
     1
 40
1.0
176
     1
 40
1.0
176
     1
  0
VISUALSTYLE
  5
724
102
{ACAD_REACTORS
330
715
102
}
330
715
100
AcDbVisualStyle
  2
Facepattern
 70
    15
177
     3
291
     1
 70
    58
 90
        2
176
     1
 90
        2
176
     1
 90
        0
176
     1
 90
        0
176
     1
 40
0.6
176
     1
 40
30.0
176
     1
 62
     7
176
     1
 90
        1
176
     1
 90
        4
176
     1
 62
     7
176
     1
 62
   257
176
     1
 90
        1
176
     1
 90
        1
176
     1
 40
1.0
176
     1
 90
        8
176
     1
 62
     7
176
     1
 40
1.0
176
     1
 90
        1
176
     1
 90
        6
176
     1
 90
        2
176
     1
 62
     7
176
     1
 90
        5
176
     1
 90
        0
176
     1
 90
        0
176
     1
290
     0
176
     1
 90
        1
176
     1
 40
0.0
176
     1
 90
        0
176
     1
290
     0
176
     1
290
     1
176
     1
290
     1
176
     1
290
     0
176
     1
290
     0
176
     1
290
     0
176
     1
290
     0
176
     1
290
     0
176
     1
290
     0
176
     1
 90
       50
176
     1
 40
0.0
176
     1
 40
1.0
176
     1
 90
        0
176
     1
 62
    18
420
        0
176
     1
 90
       50
176
     1
 90
        3
176
     1
 62
     5
420
      255
176
     1
290
     0
176
     1
 90
       50
176
     1
 90
       50
176
     1
 90
       50
176
     1
290
     0
176
     1
 90
       50
176
     1
 62
   256
176
     0
 40
1.0
176
     0
 90
        2
176
     1
  1
strokes_ogs.tif
176
     1
290
     0
176
     1
 40
1.0
176
     1
 40
1.0
176
     1
  0
VISUALSTYLE
  5
716
102
{ACAD_REACTORS
330
715
102
}
330
715
100
AcDbVisualStyle
  2
Flat
 70
     0
177
     3
291
     1
 70
    58
 90
        2
176
     1
 90
        1
176
     1
 90
        1
176
     1
 90
        2
176
     1
 40
0.6
176
     1
 40
30.0
176
     1
 62
     7
176
     1
 90
        0
176
     1
 90
        4
176
     1
 62
     7
176
     1
 62
   257
176
     1
 90
        1
176
     1
 90
        1
176
     1
 40
1.0
176
     1
 90
        8
176
     1
 62
     7
176
     1
 40
1.0
176
     1
 90
        1
176
     1
 90
        6
176
     1
 90
        2
176
     1
 62
     7
176
     1
 90
        5
176
     1
 90
        0
176
     1
 90
        0
176
     1
290
     0
176
     1
 90
       13
176
     1
 40
0.0
176
     1
 90
        0
176
     1
290
     0
176
     1
290
     1
176
     1
290
     1
176
     1
290
     0
176
     1
290
     0
176
     1
290
     0
176
     1
290
     0
176
     1
290
     0
176
     1
290
     0
176
     1
 90
       50
176
     1
 40
0.0
176
     1
 40
1.0
176
     1
 90
        0
176
     1
 62
    18
420
        0
176
     1
 90
       50
176
     1
 90
        3
176
     1
 62
     5
420
      255
176
     1
290
     0
176
     1
 90
       50
176
     1
 90
       50
176
     1
 90
       50
176
     1
290
     0
176
     1
 90
       50
176
     1
 62
   256
176
     0
 40
1.0
176
     0
 90
        2
176
     1
  1
strokes_ogs.tif
176
     1
290
     0
176
     1
 40
1.0
176
     1
 40
1.0
176
     1
  0
VISUALSTYLE
  5
717
102
{ACAD_REACTORS
330
715
102
}
330
715
100
AcDbVisualStyle
  2
FlatWithEdges
 70
     1
177
     3
291
     1
 70
    58
 90
        2
176
     1
 90
        1
176
     1
 90
        1
176
     1
 90
        2
176
     1
 40
0.6
176
     1
 40
30.0
176
     1
 62
     7
176
     1
 90
        1
176
     1
 90
        4
176
     1
 62
     7
176
     1
 62
   257
176
     1
 90
        1
176
     1
 90
        1
176
     1
 40
1.0
176
     1
 90
        0
176
     1
 62
   257
176
     1
 40
1.0
176
     1
 90
        1
176
     1
 90
        6
176
     1
 90
        2
176
     1
 62
     7
176
     1
 90
        5
176
     1
 90
        0
176
     1
 90
        0
176
     1
290
     0
176
     1
 90
       13
176
     1
 40
0.0
176
     1
 90
        0
176
     1
290
     0
176
     1
290
     1
176
     1
290
     1
176
     1
290
     0
176
     1
290
     0
176
     1
290
     0
176
     1
290
     0
176
     1
290
     0
176
     1
290
     0
176
     1
 90
       50
176
     1
 40
0.0
176
     1
 40
1.0
176
     1
 90
        0
176
     1
 62
    18
420
        0
176
     1
 90
       50
176
     1
 90
        3
176
     1
 62
     5
420
      255
176
     1
290
     0
176
     1
 90
       50
176
     1
 90
       50
176
     1
 90
       50
176
     1
290
     0
176
     1
 90
       50
176
     1
 62
   256
176
     0
 40
1.0
176
     0
 90
        2
176
     1
  1
strokes_ogs.tif
176
     1
290
     0
176
     1
 40
1.0
176
     1
 40
1.0
176
     1
  0
VISUALSTYLE
  5
718
102
{ACAD_REACTORS
330
715
102
}
330
715
100
AcDbVisualStyle
  2
Gouraud
 70
     2
177
     3
291
     1
 70
    58
 90
        2
176
     1
 90
        2
176
     1
 90
        1
176
     1
 90
        2
176
     1
 40
0.6
176
     1
 40
30.0
176
     1
 62
     7
176
     1
 90
        0
176
     1
 90
        4
176
     1
 62
     7
176
     1
 62
   257
176
     1
 90
        1
176
     1
 90
        1
176
     1
 40
1.0
176
     1
 90
        0
176
     1
 62
     7
176
     1
 40
1.0
176
     1
 90
        1
176
     1
 90
        6
176
     1
 90
        2
176
     1
 62
     7
176
     1
 90
        5
176
     1
 90
        0
176
     1
 90
        0
176
     1
290
     0
176
     1
 90
       13
176
     1
 40
0.0
176
     1
 90
        0
176
     1
290
     0
176
     1
290
     1
176
     1
290
     1
176
     1
290
     0
176
     1
290
     0
176
     1
290
     0
176
     1
290
     0
176
     1
290
     0
176
     1
290
     0
176
     1
 90
       50
176
     1
 40
0.0
176
     1
 40
1.0
176
     1
 90
        0
176
     1
 62
    18
420
        0
176
     1
 90
       50
176
     1
 90
        3
176
     1
 62
     5
420
      255
176
     1
290
     0
176
     1
 90
       50
176
     1
 90
       50
176
     1
 90
       50
176
     1
290
     0
176
     1
 90
       50
176
     1
 62
   256
176
     0
 40
1.0
176
     0
 90
        2
176
     1
  1
strokes_ogs.tif
176
     1
290
     0
176
     1
 40
1.0
176
     1
 40
1.0
176
     1
  0
VISUALSTYLE
  5
719
102
{ACAD_REACTORS
330
715
102
}
330
715
100
AcDbVisualStyle
  2
GouraudWithEdges
 70
     3
177
     3
291
     1
 70
    58
 90
        2
176
     1
 90
        2
176
     1
 90
        1
176
     1
 90
        2
176
     1
 40
0.6
176
     1
 40
30.0
176
     1
 62
     7
176
     1
 90
        1
176
     1
 90
        4
176
     1
 62
     7
176
     1
 62
   257
176
     1
 90
        1
176
     1
 90
        1
176
     1
 40
1.0
176
     1
 90
        0
176
     1
 62
   257
176
     1
 40
1.0
176
     1
 90
        1
176
     1
 90
        6
176
     1
 90
        2
176
     1
 62
     7
176
     1
 90
        5
176
     1
 90
        0
176
     1
 90
        0
176
     1
290
     0
176
     1
 90
       13
176
     1
 40
0.0
176
     1
 90
        0
176
     1
290
     0
176
     1
290
     1
176
     1
290
     1
176
     1
290
     0
176
     1
290
     0
176
     1
290
     0
176
     1
290
     0
176
     1
290
     0
176
     1
290
     0
176
     1
 90
       50
176
     1
 40
0.0
176
     1
 40
1.0
176
     1
 90
        0
176
     1
 62
    18
420
        0
176
     1
 90
       50
176
     1
 90
        3
176
     1
 62
     5
420
      255
176
     1
290
     0
176
     1
 90
       50
176
     1
 90
       50
176
     1
 90
       50
176
     1
290
     0
176
     1
 90
       50
176
     1
 62
   256
176
     0
 40
1.0
176
     0
 90
        2
176
     1
  1
strokes_ogs.tif
176
     1
290
     0
176
     1
 40
1.0
176
     1
 40
1.0
176
     1
  0
VISUALSTYLE
  5
27C3
102
{ACAD_REACTORS
330
715
102
}
330
715
100
AcDbVisualStyle
  2
Hidden
 70
     6
177
     3
291
     0
 70
    58
 90
        1
176
     1
 90
        2
176
     1
 90
        2
176
     1
 90
        0
176
     1
 40
0.6
176
     1
 40
30.0
176
     1
 62
     7
420
 16777215
176
     1
 90
        2
176
     1
 90
        2
176
     1
 62
     7
176
     1
 62
   257
176
     1
 90
        2
176
     1
 90
        1
176
     1
 40
40.0
176
     1
 90
        0
176
     1
 62
   257
176
     1
 40
1.0
176
     1
 90
        1
176
     1
 90
        6
176
     1
 90
        2
176
     1
 62
     7
176
     1
 90
        3
176
     1
 90
        0
176
     1
 90
        0
176
     1
290
     0
176
     1
 90
        1
176
     1
 40
0.0
176
     1
 90
        0
176
     1
290
     0
176
     1
290
     1
176
     1
290
     1
176
     1
290
     0
176
     1
290
     0
176
     1
290
     0
176
     1
290
     0
176
     1
290
     0
176
     1
290
     0
176
     1
 90
       50
176
     1
 40
0.0
176
     1
 40
1.0
176
     1
 90
        0
176
     1
 62
    18
420
        0
176
     1
 90
       50
176
     1
 90
        3
176
     1
 62
     5
420
      255
176
     1
290
     0
176
     1
 90
       50
176
     1
 90
       50
176
     1
 90
       50
176
     1
290
     0
176
     1
 90
       50
176
     1
 62
   256
176
     0
 40
1.0
176
     0
 90
        2
176
     1
  1
strokes_ogs.tif
176
     1
290
     0
176
     1
 40
1.0
176
     1
 40
1.0
176
     1
  0
VISUALSTYLE
  5
726
102
{ACAD_REACTORS
330
715
102
}
330
715
100
AcDbVisualStyle
  2
JitterOff
 70
    20
177
     3
291
     1
 70
    58
 90
        2
176
     0
 90
        2
176
     0
 90
        0
176
     0
 90
        0
176
     0
 40
0.6
176
     0
 40
30.0
176
     0
 62
     7
176
     0
 90
        1
176
     0
 90
        4
176
     0
 62
     7
176
     0
 62
   257
176
     0
 90
        1
176
     0
 90
        1
176
     0
 40
1.0
176
     0
 90
       10
176
     2
 62
     7
176
     0
 40
1.0
176
     0
 90
        1
176
     0
 90
        6
176
     0
 90
        2
176
     0
 62
     7
176
     0
 90
        5
176
     0
 90
        0
176
     0
 90
        0
176
     0
290
     0
176
     0
 90
        1
176
     0
 40
0.0
176
     0
 90
        0
176
     0
290
     0
176
     1
290
     1
176
     1
290
     1
176
     1
290
     0
176
     1
290
     0
176
     1
290
     0
176
     1
290
     0
176
     1
290
     0
176
     1
290
     0
176
     1
 90
       50
176
     1
 40
0.0
176
     1
 40
1.0
176
     1
 90
        0
176
     1
 62
    18
420
        0
176
     1
 90
       50
176
     1
 90
        3
176
     1
 62
     5
420
      255
176
     1
290
     0
176
     1
 90
       50
176
     1
 90
       50
176
     1
 90
       50
176
     1
290
     0
176
     1
 90
       50
176
     1
 62
   256
176
     0
 40
1.0
176
     0
 90
        2
176
     1
  1
strokes_ogs.tif
176
     1
290
     0
176
     1
 40
1.0
176
     1
 40
1.0
176
     1
  0
VISUALSTYLE
  5
723
102
{ACAD_REACTORS
330
715
102
}
330
715
100
AcDbVisualStyle
  2
Linepattern
 70
    14
177
     3
291
     1
 70
    58
 90
        2
176
     1
 90
        2
176
     1
 90
        0
176
     1
 90
        0
176
     1
 40
0.6
176
     1
 40
30.0
176
     1
 62
     7
176
     1
 90
        1
176
     1
 90
        4
176
     1
 62
     7
176
     1
 62
   257
176
     1
 90
        7
176
     1
 90
        7
176
     1
 40
1.0
176
     1
 90
        8
176
     1
 62
     7
176
     1
 40
1.0
176
     1
 90
        1
176
     1
 90
        6
176
     1
 90
        2
176
     1
 62
     7
176
     1
 90
        5
176
     1
 90
        0
176
     1
 90
        0
176
     1
290
     0
176
     1
 90
        1
176
     1
 40
0.0
176
     1
 90
        0
176
     1
290
     0
176
     1
290
     1
176
     1
290
     1
176
     1
290
     0
176
     1
290
     0
176
     1
290
     0
176
     1
290
     0
176
     1
290
     0
176
     1
290
     0
176
     1
 90
       50
176
     1
 40
0.0
176
     1
 40
1.0
176
     1
 90
        0
176
     1
 62
    18
420
        0
176
     1
 90
       50
176
     1
 90
        3
176
     1
 62
     5
420
      255
176
     1
290
     0
176
     1
 90
       50
176
     1
 90
       50
176
     1
 90
       50
176
     1
290
     0
176
     1
 90
       50
176
     1
 62
   256
176
     0
 40
1.0
176
     0
 90
        2
176
     1
  1
strokes_ogs.tif
176
     1
290
     0
176
     1
 40
1.0
176
     1
 40
1.0
176
     1
  0
VISUALSTYLE
  5
727
102
{ACAD_REACTORS
330
715
102
}
330
715
100
AcDbVisualStyle
  2
OverhangOff
 70
    21
177
     3
291
     1
 70
    58
 90
        2
176
     0
 90
        2
176
     0
 90
        0
176
     0
 90
        0
176
     0
 40
0.6
176
     0
 40
30.0
176
     0
 62
     7
176
     0
 90
        1
176
     0
 90
        4
176
     0
 62
     7
176
     0
 62
   257
176
     0
 90
        1
176
     0
 90
        1
176
     0
 40
1.0
176
     0
 90
        9
176
     2
 62
     7
176
     0
 40
1.0
176
     0
 90
        1
176
     0
 90
        6
176
     0
 90
        2
176
     0
 62
     7
176
     0
 90
        5
176
     0
 90
        0
176
     0
 90
        0
176
     0
290
     0
176
     0
 90
        1
176
     0
 40
0.0
176
     0
 90
        0
176
     0
290
     0
176
     1
290
     1
176
     1
290
     1
176
     1
290
     0
176
     1
290
     0
176
     1
290
     0
176
     1
290
     0
176
     1
290
     0
176
     1
290
     0
176
     1
 90
       50
176
     1
 40
0.0
176
     1
 40
1.0
176
     1
 90
        0
176
     1
 62
    18
420
        0
176
     1
 90
       50
176
     1
 90
        3
176
     1
 62
     5
420
      255
176
     1
290
     0
176
     1
 90
       50
176
     1
 90
       50
176
     1
 90
       50
176
     1
290
     0
176
     1
 90
       50
176
     1
 62
   256
176
     0
 40
1.0
176
     0
 90
        2
176
     1
  1
strokes_ogs.tif
176
     1
290
     0
176
     1
 40
1.0
176
     1
 40
1.0
176
     1
  0
VISUALSTYLE
  5
71F
102
{ACAD_REACTORS
330
715
102
}
330
715
100
AcDbVisualStyle
  2
Realistic
 70
     8
177
     3
291
     0
 70
    58
 90
        2
176
     1
 90
        2
176
     1
 90
        0
176
     1
 90
        0
176
     1
 40
0.6
176
     1
 40
30.0
176
     1
 62
     7
176
     1
 90
        1
176
     1
 90
        0
176
     1
 62
     7
176
     1
 62
   257
176
     1
 90
        1
176
     1
 90
        1
176
     1
 40
1.0
176
     1
 90
        8
176
     1
 62
     8
176
     1
 40
1.0
176
     1
 90
        1
176
     1
 90
        6
176
     1
 90
        2
176
     1
 62
     7
176
     1
 90
        5
176
     1
 90
        0
176
     1
 90
        0
176
     1
290
     0
176
     1
 90
       13
176
     1
 40
0.0
176
     1
 90
        0
176
     1
290
     0
176
     1
290
     1
176
     1
290
     1
176
     1
290
     0
176
     1
290
     0
176
     1
290
     0
176
     1
290
     0
176
     1
290
     0
176
     1
290
     0
176
     1
 90
       50
176
     1
 40
0.0
176
     1
 40
1.0
176
     1
 90
        0
176
     1
 62
    18
420
        0
176
     1
 90
       50
176
     1
 90
        3
176
     1
 62
     5
420
      255
176
     1
290
     0
176
     1
 90
       50
176
     1
 90
       50
176
     1
 90
       50
176
     1
290
     0
176
     1
 90
       50
176
     1
 62
   256
176
     0
 40
1.0
176
     0
 90
        2
176
     1
  1
strokes_ogs.tif
176
     1
290
     0
176
     1
 40
1.0
176
     1
 40
1.0
176
     1
  0
VISUALSTYLE
  5
27C8
102
{ACAD_REACTORS
330
715
102
}
330
715
100
AcDbVisualStyle
  2
Shaded
 70
    27
177
     3
291
     0
 70
    58
 90
        2
176
     1
 90
        2
176
     1
 90
        1
176
     1
 90
        2
176
     1
 40
0.6
176
     1
 40
30.0
176
     1
 62
     7
420
 16777215
176
     1
 90
        0
176
     1
 90
        4
176
     1
 62
     7
176
     1
 62
   257
176
     1
 90
        1
176
     1
 90
        1
176
     1
 40
1.0
176
     1
 90
        8
176
     1
 62
   257
176
     1
 40
1.0
176
     1
 90
        1
176
     1
 90
        6
176
     1
 90
        2
176
     1
 62
     8
420
  7895160
176
     1
 90
        3
176
     1
 90
        0
176
     1
 90
        0
176
     1
290
     0
176
     1
 90
        5
176
     1
 40
0.0
176
     1
 90
        0
176
     1
290
     0
176
     1
290
     1
176
     1
290
     1
176
     1
290
     0
176
     1
290
     0
176
     1
290
     0
176
     1
290
     0
176
     1
290
     0
176
     1
290
     0
176
     1
 90
       50
176
     1
 40
0.0
176
     1
 40
1.0
176
     1
 90
        0
176
     1
 62
    18
420
        0
176
     1
 90
       50
176
     1
 90
        3
176
     1
 62
     5
420
      255
176
     1
290
     0
176
     1
 90
       50
176
     1
 90
       50
176
     1
 90
       50
176
     1
290
     0
176
     1
 90
       50
176
     1
 62
   256
176
     0
 40
1.0
176
     0
 90
        2
176
     1
  1
strokes_ogs.tif
176
     1
290
     0
176
     1
 40
1.0
176
     1
 40
1.0
176
     1
  0
VISUALSTYLE
  5
27C7
102
{ACAD_REACTORS
330
715
102
}
330
715
100
AcDbVisualStyle
  2
Shaded with edges
 70
    26
177
     3
291
     0
 70
    58
 90
        2
176
     1
 90
        2
176
     1
 90
        1
176
     1
 90
        2
176
     1
 40
0.6
176
     1
 40
30.0
176
     1
 62
     7
420
 16777215
176
     1
 90
        1
176
     1
 90
        2
176
     1
 62
     7
176
     1
 62
   257
176
     1
 90
        2
176
     1
 90
        1
176
     1
 40
1.0
176
     1
 90
        8
176
     1
 62
   257
176
     1
 40
1.0
176
     1
 90
        1
176
     1
 90
        6
176
     1
 90
        2
176
     1
 62
     7
176
     1
 90
        3
176
     1
 90
        0
176
     1
 90
        0
176
     1
290
     0
176
     1
 90
        5
176
     1
 40
0.0
176
     1
 90
        0
176
     1
290
     0
176
     1
290
     1
176
     1
290
     1
176
     1
290
     0
176
     1
290
     0
176
     1
290
     0
176
     1
290
     0
176
     1
290
     0
176
     1
290
     0
176
     1
 90
       50
176
     1
 40
0.0
176
     1
 40
1.0
176
     1
 90
        0
176
     1
 62
    18
420
        0
176
     1
 90
       50
176
     1
 90
        3
176
     1
 62
     5
420
      255
176
     1
290
     0
176
     1
 90
       50
176
     1
 90
       50
176
     1
 90
       50
176
     1
290
     0
176
     1
 90
       50
176
     1
 62
   256
176
     0
 40
1.0
176
     0
 90
        2
176
     1
  1
strokes_ogs.tif
176
     1
290
     0
176
     1
 40
1.0
176
     1
 40
1.0
176
     1
  0
VISUALSTYLE
  5
27C4
102
{ACAD_REACTORS
330
715
102
}
330
715
100
AcDbVisualStyle
  2
Shades of Gray
 70
    23
177
     3
291
     0
 70
    58
 90
        2
176
     1
 90
        2
176
     1
 90
        3
176
     1
 90
        0
176
     1
 40
0.6
176
     1
 40
30.0
176
     1
 62
     7
420
 16777215
176
     1
 90
        2
176
     1
 90
        2
176
     1
 62
     7
176
     1
 62
     7
176
     1
 90
        1
176
     1
 90
        1
176
     1
 40
40.0
176
     1
 90
        8
176
     1
 62
     7
176
     1
 40
1.0
176
     1
 90
        1
176
     1
 90
        6
176
     1
 90
        2
176
     1
 62
     7
176
     1
 90
        3
176
     1
 90
        0
176
     1
 90
        0
176
     1
290
     0
176
     1
 90
        1
176
     1
 40
0.0
176
     1
 90
        0
176
     1
290
     0
176
     1
290
     1
176
     1
290
     1
176
     1
290
     0
176
     1
290
     0
176
     1
290
     0
176
     1
290
     0
176
     1
290
     0
176
     1
290
     0
176
     1
 90
       50
176
     1
 40
0.0
176
     1
 40
1.0
176
     1
 90
        0
176
     1
 62
    18
420
        0
176
     1
 90
       50
176
     1
 90
        3
176
     1
 62
     5
420
      255
176
     1
290
     0
176
     1
 90
       50
176
     1
 90
       50
176
     1
 90
       50
176
     1
290
     0
176
     1
 90
       50
176
     1
 62
   256
176
     0
 40
1.0
176
     0
 90
        2
176
     1
  1
strokes_ogs.tif
176
     1
290
     0
176
     1
 40
1.0
176
     1
 40
1.0
176
     1
  0
VISUALSTYLE
  5
27C5
102
{ACAD_REACTORS
330
715
102
}
330
715
100
AcDbVisualStyle
  2
Sketchy
 70
    24
177
     3
291
     0
 70
    58
 90
        1
176
     1
 90
        2
176
     1
 90
        2
176
     1
 90
        0
176
     1
 40
0.6
176
     1
 40
30.0
176
     1
 62
     7
420
 16777215
176
     1
 90
        2
176
     1
 90
        2
176
     1
 62
     7
176
     1
 62
     7
176
     1
 90
        1
176
     1
 90
        1
176
     1
 40
40.0
176
     1
 90
       11
176
     1
 62
     7
176
     1
 40
1.0
176
     1
 90
        1
176
     1
 90
        6
176
     1
 90
        2
176
     1
 62
     7
176
     1
 90
        6
176
     1
 90
        0
176
     1
 90
        0
176
     1
290
     0
176
     1
 90
        1
176
     1
 40
0.0
176
     1
 90
        0
176
     1
290
     0
176
     1
290
     1
176
     1
290
     1
176
     1
290
     0
176
     1
290
     0
176
     1
290
     0
176
     1
290
     0
176
     1
290
     0
176
     1
290
     0
176
     1
 90
       50
176
     1
 40
0.0
176
     1
 40
1.0
176
     1
 90
        0
176
     1
 62
    18
420
        0
176
     1
 90
       50
176
     1
 90
        3
176
     1
 62
     5
420
      255
176
     1
290
     0
176
     1
 90
       50
176
     1
 90
       50
176
     1
 90
       50
176
     1
290
     0
176
     1
 90
       50
176
     1
 62
   256
176
     0
 40
1.0
176
     0
 90
        2
176
     1
  1
strokes_ogs.tif
176
     1
290
     0
176
     1
 40
1.0
176
     1
 40
1.0
176
     1
  0
VISUALSTYLE
  5
722
102
{ACAD_REACTORS
330
715
102
}
330
715
100
AcDbVisualStyle
  2
Thicken
 70
    13
177
     3
291
     1
 70
    58
 90
        2
176
     1
 90
        2
176
     1
 90
        0
176
     1
 90
        0
176
     1
 40
0.6
176
     1
 40
30.0
176
     1
 62
     7
176
     1
 90
        1
176
     1
 90
        4
176
     1
 62
     7
176
     1
 62
   257
176
     1
 90
        1
176
     1
 90
        1
176
     1
 40
1.0
176
     1
 90
       12
176
     1
 62
     7
176
     1
 40
1.0
176
     1
 90
        1
176
     1
 90
        6
176
     1
 90
        2
176
     1
 62
     7
176
     1
 90
        5
176
     1
 90
        0
176
     1
 90
        0
176
     1
290
     0
176
     1
 90
        1
176
     1
 40
0.0
176
     1
 90
        0
176
     1
290
     0
176
     1
290
     1
176
     1
290
     1
176
     1
290
     0
176
     1
290
     0
176
     1
290
     0
176
     1
290
     0
176
     1
290
     0
176
     1
290
     0
176
     1
 90
       50
176
     1
 40
0.0
176
     1
 40
1.0
176
     1
 90
        0
176
     1
 62
    18
420
        0
176
     1
 90
       50
176
     1
 90
        3
176
     1
 62
     5
420
      255
176
     1
290
     0
176
     1
 90
       50
176
     1
 90
       50
176
     1
 90
       50
176
     1
290
     0
176
     1
 90
       50
176
     1
 62
   256
176
     0
 40
1.0
176
     0
 90
        2
176
     1
  1
strokes_ogs.tif
176
     1
290
     0
176
     1
 40
1.0
176
     1
 40
1.0
176
     1
  0
VISUALSTYLE
  5
27C2
102
{ACAD_REACTORS
330
715
102
}
330
715
100
AcDbVisualStyle
  2
Wireframe
 70
     5
177
     3
291
     0
 70
    58
 90
        0
176
     1
 90
        2
176
     1
 90
        0
176
     1
 90
        0
176
     1
 40
0.6
176
     1
 40
30.0
176
     1
 62
     7
420
 16777215
176
     1
 90
        1
176
     1
 90
        4
176
     1
 62
     7
176
     1
 62
   257
176
     1
 90
        1
176
     1
 90
        1
176
     1
 40
1.0
176
     1
 90
        0
176
     1
 62
   257
176
     1
 40
1.0
176
     1
 90
        1
176
     1
 90
        6
176
     1
 90
        2
176
     1
 62
     7
176
     1
 90
        3
176
     1
 90
        0
176
     1
 90
        0
176
     1
290
     0
176
     1
 90
        1
176
     1
 40
0.0
176
     1
 90
        0
176
     1
290
     0
176
     1
290
     1
176
     1
290
     1
176
     1
290
     0
176
     1
290
     0
176
     1
290
     0
176
     1
290
     0
176
     1
290
     0
176
     1
290
     0
176
     1
 90
       50
176
     1
 40
0.0
176
     1
 40
1.0
176
     1
 90
        0
176
     1
 62
    18
420
        0
176
     1
 90
       50
176
     1
 90
        3
176
     1
 62
     5
420
      255
176
     1
290
     0
176
     1
 90
       50
176
     1
 90
       50
176
     1
 90
       50
176
     1
290
     0
176
     1
 90
       50
176
     1
 62
   256
176
     0
 40
1.0
176
     0
 90
        2
176
     1
  1
strokes_ogs.tif
176
     1
290
     0
176
     1
 40
1.0
176
     1
 40
1.0
176
     1
  0
VISUALSTYLE
  5
27C6
102
{ACAD_REACTORS
330
715
102
}
330
715
100
AcDbVisualStyle
  2
X-Ray
 70
    25
177
     3
291
     0
 70
    58
 90
        2
176
     1
 90
        2
176
     1
 90
        1
176
     1
 90
        1
176
     1
 40
0.5
176
     1
 40
30.0
176
     1
 62
     7
420
 16777215
176
     1
 90
        1
176
     1
 90
        0
176
     1
 62
     7
176
     1
 62
   257
176
     1
 90
        1
176
     1
 90
        1
176
     1
 40
1.0
176
     1
 90
        8
176
     1
 62
     7
176
     1
 40
1.0
176
     1
 90
        1
176
     1
 90
        6
176
     1
 90
        2
176
     1
 62
     7
176
     1
 90
        3
176
     1
 90
        0
176
     1
 90
        0
176
     1
290
     0
176
     1
 90
       13
176
     1
 40
0.0
176
     1
 90
        0
176
     1
290
     0
176
     1
290
     1
176
     1
290
     1
176
     1
290
     0
176
     1
290
     0
176
     1
290
     0
176
     1
290
     0
176
     1
290
     0
176
     1
290
     0
176
     1
 90
       50
176
     1
 40
0.0
176
     1
 40
1.0
176
     1
 90
        0
176
     1
 62
    18
420
        0
176
     1
 90
       50
176
     1
 90
        3
176
     1
 62
     5
420
      255
176
     1
290
     0
176
     1
 90
       50
176
     1
 90
       50
176
     1
 90
       50
176
     1
290
     0
176
     1
 90
       50
176
     1
 62
   256
176
     0
 40
1.0
176
     0
 90
        2
176
     1
  1
strokes_ogs.tif
176
     1
290
     0
176
     1
 40
1.0
176
     1
 40
1.0
176
     1
  0
DICTIONARYVAR
  5
13CC
102
{ACAD_REACTORS
330
514
102
}
330
514
100
DictionaryVariables
280
     0
  1
1:1
  0
DICTIONARYVAR
  5
13CA
102
{ACAD_REACTORS
330
514
102
}
330
514
100
DictionaryVariables
280
     0
  1
STANDARD
  0
DICTIONARYVAR
  5
515
102
{ACAD_REACTORS
330
514
102
}
330
514
100
DictionaryVariables
280
     0
  1
STANDARD
  0
DICTIONARYVAR
  5
28A6
102
{ACAD_REACTORS
330
514
102
}
330
514
100
DictionaryVariables
280
     0
  1
Imperial24
  0
DICTIONARYVAR
  5
28A7
102
{ACAD_REACTORS
330
514
102
}
330
514
100
DictionaryVariables
280
     0
  1
Imperial24
  0
DICTIONARYVAR
  5
23B5
102
{ACAD_REACTORS
330
514
102
}
330
514
100
DictionaryVariables
280
     0
  1
1
  0
DICTIONARYVAR
  5
23B3
102
{ACAD_REACTORS
330
514
102
}
330
514
100
DictionaryVariables
280
     0
  1
0
  0
DICTIONARYVAR
  5
13CE
102
{ACAD_REACTORS
330
514
102
}
330
514
100
DictionaryVariables
280
     0
  1
1
  0
DICTIONARYVAR
  5
13CF
102
{ACAD_REACTORS
330
514
102
}
330
514
100
DictionaryVariables
280
     0
  1
15
  0
DICTIONARYVAR
  5
13CD
102
{ACAD_REACTORS
330
514
102
}
330
514
100
DictionaryVariables
280
     0
  1
0
  0
DICTIONARYVAR
  5
13CB
102
{ACAD_REACTORS
330
514
102
}
330
514
100
DictionaryVariables
280
     0
  1
0
  0
DICTIONARYVAR
  5
23B2
102
{ACAD_REACTORS
330
514
102
}
330
514
100
DictionaryVariables
280
     0
  1
127
  0
DICTIONARY
  5
7C0
102
{ACAD_REACTORS
330
7B6
102
}
330
7B6
100
AcDbDictionary
281
     1
  0
DICTIONARY
  5
28AB
330
27CC
100
AcDbDictionary
280
     1
281
     1
  3
ACAD_XREC_ROUNDTRIP
360
28AC
  0
DICTIONARY
  5
13C8
330
42A
100
AcDbDictionary
280
     1
281
     1
  0
DICTIONARY
  5
706
330
705
100
AcDbDictionary
280
     1
281
     1
  3
BUMPTILE
360
708
  3
DIFFUSETILE
360
707
  3
OPACITYTILE
360
70B
  3
REFLECTIONTILE
360
70A
  3
REFRACTIONTILE
360
70C
  3
SPECULARTILE
360
709
  0
DICTIONARY
  5
6FE
330
6FD
100
AcDbDictionary
280
     1
281
     1
  3
BUMPTILE
360
700
  3
DIFFUSETILE
360
6FF
  3
OPACITYTILE
360
703
  3
REFLECTIONTILE
360
702
  3
REFRACTIONTILE
360
704
  3
SPECULARTILE
360
701
  0
DICTIONARY
  5
70E
330
70D
100
AcDbDictionary
280
     1
281
     1
  3
BUMPTILE
360
710
  3
DIFFUSETILE
360
70F
  3
OPACITYTILE
360
713
  3
REFLECTIONTILE
360
712
  3
REFRACTIONTILE
360
714
  3
SPECULARTILE
360
711
  0
DICTIONARY
  5
28A9
330
27CA
100
AcDbDictionary
280
     1
281
     1
  3
ACAD_XREC_ROUNDTRIP
360
28AA
  0
DICTIONARY
  5
2378
330
448
100
AcDbDictionary
280
     1
281
     1
  3
ACAD_ROUNDTRIP_2008_TABLESTYLE_CELLSTYLEMAP
360
28A8
  0
XRECORD
  5
28AC
102
{ACAD_REACTORS
330
28AB
102
}
330
28AB
100
AcDbXrecord
280
     1
102
DISPLAYNAME
  1
Imperial24
102
FLAGS
 90
        0
  0
XRECORD
  5
708
102
{ACAD_REACTORS
330
706
102
}
330
706
100
AcDbXrecord
280
     1
270
     1
271
     1
  0
XRECORD
  5
707
102
{ACAD_REACTORS
330
706
102
}
330
706
100
AcDbXrecord
280
     1
270
     1
271
     1
  0
XRECORD
  5
70B
102
{ACAD_REACTORS
330
706
102
}
330
706
100
AcDbXrecord
280
     1
270
     1
271
     1
  0
XRECORD
  5
70A
102
{ACAD_REACTORS
330
706
102
}
330
706
100
AcDbXrecord
280
     1
270
     1
271
     1
  0
XRECORD
  5
70C
102
{ACAD_REACTORS
330
706
102
}
330
706
100
AcDbXrecord
280
     1
270
     1
271
     1
  0
XRECORD
  5
709
102
{ACAD_REACTORS
330
706
102
}
330
706
100
AcDbXrecord
280
     1
270
     1
271
     1
  0
XRECORD
  5
700
102
{ACAD_REACTORS
330
6FE
102
}
330
6FE
100
AcDbXrecord
280
     1
270
     1
271
     1
  0
XRECORD
  5
6FF
102
{ACAD_REACTORS
330
6FE
102
}
330
6FE
100
AcDbXrecord
280
     1
270
     1
271
     1
  0
XRECORD
  5
703
102
{ACAD_REACTORS
330
6FE
102
}
330
6FE
100
AcDbXrecord
280
     1
270
     1
271
     1
  0
XRECORD
  5
702
102
{ACAD_REACTORS
330
6FE
102
}
330
6FE
100
AcDbXrecord
280
     1
270
     1
271
     1
  0
XRECORD
  5
704
102
{ACAD_REACTORS
330
6FE
102
}
330
6FE
100
AcDbXrecord
280
     1
270
     1
271
     1
  0
XRECORD
  5
701
102
{ACAD_REACTORS
330
6FE
102
}
330
6FE
100
AcDbXrecord
280
     1
270
     1
271
     1
  0
XRECORD
  5
710
102
{ACAD_REACTORS
330
70E
102
}
330
70E
100
AcDbXrecord
280
     1
270
     1
271
     1
  0
XRECORD
  5
70F
102
{ACAD_REACTORS
330
70E
102
}
330
70E
100
AcDbXrecord
280
     1
270
     1
271
     1
  0
XRECORD
  5
713
102
{ACAD_REACTORS
330
70E
102
}
330
70E
100
AcDbXrecord
280
     1
270
     1
271
     1
  0
XRECORD
  5
712
102
{ACAD_REACTORS
330
70E
102
}
330
70E
100
AcDbXrecord
280
     1
270
     1
271
     1
  0
XRECORD
  5
714
102
{ACAD_REACTORS
330
70E
102
}
330
70E
100
AcDbXrecord
280
     1
270
     1
271
     1
  0
XRECORD
  5
711
102
{ACAD_REACTORS
330
70E
102
}
330
70E
100
AcDbXrecord
280
     1
270
     1
271
     1
  0
XRECORD
  5
28AA
102
{ACAD_REACTORS
330
28A9
102
}
330
28A9
100
AcDbXrecord
280
     1
102
DISPLAYNAME
  1
Imperial24
102
FLAGS
 90
        0
  0
CELLSTYLEMAP
  5
28A8
102
{ACAD_REACTORS
330
2378
102
}
330
2378
100
AcDbCellStyleMap
 90
        3
300
CELLSTYLE
  1
TABLEFORMAT_BEGIN
 90
        5
170
     1
 91
        0
 92
    32768
 62
   257
 93
        1
300
CONTENTFORMAT
  1
CONTENTFORMAT_BEGIN
 90
        0
 91
        0
 92
        4
 93
        0
300

 40
0.0
140
1.0
 94
        5
 62
     0
340
161
144
0.25
309
CONTENTFORMAT_END
171
     0
 94
        6
 95
        1
302
GRIDFORMAT
  1
GRIDFORMAT_BEGIN
 90
        0
 91
        1
 62
     0
 92
       -2
340
0
 93
        0
 40
0.045
309
GRIDFORMAT_END
 95
        2
302
GRIDFORMAT
  1
GRIDFORMAT_BEGIN
 90
        0
 91
        1
 62
     0
 92
       -2
340
0
 93
        0
 40
0.045
309
GRIDFORMAT_END
 95
        4
302
GRIDFORMAT
  1
GRIDFORMAT_BEGIN
 90
        0
 91
        1
 62
     0
 92
       -2
340
0
 93
        0
 40
0.045
309
GRIDFORMAT_END
 95
        8
302
GRIDFORMAT
  1
GRIDFORMAT_BEGIN
 90
        0
 91
        1
 62
     0
 92
       -2
340
0
 93
        0
 40
0.045
309
GRIDFORMAT_END
 95
       16
302
GRIDFORMAT
  1
GRIDFORMAT_BEGIN
 90
        0
 91
        1
 62
     0
 92
       -2
340
0
 93
        0
 40
0.045
309
GRIDFORMAT_END
 95
       32
302
GRIDFORMAT
  1
GRIDFORMAT_BEGIN
 90
        0
 91
        1
 62
     0
 92
       -2
340
0
 93
        0
 40
0.045
309
GRIDFORMAT_END
309
TABLEFORMAT_END
  1
CELLSTYLE_BEGIN
 90
        1
 91
        1
300
_TITLE
309
CELLSTYLE_END
300
CELLSTYLE
  1
TABLEFORMAT_BEGIN
 90
        5
170
     1
 91
        0
 92
        0
 62
   257
 93
        1
300
CONTENTFORMAT
  1
CONTENTFORMAT_BEGIN
 90
        0
 91
        0
 92
        4
 93
        0
300

 40
0.0
140
1.0
 94
        5
 62
     0
340
161
144
0.18
309
CONTENTFORMAT_END
171
     0
 94
        6
 95
        1
302
GRIDFORMAT
  1
GRIDFORMAT_BEGIN
 90
        0
 91
        1
 62
     0
 92
       -2
340
0
 93
        0
 40
0.045
309
GRIDFORMAT_END
 95
        2
302
GRIDFORMAT
  1
GRIDFORMAT_BEGIN
 90
        0
 91
        1
 62
     0
 92
       -2
340
0
 93
        0
 40
0.045
309
GRIDFORMAT_END
 95
        4
302
GRIDFORMAT
  1
GRIDFORMAT_BEGIN
 90
        0
 91
        1
 62
     0
 92
       -2
340
0
 93
        0
 40
0.045
309
GRIDFORMAT_END
 95
        8
302
GRIDFORMAT
  1
GRIDFORMAT_BEGIN
 90
        0
 91
        1
 62
     0
 92
       -2
340
0
 93
        0
 40
0.045
309
GRIDFORMAT_END
 95
       16
302
GRIDFORMAT
  1
GRIDFORMAT_BEGIN
 90
        0
 91
        1
 62
     0
 92
       -2
340
0
 93
        0
 40
0.045
309
GRIDFORMAT_END
 95
       32
302
GRIDFORMAT
  1
GRIDFORMAT_BEGIN
 90
        0
 91
        1
 62
     0
 92
       -2
340
0
 93
        0
 40
0.045
309
GRIDFORMAT_END
309
TABLEFORMAT_END
  1
CELLSTYLE_BEGIN
 90
        2
 91
        1
300
_HEADER
309
CELLSTYLE_END
300
CELLSTYLE
  1
TABLEFORMAT_BEGIN
 90
        5
170
     1
 91
        0
 92
        0
 62
   257
 93
        1
300
CONTENTFORMAT
  1
CONTENTFORMAT_BEGIN
 90
        0
 91
        0
 92
        4
 93
        0
300

 40
0.0
140
1.0
 94
        2
 62
     0
340
161
144
0.18
309
CONTENTFORMAT_END
171
     0
 94
        6
 95
        1
302
GRIDFORMAT
  1
GRIDFORMAT_BEGIN
 90
        0
 91
        1
 62
     0
 92
       -2
340
0
 93
        0
 40
0.045
309
GRIDFORMAT_END
 95
        2
302
GRIDFORMAT
  1
GRIDFORMAT_BEGIN
 90
        0
 91
        1
 62
     0
 92
       -2
340
0
 93
        0
 40
0.045
309
GRIDFORMAT_END
 95
        4
302
GRIDFORMAT
  1
GRIDFORMAT_BEGIN
 90
        0
 91
        1
 62
     0
 92
       -2
340
0
 93
        0
 40
0.045
309
GRIDFORMAT_END
 95
        8
302
GRIDFORMAT
  1
GRIDFORMAT_BEGIN
 90
        0
 91
        1
 62
     0
 92
       -2
340
0
 93
        0
 40
0.045
309
GRIDFORMAT_END
 95
       16
302
GRIDFORMAT
  1
GRIDFORMAT_BEGIN
 90
        0
 91
        1
 62
     0
 92
       -2
340
0
 93
        0
 40
0.045
309
GRIDFORMAT_END
 95
       32
302
GRIDFORMAT
  1
GRIDFORMAT_BEGIN
 90
        0
 91
        1
 62
     0
 92
       -2
340
0
 93
        0
 40
0.045
309
GRIDFORMAT_END
309
TABLEFORMAT_END
  1
CELLSTYLE_BEGIN
 90
        3
 91
        2
300
_DATA
309
CELLSTYLE_END
  0
ENDSEC
  0
SECTION
  2
ACDSDATA
 70
     2
 71
     8
  0
ACDSSCHEMA
 90
        0
  1
AcDb_Thumbnail_Schema
  2
AcDbDs::ID
280
    10
 91
        8
  2
Thumbnail_Data
280
    15
 91
        0
101
ACDSRECORD
 95
        0
 90
        1
  2
AcDbDs::TreatedAsObjectData
280
     1
291
     1
101
ACDSRECORD
 95
        0
 90
        2
  2
AcDbDs::Legacy
280
     1
291
     1
101
ACDSRECORD
  1
AcDbDs::ID
 90
        3
  2
AcDs:Indexable
280
     1
291
     1
101
ACDSRECORD
  1
AcDbDs::ID
 90
        4
  2
AcDbDs::HandleAttribute
280
     7
282
     1
  0
ACDSSCHEMA
 90
        1
  1
AcDbDs::TreatedAsObjectDataSchema
  2
AcDbDs::TreatedAsObjectData
280
     1
 91
        0
  0
ACDSSCHEMA
 90
        2
  1
AcDbDs::LegacySchema
  2
AcDbDs::Legacy
280
     1
 91
        0
  0
ACDSSCHEMA
 90
        3
  1
AcDbDs::IndexedPropertySchema
  2
AcDs:Indexable
280
     1
 91
        0
  0
ACDSSCHEMA
 90
        4
  1
AcDbDs::HandleAttributeSchema
  2
AcDbDs::HandleAttribute
280
     7
 91
        1
284
     1
  0
ACDSRECORD
 90
        0
  2
AcDbDs::ID
280
    10
320
42A
  2
Thumbnail_Data
280
    15
 94
     2905
310
89504E470D0A1A0A0000000D49484452000001000000008D08030000006FF554E600000300504C5445000000000000FFFFFF0000000000000000000000000000000000000000000000000000330000660000990000CC0000FF0033000033330033660033990033CC0033FF0066000066330066660066990066CC0066FF0099
310
000099330099660099990099CC0099FF00CC0000CC3300CC6600CC9900CCCC00CCFF00FF0000FF3300FF6600FF9900FFCC00FFFF3300003300333300663300993300CC3300FF3333003333333333663333993333CC3333FF3366003366333366663366993366CC3366FF3399003399333399663399993399CC3399FF33CC00
310
33CC3333CC6633CC9933CCCC33CCFF33FF0033FF3333FF6633FF9933FFCC33FFFF6600006600336600666600996600CC6600FF6633006633336633666633996633CC6633FF6666006666336666666666996666CC6666FF6699006699336699666699996699CC6699FF66CC0066CC3366CC6666CC9966CCCC66CCFF66FF0066
310
FF3366FF6666FF9966FFCC66FFFF9900009900339900669900999900CC9900FF9933009933339933669933999933CC9933FF9966009966339966669966999966CC9966FF9999009999339999669999999999CC9999FF99CC0099CC3399CC6699CC9999CCCC99CCFF99FF0099FF3399FF6699FF9999FFCC99FFFFCC0000CC00
310
33CC0066CC0099CC00CCCC00FFCC3300CC3333CC3366CC3399CC33CCCC33FFCC6600CC6633CC6666CC6699CC66CCCC66FFCC9900CC9933CC9966CC9999CC99CCCC99FFCCCC00CCCC33CCCC66CCCC99CCCCCCCCCCFFCCFF00CCFF33CCFF66CCFF99CCFFCCCCFFFFFF0000FF0033FF0066FF0099FF00CCFF00FFFF3300FF3333
310
FF3366FF3399FF33CCFF33FFFF6600FF6633FF6666FF6699FF66CCFF66FFFF9900FF9933FF9966FF9999FF99CCFF99FFFFCC00FFCC33FFCC66FFCC99FFCCCCFFCCFFFFFF00FFFF33FFFF66FFFF99FFFFCCFFFFFF0000000D0D0D1A1A1A2828283535354343435050505D5D5D6B6B6B787878868686939393A1A1A1AEAEAEBB
310
BBBBC9C9C9D6D6D6E4E4E4F1F1F1FFFFFF000000000000000000000000000000000000000000000000000000000000C11FEF66000008144944415478DAED9DCB75E33A0C40A71C6CD4D7D4E4952AE1C66D70851EB07F24C1BF4049B6276390F37812C796759CE00A7F41CA2F54B1E86BBFF9D73F2EBF0E005F945F05806FCA
310
FF23006022F97F0000005CBCDDEDC000B66D5B1540FBFA0080C2AB0D696100678B78F76D650DB87000E0C5C72FC9FF134EF00A80E9EC1FBCECDBB68A09485AFE7CBA2FBFC8FF34CFF89AC24B3EF40B01381C7296333168003085B54C008A0E3CF3A2A764024E72A6B2E51D1701D06E099201E565CAD34AE88534A03781A73F
310
CE000200AF23B4C5B5B00FF0C64E362FC33FC87A0D20CA1AB02C00EF069DEBEB16B96F671DA51058D70482AB43C90778F79008ACAD011E40AEFA4C0C00841580957D8017D703B0C4D1D1840200380A3096B5F200090005004903A8640148DF8B803F020024003ED5A900504E838C0310C55FC5071CFB1D6CE04F100124F1D7
310
E90708009CF8C851A0698179DD4F3E60A17E4007809D1B3B4188473ED602E4F5C2A7C8EECB3DE5D45054A08901C4D8C60028FA3E93737F0F0009CAB1277CB9A5AAB21F7002807235481140ADFA4B00A8458886ED856700840D00A7F41BC1C2002AB90200C21680DFF55F02D0D60232005817400A80A5294A065C5908758988
310
7F3B0EFC4D00290C3E73953C3081350148E57001C0479DC49EDA1A00B007C08530747DF4350100D6E7804DFB562D2EC10A26001280EA1C780B80AA76694A85E706209F021D2D79F799018850486E1C8806347B47E83E00F8770010DC5E4B02F8EE10D0F701A896FF2F00D02DBF9249D18901EC5F5FDF06F0650AF83F001500
310
EE67C97FD882550280B7D67B89A032002C069CE5BA27553402BC5C0A2B047092D79E99406C86BC9A0F2B077057F1DB67AF40500780DB19B7A5806C296B00E076169C97FCB24DC07B41421580EB4E90E95A41B9239E8EF9A43E20A5A370D000AAA765794A98E746798E9620CBFEAE09EC9A4C000E4DEE32151156D30E8D6A10
310
476697F001FD9C343F0EFAC19572B04ABC9525AA03D0BD1B145F9C128634250BB5FDAF09E03025EC5700D0C83C31807D08204C093F05007CA9C4A88478A91DA15A03020034C2F2E706E9500D2C6702C1D5219519D1B86318136E00BCD91AD70F00794E3A4F09A7E8D80080B688581140AB01841580AE109A3A151E998000C0
310
65856140E2C31ED104005CC4070100991006976A89490A4C084F940004B7F079DB50551E2002009E93EE01F85D494804AA78305F1E3006904CC39432D16D76B522F4B321AF2644EA4D00104751C053A8FAA77948745E000797CE5EF14912000AAEB1EA03BD3725AB3B0FF0294F3AE0070D08AEB142B60A80AEE77B06A055F2
310
F7C6841502401140D70F4032064C1815FE6C4C58B309D4000E1DA16402BD064C09603FEB07140049037A005166923F60FA7E00F7858431E968301900E03B95C104D560BD0E53C25D176041003006E0F341F8744A583F003A59501703A92930793578674E3A6EFC23A3A2EA4764C47960B9109EB81F70128AE087A7847584C1
310
BB7F84BF6D0AFED9A52B0F184B5EDD4386CF8B8CF465EE5A6078E0AD6DB74808DEB383090044E9AB2810370B3E70C128C0E2F3A5D3D4426810C0DBBF5E3B80207EDBFF4C57921704EFB7C79503F01226693BAF18364602F0C9AFD71C066D6C86C88121144AF633F95587C174F887C18195E0B30BC5349B801D1FFE5A09163A
310
3728C97F9120F91327764D00B68DFDC741C958181E33823500B003E8A3BF393604E833027A0144133F0310CE87B1235C0E804D77908B37CB8BCBE4671BA2019376B19303D80500C4370D696F9657F504B7CDE943DAE703003AF300360016AEBA4F94D3806AA72D2AC84746A0D4046C92ADBA47DE964CBFDA9276920010DDB9
310
E85627005B6E9C96C5AD9CDFD602F0FB1E0301D17916A51B00F600B65207170419C0075E402B807C069065DDFA0468AB010415580940B6800CE098076C3D00C90688F28FB900600780AE011CECBDEF1FCD9407640B38006865CA00F09EC3539A071CAFE0EE016C1280ED0AC04C1A700120D7443E13AC846A0058D10466F501
310
3D8088C0DF51985FE02580A9A34006608CBF4C86C2BF12084EB059EEBD7CF988B1674E706C0EEA35C085B7F8BF14AA28E0378437CE34A031812A8B9A13003537D3E48DAF01183418270180F1B47002E0B7750068661338CB03BC9C94B63000BF8DAE000CDBA813F4035A0061C5C69F2906C00FD509F395A2405D0CD9A80281
310
8089EDD20CA0DEED68025749C014D56021807CE568A89678E3593578270D9C064010B698000F4C583C05E0536C9AF5464AA923C6912BEABC4760BCF8947C0295BDAC0860DE3B49D9D211A2ECF52C2742C52752D512138A2C705F00E17BB0FC3BEA9BA248C5EFA5ABC7796E84F0AC29BA23E01E8667C76333EE0DA5E705521C
310
204CFADE3A411E1C286D71A1129AEC767A28AB00E55867731E606D921FCF4E8C1C057DFCF66B96BBC9D9746A2C280351352958821B75FF81A9F9DC20AE7BF2485B1C00F45B7EE785939F1C4D8D01F1ECF04803BACBEC35CF07D08DF9001A9E13C8D69DADFC08003403208B37CE6D8D0CC07DE4E3F1F0DFFCF0F01A101EF766
310
F3E3A17844C6DE1A91198D47F40610BC06AB05FB3E4D4E500E45AC03574352A35E20273A10B321F71B2883DEBDE9A80A83E339C1CB31397BD66E3F447B7ECA4DC43D298256132866301E943C990EF2D6EE35E0E134A078027E34D11D7887A07C5638963C8351D9B3E9A89D83C423068BEC0A1B27E85EE99F161787A529887F
310
E62277A917B8771BFCE304D70B0809015E882F00087A80130248D97F2BFDE53C800C60DA3B4BA7D668FDECE2737F776B5022CE736FF1580FC9C751583D00D51DA1FEC52EBECC89FBF0EDFC733F51ABBD0996A8613E60EAFF2FF01FD41065C2328640A30000000049454E44AE426082
  0
ENDSEC
  0
EOF
