  0
SECTION
  2
HEADER
  9
$ACADVER
  1
AC1027
  9
$ACADMAINTVER
 70
   125
  9
$DWGCODEPAGE
  3
ANSI_1250
  9
$LASTSAVEDBY
  1
jprorok
  9
$REQUIREDVERSIONS
160
                 0
  9
$INSBASE
 10
0.0
 20
0.0
 30
0.0
  9
$EXTMIN
 10
57.74849301230233
 20
102.3594604507286
 30
-0.0000000349181948
  9
$EXTMAX
 10
290.9269388944156
 20
329.3691645625687
 30
0.0000000814935746
  9
$LIMMIN
 10
0.0
 20
0.0
  9
$LIMMAX
 10
594.0
 20
420.0
  9
$ORTHOMODE
 70
     1
  9
$REGENMODE
 70
     1
  9
$FILLMODE
 70
     1
  9
$QTEXTMODE
 70
     0
  9
$MIRRTEXT
 70
     1
  9
$LTSCALE
 40
7.0
  9
$ATTMODE
 70
     1
  9
$TEXTSIZE
 40
7.5
  9
$TRACEWID
 40
0.05
  9
$TEXTSTYLE
  7
STANDARD
  9
$CLAYER
  8
VERDECKT
  9
$CELTYPE
  6
BYLAYER
  9
$CECOLOR
 62
   256
  9
$CELTSCALE
 40
1.0
  9
$DISPSILH
 70
     0
  9
$DIMSCALE
 40
1.0
  9
$DIMASZ
 40
3.5
  9
$DIMEXO
 40
0.0
  9
$DIMDLI
 40
7.0
  9
$DIMRND
 40
0.0
  9
$DIMDLE
 40
0.0
  9
$DIMEXE
 40
2.0
  9
$DIMTP
 40
0.0
  9
$DIMTM
 40
0.0
  9
$DIMTXT
 40
5.0
  9
$DIMCEN
 40
3.0
  9
$DIMTSZ
 40
0.0
  9
$DIMTOL
 70
     0
  9
$DIMLIM
 70
     0
  9
$DIMTIH
 70
     0
  9
$DIMTOH
 70
     0
  9
$DIMSE1
 70
     0
  9
$DIMSE2
 70
     0
  9
$DIMTAD
 70
     1
  9
$DIMZIN
 70
     8
  9
$DIMBLK
  1

  9
$DIMASO
 70
     1
  9
$DIMSHO
 70
     1
  9
$DIMPOST
  1

  9
$DIMAPOST
  1

  9
$DIMALT
 70
     0
  9
$DIMALTD
 70
     2
  9
$DIMALTF
 40
25.4
  9
$DIMLFAC
 40
1.0
  9
$DIMTOFL
 70
     0
  9
$DIMTVP
 40
0.0
  9
$DIMTIX
 70
     1
  9
$DIMSOXD
 70
     0
  9
$DIMSAH
 70
     0
  9
$DIMBLK1
  1

  9
$DIMBLK2
  1

  9
$DIMSTYLE
  2
STANDARD
  9
$DIMCLRD
 70
   256
  9
$DIMCLRE
 70
   256
  9
$DIMCLRT
 70
   256
  9
$DIMTFAC
 40
0.875
  9
$DIMGAP
 40
2.0
  9
$DIMJUST
 70
     0
  9
$DIMSD1
 70
     0
  9
$DIMSD2
 70
     0
  9
$DIMTOLJ
 70
     1
  9
$DIMTZIN
 70
     8
  9
$DIMALTZ
 70
     8
  9
$DIMALTTZ
 70
     8
  9
$DIMUPT
 70
     0
  9
$DIMDEC
 70
     1
  9
$DIMTDEC
 70
     1
  9
$DIMALTU
 70
     2
  9
$DIMALTTD
 70
     2
  9
$DIMTXSTY
  7
STANDARD
  9
$DIMAUNIT
 70
     0
  9
$DIMADEC
 70
     0
  9
$DIMALTRND
 40
0.0
  9
$DIMAZIN
 70
     0
  9
$DIMDSEP
 70
    46
  9
$DIMATFIT
 70
     0
  9
$DIMFRAC
 70
     0
  9
$DIMLDRBLK
  1

  9
$DIMLUNIT
 70
     2
  9
$DIMLWD
 70
    -2
  9
$DIMLWE
 70
    -2
  9
$DIMTMOVE
 70
     0
  9
$DIMFXL
 40
1.0
  9
$DIMFXLON
 70
     0
  9
$DIMJOGANG
 40
0.7853981633974483
  9
$DIMTFILL
 70
     0
  9
$DIMTFILLCLR
 70
     0
  9
$DIMARCSYM
 70
     1
  9
$DIMLTYPE
  6
BYBLOCK
  9
$DIMLTEX1
  6
BYBLOCK
  9
$DIMLTEX2
  6
BYBLOCK
  9
$DIMTXTDIRECTION
 70
     0
  9
$LUNITS
 70
     2
  9
$LUPREC
 70
     1
  9
$SKETCHINC
 40
0.1
  9
$FILLETRAD
 40
0.0
  9
$AUNITS
 70
     0
  9
$AUPREC
 70
     0
  9
$MENU
  1
ACAD
  9
$ELEVATION
 40
0.0
  9
$PELEVATION
 40
0.0
  9
$THICKNESS
 40
0.0
  9
$LIMCHECK
 70
     0
  9
$CHAMFERA
 40
0.0
  9
$CHAMFERB
 40
0.0
  9
$CHAMFERC
 40
0.0
  9
$CHAMFERD
 40
0.0
  9
$SKPOLY
 70
     0
  9
$TDCREATE
 40
2451432.384155093
  9
$TDUCREATE
 40
2451432.300823646
  9
$TDUPDATE
 40
2458564.383113426
  9
$TDUUPDATE
 40
2458564.341446759
  9
$TDINDWG
 40
0.2955438773
  9
$TDUSRTIMER
 40
0.2955438773
  9
$USRTIMER
 70
     1
  9
$ANGBASE
 50
0.0
  9
$ANGDIR
 70
     0
  9
$PDMODE
 70
     0
  9
$PDSIZE
 40
0.0
  9
$PLINEWID
 40
0.0
  9
$SPLFRAME
 70
     0
  9
$SPLINETYPE
 70
     6
  9
$SPLINESEGS
 70
     8
  9
$HANDSEED
  5
186E
  9
$SURFTAB1
 70
     6
  9
$SURFTAB2
 70
     6
  9
$SURFTYPE
 70
     6
  9
$SURFU
 70
     6
  9
$SURFV
 70
     6
  9
$UCSBASE
  2

  9
$UCSNAME
  2

  9
$UCSORG
 10
0.0
 20
0.0
 30
0.0
  9
$UCSXDIR
 10
1.0
 20
0.0
 30
0.0
  9
$UCSYDIR
 10
0.0
 20
1.0
 30
0.0
  9
$UCSORTHOREF
  2

  9
$UCSORTHOVIEW
 70
     0
  9
$UCSORGTOP
 10
0.0
 20
0.0
 30
0.0
  9
$UCSORGBOTTOM
 10
0.0
 20
0.0
 30
0.0
  9
$UCSORGLEFT
 10
0.0
 20
0.0
 30
0.0
  9
$UCSORGRIGHT
 10
0.0
 20
0.0
 30
0.0
  9
$UCSORGFRONT
 10
0.0
 20
0.0
 30
0.0
  9
$UCSORGBACK
 10
0.0
 20
0.0
 30
0.0
  9
$PUCSBASE
  2

  9
$PUCSNAME
  2

  9
$PUCSORG
 10
0.0
 20
0.0
 30
0.0
  9
$PUCSXDIR
 10
1.0
 20
0.0
 30
0.0
  9
$PUCSYDIR
 10
0.0
 20
1.0
 30
0.0
  9
$PUCSORTHOREF
  2

  9
$PUCSORTHOVIEW
 70
     0
  9
$PUCSORGTOP
 10
0.0
 20
0.0
 30
0.0
  9
$PUCSORGBOTTOM
 10
0.0
 20
0.0
 30
0.0
  9
$PUCSORGLEFT
 10
0.0
 20
0.0
 30
0.0
  9
$PUCSORGRIGHT
 10
0.0
 20
0.0
 30
0.0
  9
$PUCSORGFRONT
 10
0.0
 20
0.0
 30
0.0
  9
$PUCSORGBACK
 10
0.0
 20
0.0
 30
0.0
  9
$USERI1
 70
     0
  9
$USERI2
 70
     0
  9
$USERI3
 70
     0
  9
$USERI4
 70
     0
  9
$USERI5
 70
     0
  9
$USERR1
 40
0.0
  9
$USERR2
 40
0.0
  9
$USERR3
 40
0.0
  9
$USERR4
 40
0.0
  9
$USERR5
 40
0.0
  9
$WORLDVIEW
 70
     1
  9
$SHADEDGE
 70
     3
  9
$SHADEDIF
 70
    70
  9
$TILEMODE
 70
     1
  9
$MAXACTVP
 70
    16
  9
$PINSBASE
 10
0.0
 20
0.0
 30
0.0
  9
$PLIMCHECK
 70
     0
  9
$PEXTMIN
 10
1.000000000000000E+20
 20
1.000000000000000E+20
 30
1.000000000000000E+20
  9
$PEXTMAX
 10
-1.000000000000000E+20
 20
-1.000000000000000E+20
 30
-1.000000000000000E+20
  9
$PLIMMIN
 10
0.0
 20
0.0
  9
$PLIMMAX
 10
417.0
 20
288.0
  9
$UNITMODE
 70
     0
  9
$VISRETAIN
 70
     0
  9
$PLINEGEN
 70
     0
  9
$PSLTSCALE
 70
     0
  9
$TREEDEPTH
 70
  3020
  9
$CMLSTYLE
  2
STANDARD
  9
$CMLJUST
 70
     0
  9
$CMLSCALE
 40
1.0
  9
$PROXYGRAPHICS
 70
     1
  9
$MEASUREMENT
 70
     0
  9
$CELWEIGHT
370
    -1
  9
$ENDCAPS
280
     0
  9
$JOINSTYLE
280
     0
  9
$LWDISPLAY
290
     0
  9
$INSUNITS
 70
     0
  9
$HYPERLINKBASE
  1

  9
$STYLESHEET
  1
monochrome.ctb
  9
$XEDIT
290
     1
  9
$CEPSNTYPE
380
     0
  9
$PSTYLEMODE
290
     1
  9
$FINGERPRINTGUID
  2

  9
$VERSIONGUID
  2
{FBC45424-78F8-8A47-B256-062017BB48BE}
  9
$EXTNAMES
290
     1
  9
$PSVPSCALE
 40
0.0
  9
$OLESTARTUP
290
     0
  9
$SORTENTS
280
   127
  9
$INDEXCTL
280
     0
  9
$HIDETEXT
280
     0
  9
$XCLIPFRAME
280
     2
  9
$HALOGAP
280
     0
  9
$OBSCOLOR
 70
   257
  9
$OBSLTYPE
280
     0
  9
$INTERSECTIONDISPLAY
280
     0
  9
$INTERSECTIONCOLOR
 70
   257
  9
$DIMASSOC
280
     1
  9
$PROJECTNAME
  1

  9
$CAMERADISPLAY
290
     0
  9
$LENSLENGTH
 40
50.0
  9
$CAMERAHEIGHT
 40
0.0
  9
$STEPSPERSEC
 40
2.0
  9
$STEPSIZE
 40
6.0
  9
$3DDWFPREC
 40
2.0
  9
$PSOLWIDTH
 40
0.25
  9
$PSOLHEIGHT
 40
4.0
  9
$LOFTANG1
 40
1.570796326794896
  9
$LOFTANG2
 40
1.570796326794896
  9
$LOFTMAG1
 40
0.0
  9
$LOFTMAG2
 40
0.0
  9
$LOFTPARAM
 70
     7
  9
$LOFTNORMALS
280
     1
  9
$LATITUDE
 40
37.795
  9
$LONGITUDE
 40
-122.394
  9
$NORTHDIRECTION
 40
0.0
  9
$TIMEZONE
 70
 -8000
  9
$LIGHTGLYPHDISPLAY
280
     1
  9
$TILEMODELIGHTSYNCH
280
     1
  9
$CMATERIAL
347
B99
  9
$SOLIDHIST
280
     1
  9
$SHOWHIST
280
     1
  9
$DWFFRAME
280
     2
  9
$DGNFRAME
280
     0
  9
$REALWORLDSCALE
290
     1
  9
$INTERFERECOLOR
 62
     1
  9
$INTERFEREOBJVS
345
BBB
  9
$INTERFEREVPVS
346
BB8
  9
$CSHADOW
280
     0
  9
$SHADOWPLANELOCATION
 40
0.0
  0
ENDSEC
  0
SECTION
  2
CLASSES
  0
CLASS
  1
DICTIONARYVAR
  2
AcDbDictionaryVar
  3
ObjectDBX Classes
 90
        0
 91
       12
280
     0
281
     0
  0
CLASS
  1
LWPOLYLINE
  2
AcDbPolyline
  3
ObjectDBX Classes
 90
        0
 91
       20
280
     0
281
     1
  0
CLASS
  1
HATCH
  2
AcDbHatch
  3
ObjectDBX Classes
 90
        0
 91
       12
280
     0
281
     1
  0
CLASS
  1
ACDBDICTIONARYWDFLT
  2
AcDbDictionaryWithDefault
  3
ObjectDBX Classes
 90
        0
 91
        1
280
     0
281
     0
  0
CLASS
  1
ACDBPLACEHOLDER
  2
AcDbPlaceHolder
  3
ObjectDBX Classes
 90
        0
 91
        1
280
     0
281
     0
  0
CLASS
  1
LAYOUT
  2
AcDbLayout
  3
ObjectDBX Classes
 90
        0
 91
        2
280
     0
281
     0
  0
CLASS
  1
TABLESTYLE
  2
AcDbTableStyle
  3
ObjectDBX Classes
 90
     4095
 91
        1
280
     0
281
     0
  0
CLASS
  1
SORTENTSTABLE
  2
AcDbSortentsTable
  3
ObjectDBX Classes
 90
        0
 91
        1
280
     0
281
     0
  0
CLASS
  1
MATERIAL
  2
AcDbMaterial
  3
ObjectDBX Classes
 90
     1153
 91
        3
280
     0
281
     0
  0
CLASS
  1
VISUALSTYLE
  2
AcDbVisualStyle
  3
ObjectDBX Classes
 90
     4095
 91
       26
280
     0
281
     0
  0
CLASS
  1
SCALE
  2
AcDbScale
  3
ObjectDBX Classes
 90
     1153
 91
       33
280
     0
281
     0
  0
CLASS
  1
MLEADERSTYLE
  2
AcDbMLeaderStyle
  3
ACDB_MLEADERSTYLE_CLASS
 90
     4095
 91
        1
280
     0
281
     0
  0
CLASS
  1
ACME_DOCUMENT
  2
AcMeDbDoc
  3
AcMeServices
 90
     1024
 91
        2
280
     0
281
     0
  0
CLASS
  1
AMGSETTINGSOBJ
  2
AmgSettingsObj
  3
"AcadM|Product Description: AutoCAD Mechanical|Company: Autodesk, Inc."
 90
     1024
 91
        2
280
     0
281
     0
  0
CLASS
  1
AMGOBJPROPCFG
  2
AmgObjPropCfg
  3
"AmgLay|Product Description: AutoCAD Mechanical|Company: Autodesk, Inc."
 90
     1024
 91
        1
280
     0
281
     0
  0
CLASS
  1
ACMESCOPE
  2
AcMeScope
  3
AcMeServices
 90
     1024
 91
        1
280
     0
281
     0
  0
CLASS
  1
ACMECOMMANDHISTORY
  2
AcMeCommandHistory
  3
AcMeServices
 90
     1024
 91
        1
280
     0
281
     0
  0
CLASS
  1
ACIMSYSVARMAN
  2
AcImSysVarManager
  3
AcMeServices
 90
     1024
 91
        5
280
     0
281
     0
  0
CLASS
  1
ACIMINTSYSVAR
  2
AcImIntSysVar
  3
AcMeServices
 90
     1024
 91
       27
280
     0
281
     0
  0
CLASS
  1
ACMEDRAWINGMAN
  2
AcMeDrawingMan
  3
AcMeServices
 90
     1024
 91
        2
280
     0
281
     0
  0
CLASS
  1
ACMEVIEW
  2
AcMeView
  3
AcMeServices
 90
     1024
 91
        2
280
     0
281
     0
  0
CLASS
  1
ACDBENTITYCACHE
  2
AcMeEntityCache
  3
AcMeServices
 90
     1024
 91
        1
280
     0
281
     0
  0
CLASS
  1
ACMESTATEMGR
  2
AcMeStateMgr
  3
AcMeServices
 90
     1024
 91
        1
280
     0
281
     0
  0
CLASS
  1
ACGREFMASTER
  2
AcGrefMaster
  3
AcAttribServices
 90
     1024
 91
        1
280
     0
281
     0
  0
CLASS
  1
AM_DRAWING_MGR
  2
AcDmDwgMgr
  3
AcMechDwgViewMgmt
 90
     1024
 91
        1
280
     0
281
     0
  0
CLASS
  1
AM_DWG_DOCUMENT
  2
AcDmDwgDocument
  3
AcMechDwgViewMgmt
 90
     1024
 91
        1
280
     0
281
     0
  0
CLASS
  1
AM_DWG_SHEET
  2
AcDmSheet
  3
AcMechDwgViewMgmt
 90
     1024
 91
        1
280
     0
281
     0
  0
CLASS
  1
AM_VIEWDIMPARMAP
  2
AcDmViewDimParMap
  3
AcMechDwgViewMgmt
 90
     1024
 91
        1
280
     0
281
     0
  0
CLASS
  1
AMDTINTERNALREACTOR
  2
AmdtInternalReactor
  3
AcMeServices
 90
     1024
 91
        1
280
     0
281
     0
  0
CLASS
  1
ACIMREALSYSVAR
  2
AcImRealSysVar
  3
AcMeServices
 90
     1024
 91
        1
280
     0
281
     0
  0
CLASS
  1
AM_DWGMGR_NAME
  2
AcDmDwgMgrName
  3
AcMechDwgViewMgmt
 90
     1024
 91
        1
280
     0
281
     0
  0
CLASS
  1
ACME_DATABASE
  2
AcMeDbDatabase
  3
AcMeServices
 90
     1024
 91
        1
280
     0
281
     0
  0
CLASS
  1
ACRFINSADJUSTERMGR
  2
AcRfInsAdjusterMgr
  3
AcMeServices
 90
     1024
 91
        1
280
     0
281
     0
  0
CLASS
  1
ACGREFACADMASTER
  2
AcGrefacadMaster
  3
AcGrefServices
 90
     1024
 91
        1
280
     0
281
     0
  0
CLASS
  1
AMDTMENUSTATEMGR
  2
AmdtMenuStateMgr
  3
McadcomServices
 90
     1024
 91
        1
280
     0
281
     0
  0
CLASS
  1
AMDTMCOMMENUSTATE
  2
AmdtMcomMenuState
  3
McadcomServices
 90
     1024
 91
        1
280
     0
281
     0
  0
CLASS
  1
AMIMASTER
  2
AmiMaster
  3
AmiServices
 90
     1024
 91
        1
280
     0
281
     0
  0
CLASS
  1
MAPIAMMOUDLE
  2
MApiAmModule
  3
MApiAmServices
 90
     1024
 91
        1
280
     0
281
     0
  0
CLASS
  1
ACIMSTRSYSVAR
  2
AcImStrSysVar
  3
AcMeServices
 90
     1024
 91
        5
280
     0
281
     0
  0
CLASS
  1
AMDTADMENUSTATE
  2
AmdtAdMenuState
  3
DesignerServices
 90
     1024
 91
        0
280
     0
281
     0
  0
CLASS
  1
ADAPPL
  2
AcAdAppl
  3
DesignerAssemblies
 90
     1024
 91
        2
280
     0
281
     0
  0
CLASS
  1
DEPMGR
  2
AcAdDepMgr
  3
DesignerAssemblies
 90
     1024
 91
        2
280
     0
281
     0
  0
CLASS
  1
PARAMMGR
  2
AcAdParamMgr
  3
DesignerAssemblies
 90
     1024
 91
        2
280
     0
281
     0
  0
CLASS
  1
PARAMSCOPE
  2
AcAdParamScope
  3
DesignerAssemblies
 90
     1024
 91
        2
280
     0
281
     0
  0
CLASS
  1
NAMEDAPPL
  2
AcAdNamedAppl
  3
DesignerAssemblies
 90
     1024
 91
        2
280
     0
281
     0
  0
CLASS
  1
AMDTDMMENUSTATE
  2
AmdtDmMenuState
  3
AcMechDwgViewMgmt
 90
     1024
 91
        0
280
     0
281
     0
  0
CLASS
  1
AMDTAMMENUSTATE
  2
AmdtAmMenuState
  3
DesignerAssemblies
 90
     1024
 91
        1
280
     0
281
     0
  0
CLASS
  1
ACAMPROJECT
  2
AcAmProject
  3
DesignerAssemblies
 90
     1024
 91
        1
280
     0
281
     0
  0
CLASS
  1
ACAMGRCOMPDEF
  2
AcAmGrCompDef
  3
DesignerAssemblies
 90
     1024
 91
        1
280
     0
281
     0
  0
CLASS
  1
ACAMCOMPDEF
  2
AcAmCompDef
  3
DesignerAssemblies
 90
     1024
 91
        1
280
     0
281
     0
  0
CLASS
  1
ACAMCOMPDEFMGR
  2
AcAmCompDefMgr
  3
DesignerAssemblies
 90
     1024
 91
        1
280
     0
281
     0
  0
CLASS
  1
AMCONTEXTMGR
  2
AcAmContextMgr
  3
DesignerAssemblies
 90
     1024
 91
        1
280
     0
281
     0
  0
CLASS
  1
ACAMCONTEXTMODELER
  2
AcAmContextModeler
  3
DesignerAssemblies
 90
     1024
 91
        1
280
     0
281
     0
  0
CLASS
  1
ACMDATADICTIONARY
  2
AcmDataDictionary
  3
"AcmSymBB|Product Description: AutoCAD Mechanical|Company: Autodesk, Inc."
 90
     1024
 91
        1
280
     0
281
     0
  0
CLASS
  1
CATALOGSTATE
  2
AcAmCatalogState
  3
DesignerAssemblies
 90
     1024
 91
        1
280
     0
281
     0
  0
CLASS
  1
ACAMGRCOMPDEFSET
  2
AcAmGrCompDefSet
  3
DesignerAssemblies
 90
     1024
 91
        1
280
     0
281
     0
  0
CLASS
  1
AMDTBROWSERDBTAB
  2
AmdtBrowserDbTab
  3
McadcomServices
 90
     1024
 91
        1
280
     0
281
     0
  0
CLASS
  1
CBROWSERAPPOBJECT
  2
CBrowserAppObject
  3
McadcomServices
 90
     1024
 91
        2
280
     0
281
     0
  0
CLASS
  1
DM_PLACEHOLDER
  2
AcDmSelsetPlaceholder
  3
McadcomServices
 90
     1024
 91
        1
280
     0
281
     0
  0
CLASS
  1
ACMSTANDARDANSI
  2
AcmStandardANSI
  3
"Amdt_StdImp|Product Description: AutoCAD Mechanical|Company: Autodesk, Inc."
 90
     1024
 91
        1
280
     0
281
     0
  0
CLASS
  1
ACMSURFSTANDARDANSI
  2
AcmSurfTextStdANSI
  3
"Amdt_StdImp|Product Description: AutoCAD Mechanical|Company: Autodesk, Inc."
 90
     1024
 91
        1
280
     0
281
     0
  0
CLASS
  1
ACMFCFSTANDARDANSI
  2
AcmFCFStdANSI
  3
"Amdt_StdImp|Product Description: AutoCAD Mechanical|Company: Autodesk, Inc."
 90
     1024
 91
        1
280
     0
281
     0
  0
CLASS
  1
ACMWELDSTANDARDANSI
  2
AcmWeldingStdANSI
  3
"Amdt_StdImp|Product Description: AutoCAD Mechanical|Company: Autodesk, Inc."
 90
     1024
 91
        1
280
     0
281
     0
  0
CLASS
  1
ACMIDSTANDARDANSI
  2
AcmIdStdANSI
  3
"Amdt_StdImp|Product Description: AutoCAD Mechanical|Company: Autodesk, Inc."
 90
     1024
 91
        1
280
     0
281
     0
  0
CLASS
  1
ACMDATUMSTANDARDANSI
  2
AcmDatumStdANSI
  3
"Amdt_StdImp|Product Description: AutoCAD Mechanical|Company: Autodesk, Inc."
 90
     1024
 91
        1
280
     0
281
     0
  0
CLASS
  1
ACMBOMSTANDARDANSI
  2
AcmBOMStdANSI
  3
"Amdt_StdImp|Product Description: AutoCAD Mechanical|Company: Autodesk, Inc."
 90
     1024
 91
        1
280
     0
281
     0
  0
CLASS
  1
ACMDETAILSTANDARDANSI
  2
AmdtDetailSymStdANSI
  3
"Amdt_StdImp|Product Description: AutoCAD Mechanical|Company: Autodesk, Inc."
 90
     1024
 91
        1
280
     0
281
     0
  0
CLASS
  1
ACMSECTIONSTANDARDANSI
  2
AmdtSectionSymStdANSI
  3
"Amdt_StdImp|Product Description: AutoCAD Mechanical|Company: Autodesk, Inc."
 90
     1024
 91
        1
280
     0
281
     0
  0
CLASS
  1
ACMCENTERLINESTANDARDANSI
  2
AmdtCenterLineStdANSI
  3
"Amdt_StdImp|Product Description: AutoCAD Mechanical|Company: Autodesk, Inc."
 90
     1024
 91
        1
280
     0
281
     0
  0
CLASS
  1
ACMTHREADLINESTANDARDANSI
  2
AmdtThreadLineStdANSI
  3
"Amdt_StdImp|Product Description: AutoCAD Mechanical|Company: Autodesk, Inc."
 90
     1024
 91
        1
280
     0
281
     0
  0
CLASS
  1
ACMNOTESTANDARDANSI
  2
AmdtNoteStdANSI
  3
"Amdt_StdImp|Product Description: AutoCAD Mechanical|Company: Autodesk, Inc."
 90
     1024
 91
        1
280
     0
281
     0
  0
CLASS
  1
ACMTAPERSTANDARDANSI
  2
AcmTaperStdANSI
  3
"Amdt_StdImp|Product Description: AutoCAD Mechanical|Company: Autodesk, Inc."
 90
     1024
 91
        1
280
     0
281
     0
  0
CLASS
  1
ACMANOOTATIONVIEWSTANDARDANSI
  2
AmdtAnViewStdANSI
  3
"Amdt_StdImp|Product Description: AutoCAD Mechanical|Company: Autodesk, Inc."
 90
     1024
 91
        1
280
     0
281
     0
  0
CLASS
  1
ACAMGLAYSTD
  2
AcAmgLayStd
  3
"AmgLay|Product Description: AutoCAD Mechanical|Company: Autodesk, Inc."
 90
     1024
 91
        1
280
     0
281
     0
  0
CLASS
  1
ACAMGDIMSTD
  2
AcAmgDimStd
  3
"AmgDim|Product Description: AutoCAD Mechanical|Company: Autodesk, Inc."
 90
     1024
 91
        1
280
     0
281
     0
  0
CLASS
  1
ACAMGHOLECHARTSTDANSI
  2
AcAmgHoleChartStdANSI
  3
AmgDim|Product Description: AutoCAD Mechanical|Company: Autodesk, Inc.
 90
     1024
 91
        1
280
     0
281
     0
  0
CLASS
  1
ACAMGTITLESTD
  2
AcAmgTitleStd
  3
"AmgTitle|Product Description: AutoCAD Mechanical|Company: Autodesk, Inc."
 90
     1024
 91
        1
280
     0
281
     0
  0
CLASS
  1
AMDTNOTETEMPLATEDB
  2
AmdtNoteTemplateDB
  3
AcmSymBB|Product Description: AutoCAD Mechanical|Company: Autodesk, Inc.
 90
     1024
 91
        6
280
     0
281
     0
  0
CLASS
  1
ACAMGFILTERDAT
  2
AcAmgFilterDat
  3
"AcadM|Product Description: AutoCAD Mechanical|Company: Autodesk, Inc."
 90
     1024
 91
        0
280
     0
281
     0
  0
CLASS
  1
AEC_REFEDIT_STATUS_TRACKER
  2
AecDbRefEditStatusTracker
  3
AecArchBase70|Product Desc: Autodesk Architectural Desktop 2007 |Company: Autodesk,Inc. |WEB Address: www.autodesk.com
 90
      129
 91
        0
280
     0
281
     0
  0
CLASS
  1
NPOCOLLECTION
  2
AcDbImpNonPersistentObjectsCollection
  3
ObjectDBX Classes
 90
     1153
 91
        1
280
     0
281
     0
  0
CLASS
  1
CELLSTYLEMAP
  2
AcDbCellStyleMap
  3
ObjectDBX Classes
 90
     1152
 91
        1
280
     0
281
     0
  0
CLASS
  1
CAMSSTRUCTBTNSTATE
  2
StructBtnState
  3
DesignerAssemblies
 90
     1024
 91
        1
280
     0
281
     0
  0
CLASS
  1
ACDBSECTIONVIEWSTYLE
  2
AcDbSectionViewStyle
  3
ObjectDBX Classes
 90
     1025
 91
        2
280
     0
281
     0
  0
CLASS
  1
ACDBDETAILVIEWSTYLE
  2
AcDbDetailViewStyle
  3
ObjectDBX Classes
 90
     1025
 91
        2
280
     0
281
     0
  0
CLASS
  1
ACMSECTIONSTANDARDCUSTOM
  2
AmdtSectionSymStdCustom
  3
"Amdt_StdImp|Product Description: AutoCAD Mechanical|Company: Autodesk, Inc."
 90
     1024
 91
        1
280
     0
281
     0
  0
CLASS
  1
ACMDETAILTANDARDCUSTOM
  2
AmdtDetailSymStdCustom
  3
"Amdt_StdImp|Product Description: AutoCAD Mechanical|Company: Autodesk, Inc."
 90
     1024
 91
        1
280
     0
281
     0
  0
CLASS
  1
FIELD
  2
AcDbField
  3
ObjectDBX Classes
 90
     1152
 91
        3
280
     0
281
     0
  0
CLASS
  1
FIELDLIST
  2
AcDbFieldList
  3
ObjectDBX Classes
 90
     1152
 91
        1
280
     0
281
     0
  0
CLASS
  1
EXACXREFPANELOBJECT
  2
ExAcXREFPanelObject
  3
EXAC_ESW
 90
     1025
 91
        1
280
     0
281
     0
  0
ENDSEC
  0
SECTION
  2
TABLES
  0
TABLE
  2
VPORT
  5
328
102
{ACAD_XDICTIONARY
360
1069
102
}
330
0
100
AcDbSymbolTable
 70
     1
1001
ACAD
1000
DbSaveVer
1071
        8
  0
VPORT
  5
B97
330
328
100
AcDbSymbolTableRecord
100
AcDbViewportTableRecord
  2
*Active
 70
     0
 10
0.0
 20
0.0
 11
1.0
 21
1.0
 12
151.8477401336682
 22
205.7065748098242
 13
0.0
 23
0.0
 14
10.0
 24
10.0
 15
20.0
 25
20.0
 16
0.0
 26
0.0
 36
1.0
 17
0.0
 27
0.0
 37
0.0
 40
365.1669168714537
 41
2.358195211786371
 42
50.0
 43
0.0
 44
0.0
 50
0.0
 51
0.0
 71
     0
 72
   100
 73
     1
 74
     1
 75
     0
 76
     0
 77
     0
 78
     0
281
     0
 65
     1
110
0.0
120
0.0
130
0.0
111
1.0
121
0.0
131
0.0
112
0.0
122
1.0
132
0.0
 79
     0
146
0.0
348
BB7
 60
     3
 61
     5
292
     1
282
     1
141
0.0
142
0.0
 63
   250
421
  3355443
1001
ACAD_NAV_VCDISPLAY
1070
     3
  0
ENDTAB
  0
TABLE
  2
LTYPE
  5
323
330
0
100
AcDbSymbolTable
 70
    14
  0
LTYPE
  5
324
330
323
100
AcDbSymbolTableRecord
100
AcDbLinetypeTableRecord
  2
BYBLOCK
 70
     0
  3

 72
    65
 73
     0
 40
0.0
  0
LTYPE
  5
325
330
323
100
AcDbSymbolTableRecord
100
AcDbLinetypeTableRecord
  2
BYLAYER
 70
     0
  3

 72
    65
 73
     0
 40
0.0
  0
LTYPE
  5
8
330
323
100
AcDbSymbolTableRecord
100
AcDbLinetypeTableRecord
  2
CONTINUOUS
 70
     0
  3
Solid line
 72
    65
 73
     0
 40
0.0
  0
LTYPE
  5
10
330
323
100
AcDbSymbolTableRecord
100
AcDbLinetypeTableRecord
  2
STRICHPUNKT
 70
     0
  3
__ . __ . __ . __ . __ . __ . __ . __ . __ . __
 72
    65
 73
     4
 40
1.0
 49
0.5
 74
     0
 49
-0.25
 74
     0
 49
0.0
 74
     0
 49
-0.25
 74
     0
  0
LTYPE
  5
DB
330
323
100
AcDbSymbolTableRecord
100
AcDbLinetypeTableRecord
  2
GESTRICHELT
 70
     0
  3
__ __ __ __ __ __ __ __ __ __ __ __ __ __ __ __
 72
    65
 73
     2
 40
0.75
 49
0.5
 74
     0
 49
-0.25
 74
     0
  0
LTYPE
  5
1EF
330
323
100
AcDbSymbolTableRecord
100
AcDbLinetypeTableRecord
  2
AUSGEZOGEN
 70
     0
  3
Ausgezogene Linie
 72
    65
 73
     0
 40
0.0
  0
LTYPE
  5
BF7
330
323
100
AcDbSymbolTableRecord
100
AcDbLinetypeTableRecord
  2
Amconstr
 70
     0
  3
_______________________
 72
    65
 73
     2
 40
9999.0
 49
9999.0
 74
     0
 49
0.0
 74
     0
  0
LTYPE
  5
C2A
330
323
100
AcDbSymbolTableRecord
100
AcDbLinetypeTableRecord
  2
HIDDEN
 70
     0
  3
Skrytá __ __ __ __ __ __ __ __ __ __ __ __ __ __
 72
    65
 73
     2
 40
0.375
 49
0.25
 74
     0
 49
-0.125
 74
     0
  0
LTYPE
  5
C2B
330
323
100
AcDbSymbolTableRecord
100
AcDbLinetypeTableRecord
  2
PHANTOM2
 70
     0
  3
Sdružená (.5x) ___ _ _ ___ _ _ ___ _ _ ___ _ _
 72
    65
 73
     6
 40
1.25
 49
0.625
 74
     0
 49
-0.125
 74
     0
 49
0.125
 74
     0
 49
-0.125
 74
     0
 49
0.125
 74
     0
 49
-0.125
 74
     0
  0
LTYPE
  5
C2C
330
323
100
AcDbSymbolTableRecord
100
AcDbLinetypeTableRecord
  2
CENTER
 70
     0
  3
Středová ____ _ ____ _ ____ _ ____ _ ____ _ ____
 72
    65
 73
     4
 40
2.0
 49
1.25
 74
     0
 49
-0.25
 74
     0
 49
0.25
 74
     0
 49
-0.25
 74
     0
  0
LTYPE
  5
C7C
330
323
100
AcDbSymbolTableRecord
100
AcDbLinetypeTableRecord
  2
CENTER2
 70
     0
  3
Center (.5x) ___ _ ___ _ ___ _ ___ _ ___ _ ___
 72
    65
 73
     4
 40
1.125
 49
0.75
 74
     0
 49
-0.125
 74
     0
 49
0.125
 74
     0
 49
-0.125
 74
     0
  0
LTYPE
  5
C7D
330
323
100
AcDbSymbolTableRecord
100
AcDbLinetypeTableRecord
  2
HIDDEN2
 70
     0
  3
Hidden (.5x) _ _ _ _ _ _ _ _ _ _ _ _ _ _ _ _ _
 72
    65
 73
     2
 40
0.1875
 49
0.125
 74
     0
 49
-0.0625
 74
     0
  0
LTYPE
  5
C7E
330
323
100
AcDbSymbolTableRecord
100
AcDbLinetypeTableRecord
  2
Amzigzag2
 70
     0
  3
/\/-/\/-/\/-/\/-/\/-/\/
 72
    65
 73
     2
 40
0.4401
 49
0.0001
 74
     4
 75
   136
340
BFB
 46
0.0016
 50
0.0
 44
0.0
 45
0.0
 49
-0.4400000000000001
 74
     0
  0
LTYPE
  5
C80
330
323
100
AcDbSymbolTableRecord
100
AcDbLinetypeTableRecord
  2
ACANSTGB
 70
     0
  3
__ . . __ . .
 72
    65
 73
     6
 40
0.35433070866
 49
0.15748031496
 74
     0
 49
-0.03937007874
 74
     0
 49
0.03937007874
 74
     0
 49
-0.03937007874
 74
     0
 49
0.03937007874
 74
     0
 49
-0.03937007874
 74
     0
  0
LTYPE
  5
C81
330
323
100
AcDbSymbolTableRecord
100
AcDbLinetypeTableRecord
  2
ACANSTGL
 70
     0
  3
_ _ _ _ _
 72
    65
 73
     2
 40
0.11811023622
 49
0.07874015748
 74
     0
 49
-0.03937007874
 74
     0
  0
ENDTAB
  0
TABLE
  2
LAYER
  5
320
102
{ACAD_XDICTIONARY
360
DD4
102
}
330
0
100
AcDbSymbolTable
 70
    14
  0
LAYER
  5
44
102
{ACAD_XDICTIONARY
360
103B
102
}
330
320
100
AcDbSymbolTableRecord
100
AcDbLayerTableRecord
  2
0
 70
     0
 62
     7
  6
CONTINUOUS
370
    -3
390
5
347
BA9
348
0
  0
LAYER
  5
A
102
{ACAD_XDICTIONARY
360
103D
102
}
330
320
100
AcDbSymbolTableRecord
100
AcDbLayerTableRecord
  2
SICHTBAR
 70
     0
 62
     7
  6
CONTINUOUS
370
    -3
390
5
347
BA9
348
0
  0
LAYER
  5
F
102
{ACAD_XDICTIONARY
360
103F
102
}
330
320
100
AcDbSymbolTableRecord
100
AcDbLayerTableRecord
  2
MITTE
 70
     0
 62
     1
  6
STRICHPUNKT
370
    -3
390
5
347
BA9
348
0
  0
LAYER
  5
D2
102
{ACAD_XDICTIONARY
360
1041
102
}
330
320
100
AcDbSymbolTableRecord
100
AcDbLayerTableRecord
  2
TEXT50
 70
     0
 62
     7
  6
CONTINUOUS
370
    -3
390
5
347
BA9
348
0
  0
LAYER
  5
4
102
{ACAD_XDICTIONARY
360
1043
102
}
330
320
100
AcDbSymbolTableRecord
100
AcDbLayerTableRecord
  2
SCHRAFF
 70
     0
 62
     6
  6
CONTINUOUS
370
    -3
390
5
347
BA9
348
0
  0
LAYER
  5
DA
102
{ACAD_XDICTIONARY
360
1045
102
}
330
320
100
AcDbSymbolTableRecord
100
AcDbLayerTableRecord
  2
VERDECKT
 70
     0
 62
     2
  6
GESTRICHELT
370
    -3
390
5
347
BA9
348
0
  0
LAYER
  5
35
102
{ACAD_XDICTIONARY
360
1047
102
}
330
320
100
AcDbSymbolTableRecord
100
AcDbLayerTableRecord
  2
BEMASS
 70
     0
 62
     3
  6
CONTINUOUS
370
    -3
390
5
347
BA9
348
0
  0
LAYER
  5
40
330
320
100
AcDbSymbolTableRecord
100
AcDbLayerTableRecord
  2
DEFPOINTS
 70
     0
 62
     7
  6
CONTINUOUS
290
     0
370
    -3
390
5
347
BA9
348
0
  0
LAYER
  5
EF
102
{ACAD_XDICTIONARY
360
1049
102
}
330
320
100
AcDbSymbolTableRecord
100
AcDbLayerTableRecord
  2
DUENN
 70
     0
 62
     4
  6
CONTINUOUS
370
    -3
390
5
347
BA9
348
0
  0
LAYER
  5
1EB
102
{ACAD_XDICTIONARY
360
104B
102
}
330
320
100
AcDbSymbolTableRecord
100
AcDbLayerTableRecord
  2
GAIN_ZRA
 70
     0
 62
     7
  6
CONTINUOUS
370
    -3
390
5
347
BA9
348
0
  0
LAYER
  5
1EE
102
{ACAD_XDICTIONARY
360
104D
102
}
330
320
100
AcDbSymbolTableRecord
100
AcDbLayerTableRecord
  2
KOPF
 70
     0
 62
    22
  6
AUSGEZOGEN
370
    -3
390
5
347
BA9
348
0
  0
LAYER
  5
23A
102
{ACAD_XDICTIONARY
360
1051
102
}
330
320
100
AcDbSymbolTableRecord
100
AcDbLayerTableRecord
  2
TEXT35
 70
     0
 62
   132
  6
CONTINUOUS
370
    -3
390
5
347
BA9
348
0
  0
LAYER
  5
23D
102
{ACAD_XDICTIONARY
360
1053
102
}
330
320
100
AcDbSymbolTableRecord
100
AcDbLayerTableRecord
  2
TEXT25
 70
     0
 62
     3
  6
CONTINUOUS
370
    -3
390
5
347
BA9
348
0
  0
LAYER
  5
336
102
{ACAD_XDICTIONARY
360
1055
102
}
330
320
100
AcDbSymbolTableRecord
100
AcDbLayerTableRecord
  2
Sperrlayer
 70
     1
 62
     7
  6
CONTINUOUS
370
    50
390
5
347
BA9
348
0
  0
ENDTAB
  0
TABLE
  2
STYLE
  5
321
330
0
100
AcDbSymbolTable
 70
    10
  0
STYLE
  5
37
330
321
100
AcDbSymbolTableRecord
100
AcDbTextStyleTableRecord
  2
STANDARD
 70
     0
 40
0.0
 41
0.8
 50
0.0
 71
     0
 42
7.5
  3
SIMPLEX.SHX
  4

  0
STYLE
  5
216
330
321
100
AcDbSymbolTableRecord
100
AcDbTextStyleTableRecord
  2
BEMSTIL
 70
     0
 40
3.5
 41
0.8
 50
0.0
 71
     0
 42
3.5
  3
simplex.shx
  4

  0
STYLE
  5
1F4
330
321
100
AcDbSymbolTableRecord
100
AcDbTextStyleTableRecord
  2
TEXT25
 70
     0
 40
2.5
 41
0.8
 50
0.0
 71
     0
 42
2.5
  3
din
  4

  0
STYLE
  5
300
330
321
100
AcDbSymbolTableRecord
100
AcDbTextStyleTableRecord
  2
ROMANS8
 70
     0
 40
2.1
 41
0.7
 50
0.0
 71
     0
 42
2.1
  3
ROMANS8.SHX
  4

  0
STYLE
  5
23E
330
321
100
AcDbSymbolTableRecord
100
AcDbTextStyleTableRecord
  2
TEXT20
 70
     0
 40
2.0
 41
0.8
 50
0.0
 71
     0
 42
2.0
  3
isocp3.shx
  4

  0
STYLE
  5
23B
330
321
100
AcDbSymbolTableRecord
100
AcDbTextStyleTableRecord
  2
TEXT35
 70
     0
 40
3.5
 41
0.8
 50
0.0
 71
     0
 42
3.5
  3
isocp3.shx
  4

  0
STYLE
  5
24D
330
321
100
AcDbSymbolTableRecord
100
AcDbTextStyleTableRecord
  2
TEXT50
 70
     0
 40
5.0
 41
0.8
 50
0.0
 71
     0
 42
5.0
  3
isocp3.shx
  4

  0
STYLE
  5
306
330
321
100
AcDbSymbolTableRecord
100
AcDbTextStyleTableRecord
  2
ITALICC8
 70
     0
 40
3.0
 41
0.8
 50
0.0
 71
     0
 42
3.0
  3
italicc8
  4

  0
STYLE
  5
BFB
330
321
100
AcDbSymbolTableRecord
100
AcDbTextStyleTableRecord
  2

 70
     1
 40
0.0
 41
1.0
 50
0.0
 71
     0
 42
7.5
  3
genltshp.shx
  4

  0
STYLE
  5
C7F
330
321
100
AcDbSymbolTableRecord
100
AcDbTextStyleTableRecord
  2
ACANSGDT
 70
     0
 40
0.0
 41
1.0
 50
0.0
 71
     0
 42
7.5
  3
amgdt.shx
  4

  0
ENDTAB
  0
TABLE
  2
VIEW
  5
326
330
0
100
AcDbSymbolTable
 70
     0
  0
ENDTAB
  0
TABLE
  2
UCS
  5
327
330
0
100
AcDbSymbolTable
 70
     0
  0
ENDTAB
  0
TABLE
  2
APPID
  5
32A
330
0
100
AcDbSymbolTable
 70
    22
  0
APPID
  5
1C6
330
32A
100
AcDbSymbolTableRecord
100
AcDbRegAppTableRecord
  2
ACAD
 70
     0
  0
APPID
  5
3D6
330
32A
100
AcDbSymbolTableRecord
100
AcDbRegAppTableRecord
  2
DCO15
 70
     0
  0
APPID
  5
B1C
330
32A
100
AcDbSymbolTableRecord
100
AcDbRegAppTableRecord
  2
ACAD_EXEMPT_FROM_CAD_STANDARDS
 70
     0
  0
APPID
  5
BFF
330
32A
100
AcDbSymbolTableRecord
100
AcDbRegAppTableRecord
  2
MCAD_NO_VIS
 70
     0
  0
APPID
  5
C00
330
32A
100
AcDbSymbolTableRecord
100
AcDbRegAppTableRecord
  2
ACAD_TEMP_GRAPHIC
 70
     0
  0
APPID
  5
C2E
330
32A
100
AcDbSymbolTableRecord
100
AcDbRegAppTableRecord
  2
AD_DRAW
 70
     0
  0
APPID
  5
C31
330
32A
100
AcDbSymbolTableRecord
100
AcDbRegAppTableRecord
  2
ACATTRIBSERVICES
 70
     0
  0
APPID
  5
C51
330
32A
100
AcDbSymbolTableRecord
100
AcDbRegAppTableRecord
  2
DESIGNERASSEMBLIES
 70
     0
  0
APPID
  5
C57
330
32A
100
AcDbSymbolTableRecord
100
AcDbRegAppTableRecord
  2
ACADM_DIM_EDIT
 70
     0
  0
APPID
  5
C58
330
32A
100
AcDbSymbolTableRecord
100
AcDbRegAppTableRecord
  2
AMDT_DM_ADJ
 70
     0
  0
APPID
  5
C6E
330
32A
100
AcDbSymbolTableRecord
100
AcDbRegAppTableRecord
  2
ACAD_DSTYLE_DIMJAG
 70
     0
  0
APPID
  5
C6F
330
32A
100
AcDbSymbolTableRecord
100
AcDbRegAppTableRecord
  2
ACAD_DSTYLE_DIMBREAK
 70
     0
  0
APPID
  5
C88
330
32A
100
AcDbSymbolTableRecord
100
AcDbRegAppTableRecord
  2
GENIUS_GENSCREG_15
 70
     0
  0
APPID
  5
C89
330
32A
100
AcDbSymbolTableRecord
100
AcDbRegAppTableRecord
  2
GENIUS_GENOBJ-N-SDF_13
 70
     0
  0
APPID
  5
C8A
330
32A
100
AcDbSymbolTableRecord
100
AcDbRegAppTableRecord
  2
GENIUS_GENODEF_13
 70
     0
  0
APPID
  5
DD3
330
32A
100
AcDbSymbolTableRecord
100
AcDbRegAppTableRecord
  2
AcAecLayerStandard
 70
     0
  0
APPID
  5
1095
330
32A
100
AcDbSymbolTableRecord
100
AcDbRegAppTableRecord
  2
ACAD_MLEADERVER
 70
     0
  0
APPID
  5
1096
330
32A
100
AcDbSymbolTableRecord
100
AcDbRegAppTableRecord
  2
ACAD_DSTYLE_DIMARC_LENGTH_SYMBOL
 70
     0
  0
APPID
  5
1097
330
32A
100
AcDbSymbolTableRecord
100
AcDbRegAppTableRecord
  2
ACAD_DSTYLE_DIM_LINETYPE
 70
     0
  0
APPID
  5
1098
330
32A
100
AcDbSymbolTableRecord
100
AcDbRegAppTableRecord
  2
ACAD_DSTYLE_DIM_EXT1_LINETYPE
 70
     0
  0
APPID
  5
1099
330
32A
100
AcDbSymbolTableRecord
100
AcDbRegAppTableRecord
  2
ACAD_DSTYLE_DIM_EXT2_LINETYPE
 70
     0
  0
APPID
  5
185D
330
32A
100
AcDbSymbolTableRecord
100
AcDbRegAppTableRecord
  2
ACAD_NAV_VCDISPLAY
 70
     0
  0
ENDTAB
  0
TABLE
  2
DIMSTYLE
  5
32B
330
0
100
AcDbSymbolTable
 70
     9
100
AcDbDimStyleTable
 71
     1
340
36
  0
DIMSTYLE
105
36
102
{ACAD_REACTORS
330
575
330
5DD
330
5DC
330
5DA
330
70C
102
}
330
32B
100
AcDbSymbolTableRecord
100
AcDbDimStyleTableRecord
  2
STANDARD
 70
     0
 41
3.5
 42
0.0
 43
7.0
 44
2.0
 73
     0
 74
     0
 77
     1
 78
     8
140
5.0
141
3.0
146
0.875
147
2.0
174
     1
176
   256
177
   256
178
   256
271
     1
272
     1
284
     8
285
     8
286
     8
289
     0
340
37
  0
DIMSTYLE
105
536
102
{ACAD_REACTORS
330
55D
330
574
102
}
330
32B
100
AcDbSymbolTableRecord
100
AcDbDimStyleTableRecord
  2
STANDARD$0
 70
     0
 40
2.0
 41
3.5
 42
0.0
 43
7.0
 44
2.0
 73
     0
 74
     0
 77
     1
 78
     8
140
5.0
141
3.0
146
0.875
147
2.0
174
     1
176
   256
177
   256
178
   256
271
     1
272
     1
284
     8
285
     8
286
     8
289
     0
340
37
  0
DIMSTYLE
105
C6D
102
{ACAD_REACTORS
330
17D8
102
}
330
32B
100
AcDbSymbolTableRecord
100
AcDbDimStyleTableRecord
  2
AM_ANSI
 70
     0
  4
mm
 41
0.12
 42
0.05
 43
0.5
 44
0.1
 47
0.1
 48
0.1
 78
     7
 79
     2
 90
     1
140
0.12
141
0.0
146
0.71
147
0.06
176
   256
177
   256
178
     2
274
     4
284
     7
340
37
345
324
346
324
347
324
371
    -1
372
    -1
1001
ACAD_DSTYLE_DIMJAG
1070
   388
1040
1.5
1001
ACAD_DSTYLE_DIMBREAK
1070
   391
1040
0.125
  0
DIMSTYLE
105
C70
330
32B
100
AcDbSymbolTableRecord
100
AcDbDimStyleTableRecord
  2
AM_ANSI$3
 70
     0
  4
mm
 41
0.12
 42
0.05
 43
0.5
 44
0.1
 47
0.1
 48
0.1
 78
     7
 79
     2
 90
     1
140
0.12
141
0.0
146
0.71
147
0.06
176
   256
177
   256
178
     2
274
     4
284
     7
288
     1
289
     0
340
37
345
324
346
324
347
324
371
    -1
372
    -1
1001
ACAD_DSTYLE_DIMBREAK
1070
   391
1040
0.125
1001
ACAD_DSTYLE_DIMJAG
1070
   388
1040
1.5
  0
DIMSTYLE
105
C71
330
32B
100
AcDbSymbolTableRecord
100
AcDbDimStyleTableRecord
  2
AM_ANSI$4
 70
     0
  4
mm
 41
0.12
 42
0.05
 43
0.5
 44
0.1
 47
0.1
 48
0.1
 78
     7
 79
     2
 90
     1
140
0.12
141
0.0
146
0.71
147
0.06
176
   256
177
   256
178
     2
274
     4
284
     7
288
     1
289
     0
340
37
345
324
346
324
347
324
371
    -1
372
    -1
1001
ACAD_DSTYLE_DIMBREAK
1070
   391
1040
0.125
1001
ACAD_DSTYLE_DIMJAG
1070
   388
1040
1.5
  0
DIMSTYLE
105
C72
330
32B
100
AcDbSymbolTableRecord
100
AcDbDimStyleTableRecord
  2
AM_ANSI$7
 70
     0
  4
mm
 41
0.12
 42
0.05
 43
0.5
 44
0.1
 47
0.1
 48
0.1
 78
     7
 79
     2
 90
     1
140
0.12
141
0.0
146
0.71
147
0.06
176
   256
177
   256
178
     2
274
     4
284
     7
340
37
345
324
346
324
347
324
371
    -1
372
    -1
1001
ACAD_DSTYLE_DIMBREAK
1070
   391
1040
0.125
1001
ACAD_DSTYLE_DIMJAG
1070
   388
1040
1.5
  0
DIMSTYLE
105
C73
330
32B
100
AcDbSymbolTableRecord
100
AcDbDimStyleTableRecord
  2
AM_ANSI$SF
 70
     0
  4
mm
 41
0.12
 42
0.05
 43
0.5
 44
0.1
 47
0.1
 48
0.1
 75
     1
 76
     1
 78
     7
 79
     2
 90
     1
140
0.12
141
0.0
146
0.71
147
0.06
176
   256
177
   256
178
     2
274
     4
284
     7
340
37
345
324
346
324
347
324
371
    -1
372
    -1
1001
ACAD_DSTYLE_DIMBREAK
1070
   391
1040
0.125
1001
ACAD_DSTYLE_DIMJAG
1070
   388
1040
1.5
  0
DIMSTYLE
105
C78
330
32B
100
AcDbSymbolTableRecord
100
AcDbDimStyleTableRecord
  2
AM_ANSI$SH
 70
     0
  4
mm
 41
0.12
 42
0.05
 43
0.5
 44
0.1
 47
0.1
 48
0.1
 75
     1
 76
     1
 78
     7
 79
     2
 90
     1
140
0.12
141
0.0
146
0.71
147
0.06
173
     1
176
   256
177
   256
178
     2
274
     4
284
     7
340
37
343
C74
345
324
346
324
347
324
371
    -1
372
    -1
1001
ACAD_DSTYLE_DIMBREAK
1070
   391
1040
0.125
1001
ACAD_DSTYLE_DIMJAG
1070
   388
1040
1.5
  0
ENDTAB
  0
TABLE
  2
BLOCK_RECORD
  5
1
330
0
100
AcDbSymbolTable
 70
    14
  0
BLOCK_RECORD
  5
2
102
{ACAD_XDICTIONARY
360
B90
102
}
330
1
100
AcDbSymbolTableRecord
100
AcDbBlockTableRecord
  2
*MODEL_SPACE
340
317
 70
     0
280
     1
281
     0
  0
BLOCK_RECORD
  5
319
330
1
100
AcDbSymbolTableRecord
100
AcDbBlockTableRecord
  2
*PAPER_SPACE
340
31F
 70
     0
280
     1
281
     0
  0
BLOCK_RECORD
  5
1EC
330
1
100
AcDbSymbolTableRecord
100
AcDbBlockTableRecord
  2
RA_A2_Pr
340
0
 70
     0
280
     1
281
     0
  0
BLOCK_RECORD
  5
337
330
1
100
AcDbSymbolTableRecord
100
AcDbBlockTableRecord
  2
ACO-SF
340
0
 70
     0
280
     1
281
     0
  0
BLOCK_RECORD
  5
3D7
330
1
100
AcDbSymbolTableRecord
100
AcDbBlockTableRecord
  2
logo_1200
340
0
 70
     0
280
     1
281
     0
  0
BLOCK_RECORD
  5
57D
330
1
100
AcDbSymbolTableRecord
100
AcDbBlockTableRecord
  2
*D3
340
0
 70
     0
280
     1
281
     0
  0
BLOCK_RECORD
  5
589
330
1
100
AcDbSymbolTableRecord
100
AcDbBlockTableRecord
  2
*D4
340
0
 70
     0
280
     1
281
     0
  0
BLOCK_RECORD
  5
595
330
1
100
AcDbSymbolTableRecord
100
AcDbBlockTableRecord
  2
*D5
340
0
 70
     0
280
     1
281
     0
  0
BLOCK_RECORD
  5
74E
330
1
100
AcDbSymbolTableRecord
100
AcDbBlockTableRecord
  2
*D6
340
0
 70
     0
280
     1
281
     0
  0
BLOCK_RECORD
  5
75A
330
1
100
AcDbSymbolTableRecord
100
AcDbBlockTableRecord
  2
*D7
340
0
 70
     0
280
     1
281
     0
  0
BLOCK_RECORD
  5
772
330
1
100
AcDbSymbolTableRecord
100
AcDbBlockTableRecord
  2
*D8
340
0
 70
     0
280
     1
281
     0
  0
BLOCK_RECORD
  5
78A
330
1
100
AcDbSymbolTableRecord
100
AcDbBlockTableRecord
  2
*D9
340
0
 70
     0
280
     1
281
     0
  0
BLOCK_RECORD
  5
C74
330
1
100
AcDbSymbolTableRecord
100
AcDbBlockTableRecord
  2
GENAXEH
340
0
 70
     0
280
     1
281
     0
  0
BLOCK_RECORD
  5
184A
330
1
100
AcDbSymbolTableRecord
100
AcDbBlockTableRecord
  2
_ACMFILLEDHALF
340
0
 70
     0
280
     1
281
     0
  0
ENDTAB
  0
ENDSEC
  0
SECTION
  2
BLOCKS
  0
BLOCK
  5
315
330
2
100
AcDbEntity
  8
0
100
AcDbBlockBegin
  2
*MODEL_SPACE
 70
     0
 10
0.0
 20
0.0
 30
0.0
  3
*MODEL_SPACE
  1

  0
ENDBLK
  5
316
330
2
100
AcDbEntity
  8
0
100
AcDbBlockEnd
  0
BLOCK
  5
31D
330
319
100
AcDbEntity
 67
     1
  8
0
100
AcDbBlockBegin
  2
*PAPER_SPACE
 70
     0
 10
0.0
 20
0.0
 30
0.0
  3
*PAPER_SPACE
  1

  0
ENDBLK
  5
31E
330
319
100
AcDbEntity
 67
     1
  8
0
100
AcDbBlockEnd
  0
BLOCK
  5
236
330
1EC
100
AcDbEntity
  8
0
100
AcDbBlockBegin
  2
RA_A2_Pr
 70
     0
 10
0.0
 20
0.0
 30
0.0
  3
RA_A2_Pr
  1

  0
LWPOLYLINE
  5
1ED
330
1EC
100
AcDbEntity
  8
KOPF
 62
    22
100
AcDbPolyline
 90
        4
 70
     1
 43
0.7
 10
588.0
 20
414.0
 10
588.0
 20
6.0
 10
21.0
 20
6.0
 10
21.0
 20
414.0
  0
LINE
  5
1F0
330
1EC
100
AcDbEntity
  8
KOPF
 62
    22
100
AcDbLine
 10
0.0
 20
420.0
 30
0.0
 11
594.0
 21
420.0
 31
0.0
  0
LINE
  5
1F1
330
1EC
100
AcDbEntity
  8
KOPF
 62
    22
100
AcDbLine
 10
594.0
 20
0.0
 30
0.0
 11
0.0
 21
0.0
 31
0.0
  0
LINE
  5
1F2
330
1EC
100
AcDbEntity
  8
KOPF
 62
    22
100
AcDbLine
 10
0.0
 20
0.0
 30
0.0
 11
0.0
 21
420.0
 31
0.0
  0
TEXT
  5
1F3
330
1EC
100
AcDbEntity
  8
KOPF
 62
    22
100
AcDbText
 10
16.12763230177199
 20
41.42224686135696
 30
0.0
 40
2.5
  1
A
 41
0.8
  7
TEXT25
100
AcDbText
  0
LINE
  5
1F5
330
1EC
100
AcDbEntity
  8
KOPF
 62
    22
100
AcDbLine
 10
21.0
 20
79.00000000000002
 30
0.0
 11
18.0
 21
79.00000000000002
 31
0.0
  0
TEXT
  5
1F6
330
1EC
100
AcDbEntity
  8
KOPF
 62
    22
100
AcDbText
 10
16.12763230177199
 20
114.422246861357
 30
0.0
 40
2.5
  1
B
 41
0.8
  7
TEXT25
100
AcDbText
  0
TEXT
  5
1F7
330
1EC
100
AcDbEntity
  8
KOPF
 62
    22
100
AcDbText
 10
56.29677316682592
 20
1.370968748636755
 30
0.0
 40
2.5
  1
1
 41
0.8
  7
TEXT25
100
AcDbText
  0
LINE
  5
1F8
330
1EC
100
AcDbEntity
  8
KOPF
 62
    22
100
AcDbLine
 10
93.0
 20
6.0
 30
0.0
 11
93.0
 21
3.0
 31
0.0
  0
TEXT
  5
1F9
330
1EC
100
AcDbEntity
  8
KOPF
 62
    22
100
AcDbText
 10
128.2967731668259
 20
1.370968748636755
 30
0.0
 40
2.5
  1
2
 41
0.8
  7
TEXT25
100
AcDbText
  0
LINE
  5
1FA
330
1EC
100
AcDbEntity
  8
KOPF
 62
    22
100
AcDbLine
 10
165.0
 20
6.0
 30
0.0
 11
165.0
 21
3.0
 31
0.0
  0
TEXT
  5
1FB
330
1EC
100
AcDbEntity
  8
KOPF
 62
    22
100
AcDbText
 10
200.2967731668259
 20
1.370968748636755
 30
0.0
 40
2.5
  1
3
 41
0.8
  7
TEXT25
100
AcDbText
  0
LINE
  5
1FC
330
1EC
100
AcDbEntity
  8
KOPF
 62
    22
100
AcDbLine
 10
210.0
 20
0.0
 30
0.0
 11
210.0
 21
6.0
 31
0.0
  0
LINE
  5
1FD
330
1EC
100
AcDbEntity
  8
KOPF
 62
    22
100
AcDbLine
 10
0.0
 20
148.5
 30
0.0
 11
10.54770188609711
 21
148.5
 31
0.0
  0
LINE
  5
1FE
330
1EC
100
AcDbEntity
  8
KOPF
 62
    22
100
AcDbLine
 10
21.0
 20
152.0
 30
0.0
 11
18.0
 21
152.0
 31
0.0
  0
TEXT
  5
1FF
330
1EC
100
AcDbEntity
  8
KOPF
 62
    22
100
AcDbText
 10
16.12763230177199
 20
187.4222468613569
 30
0.0
 40
2.5
  1
C
 41
0.8
  7
TEXT25
100
AcDbText
  0
LINE
  5
200
330
1EC
100
AcDbEntity
  8
KOPF
 62
    22
100
AcDbLine
 10
21.0
 20
225.0
 30
0.0
 11
18.0
 21
225.0
 31
0.0
  0
TEXT
  5
201
330
1EC
100
AcDbEntity
  8
KOPF
 62
    22
100
AcDbText
 10
16.12763230177199
 20
260.422246861357
 30
0.0
 40
2.5
  1
D
 41
0.8
  7
TEXT25
100
AcDbText
  0
LINE
  5
202
330
1EC
100
AcDbEntity
  8
KOPF
 62
    22
100
AcDbLine
 10
12.33785021057986
 20
296.9999999999999
 30
0.0
 11
21.0
 21
296.9999999999999
 31
0.0
  0
LINE
  5
203
330
1EC
100
AcDbEntity
  8
KOPF
 62
    22
100
AcDbLine
 10
21.0
 20
298.0
 30
0.0
 11
18.0
 21
298.0
 31
0.0
  0
TEXT
  5
204
330
1EC
100
AcDbEntity
  8
KOPF
 62
    22
100
AcDbText
 10
16.12763230177199
 20
333.422246861357
 30
0.0
 40
2.5
  1
E
 41
0.8
  7
TEXT25
100
AcDbText
  0
LINE
  5
205
330
1EC
100
AcDbEntity
  8
KOPF
 62
    22
100
AcDbLine
 10
21.0
 20
371.0
 30
0.0
 11
18.0
 21
371.0
 31
0.0
  0
TEXT
  5
206
330
1EC
100
AcDbEntity
  8
KOPF
 62
    22
100
AcDbText
 10
16.12763230177199
 20
393.4920404627393
 30
0.0
 40
2.5
  1
F
 41
0.8
  7
TEXT25
100
AcDbText
  0
TEXT
  5
207
330
1EC
100
AcDbEntity
  8
KOPF
 62
    22
100
AcDbText
 10
56.29677316682592
 20
415.6290312513632
 30
0.0
 40
2.5
  1
1
 41
0.8
  7
TEXT25
100
AcDbText
  0
LINE
  5
208
330
1EC
100
AcDbEntity
  8
KOPF
 62
    22
100
AcDbLine
 10
93.0
 20
414.0
 30
0.0
 11
93.0
 21
417.0
 31
0.0
  0
TEXT
  5
209
330
1EC
100
AcDbEntity
  8
KOPF
 62
    22
100
AcDbText
 10
128.2967731668259
 20
415.6290312513632
 30
0.0
 40
2.5
  1
2
 41
0.8
  7
TEXT25
100
AcDbText
  0
LINE
  5
20A
330
1EC
100
AcDbEntity
  8
KOPF
 62
    22
100
AcDbLine
 10
165.0
 20
414.0
 30
0.0
 11
165.0
 21
417.0
 31
0.0
  0
TEXT
  5
20B
330
1EC
100
AcDbEntity
  8
KOPF
 62
    22
100
AcDbText
 10
200.2967731668259
 20
415.6290312513632
 30
0.0
 40
2.5
  1
3
 41
0.8
  7
TEXT25
100
AcDbText
  0
LINE
  5
20C
330
1EC
100
AcDbEntity
  8
KOPF
 62
    22
100
AcDbLine
 10
594.0
 20
420.0
 30
0.0
 11
594.0
 21
0.0
 31
0.0
  0
LINE
  5
20D
330
1EC
100
AcDbEntity
  8
KOPF
 62
    22
100
AcDbLine
 10
237.0
 20
6.0
 30
0.0
 11
237.0
 21
3.0
 31
0.0
  0
TEXT
  5
20E
330
1EC
100
AcDbEntity
  8
KOPF
 62
    22
100
AcDbText
 10
272.2967731668259
 20
1.370968748636755
 30
0.0
 40
2.5
  1
4
 41
0.8
  7
TEXT25
100
AcDbText
  0
LINE
  5
20F
330
1EC
100
AcDbEntity
  8
KOPF
 62
    22
100
AcDbLine
 10
309.0
 20
6.0
 30
0.0
 11
309.0
 21
3.0
 31
0.0
  0
TEXT
  5
210
330
1EC
100
AcDbEntity
  8
KOPF
 62
    22
100
AcDbText
 10
345.2967731668259
 20
1.370968748636755
 30
0.0
 40
2.5
  1
5
 41
0.8
  7
TEXT25
100
AcDbText
  0
LINE
  5
211
330
1EC
100
AcDbEntity
  8
KOPF
 62
    22
100
AcDbLine
 10
381.0
 20
6.0
 30
0.0
 11
381.0
 21
3.0
 31
0.0
  0
LINE
  5
212
330
1EC
100
AcDbEntity
  8
KOPF
 62
    22
100
AcDbLine
 10
398.0
 20
6.0
 30
0.0
 11
398.0
 21
0.0
 31
0.0
  0
TEXT
  5
213
330
1EC
100
AcDbEntity
  8
KOPF
 62
    22
100
AcDbText
 10
416.2967731668259
 20
1.370968748636755
 30
0.0
 40
2.5
  1
6
 41
0.8
  7
TEXT25
100
AcDbText
  0
LINE
  5
214
330
1EC
100
AcDbEntity
  8
KOPF
 62
    22
100
AcDbLine
 10
525.0699601119618
 20
6.0
 30
0.0
 11
525.0699601119618
 21
3.0
 31
0.0
  0
TEXT
  5
215
330
1EC
100
AcDbEntity
  8
KOPF
 62
    22
100
AcDbText
 10
580.8263465050426
 20
1.370968748636755
 30
0.0
 40
3.0
  1
A2
 41
0.8
  7
BEMSTIL
100
AcDbText
  0
TEXT
  5
217
330
1EC
100
AcDbEntity
  8
KOPF
 62
    22
100
AcDbText
 10
589.5361572162235
 20
41.42224686135693
 30
0.0
 40
2.5
  1
A
 41
0.8
  7
TEXT25
100
AcDbText
  0
LINE
  5
218
330
1EC
100
AcDbEntity
  8
KOPF
 62
    22
100
AcDbLine
 10
588.0
 20
79.00000000000002
 30
0.0
 11
591.0
 21
79.00000000000002
 31
0.0
  0
TEXT
  5
219
330
1EC
100
AcDbEntity
  8
KOPF
 62
    22
100
AcDbText
 10
589.8161572162234
 20
114.422246861357
 30
0.0
 40
2.5
  1
B
 41
0.8
  7
TEXT25
100
AcDbText
  0
LINE
  5
21A
330
1EC
100
AcDbEntity
  8
KOPF
 62
    22
100
AcDbLine
 10
237.0
 20
414.0
 30
0.0
 11
237.0
 21
417.0
 31
0.0
  0
TEXT
  5
21B
330
1EC
100
AcDbEntity
  8
KOPF
 62
    22
100
AcDbText
 10
272.2967731668259
 20
415.6290312513632
 30
0.0
 40
3.0
  1
4
 41
0.8
  7
BEMSTIL
100
AcDbText
  0
LINE
  5
21C
330
1EC
100
AcDbEntity
  8
KOPF
 62
    22
100
AcDbLine
 10
309.0
 20
414.0
 30
0.0
 11
309.0
 21
417.0
 31
0.0
  0
TEXT
  5
21D
330
1EC
100
AcDbEntity
  8
KOPF
 62
    22
100
AcDbText
 10
345.2967731668259
 20
415.6290312513632
 30
0.0
 40
2.5
  1
5
 41
0.8
  7
TEXT25
100
AcDbText
  0
LINE
  5
21E
330
1EC
100
AcDbEntity
  8
KOPF
 62
    22
100
AcDbLine
 10
381.0
 20
414.0
 30
0.0
 11
381.0
 21
417.0
 31
0.0
  0
LINE
  5
21F
330
1EC
100
AcDbEntity
  8
KOPF
 62
    22
100
AcDbLine
 10
588.0
 20
152.0
 30
0.0
 11
591.0
 21
152.0
 31
0.0
  0
TEXT
  5
220
330
1EC
100
AcDbEntity
  8
KOPF
 62
    22
100
AcDbText
 10
589.9421173281852
 20
187.4222468613569
 30
0.0
 40
2.5
  1
C
 41
0.8
  7
TEXT25
100
AcDbText
  0
TEXT
  5
221
330
1EC
100
AcDbEntity
  8
KOPF
 62
    22
100
AcDbText
 10
589.9421173281852
 20
187.4222468613569
 30
0.0
 40
2.5
  1
C
 41
0.8
  7
TEXT25
100
AcDbText
  0
TEXT
  5
222
330
1EC
100
AcDbEntity
  8
KOPF
 62
    22
100
AcDbText
 10
589.8721572162234
 20
187.4222468613569
 30
0.0
 40
2.5
  1
C
 41
0.8
  7
TEXT25
100
AcDbText
  0
LINE
  5
223
330
1EC
100
AcDbEntity
  8
KOPF
 62
    22
100
AcDbLine
 10
588.0699601119617
 20
225.0
 30
0.0
 11
591.0699601119618
 21
225.0
 31
0.0
  0
LINE
  5
224
330
1EC
100
AcDbEntity
  8
KOPF
 62
    22
100
AcDbLine
 10
588.0699601119617
 20
225.0
 30
0.0
 11
591.0699601119618
 21
225.0
 31
0.0
  0
LINE
  5
225
330
1EC
100
AcDbEntity
  8
KOPF
 62
    22
100
AcDbLine
 10
588.0
 20
225.0
 30
0.0
 11
591.0
 21
225.0
 31
0.0
  0
TEXT
  5
226
330
1EC
100
AcDbEntity
  8
KOPF
 62
    22
100
AcDbText
 10
589.8861173281852
 20
260.422246861357
 30
0.0
 40
2.5
  1
D
 41
0.8
  7
TEXT25
100
AcDbText
  0
TEXT
  5
227
330
1EC
100
AcDbEntity
  8
KOPF
 62
    22
100
AcDbText
 10
589.8861173281852
 20
260.422246861357
 30
0.0
 40
2.5
  1
D
 41
0.8
  7
TEXT25
100
AcDbText
  0
TEXT
  5
228
330
1EC
100
AcDbEntity
  8
KOPF
 62
    22
100
AcDbText
 10
589.8161572162234
 20
260.422246861357
 30
0.0
 40
2.5
  1
D
 41
0.8
  7
TEXT25
100
AcDbText
  0
TEXT
  5
229
330
1EC
100
AcDbEntity
  8
KOPF
 62
    22
100
AcDbText
 10
416.2967731668259
 20
415.6290312513632
 30
0.0
 40
2.5
  1
6
 41
0.8
  7
TEXT25
100
AcDbText
  0
LINE
  5
22A
330
1EC
100
AcDbEntity
  8
KOPF
 62
    22
100
AcDbLine
 10
453.0
 20
414.0
 30
0.0
 11
453.0
 21
417.0
 31
0.0
  0
TEXT
  5
22B
330
1EC
100
AcDbEntity
  8
KOPF
 62
    22
100
AcDbText
 10
488.2967731668259
 20
415.6290312513632
 30
0.0
 40
2.5
  1
7
 41
0.8
  7
TEXT25
100
AcDbText
  0
LINE
  5
22C
330
1EC
100
AcDbEntity
  8
KOPF
 62
    22
100
AcDbLine
 10
588.0699601119617
 20
298.0
 30
0.0
 11
591.0699601119618
 21
298.0
 31
0.0
  0
LINE
  5
22D
330
1EC
100
AcDbEntity
  8
KOPF
 62
    22
100
AcDbLine
 10
588.0699601119617
 20
298.0
 30
0.0
 11
591.0699601119618
 21
298.0
 31
0.0
  0
LINE
  5
22E
330
1EC
100
AcDbEntity
  8
KOPF
 62
    22
100
AcDbLine
 10
588.0
 20
298.0
 30
0.0
 11
591.0
 21
298.0
 31
0.0
  0
TEXT
  5
22F
330
1EC
100
AcDbEntity
  8
KOPF
 62
    22
100
AcDbText
 10
589.8861173281852
 20
333.422246861357
 30
0.0
 40
2.5
  1
E
 41
0.8
  7
TEXT25
100
AcDbText
  0
TEXT
  5
230
330
1EC
100
AcDbEntity
  8
KOPF
 62
    22
100
AcDbText
 10
589.8861173281852
 20
333.422246861357
 30
0.0
 40
2.5
  1
E
 41
0.8
  7
TEXT25
100
AcDbText
  0
TEXT
  5
231
330
1EC
100
AcDbEntity
  8
KOPF
 62
    22
100
AcDbText
 10
589.8161572162234
 20
333.422246861357
 30
0.0
 40
2.5
  1
E
 41
0.8
  7
TEXT25
100
AcDbText
  0
LINE
  5
232
330
1EC
100
AcDbEntity
  8
KOPF
 62
    22
100
AcDbLine
 10
525.0
 20
414.0
 30
0.0
 11
525.0
 21
417.0
 31
0.0
  0
LINE
  5
233
330
1EC
100
AcDbEntity
  8
KOPF
 62
    22
100
AcDbLine
 10
588.0
 20
371.0
 30
0.0
 11
591.0
 21
371.0
 31
0.0
  0
TEXT
  5
234
330
1EC
100
AcDbEntity
  8
KOPF
 62
    22
100
AcDbText
 10
560.2967731668258
 20
415.6290312513632
 30
0.0
 40
2.5
  1
8
 41
0.8
  7
TEXT25
100
AcDbText
  0
TEXT
  5
235
330
1EC
100
AcDbEntity
  8
KOPF
 62
    22
100
AcDbText
 10
589.8161572162234
 20
393.4920404627393
 30
0.0
 40
2.5
  1
F
 41
0.8
  7
TEXT25
100
AcDbText
  0
ENDBLK
  5
237
330
1EC
100
AcDbEntity
  8
0
100
AcDbBlockEnd
  0
BLOCK
  5
3B3
330
337
100
AcDbEntity
  8
0
100
AcDbBlockBegin
  2
ACO-SF
 70
     2
 10
0.0
 20
0.0
 30
0.0
  3
ACO-SF
  1

  0
LINE
  5
338
330
337
100
AcDbEntity
  8
KOPF
 62
    12
100
AcDbLine
 10
0.0
 20
5.0
 30
0.0
 11
-83.0
 21
5.0
 31
0.0
  0
LWPOLYLINE
  5
339
330
337
100
AcDbEntity
  8
KOPF
 62
    12
100
AcDbPolyline
 90
        2
 70
     0
 43
0.5
 10
-83.0
 20
10.0
 10
0.0
 20
10.0
  0
LINE
  5
33A
330
337
100
AcDbEntity
  8
KOPF
100
AcDbLine
 10
-83.0
 20
10.0
 30
0.0
 11
0.0
 21
10.0
 31
0.0
  0
LINE
  5
33B
330
337
100
AcDbEntity
  8
KOPF
100
AcDbLine
 10
0.0
 20
5.0
 30
0.0
 11
-83.0
 21
5.0
 31
0.0
  0
LWPOLYLINE
  5
33C
330
337
100
AcDbEntity
  8
KOPF
 62
    12
100
AcDbPolyline
 90
        2
 70
     0
 43
0.5
 10
0.0
 20
68.49999999999997
 10
-182.0
 20
68.49999999999997
  0
LWPOLYLINE
  5
33D
330
337
100
AcDbEntity
  8
KOPF
 62
    12
100
AcDbPolyline
 90
        2
 70
     0
 43
0.5
 10
0.0
 20
46.99999999999997
 10
-182.0
 20
46.99999999999997
  0
LWPOLYLINE
  5
33E
330
337
100
AcDbEntity
  8
KOPF
 62
    12
100
AcDbPolyline
 90
        2
 70
     0
 43
0.5
 10
-0.2154115848244373
 20
27.23910754630094
 10
-182.1882840408789
 20
27.23910754630094
  0
LINE
  5
33F
330
337
100
AcDbEntity
  8
KOPF
 62
    12
100
AcDbLine
 10
0.0
 20
88.49999999999996
 30
0.0
 11
-182.0
 21
88.49999999999996
 31
0.0
  0
LINE
  5
340
330
337
100
AcDbEntity
  8
KOPF
 62
    12
100
AcDbLine
 10
-182.0
 20
83.49999999999997
 30
0.0
 11
0.0
 21
83.49999999999997
 31
0.0
  0
LINE
  5
341
330
337
100
AcDbEntity
  8
KOPF
 62
    12
100
AcDbLine
 10
0.0
 20
73.49999999999997
 30
0.0
 11
-182.0
 21
73.49999999999997
 31
0.0
  0
LINE
  5
342
330
337
100
AcDbEntity
  8
KOPF
 62
    12
100
AcDbLine
 10
-162.682677
 20
78.49999999999997
 30
0.0
 11
0.0
 21
78.49999999999997
 31
0.0
  0
LINE
  5
343
330
337
100
AcDbEntity
  8
KOPF
100
AcDbLine
 10
0.0
 20
68.49999999999997
 30
0.0
 11
-182.0
 21
68.49999999999997
 31
0.0
  0
LINE
  5
344
330
337
100
AcDbEntity
  8
KOPF
100
AcDbLine
 10
0.0
 20
88.49999999999996
 30
0.0
 11
-182.0
 21
88.49999999999996
 31
0.0
  0
LINE
  5
345
330
337
100
AcDbEntity
  8
KOPF
100
AcDbLine
 10
-182.0
 20
83.49999999999997
 30
0.0
 11
0.0
 21
83.49999999999997
 31
0.0
  0
LINE
  5
346
330
337
100
AcDbEntity
  8
KOPF
100
AcDbLine
 10
0.0
 20
73.49999999999997
 30
0.0
 11
-182.0
 21
73.49999999999997
 31
0.0
  0
LINE
  5
347
330
337
100
AcDbEntity
  8
KOPF
100
AcDbLine
 10
-162.682677
 20
78.49999999999997
 30
0.0
 11
0.0
 21
78.49999999999997
 31
0.0
  0
LINE
  5
348
330
337
100
AcDbEntity
  8
KOPF
 62
    12
100
AcDbLine
 10
-182.0
 20
57.74999999999997
 30
0.0
 11
-100.0
 21
57.74999999999997
 31
0.0
  0
LINE
  5
349
330
337
100
AcDbEntity
  8
KOPF
 62
    12
100
AcDbLine
 10
-182.0
 20
41.99999999999996
 30
0.0
 11
-113.4
 21
41.99999999999996
 31
0.0
  0
LINE
  5
34A
330
337
100
AcDbEntity
  8
KOPF
100
AcDbLine
 10
-182.0
 20
57.74999999999997
 30
0.0
 11
-100.0
 21
57.74999999999997
 31
0.0
  0
LINE
  5
34B
330
337
100
AcDbEntity
  8
KOPF
100
AcDbLine
 10
-182.0
 20
41.99999999999996
 30
0.0
 11
-113.4
 21
41.99999999999996
 31
0.0
  0
LINE
  5
34C
330
337
100
AcDbEntity
  8
KOPF
 62
    12
100
AcDbLine
 10
-142.0
 20
68.49999999999997
 30
0.0
 11
-142.0
 21
46.99999999999997
 31
0.0
  0
LINE
  5
34D
330
337
100
AcDbEntity
  8
KOPF
 62
    12
100
AcDbLine
 10
-142.0
 20
68.49999999999997
 30
0.0
 11
-142.0
 21
46.99999999999997
 31
0.0
  0
ATTDEF
  5
34E
330
337
100
AcDbEntity
  8
TEXT35
100
AcDbText
 10
-140.2
 20
49.4
 30
0.0
 40
3.5
  1

 41
0.8
  7
TEXT35
100
AcDbAttributeDefinition
280
     0
  3
Oberfläche:
  2
F63
 70
     0
280
     0
  0
LWPOLYLINE
  5
34F
330
337
100
AcDbEntity
  8
KOPF
 62
    12
100
AcDbPolyline
 90
        2
 70
     0
 43
0.7
 10
-182.0
 20
88.49999999999996
 10
-182.0
 20
0.0
  0
LINE
  5
350
330
337
100
AcDbEntity
  8
KOPF
100
AcDbLine
 10
-182.0
 20
88.49999999999996
 30
0.0
 11
-182.0
 21
0.0
 31
0.0
  0
TEXT
  5
351
330
337
100
AcDbEntity
  8
KOPF
100
AcDbText
 10
-179.738589
 20
38.32439403633659
 30
0.0
 40
2.0
  1
Gezeichnet:
 41
0.8
  7
TEXT20
100
AcDbText
  0
ATTDEF
  5
352
330
337
100
AcDbEntity
  8
TEXT35
100
AcDbText
 10
-176.6
 20
3.399999999999999
 30
0.0
 40
3.5
  1

 41
0.8
  7
TEXT35
100
AcDbAttributeDefinition
280
     0
  3
Z-Titel 3
  2
F13
 70
     0
280
     0
  0
ATTDEF
  5
353
330
337
100
AcDbEntity
  8
TEXT50
100
AcDbText
 10
-176.6
 20
10.63250279796295
 30
0.0
 40
5.0
  1

 41
0.8
  7
TEXT50
100
AcDbAttributeDefinition
280
     0
  3
Z-Titel 2
  2
F3
 70
     0
280
     0
  0
ATTDEF
  5
354
330
337
100
AcDbEntity
  8
TEXT50
100
AcDbText
 10
-176.6
 20
18.56318324460701
 30
0.0
 40
5.0
  1

 41
0.8
  7
TEXT50
100
AcDbAttributeDefinition
280
     0
  3
Z-Titel 1
  2
F2
 70
     0
280
     0
  0
TEXT
  5
355
330
337
100
AcDbEntity
  8
KOPF
100
AcDbText
 10
-179.738589
 20
28.52395361420514
 30
0.0
 40
2.0
  1
Update:
 41
0.8
  7
TEXT20
100
AcDbText
  0
TEXT
  5
356
330
337
100
AcDbEntity
  8
KOPF
100
AcDbText
 10
-179.738589
 20
33.43577642824449
 30
0.0
 40
2.0
  1
Geprüft
 41
0.8
  7
TEXT20
100
AcDbText
  0
LINE
  5
357
330
337
100
AcDbEntity
  8
KOPF
 62
    12
100
AcDbLine
 10
-163.0
 20
46.99999999999997
 30
0.0
 11
-163.0
 21
27.0
 31
0.0
  0
LINE
  5
358
330
337
100
AcDbEntity
  8
KOPF
100
AcDbLine
 10
-163.0
 20
46.99999999999997
 30
0.0
 11
-163.0
 21
27.0
 31
0.0
  0
ATTDEF
  5
359
330
337
100
AcDbEntity
  8
TEXT25
100
AcDbText
 10
-161.5009557098303
 20
28.32091209119023
 30
0.0
 40
2.0
  1

 41
0.8
  7
TEXT20
100
AcDbAttributeDefinition
280
     0
  3
Update am:
  2
F53
 70
     0
280
     0
  0
ATTDEF
  5
35A
330
337
100
AcDbEntity
  8
TEXT25
100
AcDbText
 10
-161.5539333606331
 20
33.12227989587696
 30
0.0
 40
2.0
  1

 41
0.8
  7
TEXT20
100
AcDbAttributeDefinition
280
     0
  3
Geprüft am:
  2
F22
 70
     0
280
     0
  0
ATTDEF
  5
35B
330
337
100
AcDbEntity
  8
TEXT25
100
AcDbText
 10
-161.5207141482394
 20
38.33983936444393
 30
0.0
 40
2.0
  1

 41
0.8
  7
TEXT20
100
AcDbAttributeDefinition
280
     0
  3
Gezeichnet am:
  2
F9
 70
     0
280
     0
  0
TEXT
  5
35C
330
337
100
AcDbEntity
  8
KOPF
100
AcDbText
 10
-155.964455
 20
43.13467299999999
 30
0.0
 40
2.0
  1
Datum
 41
0.8
  7
TEXT20
100
AcDbText
  0
LINE
  5
35D
330
337
100
AcDbEntity
  8
KOPF
 62
    12
100
AcDbLine
 10
-138.4
 20
46.99999999999997
 30
0.0
 11
-138.4
 21
27.0
 31
0.0
  0
LINE
  5
35E
330
337
100
AcDbEntity
  8
KOPF
100
AcDbLine
 10
-138.4
 20
46.99999999999997
 30
0.0
 11
-138.4
 21
27.0
 31
0.0
  0
TEXT
  5
35F
330
337
100
AcDbEntity
  8
KOPF
100
AcDbText
 10
-130.065072
 20
43.14125800000002
 30
0.0
 40
2.0
  1
Name
 41
0.8
  7
TEXT20
100
AcDbText
  0
ATTDEF
  5
360
330
337
100
AcDbEntity
  8
TEXT25
100
AcDbText
 10
-136.2746977811447
 20
33.28471223400234
 30
0.0
 40
2.0
  1

 41
0.8
  7
TEXT20
100
AcDbAttributeDefinition
280
     0
  3
Geprüft von:
  2
F21
 70
     0
280
     0
  0
ATTDEF
  5
361
330
337
100
AcDbEntity
  8
TEXT25
100
AcDbText
 10
-136.3996291720711
 20
28.23101841142455
 30
0.0
 40
2.0
  1

 41
0.8
  7
TEXT20
100
AcDbAttributeDefinition
280
     0
  3
Update von:
  2
F52
 70
     0
280
     0
  0
ATTDEF
  5
362
330
337
100
AcDbEntity
  8
TEXT25
100
AcDbText
 10
-136.1922113552417
 20
38.48172579575253
 30
0.0
 40
2.0
  1

 41
0.8
  7
TEXT20
100
AcDbAttributeDefinition
280
     0
  3
Gezeichnet von
  2
F8
 70
     0
280
     0
  0
TEXT
  5
363
330
337
100
AcDbEntity
  8
KOPF
100
AcDbText
 10
-174.6925639999999
 20
69.53813999999997
 30
0.0
 40
2.0
  1
Index
 41
0.8
  7
TEXT20
100
AcDbText
  0
LINE
  5
364
330
337
100
AcDbEntity
  8
KOPF
100
AcDbLine
 10
-182.0
 20
78.49999999999997
 30
0.0
 11
-162.682677
 21
78.49999999999997
 31
0.0
  0
LINE
  5
365
330
337
100
AcDbEntity
  8
KOPF
100
AcDbLine
 10
-182.0
 20
78.49999999999997
 30
0.0
 11
-162.682677
 21
78.49999999999997
 31
0.0
  0
TEXT
  5
366
330
337
100
AcDbEntity
  8
KOPF
100
AcDbText
 10
-180.0
 20
65.166273
 30
0.0
 40
2.0
  1
Werkstoff:
 41
0.8
  7
TEXT20
100
AcDbText
  0
TEXT
  5
367
330
337
100
AcDbEntity
  8
KOPF
100
AcDbText
 10
-181.0
 20
54.49999999999997
 30
0.0
 40
2.0
  1
zul. Abweich.:
 41
0.8
  7
TEXT20
100
AcDbText
  0
ATTDEF
  5
368
330
337
100
AcDbEntity
  8
TEXT35
100
AcDbText
 10
-179.7
 20
59.6
 30
0.0
 40
3.5
  1

 41
0.8
  7
TEXT35
100
AcDbAttributeDefinition
280
     0
  3
Werkstoff:
  2
F61
 70
     0
280
     0
  0
ATTDEF
  5
369
330
337
100
AcDbEntity
  8
TEXT35
100
AcDbText
 10
-179.7
 20
49.7
 30
0.0
 40
3.5
  1

 41
0.8
  7
TEXT35
100
AcDbAttributeDefinition
280
     0
  3
zul. Abweichung
  2
F62
 70
     0
280
     0
  0
ATTDEF
  5
36A
330
337
100
AcDbEntity
  8
TEXT25
100
AcDbText
 10
-174.360415155955
 20
74.59999999999999
 30
0.0
 40
2.0
  1

 41
0.8
  7
TEXT20
100
AcDbAttributeDefinition
280
     0
  3
Index vv.:
  2
F72
 70
     0
280
     0
  0
ATTDEF
  5
36B
330
337
100
AcDbEntity
  8
TEXT25
100
AcDbText
 10
-174.4435409453564
 20
79.47378932523601
 30
0.0
 40
2.0
  1

 41
0.8
  7
TEXT20
100
AcDbAttributeDefinition
280
     0
  3
Index v.:
  2
F68
 70
     0
280
     0
  0
ATTDEF
  5
36C
330
337
100
AcDbEntity
  8
TEXT25
100
AcDbText
 10
-174.3700408782365
 20
84.63034186138365
 30
0.0
 40
2.0
  1

 41
0.8
  7
TEXT20
100
AcDbAttributeDefinition
280
     0
  3
Index l.:
  2
F64
 70
     0
280
     0
  0
LINE
  5
36D
330
337
100
AcDbEntity
  8
KOPF
100
AcDbLine
 10
-162.682677
 20
88.49999999999996
 30
0.0
 11
-162.682677
 21
68.49999999999997
 31
0.0
  0
LINE
  5
36E
330
337
100
AcDbEntity
  8
KOPF
100
AcDbLine
 10
-162.682677
 20
88.49999999999996
 30
0.0
 11
-162.682677
 21
68.49999999999997
 31
0.0
  0
TEXT
  5
36F
330
337
100
AcDbEntity
  8
KOPF
100
AcDbText
 10
-156.706568
 20
69.53813999999997
 30
0.0
 40
2.0
  1
Datum
 41
0.8
  7
TEXT20
100
AcDbText
  0
ATTDEF
  5
370
330
337
100
AcDbEntity
  8
TEXT25
100
AcDbText
 10
-160.9
 20
75.09999999999999
 30
0.0
 40
2.0
  1

 41
0.8
  7
TEXT20
100
AcDbAttributeDefinition
280
     0
  3
Datum vv.:
  2
F73
 70
     0
280
     0
  0
ATTDEF
  5
371
330
337
100
AcDbEntity
  8
TEXT25
100
AcDbText
 10
-160.9
 20
79.40000000000001
 30
0.0
 40
2.0
  1

 41
0.8
  7
TEXT20
100
AcDbAttributeDefinition
280
     0
  3
Datum v.:
  2
F69
 70
     0
280
     0
  0
ATTDEF
  5
372
330
337
100
AcDbEntity
  8
TEXT25
100
AcDbText
 10
-160.6
 20
84.50000000000001
 30
0.0
 40
2.0
  1

 41
0.8
  7
TEXT20
100
AcDbAttributeDefinition
280
     0
  3
Datum l.:
  2
F65
 70
     0
280
     0
  0
LINE
  5
373
330
337
100
AcDbEntity
  8
KOPF
 62
    12
100
AcDbLine
 10
-142.0
 20
68.49999999999997
 30
0.0
 11
-142.0
 21
88.49999999999996
 31
0.0
  0
LINE
  5
374
330
337
100
AcDbEntity
  8
KOPF
100
AcDbLine
 10
-142.0
 20
68.49999999999997
 30
0.0
 11
-142.0
 21
88.49999999999996
 31
0.0
  0
ATTDEF
  5
375
330
337
100
AcDbEntity
  8
TEXT35
100
AcDbText
 10
-139.9
 20
59.29999999999999
 30
0.0
 40
3.5
  1

 41
0.8
  7
TEXT35
100
AcDbAttributeDefinition
280
     0
  3
Gewicht:
  2
F60
 70
     0
280
     0
  0
TEXT
  5
376
330
337
100
AcDbEntity
  8
KOPF
100
AcDbText
 10
-140.387393
 20
54.54752599999996
 30
0.0
 40
2.0
  1
Oberfläche
 41
0.8
  7
TEXT20
100
AcDbText
  0
TEXT
  5
377
330
337
100
AcDbEntity
  8
KOPF
100
AcDbText
 10
-140.1020469999999
 20
65.166273
 30
0.0
 40
2.0
  1
Gewicht:
 41
0.8
  7
TEXT20
100
AcDbText
  0
TEXT
  5
378
330
337
100
AcDbEntity
  8
KOPF
100
AcDbText
 10
-140.1020469999999
 20
65.166273
 30
0.0
 40
2.0
  1
Gewicht:
 41
0.8
  7
TEXT20
100
AcDbText
  0
ATTDEF
  5
379
330
337
100
AcDbEntity
  8
TEXT25
100
AcDbText
 10
-140.4
 20
74.59999999999999
 30
0.0
 40
2.0
  1

 41
0.8
  7
TEXT20
100
AcDbAttributeDefinition
280
     0
  3
Bennenung vv.:
  2
F74
 70
     0
280
     0
  0
ATTDEF
  5
37A
330
337
100
AcDbEntity
  8
TEXT25
100
AcDbText
 10
-140.5063960262479
 20
79.64480359078786
 30
0.0
 40
2.0
  1

 41
0.8
  7
TEXT20
100
AcDbAttributeDefinition
280
     0
  3
Benennung v.:
  2
F70
 70
     0
280
     0
  0
ATTDEF
  5
37B
330
337
100
AcDbEntity
  8
TEXT25
100
AcDbText
 10
-140.390233442385
 20
84.56120109651198
 30
0.0
 40
2.0
  1

 41
0.8
  7
TEXT20
100
AcDbAttributeDefinition
280
     0
  3
Bennenung l.:
  2
F66
 70
     0
280
     0
  0
LINE
  5
37C
330
337
100
AcDbEntity
  8
KOPF
 62
    12
100
AcDbLine
 10
-100.0
 20
68.49999999999997
 30
0.0
 11
-100.0
 21
46.99999999999997
 31
0.0
  0
LWPOLYLINE
  5
37D
330
337
100
AcDbEntity
  8
KOPF
 62
    12
100
AcDbPolyline
 90
        2
 70
     0
 43
0.5
 10
-83.0
 20
46.99999999999997
 10
-83.0
 20
0.0
  0
LINE
  5
37E
330
337
100
AcDbEntity
  8
KOPF
100
AcDbLine
 10
-83.0
 20
46.99999999999997
 30
0.0
 11
-83.0
 21
0.0
 31
0.0
  0
TEXT
  5
37F
330
337
100
AcDbEntity
  8
KOPF
100
AcDbText
 10
-81.0
 20
1.714285999999985
 30
0.0
 40
2.0
  1
Ersetzt durch:
 41
0.8
  7
TEXT20
100
AcDbText
  0
LINE
  5
380
330
337
100
AcDbEntity
  8
KOPF
 62
    12
100
AcDbLine
 10
-113.4
 20
27.0
 30
0.0
 11
-113.4
 21
46.99999999999997
 31
0.0
  0
LWPOLYLINE
  5
381
330
337
100
AcDbEntity
  8
KOPF
100
AcDbPolyline
 90
        2
 70
     0
 43
0.5
 10
-113.4
 20
27.0
 10
-113.4
 20
46.99999999999997
  0
LINE
  5
382
330
337
100
AcDbEntity
  8
KOPF
100
AcDbLine
 10
-113.4
 20
27.0
 30
0.0
 11
-113.4
 21
46.99999999999997
 31
0.0
  0
LINE
  5
383
330
337
100
AcDbEntity
  8
KOPF
100
AcDbLine
 10
-113.4
 20
27.0
 30
0.0
 11
-113.4
 21
46.99999999999997
 31
0.0
  0
ATTDEF
  5
384
330
337
100
AcDbEntity
  8
TEXT35
100
AcDbText
 10
-104.4935632823758
 20
33.13408015176805
 30
0.0
 40
3.5
  1

 41
0.8
  7
TEXT35
100
AcDbAttributeDefinition
280
     0
  3
Maßstab 2:
  2
F54
 70
     0
280
     0
  0
ATTDEF
  5
385
330
337
100
AcDbEntity
  8
TEXT35
100
AcDbText
 10
-104.487948258847
 20
28.6
 30
0.0
 40
3.5
  1

 41
0.8
  7
TEXT35
100
AcDbAttributeDefinition
280
     0
  3
Maßstab 3:
  2
F55
 70
     0
280
     0
  0
ATTDEF
  5
386
330
337
100
AcDbEntity
  8
TEXT50
100
AcDbText
 10
-106.6
 20
37.8
 30
0.0
 40
5.0
  1

 41
0.8
  7
TEXT50
100
AcDbAttributeDefinition
280
     0
  3
Maßstab 1:
  2
F25
 70
     0
280
     0
  0
TEXT
  5
387
330
337
100
AcDbEntity
  8
KOPF
100
AcDbText
 10
-112.263457
 20
43.88678899999999
 30
0.0
 40
2.0
  1
Massstab:
 41
0.8
  7
TEXT20
100
AcDbText
  0
LINE
  5
388
330
337
100
AcDbEntity
  8
KOPF
 62
    12
100
AcDbLine
 10
-57.80813400000011
 20
27.0
 30
0.0
 11
-57.80813400000011
 21
46.99999999999997
 31
0.0
  0
LINE
  5
389
330
337
100
AcDbEntity
  8
KOPF
100
AcDbLine
 10
-57.80813400000011
 20
27.0
 30
0.0
 11
-57.80813400000011
 21
46.99999999999997
 31
0.0
  0
TEXT
  5
38A
330
337
100
AcDbEntity
  8
KOPF
100
AcDbText
 10
-81.59296000000006
 20
23.69783599999999
 30
0.0
 40
2.0
  1
Zeichnung Nr.:
 41
0.8
  7
TEXT20
100
AcDbText
  0
TEXT
  5
38B
330
337
100
AcDbEntity
  8
KOPF
100
AcDbText
 10
-81.00375700000006
 20
5.924711999999997
 30
0.0
 40
2.0
  1
Ersatz für:
 41
0.8
  7
TEXT20
100
AcDbText
  0
TEXT
  5
38C
330
337
100
AcDbEntity
  8
KOPF
100
AcDbText
 10
-81.59296000000006
 20
23.69783599999999
 30
0.0
 40
2.0
  1
Zeichnung Nr.:
 41
0.8
  7
TEXT20
100
AcDbText
  0
ATTDEF
  5
38D
330
337
100
AcDbEntity
  8
TEXT50
100
AcDbText
 10
-78.29193986361122
 20
14.50587824180555
 30
0.0
 40
5.0
  1

 41
0.8
  7
TEXT50
100
AcDbAttributeDefinition
280
     0
  3
Standart:
  2
F1
 70
     0
280
     0
  0
TEXT
  5
38E
330
337
100
AcDbEntity
  8
KOPF
100
AcDbText
 10
-81.48889200000008
 20
43.86057200000001
 30
0.0
 40
2.0
  1
Masseinheit:
 41
0.8
  7
TEXT20
100
AcDbText
  0
LINE
  5
38F
330
337
100
AcDbEntity
  8
KOPF
 62
    12
100
AcDbLine
 10
-57.80813400000011
 20
36.213444
 30
0.0
 11
-83.0
 21
36.213444
 31
0.0
  0
LINE
  5
390
330
337
100
AcDbEntity
  8
KOPF
100
AcDbLine
 10
-57.80813400000011
 20
36.213444
 30
0.0
 11
-83.0
 21
36.213444
 31
0.0
  0
ATTDEF
  5
391
330
337
100
AcDbEntity
  8
TEXT35
100
AcDbText
 10
-79.40896486611496
 20
38.08722024605356
 30
0.0
 40
3.5
  1

 41
0.8
  7
TEXT35
100
AcDbAttributeDefinition
280
     0
  3
Maßeinheit:
  2
F56
 70
     0
280
     0
  0
TEXT
  5
392
330
337
100
AcDbEntity
  8
KOPF
100
AcDbText
 10
-33.57569784693112
 20
42.62823225872138
 30
0.0
 40
1.54
  1
Diese Zeichnung darf weder kopiert
 41
0.8
  7
TEXT20
100
AcDbText
  0
TEXT
  5
393
330
337
100
AcDbEntity
  8
KOPF
100
AcDbText
 10
-33.57569784693112
 20
40.26106040199917
 30
0.0
 40
1.54
  1
noch dritten Personen, insbesondere
 41
0.8
  7
TEXT20
100
AcDbText
  0
TEXT
  5
394
330
337
100
AcDbEntity
  8
KOPF
100
AcDbText
 10
-33.57569784693112
 20
35.63814072439632
 30
0.0
 40
1.54
  1
mitgeteilt werden und bleibt unser
 41
0.8
  7
TEXT20
100
AcDbText
  0
TEXT
  5
395
330
337
100
AcDbEntity
  8
KOPF
100
AcDbText
 10
-33.57569784693112
 20
33.37532604459598
 30
0.0
 40
1.54
  1
Eigentum.
 41
0.8
  7
TEXT20
100
AcDbText
  0
TEXT
  5
396
330
337
100
AcDbEntity
  8
KOPF
100
AcDbText
 10
-33.57569784693112
 20
37.97994933403727
 30
0.0
 40
1.54
  1
zum Zweck anderweitiger Benutzung
 41
0.8
  7
TEXT20
100
AcDbText
  0
TEXT
  5
397
330
337
100
AcDbEntity
  8
KOPF
100
AcDbText
 10
-33.7904806989385
 20
30.30982488917614
 30
0.0
 40
1.54
  1
Schutzvermerk nach DIN 34 beachten
 41
0.75
  7
TEXT20
100
AcDbText
  0
LINE
  5
398
330
337
100
AcDbEntity
  8
KOPF
100
AcDbLine
 10
-34.94281200000012
 20
47.01203199999999
 30
0.0
 11
-34.94281200000012
 21
27.0
 31
0.0
  0
LINE
  5
399
330
337
100
AcDbEntity
  8
KOPF
100
AcDbLine
 10
-34.94281200000012
 20
47.01203199999999
 30
0.0
 11
-34.94281200000012
 21
27.0
 31
0.0
  0
LINE
  5
39A
330
337
100
AcDbEntity
  8
MITTE
100
AcDbLine
 10
-45.85521401410289
 20
36.04852954632858
 30
0.0
 11
-35.23444858652556
 21
36.04852954632858
 31
0.0
  0
LINE
  5
39B
330
337
100
AcDbEntity
  8
TEXT50
100
AcDbLine
 10
-45.05865660703466
 20
32.02559619470341
 30
0.0
 11
-36.50894043783512
 21
34.06858135367652
 31
0.0
  0
LINE
  5
39C
330
337
100
AcDbEntity
  8
TEXT50
100
AcDbLine
 10
-36.50894043783512
 20
38.02847773898061
 30
0.0
 11
-45.05865660703466
 21
40.07146289795374
 31
0.0
  0
TEXT
  5
39D
330
337
100
AcDbEntity
  8
KOPF
100
AcDbText
 10
-57.12244047883302
 20
43.82431699999997
 30
0.0
 40
2.0
  1
Projektion: ISO-E
 41
0.8
  7
TEXT20
100
AcDbText
  0
LINE
  5
39E
330
337
100
AcDbEntity
  8
TEXT50
100
AcDbLine
 10
-45.05865660703466
 20
40.07146289795374
 30
0.0
 11
-45.05865660703466
 21
32.02559619470346
 31
0.0
  0
LINE
  5
39F
330
337
100
AcDbEntity
  8
MITTE
100
AcDbLine
 10
-51.4945506424383
 20
40.07146289795374
 30
0.0
 11
-51.4945506424383
 21
30.76413131482123
 31
0.0
  0
CIRCLE
  5
3A0
330
337
100
AcDbEntity
  8
TEXT50
100
AcDbCircle
 10
-51.4945506424383
 20
36.04852954632858
 30
0.0
 40
4.022933351625178
  0
CIRCLE
  5
3A1
330
337
100
AcDbEntity
  8
TEXT50
100
AcDbCircle
 10
-51.4945506424383
 20
36.04852954632858
 30
0.0
 40
1.979948192651899
  0
LINE
  5
3A2
330
337
100
AcDbEntity
  8
MITTE
100
AcDbLine
 10
-56.48631039339966
 20
36.04852954632858
 30
0.0
 11
-46.50279089147699
 21
36.04852954632858
 31
0.0
  0
LINE
  5
3A3
330
337
100
AcDbEntity
  8
TEXT50
100
AcDbLine
 10
-36.50894043783512
 20
38.02847773898061
 30
0.0
 11
-36.50894043783512
 21
34.06858135367652
 31
0.0
  0
LWPOLYLINE
  5
3A4
330
337
100
AcDbEntity
  8
KOPF
 62
    12
100
AcDbPolyline
 90
        2
 70
     0
 43
0.5
 10
-12.0
 20
27.0
 10
-12.0
 20
10.0
  0
LINE
  5
3A5
330
337
100
AcDbEntity
  8
KOPF
100
AcDbLine
 10
-12.0
 20
27.0
 30
0.0
 11
-12.0
 21
10.0
 31
0.0
  0
ATTDEF
  5
3A6
330
337
100
AcDbEntity
  8
TEXT50
100
AcDbText
 10
-5.58570360403041
 20
17.00587824180555
 30
0.0
 40
5.0
  1

 41
0.8
  7
TEXT50
 72
     4
 11
-5.58570360403041
 21
17.00587824180555
 31
0.0
100
AcDbAttributeDefinition
280
     0
  3
Index:
  2
F1B
 70
     0
280
     0
  0
TEXT
  5
3A7
330
337
100
AcDbEntity
  8
KOPF
100
AcDbText
 10
-8.353129999999964
 20
23.330072
 30
0.0
 40
2.0
  1
Index
 41
0.8
  7
TEXT20
100
AcDbText
  0
TEXT
  5
3A8
330
337
100
AcDbEntity
  8
KOPF
100
AcDbText
 10
-94.40535829344497
 20
70.39773773357916
 30
0.0
 40
2.0
  1
Benennung
 41
0.8
  7
TEXT20
100
AcDbText
  0
LINE
  5
3A9
330
337
100
AcDbEntity
  8
KOPF
100
AcDbLine
 10
-15.0
 20
88.49999999999996
 30
0.0
 11
-15.0
 21
68.49999999999997
 31
0.0
  0
LINE
  5
3AA
330
337
100
AcDbEntity
  8
KOPF
100
AcDbLine
 10
-15.0
 20
88.49999999999996
 30
0.0
 11
-15.0
 21
68.49999999999997
 31
0.0
  0
TEXT
  5
3AB
330
337
100
AcDbEntity
  8
KOPF
100
AcDbText
 10
-11.65833600000008
 20
69.53813999999997
 30
0.0
 40
2.0
  1
Name
 41
0.8
  7
TEXT20
100
AcDbText
  0
TEXT
  5
3AC
330
337
100
AcDbEntity
  8
KOPF
100
AcDbText
 10
-11.65833600000008
 20
69.53813999999997
 30
0.0
 40
2.0
  1
Name
 41
0.8
  7
TEXT20
100
AcDbText
  0
ATTDEF
  5
3AD
330
337
100
AcDbEntity
  8
TEXT25
100
AcDbText
 10
-13.39999999999998
 20
74.90000000000001
 30
0.0
 40
2.0
  1

 41
0.8
  7
TEXT20
100
AcDbAttributeDefinition
280
     0
  3
Name vv.:
  2
F75
 70
     0
280
     0
  0
ATTDEF
  5
3AE
330
337
100
AcDbEntity
  8
TEXT25
100
AcDbText
 10
-13.39999999999998
 20
79.7
 30
0.0
 40
2.0
  1

 41
0.8
  7
TEXT20
100
AcDbAttributeDefinition
280
     0
  3
Name v.:
  2
F71
 70
     0
280
     0
  0
ATTDEF
  5
3AF
330
337
100
AcDbEntity
  8
TEXT25
100
AcDbText
 10
-13.31006638105163
 20
84.29999999999999
 30
0.0
 40
2.0
  1

 41
0.8
  7
TEXT20
100
AcDbAttributeDefinition
280
     0
  3
Name l.:
  2
F67
 70
     0
280
     0
  0
LINE
  5
3B0
330
337
100
AcDbEntity
  8
KOPF
100
AcDbLine
 10
-182.0
 20
36.99999999999997
 30
0.0
 11
-113.4
 21
36.99999999999997
 31
0.0
  0
LINE
  5
3B1
330
337
100
AcDbEntity
  8
KOPF
100
AcDbLine
 10
-182.0
 20
31.99999999999997
 30
0.0
 11
-113.4
 21
31.99999999999997
 31
0.0
  0
MTEXT
  5
3B2
330
337
100
AcDbEntity
  8
Sperrlayer
 62
     1
100
AcDbMText
 10
-166.0749851709908
 20
9.027899370527848
 30
0.0
 40
10.0
 41
771.0
 46
0.0
 71
     1
 72
     5
  1
VORABZUG - nicht FREIGEGEBEN !
  7
TEXT20
 11
0.8660254037844387
 21
0.5
 31
0.0
 73
     1
 44
1.0
  0
ENDBLK
  5
3B4
330
337
100
AcDbEntity
  8
0
100
AcDbBlockEnd
  0
BLOCK
  5
3E7
330
3D7
100
AcDbEntity
  8
0
100
AcDbBlockBegin
  2
logo_1200
 70
     0
 10
0.0
 20
0.0
 30
0.0
  3
logo_1200
  1

  0
TEXT
  5
3D8
330
3D7
100
AcDbEntity
  8
TEXT25
100
AcDbText
 10
-62.75122066833545
 20
52.38243367792947
 30
0.0
 40
2.0
  1
582 22 Pribyslav
 41
0.8
  7
TEXT25
100
AcDbText
  0
CIRCLE
  5
3D9
330
3D7
100
AcDbEntity
  8
TEXT35
100
AcDbCircle
 10
-77.90633268923627
 20
54.91319723090533
 30
0.0
 40
2.281499999999998
  0
CIRCLE
  5
3DA
330
3D7
100
AcDbEntity
  8
TEXT35
100
AcDbCircle
 10
-77.90633268923627
 20
54.91319723090533
 30
0.0
 40
1.579499999999999
  0
LWPOLYLINE
  5
3DB
330
3D7
100
AcDbEntity
  8
TEXT35
100
AcDbPolyline
 90
        4
 70
     1
 43
0.0
 10
-83.00295180105614
 20
54.12344723090529
 42
-3.664441495333134
 10
-83.01773608902488
 20
55.72801804658638
 10
-82.4097147917411
 20
56.07905930624621
 42
3.685001202565794
 10
-82.39500196759946
 20
53.77244723090529
  0
LWPOLYLINE
  5
3DC
330
3D7
100
AcDbEntity
  8
TEXT35
100
AcDbPolyline
 90
        4
 70
     1
 43
0.0
 10
-87.16522368075901
 20
64.67896593129956
 10
-87.16522368075901
 20
51.4441636102955
 10
-81.57645417190838
 20
51.4441636102955
 10
-81.57645417190838
 20
64.67896593129956
  0
LWPOLYLINE
  5
3DD
330
3D7
100
AcDbEntity
  8
TEXT35
100
AcDbPolyline
 90
        4
 70
     1
 43
0.0
 10
-75.11194793481099
 20
64.67896593129956
 10
-75.11194793481099
 20
51.4441636102955
 10
-80.70071744366158
 20
51.4441636102955
 10
-80.70071744366158
 20
64.67896593129956
  0
TEXT
  5
3DE
330
3D7
100
AcDbEntity
  8
TEXT25
100
AcDbText
 10
-42.07144434927065
 20
52.73160429576707
 30
0.0
 40
2.1
  1
Fax: +420 569 484 848
 41
0.7
  7
ROMANS8
100
AcDbText
  0
LWPOLYLINE
  5
3DF
330
3D7
100
AcDbEntity
  8
TEXT35
100
AcDbPolyline
 90
        7
 70
     1
 43
0.0
 10
-92.41478278366415
 20
52.60099048123299
 42
-0.0323236910300514
 10
-92.37060365720655
 20
53.23414235224742
 10
-89.30008666965568
 20
53.23414235224742
 42
-0.0323236910300515
 10
-89.25590754319818
 20
52.60099048123299
 10
-88.55389974564616
 20
52.60099048123299
 42
0.2369604974400691
 10
-90.83534516343117
 20
57.0951423522472
 42
0.2369604974400691
 10
-93.11679058121619
 20
52.60099048123299
  0
LWPOLYLINE
  5
3E0
330
3D7
100
AcDbEntity
  8
TEXT35
100
AcDbPolyline
 90
        4
 70
     1
 43
0.0
 10
-93.62972991785644
 20
64.67896593129956
 10
-93.62972991785644
 20
51.4441636102955
 10
-88.04096040900587
 20
51.4441636102955
 10
-88.04096040900587
 20
64.67896593129956
  0
LWPOLYLINE
  5
3E1
330
3D7
100
AcDbEntity
  8
TEXT25
100
AcDbPolyline
 90
        3
 70
     0
 43
0.0
 10
-57.65641467769126
 20
58.02057702122401
 10
-57.34643565818164
 20
57.67744438935747
 10
-57.06966783454433
 20
58.04271477888098
  0
TEXT
  5
3E2
330
3D7
100
AcDbEntity
  8
TEXT25
100
AcDbText
 10
-62.46488457919316
 20
56.00873140993094
 30
0.0
 40
2.0
  1
Havlickova 260
 41
0.8
  7
TEXT25
100
AcDbText
  0
TEXT
  5
3E3
330
3D7
100
AcDbEntity
  8
TEXT35
100
AcDbText
 10
-63.01986452254318
 20
61.20180074934168
 30
0.0
 40
3.0
  1
ACO Stavebni prvky k.s
 41
0.8
  7
ITALICC8
100
AcDbText
  0
LWPOLYLINE
  5
3E4
330
3D7
100
AcDbEntity
  8
TEXT35
100
AcDbPolyline
 90
        3
 70
     1
 43
0.0
 10
-90.83534516343108
 20
56.18573248981441
 42
-0.1369919174131033
 10
-89.44776560816123
 20
53.93614235224742
 10
-92.22292471870108
 20
53.93614235224742
 42
-0.136991917413112
  0
TEXT
  5
3E5
330
3D7
100
AcDbEntity
  8
TEXT25
100
AcDbText
 10
-42.12418048628376
 20
56.06021119287449
 30
0.0
 40
2.1
  1
Tel.:+420 569 491 111
 41
0.7
  7
ROMANS8
100
AcDbText
  0
LWPOLYLINE
  5
3E6
330
3D7
100
AcDbEntity
  8
TEXT25
100
AcDbPolyline
 90
        3
 70
     0
 43
0.0
 10
-54.37217074633299
 20
54.52955947101651
 10
-54.06219172682341
 20
54.18642683914997
 10
-53.78542390318611
 20
54.55169722867349
  0
ENDBLK
  5
3E8
330
3D7
100
AcDbEntity
  8
0
100
AcDbBlockEnd
  0
BLOCK
  5
587
330
57D
100
AcDbEntity
  8
0
100
AcDbBlockBegin
  2
*D3
 70
     1
 10
0.0
 20
0.0
 30
0.0
  3
*D3
  1

  0
LINE
  5
1802
330
57D
100
AcDbEntity
  8
BEMASS
440
 16777216
370
    -2
100
AcDbLine
 10
190.5721903334282
 20
128.2433267682995
 30
0.0
 11
190.5721903334282
 21
102.3905329906051
 31
0.0
  0
LINE
  5
1803
330
57D
100
AcDbEntity
  8
BEMASS
440
 16777216
370
    -2
100
AcDbLine
 10
240.5721903334283
 20
129.2879841617334
 30
0.0
 11
240.5721903334283
 21
102.3905329906051
 31
0.0
  0
LINE
  5
1804
330
57D
100
AcDbEntity
  8
BEMASS
440
 16777216
370
    -2
100
AcDbLine
 10
194.0721903334282
 20
104.3905329906051
 30
0.0
 11
237.0721903334283
 21
104.3905329906051
 31
0.0
  0
SOLID
  5
1805
330
57D
100
AcDbEntity
  8
BEMASS
440
 16777216
100
AcDbTrace
 10
194.0721903334282
 20
104.9738663239385
 30
0.0
 11
194.0721903334282
 21
103.8071996572718
 31
0.0
 12
190.5721903334282
 22
104.3905329906051
 32
0.0
 13
190.5721903334282
 23
104.3905329906051
 33
0.0
  0
SOLID
  5
1806
330
57D
100
AcDbEntity
  8
BEMASS
440
 16777216
100
AcDbTrace
 10
237.0721903334283
 20
104.9738663239385
 30
0.0
 11
237.0721903334283
 21
103.8071996572718
 31
0.0
 12
240.5721903334283
 22
104.3905329906051
 32
0.0
 13
240.5721903334283
 23
104.3905329906051
 33
0.0
  0
MTEXT
  5
1807
330
57D
100
AcDbEntity
  8
BEMASS
440
 16777216
100
AcDbMText
 10
215.5721903334283
 20
108.8905329906051
 30
0.0
 40
5.0
 41
0.0
 46
0.0
 71
     5
 72
     1
  1
\A1;Tr %%c50x1
 73
     1
 44
1.0
  0
POINT
  5
1808
330
57D
100
AcDbEntity
  8
DEFPOINTS
 62
     0
440
 16777216
100
AcDbPoint
 10
190.5721903334282
 20
128.2433267682995
 30
0.0
  0
POINT
  5
1809
330
57D
100
AcDbEntity
  8
DEFPOINTS
 62
     0
440
 16777216
100
AcDbPoint
 10
240.5721903334283
 20
129.2879841617334
 30
0.0
  0
POINT
  5
180A
330
57D
100
AcDbEntity
  8
DEFPOINTS
 62
     0
440
 16777216
100
AcDbPoint
 10
240.5721903334283
 20
104.3905329906051
 30
0.0
  0
ENDBLK
  5
588
330
57D
100
AcDbEntity
  8
0
100
AcDbBlockEnd
  0
BLOCK
  5
593
330
589
100
AcDbEntity
  8
0
100
AcDbBlockBegin
  2
*D4
 70
     1
 10
0.0
 20
0.0
 30
0.0
  3
*D4
  1

  0
LINE
  5
17F0
330
589
100
AcDbEntity
  8
BEMASS
440
 16777216
370
    -2
100
AcDbLine
 10
192.5721903334282
 20
119.2507204113913
 30
0.0
 11
95.61586004687386
 21
119.2507204113913
 31
0.0
  0
LINE
  5
17F1
330
589
100
AcDbEntity
  8
BEMASS
440
 16777216
370
    -2
100
AcDbLine
 10
189.3110447196235
 20
177.2881335430507
 30
0.0
 11
95.61586004687388
 21
177.2881335430507
 31
0.0
  0
LINE
  5
17F2
330
589
100
AcDbEntity
  8
BEMASS
440
 16777216
370
    -2
100
AcDbLine
 10
97.61586004687387
 20
122.7507204113913
 30
0.0
 11
97.61586004687387
 21
173.7881335430507
 31
0.0
  0
SOLID
  5
17F3
330
589
100
AcDbEntity
  8
BEMASS
440
 16777216
100
AcDbTrace
 10
97.03252671354054
 20
122.7507204113913
 30
0.0
 11
98.19919338020719
 21
122.7507204113913
 31
0.0
 12
97.61586004687387
 22
119.2507204113913
 32
0.0
 13
97.61586004687387
 23
119.2507204113913
 33
0.0
  0
SOLID
  5
17F4
330
589
100
AcDbEntity
  8
BEMASS
440
 16777216
100
AcDbTrace
 10
97.03252671354055
 20
173.7881335430507
 30
0.0
 11
98.19919338020721
 21
173.7881335430507
 31
0.0
 12
97.61586004687387
 22
177.2881335430507
 32
0.0
 13
97.61586004687387
 23
177.2881335430507
 33
0.0
  0
MTEXT
  5
17F5
330
589
100
AcDbEntity
  8
BEMASS
440
 16777216
100
AcDbMText
 10
93.11586004687384
 20
148.269426977221
 30
0.0
 40
5.0
 41
0.0
 46
0.0
 71
     5
 72
     1
  1
\A1;58
 11
0.0000000000000001
 21
1.0
 31
0.0
 73
     1
 44
1.0
  0
POINT
  5
17F6
330
589
100
AcDbEntity
  8
DEFPOINTS
 62
     0
440
 16777216
100
AcDbPoint
 10
192.5721903334282
 20
119.2507204113913
 30
0.0
  0
POINT
  5
17F7
330
589
100
AcDbEntity
  8
DEFPOINTS
 62
     0
440
 16777216
100
AcDbPoint
 10
189.3110447196235
 20
177.2881335430507
 30
0.0
  0
POINT
  5
17F8
330
589
100
AcDbEntity
  8
DEFPOINTS
 62
     0
440
 16777216
100
AcDbPoint
 10
97.61586004687387
 20
177.2881335430507
 30
0.0
  0
ENDBLK
  5
594
330
589
100
AcDbEntity
  8
0
100
AcDbBlockEnd
  0
BLOCK
  5
59F
330
595
100
AcDbEntity
  8
0
100
AcDbBlockBegin
  2
*D5
 70
     1
 10
0.0
 20
0.0
 30
0.0
  3
*D5
  1

  0
LINE
  5
898
330
595
100
AcDbEntity
  8
BEMASS
440
 16777216
370
    -2
100
AcDbLine
 10
189.3110447196235
 20
177.2881335430507
 30
0.0
 11
95.61586004687379
 21
177.2881335430507
 31
0.0
  0
LINE
  5
899
330
595
100
AcDbEntity
  8
BEMASS
440
 16777216
370
    -2
100
AcDbLine
 10
160.5721903334265
 20
191.5464438971021
 30
0.0
 11
95.61586004687379
 21
191.5464438971021
 31
0.0
  0
LINE
  5
89A
330
595
100
AcDbEntity
  8
BEMASS
440
 16777216
370
    -2
100
AcDbLine
 10
97.6158600468738
 20
180.7881335430507
 30
0.0
 11
97.6158600468738
 21
188.0464438971021
 31
0.0
  0
SOLID
  5
89B
330
595
100
AcDbEntity
  8
BEMASS
440
 16777216
100
AcDbTrace
 10
97.03252671354047
 20
180.7881335430507
 30
0.0
 11
98.19919338020712
 21
180.7881335430507
 31
0.0
 12
97.6158600468738
 22
177.2881335430507
 32
0.0
 13
97.6158600468738
 23
177.2881335430507
 33
0.0
  0
SOLID
  5
89C
330
595
100
AcDbEntity
  8
BEMASS
440
 16777216
100
AcDbTrace
 10
97.03252671354047
 20
188.0464438971021
 30
0.0
 11
98.19919338020712
 21
188.0464438971021
 31
0.0
 12
97.6158600468738
 22
191.5464438971021
 32
0.0
 13
97.6158600468738
 23
191.5464438971021
 33
0.0
  0
MTEXT
  5
89D
330
595
100
AcDbEntity
  8
BEMASS
440
 16777216
100
AcDbMText
 10
91.80633623734996
 20
184.4172887200764
 30
0.0
 40
5.0
 41
0.0
 46
0.0
 71
     5
 72
     1
  1
\A1;(14.2)
 11
0.0000000000000001
 21
1.0
 31
0.0
 73
     1
 44
1.0
  0
POINT
  5
89E
330
595
100
AcDbEntity
  8
DEFPOINTS
 62
     0
440
 16777216
100
AcDbPoint
 10
189.3110447196235
 20
177.2881335430507
 30
0.0
  0
POINT
  5
89F
330
595
100
AcDbEntity
  8
DEFPOINTS
 62
     0
440
 16777216
100
AcDbPoint
 10
160.5721903334265
 20
191.5464438971021
 30
0.0
  0
POINT
  5
8A0
330
595
100
AcDbEntity
  8
DEFPOINTS
 62
     0
440
 16777216
100
AcDbPoint
 10
97.6158600468738
 20
191.5464438971021
 30
0.0
  0
ENDBLK
  5
5A0
330
595
100
AcDbEntity
  8
0
100
AcDbBlockEnd
  0
BLOCK
  5
758
330
74E
100
AcDbEntity
  8
0
100
AcDbBlockBegin
  2
*D6
 70
     1
 10
0.0
 20
0.0
 30
0.0
  3
*D6
  1

  0
LINE
  5
17F9
330
74E
100
AcDbEntity
  8
BEMASS
440
 16777216
370
    -2
100
AcDbLine
 10
142.8343185900592
 20
306.2507204113917
 30
0.0
 11
62.75880242047178
 21
306.2507204113918
 31
0.0
  0
LINE
  5
17FA
330
74E
100
AcDbEntity
  8
BEMASS
440
 16777216
370
    -2
100
AcDbLine
 10
195.9847443661094
 20
119.2507204113913
 30
0.0
 11
62.75880242047174
 21
119.2507204113913
 31
0.0
  0
LINE
  5
17FB
330
74E
100
AcDbEntity
  8
BEMASS
440
 16777216
370
    -2
100
AcDbLine
 10
64.75880242047178
 20
302.7507204113918
 30
0.0
 11
64.75880242047174
 21
122.7507204113913
 31
0.0
  0
SOLID
  5
17FC
330
74E
100
AcDbEntity
  8
BEMASS
440
 16777216
100
AcDbTrace
 10
64.17546908713845
 20
302.7507204113918
 30
0.0
 11
65.34213575380511
 21
302.7507204113918
 31
0.0
 12
64.75880242047178
 22
306.2507204113918
 32
0.0
 13
64.75880242047178
 23
306.2507204113918
 33
0.0
  0
SOLID
  5
17FD
330
74E
100
AcDbEntity
  8
BEMASS
440
 16777216
100
AcDbTrace
 10
64.17546908713841
 20
122.7507204113913
 30
0.0
 11
65.34213575380507
 21
122.7507204113913
 31
0.0
 12
64.75880242047174
 22
119.2507204113913
 32
0.0
 13
64.75880242047174
 23
119.2507204113913
 33
0.0
  0
MTEXT
  5
17FE
330
74E
100
AcDbEntity
  8
BEMASS
440
 16777216
100
AcDbMText
 10
60.25880242047172
 20
212.7507204113916
 30
0.0
 40
5.0
 41
0.0
 46
0.0
 71
     5
 72
     1
  1
\A1;190-220
 11
0.0000000000000001
 21
1.0
 31
0.0
 73
     1
 44
1.0
  0
POINT
  5
17FF
330
74E
100
AcDbEntity
  8
DEFPOINTS
 62
     0
440
 16777216
100
AcDbPoint
 10
142.8343185900592
 20
306.2507204113917
 30
0.0
  0
POINT
  5
1800
330
74E
100
AcDbEntity
  8
DEFPOINTS
 62
     0
440
 16777216
100
AcDbPoint
 10
195.9847443661094
 20
119.2507204113913
 30
0.0
  0
POINT
  5
1801
330
74E
100
AcDbEntity
  8
DEFPOINTS
 62
     0
440
 16777216
100
AcDbPoint
 10
64.75880242047174
 20
119.2507204113913
 30
0.0
  0
ENDBLK
  5
759
330
74E
100
AcDbEntity
  8
0
100
AcDbBlockEnd
  0
BLOCK
  5
764
330
75A
100
AcDbEntity
  8
0
100
AcDbBlockBegin
  2
*D7
 70
     1
 10
0.0
 20
0.0
 30
0.0
  3
*D7
  1

  0
LINE
  5
886
330
75A
100
AcDbEntity
  8
BEMASS
440
 16777216
370
    -2
100
AcDbLine
 10
142.0721903334252
 20
306.2507204113917
 30
0.0
 11
75.28762878898376
 21
306.2507204113918
 31
0.0
  0
LINE
  5
887
330
75A
100
AcDbEntity
  8
BEMASS
440
 16777216
370
    -2
100
AcDbLine
 10
156.5721903334242
 20
195.5464438971021
 30
0.0
 11
75.28762878898374
 21
195.5464438971021
 31
0.0
  0
LINE
  5
888
330
75A
100
AcDbEntity
  8
BEMASS
440
 16777216
370
    -2
100
AcDbLine
 10
77.28762878898376
 20
302.7507204113918
 30
0.0
 11
77.28762878898374
 21
199.0464438971022
 31
0.0
  0
SOLID
  5
889
330
75A
100
AcDbEntity
  8
BEMASS
440
 16777216
100
AcDbTrace
 10
76.70429545565044
 20
302.7507204113918
 30
0.0
 11
77.87096212231709
 21
302.7507204113918
 31
0.0
 12
77.28762878898376
 22
306.2507204113918
 32
0.0
 13
77.28762878898376
 23
306.2507204113918
 33
0.0
  0
SOLID
  5
88A
330
75A
100
AcDbEntity
  8
BEMASS
440
 16777216
100
AcDbTrace
 10
76.70429545565041
 20
199.0464438971022
 30
0.0
 11
77.87096212231706
 21
199.0464438971022
 31
0.0
 12
77.28762878898374
 22
195.5464438971021
 32
0.0
 13
77.28762878898374
 23
195.5464438971021
 33
0.0
  0
MTEXT
  5
88B
330
75A
100
AcDbEntity
  8
BEMASS
440
 16777216
100
AcDbMText
 10
72.78762878898371
 20
250.898582154247
 30
0.0
 40
5.0
 41
0.0
 46
0.0
 71
     5
 72
     1
  1
\A1;111-144
 11
0.0000000000000001
 21
1.0
 31
0.0
 73
     1
 44
1.0
  0
POINT
  5
88C
330
75A
100
AcDbEntity
  8
DEFPOINTS
 62
     0
440
 16777216
100
AcDbPoint
 10
142.0721903334252
 20
306.2507204113917
 30
0.0
  0
POINT
  5
88D
330
75A
100
AcDbEntity
  8
DEFPOINTS
 62
     0
440
 16777216
100
AcDbPoint
 10
156.5721903334242
 20
195.5464438971021
 30
0.0
  0
POINT
  5
88E
330
75A
100
AcDbEntity
  8
DEFPOINTS
 62
     0
440
 16777216
100
AcDbPoint
 10
77.28762878898374
 20
195.5464438971021
 30
0.0
  0
ENDBLK
  5
765
330
75A
100
AcDbEntity
  8
0
100
AcDbBlockEnd
  0
BLOCK
  5
77C
330
772
100
AcDbEntity
  8
0
100
AcDbBlockBegin
  2
*D8
 70
     1
 10
0.0
 20
0.0
 30
0.0
  3
*D8
  1

  0
LINE
  5
181F
330
772
100
AcDbEntity
  8
BEMASS
440
 16777216
370
    -2
100
AcDbLine
 10
160.5721903334256
 20
228.2512513192592
 30
0.0
 11
133.4173039633326
 21
228.2512513192592
 31
0.0
  0
LINE
  5
1820
330
772
100
AcDbEntity
  8
BEMASS
440
 16777216
370
    -2
100
AcDbLine
 10
163.7575081409698
 20
273.2512513192592
 30
0.0
 11
133.4173039633326
 21
273.2512513192592
 31
0.0
  0
LINE
  5
1821
330
772
100
AcDbEntity
  8
BEMASS
440
 16777216
370
    -2
100
AcDbLine
 10
135.4173039633326
 20
231.7512513192592
 30
0.0
 11
135.4173039633326
 21
269.7512513192592
 31
0.0
  0
SOLID
  5
1822
330
772
100
AcDbEntity
  8
BEMASS
440
 16777216
100
AcDbTrace
 10
134.8339706299993
 20
231.7512513192592
 30
0.0
 11
136.000637296666
 21
231.7512513192592
 31
0.0
 12
135.4173039633326
 22
228.2512513192592
 32
0.0
 13
135.4173039633326
 23
228.2512513192592
 33
0.0
  0
SOLID
  5
1823
330
772
100
AcDbEntity
  8
BEMASS
440
 16777216
100
AcDbTrace
 10
134.8339706299993
 20
269.7512513192592
 30
0.0
 11
136.000637296666
 21
269.7512513192592
 31
0.0
 12
135.4173039633326
 22
273.2512513192592
 32
0.0
 13
135.4173039633326
 23
273.2512513192592
 33
0.0
  0
MTEXT
  5
1824
330
772
100
AcDbEntity
  8
BEMASS
440
 16777216
100
AcDbMText
 10
130.9173039633326
 20
250.7512513192592
 30
0.0
 40
5.0
 41
0.0
 46
0.0
 71
     5
 72
     1
  1
\A1;45
 11
0.0000000000000001
 21
1.0
 31
0.0
 73
     1
 44
1.0
  0
POINT
  5
1825
330
772
100
AcDbEntity
  8
DEFPOINTS
 62
     0
440
 16777216
100
AcDbPoint
 10
160.5721903334256
 20
228.2512513192592
 30
0.0
  0
POINT
  5
1826
330
772
100
AcDbEntity
  8
DEFPOINTS
 62
     0
440
 16777216
100
AcDbPoint
 10
163.7575081409698
 20
273.2512513192592
 30
0.0
  0
POINT
  5
1827
330
772
100
AcDbEntity
  8
DEFPOINTS
 62
     0
440
 16777216
100
AcDbPoint
 10
135.4173039633326
 20
273.2512513192592
 30
0.0
  0
ENDBLK
  5
77D
330
772
100
AcDbEntity
  8
0
100
AcDbBlockEnd
  0
BLOCK
  5
794
330
78A
100
AcDbEntity
  8
0
100
AcDbBlockBegin
  2
*D9
 70
     1
 10
0.0
 20
0.0
 30
0.0
  3
*D9
  1

  0
LINE
  5
874
330
78A
100
AcDbEntity
  8
BEMASS
440
 16777216
370
    -2
100
AcDbLine
 10
140.5721903334251
 20
304.750720411392
 30
0.0
 11
140.5721903334251
 21
324.3485779909183
 31
0.0
  0
LINE
  5
875
330
78A
100
AcDbEntity
  8
BEMASS
440
 16777216
370
    -2
100
AcDbLine
 10
290.5721903334256
 20
304.7507204113915
 30
0.0
 11
290.5721903334256
 21
324.3485779909183
 31
0.0
  0
LINE
  5
876
330
78A
100
AcDbEntity
  8
BEMASS
440
 16777216
370
    -2
100
AcDbLine
 10
144.0721903334251
 20
322.3485779909183
 30
0.0
 11
287.0721903334256
 21
322.3485779909183
 31
0.0
  0
SOLID
  5
877
330
78A
100
AcDbEntity
  8
BEMASS
440
 16777216
100
AcDbTrace
 10
144.0721903334251
 20
322.9319113242516
 30
0.0
 11
144.0721903334251
 21
321.765244657585
 31
0.0
 12
140.5721903334251
 22
322.3485779909183
 32
0.0
 13
140.5721903334251
 23
322.3485779909183
 33
0.0
  0
SOLID
  5
878
330
78A
100
AcDbEntity
  8
BEMASS
440
 16777216
100
AcDbTrace
 10
287.0721903334256
 20
322.9319113242516
 30
0.0
 11
287.0721903334256
 21
321.765244657585
 31
0.0
 12
290.5721903334256
 22
322.3485779909183
 32
0.0
 13
290.5721903334256
 23
322.3485779909183
 33
0.0
  0
MTEXT
  5
879
330
78A
100
AcDbEntity
  8
BEMASS
440
 16777216
100
AcDbMText
 10
215.5721903334254
 20
326.8485779909183
 30
0.0
 40
5.0
 41
0.0
 46
0.0
 71
     5
 72
     1
  1
\A1;150x150
 73
     1
 44
1.0
  0
POINT
  5
87A
330
78A
100
AcDbEntity
  8
DEFPOINTS
 62
     0
440
 16777216
100
AcDbPoint
 10
140.5721903334251
 20
304.750720411392
 30
0.0
  0
POINT
  5
87B
330
78A
100
AcDbEntity
  8
DEFPOINTS
 62
     0
440
 16777216
100
AcDbPoint
 10
290.5721903334256
 20
304.7507204113915
 30
0.0
  0
POINT
  5
87C
330
78A
100
AcDbEntity
  8
DEFPOINTS
 62
     0
440
 16777216
100
AcDbPoint
 10
290.5721903334256
 20
322.3485779909183
 30
0.0
  0
ENDBLK
  5
795
330
78A
100
AcDbEntity
  8
0
100
AcDbBlockEnd
  0
BLOCK
  5
C76
330
C74
100
AcDbEntity
  8
0
100
AcDbBlockBegin
  2
GENAXEH
 70
     0
 10
0.0
 20
0.0
 30
0.0
  3
GENAXEH
  1

  0
LINE
  5
C75
330
C74
100
AcDbEntity
  8
0
100
AcDbLine
 10
-1.0
 20
0.0
 30
0.0
 11
1.0
 21
0.0
 31
0.0
  0
ENDBLK
  5
C77
330
C74
100
AcDbEntity
  8
0
100
AcDbBlockEnd
  0
BLOCK
  5
184B
330
184A
100
AcDbEntity
  8
0
100
AcDbBlockBegin
  2
_ACMFILLEDHALF
 70
     0
 10
0.0
 20
0.0
 30
0.0
  3
_ACMFILLEDHALF
  1

  0
TRACE
  5
184D
330
184A
100
AcDbEntity
  8
VERDECKT
 62
     0
100
AcDbTrace
 10
-0.8
 20
0.0
 30
0.0
 11
-1.0
 21
0.166666666
 31
0.0
 12
0.0
 22
0.0
 32
0.0
 13
0.0
 23
0.0
 33
0.0
  0
LINE
  5
184E
330
184A
100
AcDbEntity
  8
VERDECKT
 62
     0
100
AcDbLine
 10
-1.0
 20
0.0
 30
0.0
 11
-0.8
 21
0.0
 31
0.0
  0
ENDBLK
  5
184C
330
184A
100
AcDbEntity
  8
0
100
AcDbBlockEnd
  0
ENDSEC
  0
SECTION
  2
ENTITIES
  0
HATCH
  5
55C
330
2
100
AcDbEntity
  8
BEMASS
100
AcDbHatch
 10
0.0
 20
0.0
 30
0.0
210
0.0
220
0.0
230
1.0
  2
ANSI31
 70
     0
 71
     0
 91
        2
 92
        1
 93
        6
 72
     1
 10
191.5721903334283
 20
177.2881335430507
 11
190.5721903334283
 21
177.2881335430507
 72
     1
 10
190.5721903334283
 20
177.2881335430507
 11
190.5721903334282
 21
126.2507204113911
 72
     1
 10
190.5721903334282
 20
126.2507204113911
 11
192.5721903334282
 21
119.2507204113912
 72
     1
 10
192.5721903334282
 20
119.2507204113912
 11
193.5721903334282
 21
119.2507204113913
 72
     1
 10
193.5721903334282
 20
119.2507204113913
 11
191.5721903334283
 21
126.2507204113911
 72
     1
 10
191.5721903334283
 20
126.2507204113911
 11
191.5721903334283
 21
177.2881335430507
 97
        0
 92
        1
 93
        6
 72
     1
 10
240.5721903334283
 20
177.2881335430507
 11
239.5721903334283
 21
177.2881335430507
 72
     1
 10
239.5721903334283
 20
177.2881335430507
 11
239.5721903334283
 21
126.2507204113916
 72
     1
 10
239.5721903334283
 20
126.2507204113916
 11
237.5721903334284
 21
119.2507204113914
 72
     1
 10
237.5721903334284
 20
119.2507204113914
 11
238.5721903334283
 21
119.2507204113914
 72
     1
 10
238.5721903334283
 20
119.2507204113914
 11
240.5721903334283
 21
126.2507204113913
 72
     1
 10
240.5721903334283
 20
126.2507204113913
 11
240.5721903334283
 21
177.2881335430507
 97
        0
 75
     0
 76
     1
 52
90.0
 41
10.0
 77
     0
 78
     1
 53
135.0
 43
-0.0915697682482915
 44
-448.7145383429339
 45
-0.8838834764831844
 46
-0.8838834764831842
 79
     0
 98
        2
 10
191.2527162094905
 20
161.1800384052065
 10
240.2158059329943
 20
151.4447545742385
  0
DIMENSION
  5
55D
330
2
100
AcDbEntity
  8
BEMASS
100
AcDbDimension
280
     0
  2
*D3
 10
240.5721903334283
 20
104.3905329906051
 30
0.0
 11
215.5721903334283
 21
108.8905329906051
 31
0.0
 70
    32
  1
Tr %%c<>x1
 71
     5
 42
50.00000000000003
 73
     0
 74
     0
 75
     0
  3
STANDARD$0
100
AcDbAlignedDimension
 13
190.5721903334282
 23
128.2433267682995
 33
0.0
 14
240.5721903334283
 24
129.2879841617334
 34
0.0
100
AcDbRotatedDimension
1001
ACAD
1000
DSTYLE
1002
{
1070
    40
1040
1.0
1002
}
  0
LINE
  5
55E
330
2
100
AcDbEntity
  8
SICHTBAR
100
AcDbLine
 10
192.5721903334282
 20
119.2507204113913
 30
0.0
 11
238.5721903334283
 21
119.2507204113914
 31
0.0
  0
LINE
  5
55F
330
2
100
AcDbEntity
  8
SICHTBAR
100
AcDbLine
 10
240.5721903334283
 20
177.2881335430507
 30
0.0
 11
240.5721903334283
 21
126.2507204113913
 31
0.0
  0
LINE
  5
560
330
2
100
AcDbEntity
  8
SICHTBAR
100
AcDbLine
 10
239.5721903334283
 20
178.7754249056779
 30
0.0
 11
239.5721903334283
 21
126.2507204113914
 31
0.0
  0
LINE
  5
561
330
2
100
AcDbEntity
  8
SICHTBAR
100
AcDbLine
 10
240.5721903334283
 20
126.2507204113913
 30
0.0
 11
238.5721903334283
 21
119.2507204113913
 31
0.0
  0
LINE
  5
562
330
2
100
AcDbEntity
  8
SICHTBAR
100
AcDbLine
 10
239.5721903334283
 20
126.2507204113914
 30
0.0
 11
237.5721903334284
 21
119.2507204113914
 31
0.0
  0
LINE
  5
563
330
2
100
AcDbEntity
  8
SICHTBAR
100
AcDbLine
 10
190.5721903334283
 20
177.2881335430507
 30
0.0
 11
190.5721903334282
 21
126.2507204113913
 31
0.0
  0
LINE
  5
564
330
2
100
AcDbEntity
  8
SICHTBAR
100
AcDbLine
 10
191.5721903334283
 20
178.7754249056779
 30
0.0
 11
191.5721903334283
 21
126.2507204113913
 31
0.0
  0
LINE
  5
565
330
2
100
AcDbEntity
  8
SICHTBAR
100
AcDbLine
 10
191.5721903334283
 20
126.2507204113913
 30
0.0
 11
193.5721903334283
 21
119.2507204113913
 31
0.0
  0
LINE
  5
566
330
2
100
AcDbEntity
  8
SICHTBAR
100
AcDbLine
 10
190.5721903334282
 20
126.2507204113913
 30
0.0
 11
192.5721903334282
 21
119.2507204113913
 31
0.0
  0
HATCH
  5
567
330
2
100
AcDbEntity
  8
BEMASS
100
AcDbHatch
 10
0.0
 20
0.0
 30
0.0
210
0.0
220
0.0
230
1.0
  2
ANSI31
 70
     0
 71
     0
 91
        1
 92
        7
 72
     1
 73
     1
 93
       10
 10
259.3289611818134
 20
179.260754948798
 42
0.0
 10
242.3110447196188
 20
178.7886765852261
 42
0.0
 10
239.5721903334283
 20
178.7886765852262
 42
0.0
 10
239.5721903334283
 20
177.2881335430506
 42
0.0
 10
242.3110447196195
 20
177.2881335430507
 42
0.0
 10
259.4146375046699
 20
177.7625576710994
 42
0.40551715388353
 10
270.5721903334265
 20
189.2574578418233
 42
0.0
 10
270.5721903334265
 20
191.5464438971021
 42
0.0
 10
269.0721903334265
 20
191.5464438971021
 42
0.0
 10
269.0721903334265
 20
189.2574578418233
 42
-0.4067119372599972
 97
        0
 75
     0
 76
     1
 52
90.0
 41
10.0
 77
     0
 78
     1
 53
135.0
 43
-0.0915697682482915
 44
-448.7145383429339
 45
-0.8838834764831844
 46
-0.8838834764831842
 79
     0
 47
0.13410806559942
 98
        1
 10
264.6067444797593
 20
180.4465402372196
  0
LINE
  5
569
330
2
100
AcDbEntity
  8
SICHTBAR
100
AcDbLine
 10
242.3110447196235
 20
177.2881335430507
 30
0.0
 11
189.3110447196235
 21
177.2881335430507
 31
0.0
  0
LINE
  5
56A
330
2
100
AcDbEntity
  8
SICHTBAR
100
AcDbLine
 10
259.3289611818197
 20
179.2607549487982
 30
0.0
 11
239.5721903334283
 21
178.7754249056779
 31
0.0
  0
LWPOLYLINE
  5
56B
330
2
100
AcDbEntity
  8
SICHTBAR
100
AcDbPolyline
 90
        4
 70
     0
 43
0.0
 10
270.5721903334265
 20
191.5464438971019
 10
270.5721903334265
 20
189.2574578418233
 42
-0.406711937259812
 10
259.3674768090787
 20
177.7612495148444
 10
242.3110447196235
 20
177.2881335430507
  0
HATCH
  5
571
330
2
100
AcDbEntity
  8
BEMASS
100
AcDbHatch
 10
0.0
 20
0.0
 30
0.0
210
0.0
220
0.0
230
1.0
  2
ANSI31
 70
     0
 71
     0
 91
        1
 92
        7
 72
     1
 73
     1
 93
       10
 10
171.8154194850335
 20
179.2607549487982
 42
-0.4067119372598153
 10
162.0721903334265
 20
189.2574578418233
 42
0.0
 10
162.0721903334265
 20
191.5464438971021
 42
0.0
 10
160.5721903334265
 20
191.5464438971023
 42
0.0
 10
160.5721903334265
 20
189.2574578418233
 42
0.4059568861468176
 10
171.7471042902841
 20
177.7620535834009
 42
0.0
 10
189.3110447196242
 20
177.2881335430507
 42
0.0
 10
191.5721903334283
 20
177.2881335430505
 42
0.0
 10
191.5721903334283
 20
178.7886765852261
 42
0.0
 10
189.3110447196219
 20
178.7886765852262
 42
0.0
 97
        0
 75
     0
 76
     1
 52
90.0
 41
10.0
 77
     0
 78
     1
 53
135.0
 43
-0.0915697682482915
 44
-448.7145383429339
 45
-0.8838834764831844
 46
-0.8838834764831842
 79
     0
 47
0.117957915512095
 98
        1
 10
174.2772523305541
 20
178.6487011993084
  0
LWPOLYLINE
  5
572
330
2
100
AcDbEntity
  8
SICHTBAR
100
AcDbPolyline
 90
        4
 70
     0
 43
0.0
 10
189.3110447196235
 20
177.2881335430507
 10
171.7769038577744
 20
177.7612495148444
 42
-0.406711937259812
 10
160.5721903334265
 20
189.2574578418233
 10
160.5721903334265
 20
191.5464438971019
  0
ARC
  5
573
330
2
100
AcDbEntity
  8
SICHTBAR
100
AcDbCircle
 10
172.0721903334265
 20
189.2574578418233
 30
0.0
 40
10.00000000000003
100
AcDbArc
 50
180.0
 51
268.5286496983067
  0
DIMENSION
  5
574
330
2
100
AcDbEntity
  8
BEMASS
100
AcDbDimension
280
     0
  2
*D4
 10
97.61586004687387
 20
177.2881335430507
 30
0.0
 11
93.11586004687384
 21
148.269426977221
 31
0.0
 70
    32
 71
     5
 42
58.03741313165942
 73
     0
 74
     0
 75
     0
  3
STANDARD$0
100
AcDbAlignedDimension
 13
192.5721903334282
 23
119.2507204113913
 33
0.0
 14
189.3110447196235
 24
177.2881335430507
 34
0.0
 50
90.0
100
AcDbRotatedDimension
1001
ACAD
1000
DSTYLE
1002
{
1070
    40
1040
1.0
1002
}
  0
DIMENSION
  5
575
330
2
100
AcDbEntity
  8
BEMASS
100
AcDbDimension
280
     0
  2
*D5
 10
97.6158600468738
 20
191.5464438971021
 30
0.0
 11
97.61586004687377
 21
184.4172887200764
 31
0.0
 70
   160
  1
(14.2)
 71
     5
 42
14.25831035405144
 73
     0
 74
     0
 75
     0
  3
STANDARD
100
AcDbAlignedDimension
 13
189.3110447196235
 23
177.2881335430507
 33
0.0
 14
160.5721903334265
 24
191.5464438971021
 34
0.0
 50
270.0
100
AcDbRotatedDimension
  0
LINE
  5
57B
330
2
100
AcDbEntity
  8
SICHTBAR
100
AcDbLine
 10
160.5721903334265
 20
191.5464438971021
 30
0.0
 11
270.5721903334265
 21
191.5464438971021
 31
0.0
  0
ARC
  5
57C
330
2
100
AcDbEntity
  8
SICHTBAR
100
AcDbCircle
 10
259.0721903334265
 20
189.2574578418233
 30
0.0
 40
10.0
100
AcDbArc
 50
271.4713503016934
 51
0.0
  0
LINE
  5
5BC
330
2
100
AcDbEntity
  8
SICHTBAR
100
AcDbLine
 10
162.0721903334265
 20
189.2574578418233
 30
0.0
 11
162.0721903334265
 21
191.5464438971021
 31
0.0
  0
LINE
  5
5BD
330
2
100
AcDbEntity
  8
SICHTBAR
100
AcDbLine
 10
269.0721903334265
 20
189.2574578418233
 30
0.0
 11
269.0721903334265
 21
191.5464438971021
 31
0.0
  0
LINE
  5
5BE
330
2
100
AcDbEntity
  8
SICHTBAR
100
AcDbLine
 10
171.8154194850331
 20
179.2607549487982
 30
0.0
 11
191.5721903334283
 21
178.7754249056779
 31
0.0
  0
LINE
  5
5BF
330
2
100
AcDbEntity
  8
SICHTBAR
100
AcDbLine
 10
191.5721903334283
 20
178.7754249056779
 30
0.0
 11
239.5721903334283
 21
178.7754249056779
 31
0.0
  0
HATCH
  5
5C0
330
2
100
AcDbEntity
  8
SCHRAFF
100
AcDbHatch
 10
0.0
 20
0.0
 30
0.0
210
0.0
220
0.0
230
1.0
  2
ANSI31
 70
     0
 71
     0
 91
        2
 92
        7
 72
     1
 73
     1
 93
       24
 10
150.5721903334251
 20
272.638116983906
 42
-0.3616214947864786
 10
151.390372151607
 20
273.6214491499416
 42
0.8320502943379077
 10
151.390372151607
 20
282.4714386442624
 42
-0.3616214947865003
 10
150.5721903334251
 20
283.4547708102981
 42
0.0
 10
150.5721903334251
 20
288.4547708102982
 42
0.0
 10
149.5721903334251
 20
288.4547708102982
 42
0.0
 10
149.5721903334251
 20
283.4547708102982
 42
0.3616214947864869
 10
151.2085539697888
 20
281.4881064782269
 42
-0.8320502943378881
 10
151.2085539697888
 20
274.6047813159774
 42
0.3616214947864674
 10
149.5721903334251
 20
272.6381169839062
 42
0.0
 10
149.5721903334247
 20
252.5464438971022
 42
0.0
 10
149.5721903334242
 20
202.5464438971023
 42
0.4142135623730998
 10
156.5721903334242
 20
195.5464438971021
 42
0.0
 10
158.5721903334252
 20
195.5464438971021
 42
-0.4142135623730971
 10
160.5721903334251
 20
193.5464438971021
 42
0.0
 10
160.5721903334251
 20
191.5464438971021
 42
0.0
 10
161.5721903334252
 20
191.5464438971021
 42
0.0
 10
161.5721903334252
 20
193.5464438971021
 42
0.414213562373096
 10
158.5721903334252
 20
196.5464438971021
 42
0.0
 10
156.5721903334247
 20
196.5464438971021
 42
-0.4142135623731033
 10
150.5721903334247
 20
202.5464438971023
 42
0.0
 10
150.5814567482209
 20
202.5464438971023
 42
0.0
 10
150.5814567482209
 20
252.5464438971022
 42
0.0
 10
150.5721903334251
 20
252.5464438971022
 42
0.0
 97
        0
 92
        7
 72
     1
 73
     1
 93
       22
 10
281.5721903334261
 20
271.3422804405041
 42
0.0
 10
281.5721903334252
 20
272.6381169839062
 42
0.3616214947864427
 10
279.9358266970617
 20
274.6047813159774
 42
-0.8320502943378503
 10
279.935826697062
 20
281.4881064782268
 42
0.3616214947865031
 10
281.5721903334256
 20
283.4547708102983
 42
0.0
 10
281.5721903334252
 20
288.4547708102982
 42
0.0
 10
280.5721903334256
 20
288.4547708102981
 42
0.0
 10
280.5721903334256
 20
283.4547708102982
 42
-0.3616214947864709
 10
279.7540085152438
 20
282.4714386442626
 42
0.8320502943379381
 10
279.7540085152438
 20
273.6214491499417
 42
-0.3616214947863852
 10
280.5721903334251
 20
272.6381169839061
 42
0.0
 10
280.5721903334251
 20
271.3422804405043
 42
0.0
 10
280.5721903334251
 20
202.5464438971022
 42
-0.4142135623730951
 10
274.5721903334252
 20
196.5464438971021
 42
0.0
 10
272.5721903334252
 20
196.5464438971021
 42
0.4142135623728386
 10
269.5721903334274
 20
193.5464438971025
 42
0.0
 10
269.5721903334272
 20
191.5464438971021
 42
0.0
 10
270.5721903334272
 20
191.5464438971021
 42
0.0
 10
270.5721903334274
 20
193.5464438970969
 42
-0.4142135623735279
 10
272.5721903334252
 20
195.5464438971021
 42
0.0
 10
274.5721903334261
 20
195.5464438971021
 42
0.4142135623730944
 10
281.5721903334261
 20
202.5464438971022
 42
0.0
 97
        0
 75
     0
 76
     1
 52
0.0
 41
15.0
 77
     0
 78
     1
 53
45.0
 43
-15.04136632299401
 44
0.0
 45
-1.325825214724776
 46
1.325825214724776
 79
     0
 47
0.3139683325774345
 98
        2
 10
149.9007014589649
 20
268.3887873355777
 10
281.2179151112048
 20
225.0611575412713
  0
LINE
  5
5D5
330
2
100
AcDbEntity
  8
BEMASS
100
AcDbLine
 10
150.5721903334247
 20
202.5464438971023
 30
0.0
 11
150.5814567482209
 21
202.5464438971022
 31
0.0
  0
DIMENSION
  5
5DA
330
2
100
AcDbEntity
  8
BEMASS
100
AcDbDimension
280
     0
  2
*D8
 10
135.4173039633326
 20
273.2512513192592
 30
0.0
 11
130.9173039633326
 21
250.7512513192592
 31
0.0
 70
    32
 71
     5
 42
45.00000000000002
 73
     0
 74
     0
 75
     0
  3
STANDARD
100
AcDbAlignedDimension
 13
160.5721903334256
 23
228.2512513192592
 33
0.0
 14
163.7575081409698
 24
273.2512513192592
 34
0.0
 50
90.0
100
AcDbRotatedDimension
  0
DIMENSION
  5
5DC
330
2
100
AcDbEntity
  8
BEMASS
100
AcDbDimension
280
     0
  2
*D7
 10
77.28762878898374
 20
195.5464438971021
 30
0.0
 11
72.78762878898371
 21
250.898582154247
 31
0.0
 70
    32
  1
111-144
 71
     5
 42
110.7042765142896
 73
     0
 74
     0
 75
     0
  3
STANDARD
100
AcDbAlignedDimension
 13
142.0721903334252
 23
306.2507204113917
 33
0.0
 14
156.5721903334242
 24
195.5464438971021
 34
0.0
 50
90.0
100
AcDbRotatedDimension
  0
DIMENSION
  5
5DD
330
2
100
AcDbEntity
  8
BEMASS
100
AcDbDimension
280
     0
  2
*D6
 10
64.75880242047174
 20
119.2507204113913
 30
0.0
 11
60.25880242047172
 21
212.7507204113916
 31
0.0
 70
    32
  1
190-220
 71
     5
 42
187.0000000000004
 73
     0
 74
     0
 75
     0
  3
STANDARD
100
AcDbAlignedDimension
 13
142.8343185900592
 23
306.2507204113917
 33
0.0
 14
195.9847443661094
 24
119.2507204113913
 34
0.0
 50
90.0
100
AcDbRotatedDimension
  0
LINE
  5
5F2
330
2
100
AcDbEntity
  8
MITTE
100
AcDbLine
 10
215.5721903334256
 20
174.3691894259153
 30
0.0
 11
215.5721903334254
 21
114.3764417462707
 31
0.0
  0
LINE
  5
5F7
330
2
100
AcDbEntity
  8
VERDECKT
100
AcDbLine
 10
169.5721903334247
 20
228.251251319256
 30
0.0
 11
261.5721903334247
 21
228.2512513192586
 31
0.0
  0
ARC
  5
5F9
330
2
100
AcDbEntity
  8
SICHTBAR
100
AcDbCircle
 10
267.5721903334235
 20
271.2512513192589
 30
0.0
 40
1.0
100
AcDbArc
 50
0.0
 51
89.99999999999674
  0
ARC
  5
5FA
330
2
100
AcDbEntity
  8
SICHTBAR
100
AcDbCircle
 10
267.5721903334235
 20
271.2512513192589
 30
0.0
 40
2.0
100
AcDbArc
 50
0.0
 51
89.99999999999674
  0
LINE
  5
600
330
2
100
AcDbEntity
  8
0
100
AcDbLine
 10
265.5721903334245
 20
272.2512513192592
 30
0.0
 11
265.5721903334245
 21
273.2512513192592
 31
0.0
  0
LINE
  5
602
330
2
100
AcDbEntity
  8
0
100
AcDbLine
 10
262.5522084191096
 20
275.9262513192614
 30
0.0
 11
266.572190333425
 21
275.9262513192614
 31
0.0
  0
LINE
  5
603
330
2
100
AcDbEntity
  8
0
100
AcDbLine
 10
266.572190333425
 20
277.1762513192614
 30
0.0
 11
266.572190333425
 21
275.9262513192614
 31
0.0
  0
ARC
  5
604
330
2
100
AcDbEntity
  8
0
100
AcDbCircle
 10
262.5522084191096
 20
273.9262513192614
 30
0.0
 40
2.0
100
AcDbArc
 50
90.0
 51
149.9999999999994
  0
ARC
  5
605
330
2
100
AcDbEntity
  8
0
100
AcDbCircle
 10
262.4078708518124
 20
274.1762513192614
 30
0.0
 40
3.0
100
AcDbArc
 50
90.0
 51
149.9999999999994
  0
LINE
  5
606
330
2
100
AcDbEntity
  8
SICHTBAR
100
AcDbLine
 10
259.8530959106469
 20
273.2512513192587
 30
0.0
 11
267.5721903334259
 21
273.2512513192587
 31
0.0
  0
LINE
  5
607
330
2
100
AcDbEntity
  8
0
100
AcDbLine
 10
267.5721903334236
 20
272.2512513192589
 30
0.0
 11
259.2757456414576
 21
272.2512513192595
 31
0.0
  0
LINE
  5
608
330
2
100
AcDbEntity
  8
SICHTBAR
100
AcDbLine
 10
259.853095910647
 20
273.2512513192592
 30
0.0
 11
267.5721903334208
 21
273.2512513192592
 31
0.0
  0
LINE
  5
60B
330
2
100
AcDbEntity
  8
SICHTBAR
100
AcDbLine
 10
263.572190333425
 20
273.2512513192592
 30
0.0
 11
267.5721903334225
 21
273.2512513192592
 31
0.0
  0
LINE
  5
60C
330
2
100
AcDbEntity
  8
0
100
AcDbLine
 10
263.5721903334241
 20
273.2512513192592
 30
0.0
 11
267.5721903334225
 21
273.2512513192589
 31
0.0
  0
LINE
  5
60D
330
2
100
AcDbEntity
  8
SICHTBAR
100
AcDbLine
 10
262.409472318216
 20
273.2512513192592
 30
0.0
 11
267.5721903334233
 21
273.2512513192592
 31
0.0
  0
LINE
  5
60E
330
2
100
AcDbEntity
  8
0
100
AcDbLine
 10
263.5721903334249
 20
273.2512513192592
 30
0.0
 11
267.5721903334233
 21
273.2512513192589
 31
0.0
  0
LINE
  5
60F
330
2
100
AcDbEntity
  8
0
100
AcDbLine
 10
263.572190333425
 20
290.5331073673494
 30
0.0
 11
268.3221903334248
 21
290.5331073673494
 31
0.0
  0
LINE
  5
610
330
2
100
AcDbEntity
  8
0
100
AcDbLine
 10
261.5721903334251
 20
257.1762513192609
 30
0.0
 11
260.572190333425
 21
257.1762513192607
 31
0.0
  0
ARC
  5
611
330
2
100
AcDbEntity
  8
0
100
AcDbCircle
 10
252.3221903334249
 20
256.707340232507
 30
0.0
 40
3.0
100
AcDbArc
 50
149.9999999999994
 51
180.0
  0
ARC
  5
612
330
2
100
AcDbEntity
  8
0
100
AcDbCircle
 10
252.5721903334255
 20
256.6403529343993
 30
0.0
 40
2.0
100
AcDbArc
 50
149.9999999999994
 51
180.0
  0
LINE
  5
613
330
2
100
AcDbEntity
  8
0
100
AcDbLine
 10
260.572190333425
 20
257.1762513192607
 30
0.0
 11
250.6453242454208
 21
257.1762513192607
 31
0.0
  0
ARC
  5
614
330
2
100
AcDbEntity
  8
0
100
AcDbCircle
 10
245.7465988657786
 20
195.1762513192607
 30
0.0
 40
2.0
100
AcDbArc
 50
263.3455749539924
 51
270.0
  0
ARC
  5
615
330
2
100
AcDbEntity
  8
0
100
AcDbCircle
 10
245.7465988657776
 20
195.1762513192607
 30
0.0
 40
3.0
100
AcDbArc
 50
263.3455749539924
 51
270.0
  0
LINE
  5
616
330
2
100
AcDbEntity
  8
0
100
AcDbLine
 10
251.5721903334244
 20
193.1762513192605
 30
0.0
 11
245.7465988657784
 21
193.1762513192607
 31
0.0
  0
ARC
  5
617
330
2
100
AcDbEntity
  8
0
100
AcDbCircle
 10
251.5721903334246
 20
202.1762513192605
 30
0.0
 40
9.0
100
AcDbArc
 50
270.0
 51
0.0
  0
ARC
  5
618
330
2
100
AcDbEntity
  8
0
100
AcDbCircle
 10
222.5300583404598
 20
197.8848477138814
 30
0.0
 40
3.0
100
AcDbArc
 50
219.3672329287808
 51
263.3455749539924
  0
ARC
  5
619
330
2
100
AcDbEntity
  8
0
100
AcDbCircle
 10
222.5300583404598
 20
197.8848477138814
 30
0.0
 40
2.0
100
AcDbArc
 50
219.3672329287808
 51
263.3455749539924
  0
LINE
  5
61A
330
2
100
AcDbEntity
  8
0
100
AcDbLine
 10
245.5148374666582
 20
193.1897250410862
 30
0.0
 11
222.2982969413394
 21
195.8983214357069
 31
0.0
  0
LINE
  5
61B
330
2
100
AcDbEntity
  8
0
100
AcDbLine
 10
245.3989567670971
 20
192.196461901999
 30
0.0
 11
222.182416241779
 21
194.9050582966197
 31
0.0
  0
LINE
  5
61C
330
2
100
AcDbEntity
  8
0
100
AcDbLine
 10
261.5721903334251
 20
257.1762513192609
 30
0.0
 11
261.5721903334246
 21
202.1762513192605
 31
0.0
  0
LINE
  5
61D
330
2
100
AcDbEntity
  8
0
100
AcDbLine
 10
260.572190333425
 20
257.1762513192609
 30
0.0
 11
260.5721903334246
 21
202.1762513192605
 31
0.0
  0
LINE
  5
61E
330
2
100
AcDbEntity
  8
0
100
AcDbLine
 10
250.5721903334255
 20
256.6403529343995
 30
0.0
 11
250.5721903334246
 21
207.1762513192609
 31
0.0
  0
LINE
  5
61F
330
2
100
AcDbEntity
  8
0
100
AcDbLine
 10
249.3221903334248
 20
256.7073402325072
 30
0.0
 11
249.3221903334246
 21
207.1762513192609
 31
0.0
  0
LINE
  5
620
330
2
100
AcDbEntity
  8
0
100
AcDbLine
 10
269.5721903334236
 20
267.2512513192589
 30
0.0
 11
256.7787057272138
 21
267.2512513192596
 31
0.0
  0
LINE
  5
621
330
2
100
AcDbEntity
  8
0
100
AcDbLine
 10
249.7241141220715
 20
258.2073402325073
 30
0.0
 11
259.809794640459
 21
275.6762513192614
 31
0.0
  0
LINE
  5
622
330
2
100
AcDbEntity
  8
0
100
AcDbLine
 10
250.8401395258567
 20
257.6403529343993
 30
0.0
 11
260.8201576115408
 21
274.9262513192614
 31
0.0
  0
LINE
  5
623
330
2
100
AcDbEntity
  8
SICHTBAR
100
AcDbLine
 10
268.5721903334235
 20
271.2512513192589
 30
0.0
 11
268.5721903334236
 21
267.2512513192589
 31
0.0
  0
LINE
  5
624
330
2
100
AcDbEntity
  8
SICHTBAR
100
AcDbLine
 10
269.5721903334235
 20
283.2831073673492
 30
0.0
 11
269.5721903334236
 21
279.2831073673492
 31
0.0
  0
ARC
  5
625
330
2
100
AcDbEntity
  8
0
100
AcDbCircle
 10
251.5721903334246
 20
202.1762513192605
 30
0.0
 40
10.0
100
AcDbArc
 50
270.0
 51
0.0
  0
LINE
  5
626
330
2
100
AcDbEntity
  8
VERDECKT
100
AcDbLine
 10
215.5721903334251
 20
272.1762513192614
 30
0.0
 11
170.5721903334244
 21
272.2512513192598
 31
0.0
  0
ARC
  5
628
330
2
100
AcDbEntity
  8
0
100
AcDbCircle
 10
168.59217224774
 20
273.9262513192618
 30
0.0
 40
2.0
100
AcDbArc
 50
30.00000000000053
 51
90.0
  0
LINE
  5
629
330
2
100
AcDbEntity
  8
0
100
AcDbLine
 10
170.5721903334241
 20
274.4967593949511
 30
0.0
 11
170.3242230553088
 21
274.9262513192618
 31
0.0
  0
ARC
  5
62B
330
2
100
AcDbEntity
  8
0
100
AcDbCircle
 10
168.7365098150373
 20
274.1762513192616
 30
0.0
 40
3.0
100
AcDbArc
 50
30.00000000000053
 51
90.0
  0
ARC
  5
62D
330
2
100
AcDbEntity
  8
SICHTBAR
100
AcDbCircle
 10
163.5721903334255
 20
271.2512513192594
 30
0.0
 40
2.0
100
AcDbArc
 50
90.00000000000317
 51
180.0
  0
ARC
  5
62E
330
2
100
AcDbEntity
  8
SICHTBAR
100
AcDbCircle
 10
163.5721903334255
 20
271.2512513192594
 30
0.0
 40
1.0
100
AcDbArc
 50
90.00000000000317
 51
179.9999999999967
  0
LINE
  5
62F
330
2
100
AcDbEntity
  8
0
100
AcDbLine
 10
165.5721903334245
 20
272.2512513192595
 30
0.0
 11
165.5721903334245
 21
273.2512513192595
 31
0.0
  0
LINE
  5
633
330
2
100
AcDbEntity
  8
0
100
AcDbLine
 10
164.5721903334246
 20
277.1762513192616
 30
0.0
 11
164.5721903334246
 21
275.9262513192616
 31
0.0
  0
LINE
  5
635
330
2
100
AcDbEntity
  8
0
100
AcDbLine
 10
163.5721903334254
 20
272.2512513192594
 30
0.0
 11
170.5721903334243
 21
272.2512513192598
 31
0.0
  0
LINE
  5
636
330
2
100
AcDbEntity
  8
0
100
AcDbLine
 10
163.5721903334254
 20
273.2512513192594
 30
0.0
 11
167.5721903334245
 21
273.2512513192596
 31
0.0
  0
LINE
  5
637
330
2
100
AcDbEntity
  8
SICHTBAR
100
AcDbLine
 10
170.5721903334241
 20
273.2512513192592
 30
0.0
 11
163.5721903334232
 21
273.2512513192592
 31
0.0
  0
LINE
  5
638
330
2
100
AcDbEntity
  8
0
100
AcDbLine
 10
168.59217224774
 20
275.9262513192618
 30
0.0
 11
164.5721903334246
 21
275.9262513192616
 31
0.0
  0
LINE
  5
63A
330
2
100
AcDbEntity
  8
SICHTBAR
100
AcDbLine
 10
168.7349083486328
 20
273.2512513192592
 30
0.0
 11
163.5721903334255
 21
273.2512513192592
 31
0.0
  0
LINE
  5
63B
330
2
100
AcDbEntity
  8
0
100
AcDbLine
 10
167.5721903334245
 20
290.5331073673499
 30
0.0
 11
162.8221903334248
 21
290.5331073673494
 31
0.0
  0
LINE
  5
63C
330
2
100
AcDbEntity
  8
0
100
AcDbLine
 10
215.5721903334251
 20
277.1762513192614
 30
0.0
 11
164.5721903334248
 21
277.1762513192616
 31
0.0
  0
LINE
  5
63D
330
2
100
AcDbEntity
  8
0
100
AcDbLine
 10
215.5721903334259
 20
277.1762513192614
 30
0.0
 11
164.5721903334256
 21
277.1762513192616
 31
0.0
  0
ARC
  5
63E
330
2
100
AcDbEntity
  8
0
100
AcDbCircle
 10
178.8221903334248
 20
256.7073402325075
 30
0.0
 40
3.0
100
AcDbArc
 50
0.0
 51
30.00000000000053
  0
ARC
  5
63F
330
2
100
AcDbEntity
  8
VERDECKT
100
AcDbCircle
 10
178.5721903334241
 20
256.6403529343995
 30
0.0
 40
2.0
100
AcDbArc
 50
0.0
 51
30.00000000000053
  0
ARC
  5
640
330
2
100
AcDbEntity
  8
BEMASS
100
AcDbCircle
 10
178.5721903334244
 20
231.3478241945147
 30
0.0
 40
2.0
100
AcDbArc
 50
0.0
 51
45.00000000000001
  0
LINE
  5
641
330
2
100
AcDbEntity
  8
0
100
AcDbLine
 10
172.1579767710517
 20
242.0046784440071
 30
0.0
 11
181.8221903334251
 21
232.3404648816338
 31
0.0
  0
LINE
  5
642
330
2
100
AcDbEntity
  8
VERDECKT
100
AcDbLine
 10
180.5721903334242
 20
256.6403529343995
 30
0.0
 11
180.5721903334244
 21
231.3478241945147
 31
0.0
  0
LINE
  5
643
330
2
100
AcDbEntity
  8
DUENN
100
AcDbLine
 10
182.6414995896713
 20
257.3668082486886
 30
0.0
 11
215.5721903334248
 21
257.3668082486886
 31
0.0
  0
ARC
  5
644
330
2
100
AcDbEntity
  8
0
100
AcDbCircle
 10
208.6143223263895
 20
197.8848477138814
 30
0.0
 40
2.0
100
AcDbArc
 50
276.6544250460076
 51
320.6327670712191
  0
ARC
  5
645
330
2
100
AcDbEntity
  8
0
100
AcDbCircle
 10
208.6143223263895
 20
197.8848477138814
 30
0.0
 40
3.0
100
AcDbArc
 50
276.6544250460076
 51
320.6327670712191
  0
ARC
  5
646
330
2
100
AcDbEntity
  8
0
100
AcDbCircle
 10
215.5721903334253
 20
192.1762513192614
 30
0.0
 40
6.0
100
AcDbArc
 50
90.00000000001627
 51
140.6327670712191
  0
ARC
  5
647
330
2
100
AcDbEntity
  8
0
100
AcDbCircle
 10
215.5721903334253
 20
192.1762513192614
 30
0.0
 40
7.0
100
AcDbArc
 50
90.00000000001627
 51
140.6327670712191
  0
ARC
  5
648
330
2
100
AcDbEntity
  8
0
100
AcDbCircle
 10
185.3977818010713
 20
195.1762513192607
 30
0.0
 40
3.0
100
AcDbArc
 50
270.0
 51
276.6544250460076
  0
ARC
  5
649
330
2
100
AcDbEntity
  8
0
100
AcDbCircle
 10
185.3977818010707
 20
195.1762513192608
 30
0.0
 40
2.0
100
AcDbArc
 50
270.0
 51
276.6544250460076
  0
LINE
  5
64A
330
2
100
AcDbEntity
  8
0
100
AcDbLine
 10
179.5721903334248
 20
193.1762513192607
 30
0.0
 11
185.3977818010707
 21
193.1762513192608
 31
0.0
  0
LINE
  5
64B
330
2
100
AcDbEntity
  8
0
100
AcDbLine
 10
185.7454238997517
 20
192.196461901999
 30
0.0
 11
208.9619644250703
 21
194.9050582966197
 31
0.0
  0
LINE
  5
64C
330
2
100
AcDbEntity
  8
0
100
AcDbLine
 10
185.6295432001911
 20
193.1897250410862
 30
0.0
 11
208.8460837255099
 21
195.8983214357069
 31
0.0
  0
LINE
  5
64D
330
2
100
AcDbEntity
  8
0
100
AcDbLine
 10
180.5721903334248
 20
207.1762513192609
 30
0.0
 11
215.5721903334248
 21
207.1762513192609
 31
0.0
  0
LINE
  5
64E
330
2
100
AcDbEntity
  8
0
100
AcDbLine
 10
180.5721903334244
 20
231.3478241945147
 30
0.0
 11
180.5721903334248
 21
207.1762513192609
 31
0.0
  0
LINE
  5
64F
330
2
100
AcDbEntity
  8
0
100
AcDbLine
 10
181.8221903334248
 20
256.7073402325075
 30
0.0
 11
181.8221903334248
 21
207.1762513192609
 31
0.0
  0
LINE
  5
650
330
2
100
AcDbEntity
  8
0
100
AcDbLine
 10
161.5721903334254
 20
267.2512513192594
 30
0.0
 11
170.5721903334243
 21
267.2512513192598
 31
0.0
  0
LINE
  5
651
330
2
100
AcDbEntity
  8
0
100
AcDbLine
 10
169.5721903334246
 20
257.1762513192609
 30
0.0
 11
170.5721903334246
 21
257.1762513192609
 31
0.0
  0
ARC
  5
652
330
2
100
AcDbEntity
  8
BEMASS
100
AcDbCircle
 10
173.5721903334246
 20
243.4188920063803
 30
0.0
 40
3.0
100
AcDbArc
 50
180.0
 51
225.0
  0
LINE
  5
653
330
2
100
AcDbEntity
  8
0
100
AcDbLine
 10
169.5721903334246
 20
257.1762513192609
 30
0.0
 11
169.5721903334248
 21
202.1762513192607
 31
0.0
  0
ARC
  5
654
330
2
100
AcDbEntity
  8
0
100
AcDbCircle
 10
179.5721903334248
 20
202.1762513192607
 30
0.0
 40
9.0
100
AcDbArc
 50
180.0
 51
270.0
  0
LINE
  5
655
330
2
100
AcDbEntity
  8
0
100
AcDbLine
 10
171.4508699898651
 20
241.2975716628207
 30
0.0
 11
179.9864038957975
 21
232.7620377568878
 31
0.0
  0
ARC
  5
656
330
2
100
AcDbEntity
  8
BEMASS
100
AcDbCircle
 10
173.5721903334248
 20
243.4188920063803
 30
0.0
 40
2.0
100
AcDbArc
 50
180.0
 51
225.0
  0
LINE
  5
657
330
2
100
AcDbEntity
  8
0
100
AcDbLine
 10
170.5721903334244
 20
274.4967593949509
 30
0.0
 11
170.5721903334248
 21
202.1762513192607
 31
0.0
  0
LINE
  5
658
330
2
100
AcDbEntity
  8
VERDECKT
100
AcDbLine
 10
180.304241140993
 20
257.6403529343995
 30
0.0
 11
171.5721903334244
 21
272.7647085873821
 31
0.0
  0
LINE
  5
659
330
2
100
AcDbEntity
  8
0
100
AcDbLine
 10
171.5721903334244
 20
275.2647085873823
 30
0.0
 11
171.5721903334248
 21
243.4188920063803
 31
0.0
  0
LINE
  5
65A
330
2
100
AcDbEntity
  8
0
100
AcDbLine
 10
181.4202665447782
 20
258.2073402325075
 30
0.0
 11
171.3345860263906
 21
275.6762513192616
 31
0.0
  0
LINE
  5
65B
330
2
100
AcDbEntity
  8
SICHTBAR
100
AcDbLine
 10
162.5721903334255
 20
271.2512513192594
 30
0.0
 11
162.5721903334253
 21
267.2512513192594
 31
0.0
  0
LINE
  5
65C
330
2
100
AcDbEntity
  8
SICHTBAR
100
AcDbLine
 10
161.5721903334255
 20
283.2831073673497
 30
0.0
 11
161.5721903334254
 21
279.2831073673497
 31
0.0
  0
LINE
  5
65D
330
2
100
AcDbEntity
  8
MITTE
100
AcDbLine
 10
215.5721903334256
 20
319.4621391757225
 30
0.0
 11
215.5721903334256
 21
174.3691894259153
 31
0.0
  0
ARC
  5
65E
330
2
100
AcDbEntity
  8
0
100
AcDbCircle
 10
179.5721903334248
 20
202.1762513192607
 30
0.0
 40
10.0
100
AcDbArc
 50
180.0
 51
270.0
  0
HATCH
  5
65F
330
2
100
AcDbEntity
  8
SCHRAFF
100
AcDbHatch
 10
0.0
 20
0.0
 30
0.0
210
0.0
220
0.0
230
1.0
  2
ANSI31
 70
     0
 71
     0
 91
        2
 92
        7
 72
     1
 73
     1
 93
       16
 10
170.5721903334246
 20
257.1762513192609
 42
0.0
 10
169.5721903334246
 20
257.1762513192609
 42
0.0
 10
169.5721903334248
 20
202.1762513192607
 42
0.4142135623730942
 10
179.5721903334248
 20
192.1762513192607
 42
0.0
 10
185.3977818010713
 20
192.1762513192607
 42
0.0290435689525829
 10
185.7454238997517
 20
192.196461901999
 42
0.0
 10
208.9619644250701
 20
194.9050582966197
 42
0.1942822396084061
 10
210.9336116620681
 20
195.981982249008
 42
-0.2245931087814048
 10
215.5721903334246
 20
198.1762513192613
 42
0.0
 10
215.5721903334246
 20
199.1762513192614
 42
0.2245931087814076
 10
210.1605152168419
 20
196.6162707372991
 42
-0.1942822396083985
 10
208.8460837255099
 20
195.8983214357069
 42
0.0
 10
185.6295432001913
 20
193.1897250410862
 42
-0.0290435689525692
 10
185.3977818010709
 20
193.1762513192608
 42
0.0
 10
179.5721903334248
 20
193.1762513192607
 42
-0.4142135623730969
 10
170.5721903334248
 20
202.1762513192607
 42
0.0
 97
        0
 92
        7
 72
     1
 73
     1
 93
       16
 10
222.2982969413394
 20
195.8983214357069
 42
-0.1942822396084091
 10
220.9838654500074
 20
196.6162707372991
 42
0.2245931087814057
 10
215.5721903334246
 20
199.1762513192614
 42
0.0
 10
215.5721903334246
 20
198.1762513192613
 42
-0.2245931087814008
 10
220.2107690047812
 20
195.981982249008
 42
0.1942822396084025
 10
222.1824162417792
 20
194.9050582966197
 42
0.0
 10
245.3989567670971
 20
192.196461901999
 42
0.0290435689525839
 10
245.7465988657779
 20
192.1762513192607
 42
0.0
 10
251.5721903334244
 20
192.1762513192605
 42
0.4142135623731017
 10
261.5721903334246
 20
202.1762513192604
 42
0.0
 10
261.5721903334251
 20
257.1762513192609
 42
0.0
 10
260.572190333425
 20
257.1762513192607
 42
0.0
 10
260.5721903334246
 20
202.1762513192604
 42
-0.4142135623731033
 10
251.5721903334244
 20
193.1762513192605
 42
0.0
 10
245.7465988657784
 20
193.1762513192607
 42
-0.0290435689525743
 10
245.5148374666579
 20
193.1897250410862
 42
0.0
 97
        0
 75
     0
 76
     1
 52
0.0
 41
15.0
 77
     0
 78
     1
 53
45.0
 43
-90.48610832634167
 44
-203.2067341975473
 45
-1.325825214724776
 46
1.325825214724776
 79
     0
 47
0.1622631787827966
 98
        2
 10
170.4219638443818
 20
232.9111086450118
 10
226.4261153637116
 20
195.1037845506223
  0
HATCH
  5
660
330
2
100
AcDbEntity
  8
SCHRAFF
100
AcDbHatch
 10
0.0
 20
0.0
 30
0.0
210
0.0
220
0.0
230
1.0
  2
ANSI31
 70
     0
 71
     0
 91
        4
 92
        7
 72
     1
 73
     1
 93
       12
 10
250.5721903334255
 20
256.6403529343993
 42
-0.1316524975873826
 10
250.8401395258566
 20
257.6403529343992
 42
0.0
 10
260.8201576115408
 20
274.9262513192614
 42
-0.2679491924311257
 10
262.5522084191096
 20
275.9262513192614
 42
0.0
 10
266.5721903334252
 20
275.9262513192614
 42
0.0
 10
266.572190333425
 20
277.1762513192614
 42
0.0
 10
262.4078708518124
 20
277.1762513192614
 42
0.2679491924311286
 10
259.809794640459
 20
275.6762513192614
 42
0.0
 10
249.7241141220714
 20
258.207340232507
 42
0.1316524975873667
 10
249.3221903334248
 20
256.7073402325074
 42
0.0
 10
249.3221903334245
 20
207.1762513192609
 42
0.0
 10
250.5721903334245
 20
207.1762513192609
 42
0.0
 97
        0
 92
        7
 72
     1
 73
     1
 93
        9
 10
172.1579767710517
 20
242.004678444007
 42
-0.1989123673796509
 10
171.5721903334248
 20
243.41889200638
 42
0.0
 10
171.5721903334246
 20
272.7647085873818
 42
0.0
 10
170.5721903334244
 20
274.4967593949514
 42
0.0
 10
170.5721903334246
 20
243.4188920063805
 42
0.1989123673796606
 10
171.4508699898651
 20
241.2975716628207
 42
0.0
 10
179.9864038957975
 20
232.7620377568878
 42
-0.198912367379651
 10
180.5721903334244
 20
231.3478241945147
 42
0.0
 10
180.5721903334244
 20
233.5904648816345
 42
0.0
 97
        0
 92
        7
 72
     0
 73
     1
 93
        5
 10
181.8221903334248
 20
232.3404648816342
 10
180.5721903334246
 20
233.5904648816345
 10
180.5721903334244
 20
231.3478241945147
 10
180.5721903334248
 20
207.1762513192609
 10
181.8221903334248
 20
207.1762513192609
 97
        0
 92
        7
 72
     1
 73
     1
 93
        8
 10
168.7365098150373
 20
277.1762513192616
 42
0.0
 10
164.5721903334246
 20
277.1762513192616
 42
0.0
 10
164.5721903334246
 20
275.9262513192616
 42
0.0
 10
168.59217224774
 20
275.9262513192618
 42
-0.2679491924311257
 10
170.3242230553088
 20
274.9262513192618
 42
0.0
 10
171.5721903334244
 20
272.7647085873817
 42
0.0
 10
171.5721903334244
 20
275.2647085873822
 42
0.0
 10
171.3345860263904
 20
275.6762513192621
 42
0.2679491924310747
 97
        0
 75
     0
 76
     1
 52
90.0
 41
10.0
 77
     0
 78
     1
 53
135.0
 43
1240.003965680646
 44
-88.45063813116803
 45
-0.8838834764831844
 46
-0.8838834764831842
 79
     0
 47
0.2520826021340877
 98
        4
 10
249.6904580774882
 20
247.7550996752764
 10
174.5419247331298
 20
238.680126075647
 10
181.6028612222884
 20
225.3197485276209
 10
168.2375166267301
 20
276.4925162896134
  0
LINE
  5
661
330
2
100
AcDbEntity
  8
0
100
AcDbLine
 10
251.5721903334244
 20
192.1762513192605
 30
0.0
 11
179.5721903334248
 21
192.1762513192607
 31
0.0
  0
LINE
  5
662
330
2
100
AcDbEntity
  8
0
100
AcDbLine
 10
250.5721903334246
 20
207.1762513192609
 30
0.0
 11
215.5721903334246
 21
207.1762513192609
 31
0.0
  0
ARC
  5
663
330
2
100
AcDbEntity
  8
0
100
AcDbCircle
 10
215.572190333424
 20
192.1762513192614
 30
0.0
 40
7.0
100
AcDbArc
 50
39.36723292878088
 51
89.99999999998371
  0
ARC
  5
664
330
2
100
AcDbEntity
  8
0
100
AcDbCircle
 10
215.572190333424
 20
192.1762513192614
 30
0.0
 40
6.0
100
AcDbArc
 50
39.36723292878088
 51
89.99999999998371
  0
LINE
  5
665
330
2
100
AcDbEntity
  8
DUENN
100
AcDbLine
 10
211.2948161104859
 20
195.107498402999
 30
0.0
 11
219.5703281695231
 21
195.107498402999
 31
0.0
  0
LINE
  5
666
330
2
100
AcDbEntity
  8
DUENN
100
AcDbLine
 10
248.5028810771784
 20
257.3668082486886
 30
0.0
 11
215.5721903334248
 21
257.3668082486886
 31
0.0
  0
LINE
  5
668
330
2
100
AcDbEntity
  8
VERDECKT
100
AcDbLine
 10
215.5721903334246
 20
272.1762513192614
 30
0.0
 11
259.2757456414576
 21
272.2512513192595
 31
0.0
  0
LINE
  5
669
330
2
100
AcDbEntity
  8
0
100
AcDbLine
 10
167.5721903334245
 20
290.5331073673499
 30
0.0
 11
263.572190333425
 21
290.5331073673494
 31
0.0
  0
LINE
  5
66A
330
2
100
AcDbEntity
  8
0
100
AcDbLine
 10
215.5721903334246
 20
277.1762513192614
 30
0.0
 11
266.5721903334248
 21
277.1762513192614
 31
0.0
  0
LINE
  5
66B
330
2
100
AcDbEntity
  8
0
100
AcDbLine
 10
215.5721903334254
 20
277.1762513192614
 30
0.0
 11
266.5721903334256
 21
277.1762513192614
 31
0.0
  0
HATCH
  5
66C
330
2
100
AcDbEntity
  8
SCHRAFF
100
AcDbHatch
 10
0.0
 20
0.0
 30
0.0
210
0.0
220
0.0
230
1.0
  2
ANSI31
 70
     0
 71
     0
 91
        2
 92
        7
 72
     1
 73
     1
 93
        8
 10
268.5721903334235
 20
271.2512513192588
 42
0.0
 10
268.5721903334236
 20
267.2512513192589
 42
0.0
 10
269.5721903334255
 20
267.2512513192588
 42
0.0
 10
269.5721903334255
 20
271.2512513192589
 42
0.4142135623730568
 10
267.5721903334255
 20
273.2512513192587
 42
0.0
 10
265.5721903334245
 20
273.2512513192587
 42
0.0
 10
265.5721903334245
 20
272.251251319259
 42
0.0
 10
267.5721903334236
 20
272.2512513192589
 42
-0.4142135623730829
 97
        0
 92
        7
 72
     1
 73
     1
 93
        8
 10
161.5721903334254
 20
271.2512513192595
 42
0.0
 10
161.5721903334253
 20
267.2512513192594
 42
0.0
 10
162.5721903334253
 20
267.2512513192594
 42
0.0
 10
162.5721903334255
 20
271.2512513192594
 42
-0.4142135623730582
 10
163.5721903334254
 20
272.2512513192594
 42
0.0
 10
165.5721903334245
 20
272.2512513192596
 42
0.0
 10
165.5721903334245
 20
273.2512513192595
 42
0.0
 10
163.5721903334254
 20
273.2512513192594
 42
0.4142135623730818
 97
        0
 75
     0
 76
     1
 52
90.0
 41
8.0
 77
     0
 78
     1
 53
135.0
 43
-13.37252949836812
 44
-97.10449278783256
 45
-0.7071067811865476
 46
-0.7071067811865475
 79
     0
 47
0.1286462773216767
 98
        2
 10
268.1056532272034
 20
272.5980271046584
 10
162.5764989876735
 20
272.4693808221376
  0
LINE
  5
66E
330
2
100
AcDbEntity
  8
SICHTBAR
100
AcDbLine
 10
268.5721903334253
 20
191.5464438971021
 30
0.0
 11
270.5721903334253
 21
191.5464438971021
 31
0.0
  0
LINE
  5
67B
330
2
100
AcDbEntity
  8
SICHTBAR
100
AcDbLine
 10
162.5721903334254
 20
191.5464438971021
 30
0.0
 11
160.5721903334254
 21
191.5464438971021
 31
0.0
  0
LINE
  5
67D
330
2
100
AcDbEntity
  8
SICHTBAR
100
AcDbLine
 10
215.5721903334253
 20
191.5464438971021
 30
0.0
 11
162.5721903334254
 21
191.5464438971021
 31
0.0
  0
LINE
  5
67F
330
2
100
AcDbEntity
  8
SICHTBAR
100
AcDbLine
 10
215.5721903334253
 20
191.5464438971021
 30
0.0
 11
268.5721903334253
 21
191.5464438971021
 31
0.0
  0
LINE
  5
683
330
2
100
AcDbEntity
  8
SICHTBAR
100
AcDbLine
 10
149.5721903334242
 20
202.5464438971023
 30
0.0
 11
149.5721903334242
 21
252.5464438971022
 31
0.0
  0
LINE
  5
684
330
2
100
AcDbEntity
  8
SICHTBAR
100
AcDbLine
 10
150.5814567482209
 20
202.5464438971022
 30
0.0
 11
150.5814567482209
 21
252.5464438971022
 31
0.0
  0
LINE
  5
685
330
2
100
AcDbEntity
  8
SICHTBAR
100
AcDbLine
 10
285.0721903334256
 20
305.2507204113915
 30
0.0
 11
289.0721903334256
 21
305.2507204113915
 31
0.0
  0
ARC
  5
686
330
2
100
AcDbEntity
  8
SICHTBAR
100
AcDbCircle
 10
283.0721903334256
 20
303.7507204113915
 30
0.0
 40
0.5
100
AcDbArc
 50
270.0000000000001
 51
359.9999999999997
  0
LINE
  5
687
330
2
100
AcDbEntity
  8
SICHTBAR
100
AcDbLine
 10
283.5721903334256
 20
304.7507204113915
 30
0.0
 11
283.5721903334256
 21
303.7507204113915
 31
0.0
  0
ARC
  5
688
330
2
100
AcDbEntity
  8
SICHTBAR
100
AcDbCircle
 10
285.0721903334256
 20
304.7507204113915
 30
0.0
 40
0.5
100
AcDbArc
 50
89.99999999999934
 51
179.9999999999986
  0
LINE
  5
689
330
2
100
AcDbEntity
  8
SICHTBAR
100
AcDbLine
 10
284.5721903334256
 20
304.7507204113915
 30
0.0
 11
284.5721903334256
 21
303.7507204113915
 31
0.0
  0
ARC
  5
68A
330
2
100
AcDbEntity
  8
SICHTBAR
100
AcDbCircle
 10
285.0721903334256
 20
304.7507204113915
 30
0.0
 40
1.5
100
AcDbArc
 50
89.99999999999969
 51
179.9999999999997
  0
ARC
  5
68B
330
2
100
AcDbEntity
  8
SICHTBAR
100
AcDbCircle
 10
283.0721903334256
 20
303.7507204113915
 30
0.0
 40
1.5
100
AcDbArc
 50
269.9999999999997
 51
359.9999999999997
  0
ARC
  5
68C
330
2
100
AcDbEntity
  8
SICHTBAR
100
AcDbCircle
 10
289.0721903334256
 20
304.7507204113915
 30
0.0
 40
0.5
100
AcDbArc
 50
359.9999999999997
 51
89.99999999999936
  0
ARC
  5
68D
330
2
100
AcDbEntity
  8
SICHTBAR
100
AcDbCircle
 10
279.4932444644774
 20
301.2507204113915
 30
0.0
 40
2.0
100
AcDbArc
 50
89.99999999999973
 51
138.9376177131283
  0
ARC
  5
68E
330
2
100
AcDbEntity
  8
SICHTBAR
100
AcDbCircle
 10
279.4932444644778
 20
301.2507204113915
 30
0.0
 40
1.0
100
AcDbArc
 50
89.99999999999969
 51
138.9376177131284
  0
LINE
  5
68F
330
2
100
AcDbEntity
  8
SICHTBAR
100
AcDbLine
 10
282.0721903334261
 20
303.2507204113913
 30
0.0
 11
282.0721903334261
 21
305.2507204113913
 31
0.0
  0
LINE
  5
690
330
2
100
AcDbEntity
  8
SICHTBAR
100
AcDbLine
 10
275.5721903334261
 20
303.2507204113913
 30
0.0
 11
283.0721903334261
 21
303.2507204113913
 31
0.0
  0
LINE
  5
691
330
2
100
AcDbEntity
  8
SICHTBAR
100
AcDbLine
 10
279.4932444644778
 20
302.2507204113915
 30
0.0
 11
283.0721903334256
 21
302.2507204113915
 31
0.0
  0
LINE
  5
692
330
2
100
AcDbEntity
  8
SICHTBAR
100
AcDbLine
 10
279.4932444644774
 20
303.2507204113915
 30
0.0
 11
283.0721903334256
 21
303.2507204113915
 31
0.0
  0
LINE
  5
693
102
{ACAD_REACTORS
330
70D
102
}
330
2
100
AcDbEntity
  8
SICHTBAR
100
AcDbLine
 10
287.5721903334256
 20
292.4547708102982
 30
0.0
 11
274.5721903334252
 21
292.4547708102982
 31
0.0
  0
LINE
  5
694
330
2
100
AcDbEntity
  8
SICHTBAR
100
AcDbLine
 10
290.5721903334256
 20
304.7507204113915
 30
0.0
 11
290.5721903334259
 21
300.2507204113917
 31
0.0
  0
LINE
  5
695
330
2
100
AcDbEntity
  8
SICHTBAR
100
AcDbLine
 10
289.5721903334256
 20
304.7507204113915
 30
0.0
 11
289.5721903334256
 21
300.2507204113917
 31
0.0
  0
ARC
  5
696
330
2
100
AcDbEntity
  8
SICHTBAR
100
AcDbCircle
 10
289.0721903334256
 20
304.7507204113915
 30
0.0
 40
1.5
100
AcDbArc
 50
0.0000000000018687
 51
89.99999999999948
  0
LINE
  5
699
102
{ACAD_REACTORS
330
70D
102
}
330
2
100
AcDbEntity
  8
SICHTBAR
100
AcDbLine
 10
281.5721903334256
 20
288.4547708102982
 30
0.0
 11
282.4836827720087
 21
283.4547708102982
 31
0.0
  0
LINE
  5
69A
330
2
100
AcDbEntity
  8
SICHTBAR
100
AcDbLine
 10
281.5721903334256
 20
283.4547708102982
 30
0.0
 11
281.5721903334252
 21
288.4547708102982
 31
0.0
  0
LINE
  5
69B
102
{ACAD_REACTORS
330
70D
102
}
330
2
100
AcDbEntity
  8
SICHTBAR
100
AcDbLine
 10
280.5721903334256
 20
283.4547708102982
 30
0.0
 11
280.5721903334256
 21
288.4547708102982
 31
0.0
  0
ARC
  5
69C
330
2
100
AcDbEntity
  8
SICHTBAR
100
AcDbCircle
 10
279.5721903334256
 20
283.4547708102982
 30
0.0
 40
2.0
100
AcDbArc
 50
280.4756816963902
 51
0.0000000000016355
  0
ARC
  5
69D
102
{ACAD_REACTORS
330
70D
102
}
330
2
100
AcDbEntity
  8
SICHTBAR
100
AcDbCircle
 10
279.5721903334256
 20
283.4547708102982
 30
0.0
 40
1.0
100
AcDbArc
 50
280.4756816963902
 51
0.0000000000016355
  0
LINE
  5
69E
102
{ACAD_REACTORS
330
70D
102
}
330
2
100
AcDbEntity
  8
SICHTBAR
100
AcDbLine
 10
280.5721903334256
 20
288.4547708102982
 30
0.0
 11
281.5721903334252
 21
288.4547708102982
 31
0.0
  0
LINE
  5
69F
102
{ACAD_REACTORS
330
70D
102
}
330
2
100
AcDbEntity
  8
SICHTBAR
100
AcDbLine
 10
287.5721903334256
 20
283.4547708102982
 30
0.0
 11
282.4836827720087
 21
283.4547708102982
 31
0.0
  0
LINE
  5
6A0
330
2
100
AcDbEntity
  8
SICHTBAR
100
AcDbLine
 10
287.5721903334256
 20
283.4547708102982
 30
0.0
 11
282.4836827720087
 21
283.4547708102982
 31
0.0
  0
LINE
  5
6A1
102
{ACAD_REACTORS
330
70D
102
}
330
2
100
AcDbEntity
  8
SICHTBAR
100
AcDbLine
 10
278.1934235122581
 20
274.2265658348451
 30
0.0
 11
276.5905468713822
 21
270.454770810298
 31
0.0
  0
ARC
  5
6A2
330
2
100
AcDbEntity
  8
SICHTBAR
100
AcDbCircle
 10
279.5721903334256
 20
272.638116983906
 30
0.0
 40
2.0
100
AcDbArc
 50
0.000000000000007
 51
79.52431830360985
  0
ARC
  5
6A3
330
2
100
AcDbEntity
  8
SICHTBAR
100
AcDbCircle
 10
279.5721903334256
 20
272.638116983906
 30
0.0
 40
1.0
100
AcDbArc
 50
0.000000000000007
 51
79.52431830360985
  0
LINE
  5
6A4
330
2
100
AcDbEntity
  8
SICHTBAR
100
AcDbLine
 10
281.5721903334252
 20
272.6381169839062
 30
0.0
 11
281.5721903334252
 21
271.3422804405041
 31
0.0
  0
LINE
  5
6A5
330
2
100
AcDbEntity
  8
SICHTBAR
100
AcDbLine
 10
280.5721903334251
 20
272.638116983906
 30
0.0
 11
280.5721903334251
 21
271.3422804405043
 31
0.0
  0
ARC
  5
6A6
330
2
100
AcDbEntity
  8
SICHTBAR
100
AcDbCircle
 10
280.5721903334256
 20
278.0464438971021
 30
0.0
 40
3.5
100
AcDbArc
 50
100.4756816963898
 51
259.5243183036109
  0
ARC
  5
6A7
102
{ACAD_REACTORS
330
70D
102
}
330
2
100
AcDbEntity
  8
SICHTBAR
100
AcDbCircle
 10
280.5721903334256
 20
278.0464438971021
 30
0.0
 40
4.5
100
AcDbArc
 50
100.4756816963898
 51
259.5243183036109
  0
LINE
  5
6A8
102
{ACAD_REACTORS
330
70D
102
}
330
2
100
AcDbEntity
  8
SICHTBAR
100
AcDbLine
 10
274.5721903334256
 20
284.8077835883783
 30
0.0
 11
274.5721903334256
 21
275.4547708102986
 31
0.0
  0
LINE
  5
6A9
102
{ACAD_REACTORS
330
70D
102
}
330
2
100
AcDbEntity
  8
SICHTBAR
100
AcDbLine
 10
287.5721903334256
 20
283.4547708102982
 30
0.0
 11
287.5721903334256
 21
292.4547708102982
 31
0.0
  0
LINE
  5
6AA
102
{ACAD_REACTORS
330
70D
102
}
330
2
100
AcDbEntity
  8
SICHTBAR
100
AcDbLine
 10
274.5721903334256
 20
289.8077835883782
 30
0.0
 11
274.5721903334252
 21
287.4547708102982
 31
0.0
  0
LINE
  5
6AB
330
2
100
AcDbEntity
  8
SICHTBAR
100
AcDbLine
 10
274.5721903334252
 20
288.4547708102982
 30
0.0
 11
274.5721903334252
 21
289.8077835883782
 31
0.0
  0
LINE
  5
6AC
330
2
100
AcDbEntity
  8
SICHTBAR
100
AcDbLine
 10
261.5721903334265
 20
301.7507204113915
 30
0.0
 11
261.5721903334265
 21
303.7507204113914
 31
0.0
  0
ARC
  5
6AD
330
2
100
AcDbEntity
  8
SICHTBAR
100
AcDbCircle
 10
271.5721903334256
 20
292.1586020734485
 30
0.0
 40
1.0
100
AcDbArc
 50
138.9376177131282
 51
180.0000000000013
  0
ARC
  5
6AE
330
2
100
AcDbEntity
  8
SICHTBAR
100
AcDbCircle
 10
271.5721903334256
 20
292.1586020734485
 30
0.0
 40
2.0
100
AcDbArc
 50
138.9376177131282
 51
179.9999999999997
  0
LINE
  5
6AF
330
2
100
AcDbEntity
  8
SICHTBAR
100
AcDbLine
 10
270.5721903334256
 20
292.1586020734485
 30
0.0
 11
270.5721903334256
 21
290.5331073673492
 31
0.0
  0
LINE
  5
6B0
330
2
100
AcDbEntity
  8
SICHTBAR
100
AcDbLine
 10
269.5721903334256
 20
292.1586020734487
 30
0.0
 11
269.5721903334256
 21
290.5331073673492
 31
0.0
  0
LINE
  5
6B1
330
2
100
AcDbEntity
  8
SICHTBAR
100
AcDbLine
 10
255.5721903334265
 20
301.7507204113915
 30
0.0
 11
255.5721903334265
 21
303.7507204113915
 31
0.0
  0
LINE
  5
6B2
102
{ACAD_REACTORS
330
70D
102
}
330
2
100
AcDbEntity
  8
SICHTBAR
100
AcDbLine
 10
273.4468239997304
 20
283.4547708102982
 30
0.0
 11
270.5721903334256
 21
283.4547708102982
 31
0.0
  0
LINE
  5
6B3
102
{ACAD_REACTORS
330
70D
102
}
330
2
100
AcDbEntity
  8
SICHTBAR
100
AcDbLine
 10
273.4468239997304
 20
288.4547708102985
 30
0.0
 11
270.5721903334256
 21
288.4547708102985
 31
0.0
  0
LINE
  5
6B4
102
{ACAD_REACTORS
330
70D
102
}
330
2
100
AcDbEntity
  8
SICHTBAR
100
AcDbLine
 10
273.4468239997304
 20
284.8077835883783
 30
0.0
 11
273.4468239997304
 21
283.4547708102986
 31
0.0
  0
LINE
  5
6B5
102
{ACAD_REACTORS
330
70D
102
}
330
2
100
AcDbEntity
  8
SICHTBAR
100
AcDbLine
 10
273.4468239997304
 20
289.8077835883782
 30
0.0
 11
273.4468239997304
 21
288.4547708102985
 31
0.0
  0
LINE
  5
6B6
102
{ACAD_REACTORS
330
70D
102
}
330
2
100
AcDbEntity
  8
SICHTBAR
100
AcDbLine
 10
270.5721903334256
 20
271.454770810298
 30
0.0
 11
274.5721903334252
 21
275.4547708102982
 31
0.0
  0
LINE
  5
6B7
102
{ACAD_REACTORS
330
70D
102
}
330
2
100
AcDbEntity
  8
SICHTBAR
100
AcDbLine
 10
276.5905468713822
 20
270.4547708102982
 30
0.0
 11
270.5721903334254
 21
270.4547708102982
 31
0.0
  0
LINE
  5
6B8
102
{ACAD_REACTORS
330
70D
102
}
330
2
100
AcDbEntity
  8
SICHTBAR
100
AcDbLine
 10
274.5721903334252
 20
287.4547708102982
 30
0.0
 11
270.5721903334254
 21
284.2547708102985
 31
0.0
  0
LINE
  5
6B9
102
{ACAD_REACTORS
330
70D
102
}
330
2
100
AcDbEntity
  8
SICHTBAR
100
AcDbLine
 10
274.5721903334252
 20
284.8077835883783
 30
0.0
 11
273.4468239997304
 21
284.8077835883783
 31
0.0
  0
LINE
  5
6BA
330
2
100
AcDbEntity
  8
SICHTBAR
100
AcDbLine
 10
289.5721903334254
 20
300.2507204113917
 30
0.0
 11
290.5721903334259
 21
300.2507204113917
 31
0.0
  0
LINE
  5
6BB
330
2
100
AcDbEntity
  8
SICHTBAR
100
AcDbLine
 10
278.7392496329653
 20
301.9076007612675
 30
0.0
 11
270.8181955019131
 21
292.8154824233243
 31
0.0
  0
LINE
  5
6BC
330
2
100
AcDbEntity
  8
SICHTBAR
100
AcDbLine
 10
277.9852548014533
 20
302.5644811111433
 30
0.0
 11
270.0642006704011
 21
293.4723627732005
 31
0.0
  0
LINE
  5
6BD
102
{ACAD_REACTORS
330
70D
102
}
330
2
100
AcDbEntity
  8
SICHTBAR
100
AcDbLine
 10
274.5721903334252
 20
292.4547708102982
 30
0.0
 11
270.5721903334256
 21
289.254770810299
 31
0.0
  0
LINE
  5
6BE
102
{ACAD_REACTORS
330
70D
102
}
330
2
100
AcDbEntity
  8
SICHTBAR
100
AcDbLine
 10
274.5721903334252
 20
289.8077835883782
 30
0.0
 11
273.4468239997304
 21
289.8077835883782
 31
0.0
  0
LINE
  5
6BF
330
2
100
AcDbEntity
  8
SICHTBAR
100
AcDbLine
 10
275.5721903334256
 20
305.2507204113913
 30
0.0
 11
265.5721903334256
 21
303.7507204113914
 31
0.0
  0
LINE
  5
6C0
330
2
100
AcDbEntity
  8
SICHTBAR
100
AcDbLine
 10
275.5721903334256
 20
303.2507204113913
 30
0.0
 11
265.5721903334256
 21
301.7507204113914
 31
0.0
  0
LINE
  5
6C1
330
2
100
AcDbEntity
  8
SICHTBAR
100
AcDbLine
 10
237.5721903334266
 20
301.7507204113916
 30
0.0
 11
237.5721903334266
 21
303.7507204113915
 31
0.0
  0
LINE
  5
6C2
330
2
100
AcDbEntity
  8
SICHTBAR
100
AcDbLine
 10
231.5721903334265
 20
301.7507204113917
 30
0.0
 11
231.5721903334265
 21
303.7507204113916
 31
0.0
  0
POINT
  5
6C3
330
2
100
AcDbEntity
  8
SICHTBAR
100
AcDbPoint
 10
214.0721903334256
 20
306.2507204113917
 30
0.0
  0
LINE
  5
6C4
330
2
100
AcDbEntity
  8
SICHTBAR
100
AcDbLine
 10
193.5721903334247
 20
301.7507204113917
 30
0.0
 11
193.5721903334247
 21
303.7507204113917
 31
0.0
  0
LINE
  5
6C5
330
2
100
AcDbEntity
  8
SICHTBAR
100
AcDbLine
 10
199.5721903334251
 20
301.7507204113917
 30
0.0
 11
199.5721903334251
 21
303.7507204113917
 31
0.0
  0
LINE
  5
6C6
330
2
100
AcDbEntity
  8
SICHTBAR
100
AcDbLine
 10
169.5721903334251
 20
301.7507204113917
 30
0.0
 11
169.5721903334251
 21
303.7507204113917
 31
0.0
  0
LINE
  5
6C7
330
2
100
AcDbEntity
  8
SICHTBAR
100
AcDbLine
 10
175.5721903334251
 20
301.7507204113917
 30
0.0
 11
175.5721903334251
 21
303.7507204113917
 31
0.0
  0
ARC
  5
6C8
330
2
100
AcDbEntity
  8
SICHTBAR
100
AcDbCircle
 10
159.5721903334256
 20
292.158602073449
 30
0.0
 40
2.0
100
AcDbArc
 50
0.0
 51
41.06238228687142
  0
ARC
  5
6C9
330
2
100
AcDbEntity
  8
SICHTBAR
100
AcDbCircle
 10
159.5721903334256
 20
292.158602073449
 30
0.0
 40
1.0
100
AcDbArc
 50
359.9999999999984
 51
41.06238228687147
  0
LINE
  5
6CA
330
2
100
AcDbEntity
  8
SICHTBAR
100
AcDbLine
 10
161.5721903334256
 20
292.158602073449
 30
0.0
 11
161.5721903334256
 21
290.5331073673496
 31
0.0
  0
LINE
  5
6CB
330
2
100
AcDbEntity
  8
SICHTBAR
100
AcDbLine
 10
160.5721903334256
 20
292.158602073449
 30
0.0
 11
160.5721903334256
 21
290.5331073673496
 31
0.0
  0
ARC
  5
6CC
330
2
100
AcDbEntity
  8
SICHTBAR
100
AcDbCircle
 10
151.6511362023734
 20
301.2507204113918
 30
0.0
 40
2.0
100
AcDbArc
 50
41.06238228687137
 51
89.99999999999998
  0
ARC
  5
6CD
330
2
100
AcDbEntity
  8
SICHTBAR
100
AcDbCircle
 10
151.6511362023734
 20
301.2507204113918
 30
0.0
 40
1.0
100
AcDbArc
 50
41.06238228687121
 51
90.0
  0
ARC
  5
6CE
330
2
100
AcDbEntity
  8
SICHTBAR
100
AcDbCircle
 10
148.0721903334256
 20
303.7507204113917
 30
0.0
 40
0.5
100
AcDbArc
 50
180.0
 51
269.9999999999996
  0
ARC
  5
6CF
330
2
100
AcDbEntity
  8
SICHTBAR
100
AcDbCircle
 10
148.0721903334256
 20
303.7507204113917
 30
0.0
 40
1.5
100
AcDbArc
 50
180.0
 51
270.0
  0
LINE
  5
6D0
330
2
100
AcDbEntity
  8
SICHTBAR
100
AcDbLine
 10
147.5721903334256
 20
304.7507204113917
 30
0.0
 11
147.5721903334256
 21
303.7507204113917
 31
0.0
  0
LINE
  5
6D1
330
2
100
AcDbEntity
  8
SICHTBAR
100
AcDbLine
 10
146.5721903334256
 20
304.7507204113917
 30
0.0
 11
146.5721903334256
 21
303.7507204113917
 31
0.0
  0
ARC
  5
6D2
330
2
100
AcDbEntity
  8
SICHTBAR
100
AcDbCircle
 10
146.0721903334256
 20
304.7507204113917
 30
0.0
 40
0.5
100
AcDbArc
 50
0.0000000000010814
 51
90.00000000000035
  0
ARC
  5
6D3
330
2
100
AcDbEntity
  8
SICHTBAR
100
AcDbCircle
 10
146.0721903334256
 20
304.7507204113917
 30
0.0
 40
1.5
100
AcDbArc
 50
0.0
 51
90.0
  0
LINE
  5
6D4
330
2
100
AcDbEntity
  8
SICHTBAR
100
AcDbLine
 10
149.0721903334256
 20
303.2507204113918
 30
0.0
 11
149.0721903334256
 21
305.2507204113918
 31
0.0
  0
LINE
  5
6D5
330
2
100
AcDbEntity
  8
SICHTBAR
100
AcDbLine
 10
155.5721903334251
 20
303.2507204113918
 30
0.0
 11
148.0721903334256
 21
303.2507204113918
 31
0.0
  0
LINE
  5
6D6
330
2
100
AcDbEntity
  8
SICHTBAR
100
AcDbLine
 10
151.6511362023734
 20
302.2507204113917
 30
0.0
 11
148.0721903334256
 21
302.2507204113917
 31
0.0
  0
LINE
  5
6D7
330
2
100
AcDbEntity
  8
SICHTBAR
100
AcDbLine
 10
151.6511362023734
 20
303.2507204113918
 30
0.0
 11
148.0721903334256
 21
303.2507204113918
 31
0.0
  0
LINE
  5
6D8
102
{ACAD_REACTORS
330
70D
102
}
330
2
100
AcDbEntity
  8
SICHTBAR
100
AcDbLine
 10
156.5721903334251
 20
289.8077835883782
 30
0.0
 11
157.6975566671203
 21
289.8077835883782
 31
0.0
  0
LINE
  5
6D9
102
{ACAD_REACTORS
330
70D
102
}
330
2
100
AcDbEntity
  8
SICHTBAR
100
AcDbLine
 10
143.5721903334251
 20
292.4547708102982
 30
0.0
 11
156.5721903334256
 21
292.4547708102982
 31
0.0
  0
LINE
  5
6DA
330
2
100
AcDbEntity
  8
SICHTBAR
100
AcDbLine
 10
155.5721903334256
 20
305.2507204113918
 30
0.0
 11
165.5721903334256
 21
303.7507204113917
 31
0.0
  0
LINE
  5
6DB
330
2
100
AcDbEntity
  8
SICHTBAR
100
AcDbLine
 10
155.5721903334256
 20
303.2507204113918
 30
0.0
 11
165.5721903334256
 21
301.7507204113917
 31
0.0
  0
LINE
  5
6DC
330
2
100
AcDbEntity
  8
SICHTBAR
100
AcDbLine
 10
152.4051310338855
 20
301.9076007612678
 30
0.0
 11
160.3261851649376
 21
292.8154824233248
 31
0.0
  0
LINE
  5
6DD
330
2
100
AcDbEntity
  8
SICHTBAR
100
AcDbLine
 10
153.1591258653975
 20
302.5644811111436
 30
0.0
 11
161.0801799964497
 21
293.4723627732005
 31
0.0
  0
LINE
  5
6DE
102
{ACAD_REACTORS
330
70D
102
}
330
2
100
AcDbEntity
  8
SICHTBAR
100
AcDbLine
 10
156.5721903334256
 20
292.4547708102982
 30
0.0
 11
160.5721903334238
 21
289.2547708102997
 31
0.0
  0
LINE
  5
6DF
102
{ACAD_REACTORS
330
70D
102
}
330
2
100
AcDbEntity
  8
SICHTBAR
100
AcDbLine
 10
157.6975566671203
 20
284.8077835883783
 30
0.0
 11
157.6975566671203
 21
283.4547708102986
 31
0.0
  0
LINE
  5
6E0
102
{ACAD_REACTORS
330
70D
102
}
330
2
100
AcDbEntity
  8
SICHTBAR
100
AcDbLine
 10
156.5721903334251
 20
284.8077835883783
 30
0.0
 11
157.6975566671203
 21
284.8077835883783
 31
0.0
  0
LINE
  5
6E3
102
{ACAD_REACTORS
330
70D
102
}
330
2
100
AcDbEntity
  8
SICHTBAR
100
AcDbLine
 10
143.5721903334251
 20
283.4547708102982
 30
0.0
 11
148.6606978948421
 21
283.4547708102982
 31
0.0
  0
LINE
  5
6E4
330
2
100
AcDbEntity
  8
SICHTBAR
100
AcDbLine
 10
143.5721903334251
 20
283.4547708102982
 30
0.0
 11
148.6606978948421
 21
283.4547708102982
 31
0.0
  0
LINE
  5
6E5
330
2
100
AcDbEntity
  8
SICHTBAR
100
AcDbLine
 10
149.5721903334251
 20
283.4547708102982
 30
0.0
 11
149.5721903334251
 21
288.4547708102982
 31
0.0
  0
LINE
  5
6E6
102
{ACAD_REACTORS
330
70D
102
}
330
2
100
AcDbEntity
  8
SICHTBAR
100
AcDbLine
 10
150.5721903334251
 20
283.4547708102982
 30
0.0
 11
150.5721903334251
 21
288.4547708102982
 31
0.0
  0
LINE
  5
6E7
102
{ACAD_REACTORS
330
70D
102
}
330
2
100
AcDbEntity
  8
SICHTBAR
100
AcDbLine
 10
149.5721903334251
 20
288.4547708102982
 30
0.0
 11
148.6606978948421
 21
283.4547708102982
 31
0.0
  0
LINE
  5
6E8
102
{ACAD_REACTORS
330
70D
102
}
330
2
100
AcDbEntity
  8
SICHTBAR
100
AcDbLine
 10
149.5721903334251
 20
288.4547708102982
 30
0.0
 11
150.5721903334251
 21
288.4547708102982
 31
0.0
  0
ARC
  5
6E9
102
{ACAD_REACTORS
330
70D
102
}
330
2
100
AcDbEntity
  8
SICHTBAR
100
AcDbCircle
 10
151.5721903334251
 20
283.4547708102982
 30
0.0
 40
1.0
100
AcDbArc
 50
179.9999999999984
 51
259.5243183036099
  0
ARC
  5
6EA
330
2
100
AcDbEntity
  8
SICHTBAR
100
AcDbCircle
 10
151.5721903334251
 20
283.4547708102982
 30
0.0
 40
2.0
100
AcDbArc
 50
179.9999999999984
 51
259.5243183036099
  0
LINE
  5
6EB
102
{ACAD_REACTORS
330
70D
102
}
330
2
100
AcDbEntity
  8
SICHTBAR
100
AcDbLine
 10
152.9509571545927
 20
274.2265658348451
 30
0.0
 11
154.5538337954685
 21
270.4547708102982
 31
0.0
  0
ARC
  5
6EC
330
2
100
AcDbEntity
  8
SICHTBAR
100
AcDbCircle
 10
151.5721903334251
 20
272.638116983906
 30
0.0
 40
2.0
100
AcDbArc
 50
100.4756816963901
 51
180.0
  0
ARC
  5
6ED
330
2
100
AcDbEntity
  8
SICHTBAR
100
AcDbCircle
 10
151.5721903334251
 20
272.638116983906
 30
0.0
 40
1.0
100
AcDbArc
 50
100.4756816963901
 51
180.0
  0
ARC
  5
6EE
102
{ACAD_REACTORS
330
70D
102
}
330
2
100
AcDbEntity
  8
SICHTBAR
100
AcDbCircle
 10
150.5721903334251
 20
278.0464438971021
 30
0.0
 40
4.5
100
AcDbArc
 50
280.4756816963891
 51
79.52431830361018
  0
ARC
  5
6EF
330
2
100
AcDbEntity
  8
SICHTBAR
100
AcDbCircle
 10
150.5721903334251
 20
278.0464438971021
 30
0.0
 40
3.5
100
AcDbArc
 50
280.4756816963891
 51
79.52431830361018
  0
LINE
  5
6F0
102
{ACAD_REACTORS
330
70D
102
}
330
2
100
AcDbEntity
  8
SICHTBAR
100
AcDbLine
 10
156.5721903334251
 20
284.8077835883783
 30
0.0
 11
156.5721903334251
 21
275.4547708102986
 31
0.0
  0
LINE
  5
6F1
102
{ACAD_REACTORS
330
70D
102
}
330
2
100
AcDbEntity
  8
SICHTBAR
100
AcDbLine
 10
154.5538337954681
 20
270.4547708102982
 30
0.0
 11
160.5721903334245
 21
270.4547708102982
 31
0.0
  0
LINE
  5
6F2
102
{ACAD_REACTORS
330
70D
102
}
330
2
100
AcDbEntity
  8
SICHTBAR
100
AcDbLine
 10
160.5721903334245
 20
271.4547708102994
 30
0.0
 11
156.5721903334256
 21
275.4547708102984
 31
0.0
  0
LINE
  5
6F3
102
{ACAD_REACTORS
330
70D
102
}
330
2
100
AcDbEntity
  8
SICHTBAR
100
AcDbLine
 10
156.5721903334256
 20
287.4547708102982
 30
0.0
 11
160.572190333424
 21
284.2547708102991
 31
0.0
  0
LINE
  5
6F4
102
{ACAD_REACTORS
330
70D
102
}
330
2
100
AcDbEntity
  8
SICHTBAR
100
AcDbLine
 10
157.6975566671203
 20
283.4547708102984
 30
0.0
 11
160.5721903334242
 21
283.4547708102976
 31
0.0
  0
LINE
  5
6F5
102
{ACAD_REACTORS
330
70D
102
}
330
2
100
AcDbEntity
  8
SICHTBAR
100
AcDbLine
 10
157.6975566671203
 20
288.4547708102987
 30
0.0
 11
160.5721903334238
 21
288.4547708102987
 31
0.0
  0
LINE
  5
6F6
102
{ACAD_REACTORS
330
70D
102
}
330
2
100
AcDbEntity
  8
SICHTBAR
100
AcDbLine
 10
156.5721903334251
 20
289.8077835883782
 30
0.0
 11
156.5721903334251
 21
287.4547708102982
 31
0.0
  0
LINE
  5
6F7
330
2
100
AcDbEntity
  8
SICHTBAR
100
AcDbLine
 10
156.5721903334251
 20
288.4547708102985
 30
0.0
 11
156.5721903334251
 21
289.8077835883782
 31
0.0
  0
LINE
  5
6F8
102
{ACAD_REACTORS
330
70D
102
}
330
2
100
AcDbEntity
  8
SICHTBAR
100
AcDbLine
 10
157.6975566671203
 20
289.8077835883782
 30
0.0
 11
157.6975566671203
 21
288.4547708102987
 31
0.0
  0
LINE
  5
6F9
102
{ACAD_REACTORS
330
70D
102
}
330
2
100
AcDbEntity
  8
SICHTBAR
100
AcDbLine
 10
143.5721903334251
 20
283.4547708102982
 30
0.0
 11
143.5721903334251
 21
292.4547708102982
 31
0.0
  0
ARC
  5
6FA
330
2
100
AcDbEntity
  8
SICHTBAR
100
AcDbCircle
 10
142.0721903334256
 20
304.7507204113917
 30
0.0
 40
0.5
100
AcDbArc
 50
90.00000000000033
 51
180.0
  0
ARC
  5
6FB
330
2
100
AcDbEntity
  8
SICHTBAR
100
AcDbCircle
 10
142.0721903334252
 20
304.7507204113917
 30
0.0
 40
1.5
100
AcDbArc
 50
90.00000000000021
 51
179.9999999999978
  0
LINE
  5
6FC
330
2
100
AcDbEntity
  8
SICHTBAR
100
AcDbLine
 10
141.5721903334256
 20
304.7507204113917
 30
0.0
 11
141.5721903334253
 21
300.2507204113917
 31
0.0
  0
LINE
  5
6FD
330
2
100
AcDbEntity
  8
SICHTBAR
100
AcDbLine
 10
140.5721903334251
 20
304.750720411392
 30
0.0
 11
140.5721903334252
 21
300.2507204113917
 31
0.0
  0
LINE
  5
6FE
330
2
100
AcDbEntity
  8
SICHTBAR
100
AcDbLine
 10
141.5721903334253
 20
300.2507204113917
 30
0.0
 11
140.5721903334253
 21
300.2507204113917
 31
0.0
  0
LINE
  5
6FF
330
2
100
AcDbEntity
  8
SICHTBAR
100
AcDbLine
 10
146.0721903334256
 20
305.2507204113918
 30
0.0
 11
142.0721903334256
 21
305.2507204113918
 31
0.0
  0
LINE
  5
700
330
2
100
AcDbEntity
  8
SICHTBAR
100
AcDbLine
 10
160.5721903334256
 20
290.5331073673496
 30
0.0
 11
215.5721903334256
 21
290.5331073673496
 31
0.0
  0
LINE
  5
701
330
2
100
AcDbEntity
  8
SICHTBAR
100
AcDbLine
 10
215.5721903334256
 20
306.2507204113917
 30
0.0
 11
142.0721903334252
 21
306.2507204113917
 31
0.0
  0
LINE
  5
702
330
2
100
AcDbEntity
  8
SICHTBAR
100
AcDbLine
 10
215.5721903334256
 20
305.2507204113918
 30
0.0
 11
149.0721903334256
 21
305.2507204113918
 31
0.0
  0
LINE
  5
703
330
2
100
AcDbEntity
  8
SICHTBAR
100
AcDbLine
 10
215.5721903334256
 20
303.7507204113917
 30
0.0
 11
165.5721903334256
 21
303.7507204113917
 31
0.0
  0
LINE
  5
704
330
2
100
AcDbEntity
  8
SICHTBAR
100
AcDbLine
 10
215.5721903334256
 20
301.7507204113917
 30
0.0
 11
165.5721903334256
 21
301.7507204113917
 31
0.0
  0
LINE
  5
705
330
2
100
AcDbEntity
  8
SICHTBAR
100
AcDbLine
 10
270.5721903334256
 20
290.5331073673492
 30
0.0
 11
215.5721903334256
 21
290.5331073673496
 31
0.0
  0
LINE
  5
706
330
2
100
AcDbEntity
  8
SICHTBAR
100
AcDbLine
 10
215.5721903334256
 20
301.7507204113917
 30
0.0
 11
265.5721903334256
 21
301.7507204113914
 31
0.0
  0
LINE
  5
707
330
2
100
AcDbEntity
  8
SICHTBAR
100
AcDbLine
 10
215.5721903334256
 20
303.7507204113917
 30
0.0
 11
265.5721903334261
 21
303.7507204113915
 31
0.0
  0
LINE
  5
708
330
2
100
AcDbEntity
  8
SICHTBAR
100
AcDbLine
 10
215.5721903334256
 20
306.2507204113917
 30
0.0
 11
289.0721903334256
 21
306.2507204113915
 31
0.0
  0
LINE
  5
709
330
2
100
AcDbEntity
  8
SICHTBAR
100
AcDbLine
 10
215.5721903334256
 20
305.2507204113918
 30
0.0
 11
282.0721903334261
 21
305.2507204113913
 31
0.0
  0
HATCH
  5
70A
330
2
100
AcDbEntity
  8
SCHRAFF
100
AcDbHatch
 10
0.0
 20
0.0
 30
0.0
210
0.0
220
0.0
230
1.0
  2
ANSI31
 70
     0
 71
     0
 91
        2
 92
        1
 93
       24
 72
     1
 10
140.5721903334251
 20
300.2507204113917
 11
141.5721903334253
 21
300.2507204113917
 72
     1
 10
141.5721903334253
 20
300.2507204113917
 11
141.5721903334256
 21
304.7507204113917
 72
     2
 10
142.0721903334256
 20
304.7507204113917
 40
0.5000000000000015
 50
180.0
 51
270.0
 73
     0
 72
     1
 10
142.0721903334256
 20
305.2507204113918
 11
146.0721903334256
 21
305.2507204113918
 72
     2
 10
146.0721903334256
 20
304.7507204113917
 40
0.5000000000000031
 50
270.0
 51
360.0
 73
     0
 72
     1
 10
146.5721903334256
 20
304.7507204113917
 11
146.5721903334256
 21
303.7507204113917
 72
     2
 10
148.0721903334256
 20
303.7507204113917
 40
1.499999999999999
 50
180.0
 51
270.0
 73
     1
 72
     1
 10
148.0721903334256
 20
302.2507204113917
 11
151.6511362023734
 21
302.2507204113917
 72
     2
 10
151.6511362023735
 20
301.2507204113918
 40
0.9999999999998626
 50
269.9999999999919
 51
318.9376177131198
 73
     0
 72
     1
 10
152.4051310338855
 20
301.9076007612678
 11
160.3261851649376
 21
292.8154824233248
 72
     2
 10
159.5721903334255
 20
292.1586020734488
 40
1.000000000000109
 50
318.9376177131269
 51
360.0000000000032
 73
     0
 72
     1
 10
160.5721903334256
 20
292.1586020734487
 11
160.5721903334256
 21
290.5331073673496
 72
     1
 10
160.5721903334256
 20
290.5331073673496
 11
161.5721903334256
 21
290.5331073673496
 72
     1
 10
161.5721903334256
 20
290.5331073673496
 11
161.5721903334256
 21
292.158602073449
 72
     2
 10
159.5721903334256
 20
292.1586020734489
 40
2.000000000000055
 50
0.0000000000016189
 51
41.06238228687503
 73
     1
 72
     1
 10
161.0801799964497
 20
293.4723627732008
 11
153.1591258653975
 21
302.5644811111436
 72
     2
 10
151.6511362023735
 20
301.250720411392
 40
1.999999999999791
 50
41.06238228687105
 51
90.00000000000161
 73
     1
 72
     1
 10
151.6511362023734
 20
303.2507204113918
 11
148.0721903334256
 21
303.2507204113918
 72
     2
 10
148.0721903334256
 20
303.7507204113917
 40
0.5000000000000018
 50
90.0
 51
180.0
 73
     0
 72
     1
 10
147.5721903334256
 20
303.7507204113917
 11
147.5721903334256
 21
304.7507204113917
 72
     2
 10
146.0721903334256
 20
304.7507204113917
 40
1.499999999999999
 50
0.0
 51
90.0
 73
     1
 72
     1
 10
146.0721903334256
 20
306.2507204113917
 11
142.0721903334252
 21
306.2507204113917
 72
     2
 10
142.0721903334251
 20
304.7507204113918
 40
1.499999999999917
 50
89.99999999999678
 51
179.9999999999935
 73
     1
 72
     1
 10
140.5721903334251
 20
304.750720411392
 11
140.5721903334251
 21
300.2507204113917
 97
        0
 92
        1
 93
       24
 72
     1
 10
289.5721903334256
 20
300.2507204113916
 11
290.5721903334259
 21
300.2507204113917
 72
     1
 10
290.5721903334259
 20
300.2507204113917
 11
290.5721903334256
 21
304.7507204113915
 72
     2
 10
289.0721903334256
 20
304.7507204113915
 40
1.500000000000031
 50
0.0000000000021755
 51
89.99999999999783
 73
     1
 72
     1
 10
289.0721903334256
 20
306.2507204113915
 11
285.0721903334256
 21
306.2507204113915
 72
     2
 10
285.0721903334256
 20
304.7507204113916
 40
1.499999999999942
 50
89.99999999999785
 51
179.9999999999935
 73
     1
 72
     1
 10
283.5721903334256
 20
304.7507204113917
 11
283.5721903334256
 21
303.7507204113915
 72
     2
 10
283.0721903334256
 20
303.7507204113915
 40
0.5000000000000018
 50
360.0
 51
450.0
 73
     0
 72
     1
 10
283.0721903334256
 20
303.2507204113915
 11
279.4932444644774
 21
303.2507204113915
 72
     2
 10
279.4932444644774
 20
301.2507204113916
 40
1.999999999999913
 50
90.0
 51
138.9376177131275
 73
     1
 72
     1
 10
277.9852548014533
 20
302.5644811111433
 11
270.0642006704011
 21
293.4723627732005
 72
     2
 10
271.5721903334256
 20
292.1586020734492
 40
1.999999999999993
 50
138.9376177131435
 51
180.000000000013
 73
     1
 72
     1
 10
269.5721903334256
 20
292.1586020734487
 11
269.5721903334256
 21
290.5331073673492
 72
     1
 10
269.5721903334256
 20
290.5331073673492
 11
270.5721903334256
 21
290.5331073673492
 72
     1
 10
270.5721903334256
 20
290.5331073673492
 11
270.5721903334256
 21
292.1586020734485
 72
     2
 10
271.5721903334252
 20
292.158602073449
 40
0.9999999999996067
 50
179.9999999999707
 51
221.0623822868457
 73
     0
 72
     1
 10
270.8181955019131
 20
292.8154824233243
 11
278.7392496329653
 21
301.9076007612675
 72
     2
 10
279.4932444644772
 20
301.2507204113916
 40
0.9999999999999563
 50
221.0623822868816
 51
270.0000000000065
 73
     0
 72
     1
 10
279.4932444644774
 20
302.2507204113915
 11
283.0721903334256
 21
302.2507204113915
 72
     2
 10
283.0721903334256
 20
303.7507204113915
 40
1.499999999999999
 50
270.0
 51
360.0
 73
     1
 72
     1
 10
284.5721903334256
 20
303.7507204113915
 11
284.5721903334256
 21
304.7507204113915
 72
     2
 10
285.0721903334256
 20
304.7507204113915
 40
0.5000000000000031
 50
180.0
 51
270.0
 73
     0
 72
     1
 10
285.0721903334256
 20
305.2507204113915
 11
289.0721903334256
 21
305.2507204113915
 72
     2
 10
289.0721903334256
 20
304.7507204113915
 40
0.5000000000000014
 50
270.0
 51
360.0
 73
     0
 72
     1
 10
289.5721903334256
 20
304.7507204113915
 11
289.5721903334256
 21
300.2507204113916
 97
        0
 75
     0
 76
     1
 52
0.0
 41
10.0
 77
     0
 78
     1
 53
45.0
 43
-3.945620728648009
 44
85.22456906809702
 45
-0.8838834764831842
 46
0.8838834764831844
 79
     0
 98
        2
 10
153.7734044563408
 20
300.9925020723827
 10
278.679042243863
 20
302.8454050089917
  0
HATCH
  5
70B
330
2
100
AcDbEntity
  8
SCHRAFF
100
AcDbHatch
 10
0.0
 20
0.0
 30
0.0
210
0.0
220
0.0
230
1.0
  2
ANSI31
 70
     0
 71
     0
 91
        6
 92
        7
 72
     0
 73
     1
 93
        8
 10
169.5721903334251
 20
303.7507204113917
 10
165.5721903334251
 20
303.7507204113917
 10
155.5721903334256
 20
305.2507204113918
 10
149.0721903334256
 20
305.2507204113918
 10
149.0721903334256
 20
303.2507204113918
 10
155.5721903334251
 20
303.2507204113918
 10
165.5721903334256
 20
301.7507204113917
 10
169.5721903334251
 20
301.7507204113917
 97
        0
 92
        7
 72
     0
 73
     1
 93
        4
 10
193.5721903334247
 20
303.7507204113917
 10
175.5721903334251
 20
303.7507204113917
 10
175.5721903334251
 20
301.7507204113917
 10
193.5721903334247
 20
301.7507204113917
 97
        0
 92
        7
 72
     0
 73
     1
 93
        4
 10
215.5721903334256
 20
303.7507204113917
 10
199.5721903334251
 20
303.7507204113918
 10
199.5721903334251
 20
301.7507204113917
 10
215.5721903334256
 20
301.7507204113917
 97
        0
 92
        7
 72
     0
 73
     1
 93
        4
 10
231.5721903334265
 20
303.7507204113916
 10
215.5721903334256
 20
303.7507204113917
 10
215.5721903334256
 20
301.7507204113917
 10
231.5721903334265
 20
301.7507204113916
 97
        0
 92
        7
 72
     0
 73
     1
 93
        4
 10
255.5721903334265
 20
303.7507204113915
 10
237.5721903334266
 20
303.7507204113916
 10
237.5721903334266
 20
301.7507204113915
 10
255.5721903334265
 20
301.7507204113915
 97
        0
 92
        7
 72
     0
 73
     1
 93
        8
 10
275.5721903334261
 20
303.2507204113913
 10
282.0721903334261
 20
303.2507204113913
 10
282.0721903334261
 20
305.2507204113913
 10
275.5721903334261
 20
305.2507204113913
 10
265.5721903334252
 20
303.7507204113914
 10
261.5721903334265
 20
303.7507204113915
 10
261.5721903334265
 20
301.7507204113914
 10
265.5721903334256
 20
301.7507204113914
 97
        0
 75
     0
 76
     1
 52
90.0
 41
25.0
 77
     0
 78
     1
 53
135.0
 43
-13.37252949836693
 44
-98.2840555040731
 45
-2.209708691207961
 46
-2.20970869120796
 79
     0
 47
0.138524483993227
 98
        6
 10
156.2709040997961
 20
303.5619550580053
 10
180.5228033303024
 20
302.3152344904719
 10
210.1794063250095
 20
302.1767118220108
 10
219.3258359211154
 20
302.1767118220108
 10
243.9934804069453
 20
302.1767118220108
 10
268.3839613892264
 20
302.5922839652402
  0
DIMENSION
  5
70C
330
2
100
AcDbEntity
  8
BEMASS
100
AcDbDimension
280
     0
  2
*D9
 10
290.5721903334256
 20
322.3485779909183
 30
0.0
 11
215.5721903334254
 21
326.8485779909183
 31
0.0
 70
    32
  1
150x150
 71
     5
 42
150.0000000000004
 73
     0
 74
     0
 75
     0
  3
STANDARD
100
AcDbAlignedDimension
 13
140.5721903334251
 23
304.750720411392
 33
0.0
 14
290.5721903334256
 24
304.7507204113915
 34
0.0
100
AcDbRotatedDimension
  0
HATCH
  5
70D
330
2
100
AcDbEntity
  8
SCHRAFF
100
AcDbHatch
 10
0.0
 20
0.0
 30
0.0
210
0.0
220
0.0
230
1.0
  2
ANSI37
 70
     0
 71
     1
 91
        2
 92
        7
 72
     1
 73
     1
 93
       24
 10
149.5721903334251
 20
288.4547708102982
 42
0.0
 10
150.5721903334251
 20
288.4547708102982
 42
0.0
 10
150.5721903334251
 20
283.4547708102982
 42
0.3616214947865211
 10
151.3903721516069
 20
282.4714386442624
 42
-0.6847937959102612
 10
152.9509571545927
 20
274.2265658348451
 42
0.0
 10
154.5538337954685
 20
270.4547708102982
 42
0.0
 10
160.5721903334244
 20
270.4547708102982
 42
0.0
 10
160.5721903334244
 20
271.4547708102995
 42
0.0
 10
156.5721903334251
 20
275.4547708102989
 42
0.0
 10
156.5721903334251
 20
284.8077835883783
 42
0.0
 10
157.6975566671203
 20
284.8077835883783
 42
0.0
 10
157.6975566671203
 20
283.4547708102984
 42
0.0
 10
160.572190333424
 20
283.4547708102976
 42
0.0
 10
160.572190333424
 20
284.2547708102991
 42
0.0
 10
156.5721903334251
 20
287.4547708102986
 42
0.0
 10
156.5721903334251
 20
289.8077835883782
 42
0.0
 10
157.6975566671203
 20
289.8077835883782
 42
0.0
 10
157.6975566671203
 20
288.4547708102987
 42
0.0
 10
160.5721903334238
 20
288.4547708102987
 42
0.0
 10
160.5721903334238
 20
289.2547708102996
 42
0.0
 10
156.5721903334256
 20
292.4547708102982
 42
0.0
 10
143.5721903334251
 20
292.4547708102982
 42
0.0
 10
143.5721903334251
 20
283.4547708102982
 42
0.0
 10
148.6606978948421
 20
283.4547708102982
 42
0.0
 97
       22
330
6D8
330
6F8
330
6F5
330
731
330
6DE
330
6D9
330
6F9
330
6E3
330
6E7
330
6E8
330
6E6
330
6E9
330
6EE
330
6EB
330
6F1
330
6F2
330
6F0
330
6E0
330
6DF
330
6F4
330
6F3
330
6F6
 92
        7
 72
     1
 73
     1
 93
       24
 10
280.5721903334256
 20
288.4547708102982
 42
0.0
 10
281.5721903334256
 20
288.4547708102982
 42
0.0
 10
282.4836827720087
 20
283.4547708102982
 42
0.0
 10
287.5721903334256
 20
283.4547708102982
 42
0.0
 10
287.5721903334256
 20
292.4547708102982
 42
0.0
 10
274.5721903334252
 20
292.4547708102982
 42
0.0
 10
270.5721903334256
 20
289.254770810299
 42
0.0
 10
270.5721903334256
 20
288.4547708102985
 42
0.0
 10
273.4468239997304
 20
288.4547708102985
 42
0.0
 10
273.4468239997304
 20
289.8077835883782
 42
0.0
 10
274.5721903334256
 20
289.8077835883782
 42
0.0
 10
274.5721903334252
 20
287.4547708102982
 42
0.0
 10
270.5721903334256
 20
284.2547708102987
 42
0.0
 10
270.5721903334256
 20
283.4547708102982
 42
0.0
 10
273.4468239997304
 20
283.4547708102982
 42
0.0
 10
273.4468239997304
 20
284.8077835883783
 42
0.0
 10
274.5721903334256
 20
284.8077835883783
 42
0.0
 10
274.5721903334256
 20
275.4547708102986
 42
0.0
 10
270.5721903334256
 20
271.4547708102979
 42
0.0
 10
270.5721903334256
 20
270.4547708102982
 42
0.0
 10
276.5905468713823
 20
270.4547708102982
 42
0.0
 10
278.1934235122581
 20
274.2265658348451
 42
-0.6847937959102961
 10
279.7540085152438
 20
282.4714386442626
 42
0.3616214947864794
 10
280.5721903334256
 20
283.4547708102982
 42
0.0
 97
       22
330
693
330
6BD
330
72C
330
6B3
330
6B5
330
6BE
330
6AA
330
6B8
330
6B2
330
6B4
330
6B9
330
6A8
330
6B6
330
6B7
330
6A1
330
6A7
330
69D
330
69B
330
69E
330
699
330
69F
330
6A9
 75
     0
 76
     1
 52
0.0
 41
25.0
 77
     0
 78
     2
 53
45.0
 43
433.2922168392802
 44
64.8294314807417
 45
-2.20970869120796
 46
2.209708691207961
 79
     0
 53
135.0
 43
433.2922168392802
 44
64.8294314807417
 45
-2.209708691207961
 46
-2.20970869120796
 79
     0
 47
0.2324673207083092
 98
        2
 10
147.7670441725727
 20
289.642335630223
 10
277.7704830200205
 20
288.7124675624054
  0
ARC
  5
70E
330
2
100
AcDbEntity
  8
SICHTBAR
100
AcDbCircle
 10
274.5721903334252
 20
202.5464438971022
 30
0.0
 40
6.0
100
AcDbArc
 50
270.0
 51
0.0
  0
ARC
  5
70F
330
2
100
AcDbEntity
  8
SICHTBAR
100
AcDbCircle
 10
274.5721903334261
 20
202.5464438971022
 30
0.0
 40
7.0
100
AcDbArc
 50
270.0
 51
0.0000000000008269
  0
LINE
  5
710
330
2
100
AcDbEntity
  8
SICHTBAR
100
AcDbLine
 10
269.5721903334274
 20
193.546443897097
 30
0.0
 11
269.5721903334272
 21
191.546443897102
 31
0.0
  0
LINE
  5
711
330
2
100
AcDbEntity
  8
SICHTBAR
100
AcDbLine
 10
270.5721903334274
 20
193.5464438970969
 30
0.0
 11
270.5721903334272
 21
191.5464438971021
 31
0.0
  0
LINE
  5
712
330
2
100
AcDbEntity
  8
SICHTBAR
100
AcDbLine
 10
270.5721903334252
 20
193.5464438971021
 30
0.0
 11
270.5721903334252
 21
191.5464438971021
 31
0.0
  0
LINE
  5
713
330
2
100
AcDbEntity
  8
SICHTBAR
100
AcDbLine
 10
269.5721903334252
 20
193.5464438971021
 30
0.0
 11
269.5721903334252
 21
191.5464438971021
 31
0.0
  0
LINE
  5
714
330
2
100
AcDbEntity
  8
SICHTBAR
100
AcDbLine
 10
270.5721903334252
 20
191.5464438971021
 30
0.0
 11
215.5721903334253
 21
191.5464438971021
 31
0.0
  0
ARC
  5
715
330
2
100
AcDbEntity
  8
SICHTBAR
100
AcDbCircle
 10
272.5721903334252
 20
193.5464438971021
 30
0.0
 40
3.0
100
AcDbArc
 50
90.0
 51
179.9999999999998
  0
ARC
  5
716
330
2
100
AcDbEntity
  8
SICHTBAR
100
AcDbCircle
 10
272.5721903334252
 20
193.5464438971021
 30
0.0
 40
2.0
100
AcDbArc
 50
89.99999999999976
 51
179.9999999999997
  0
LINE
  5
717
330
2
100
AcDbEntity
  8
SICHTBAR
100
AcDbLine
 10
274.5721903334261
 20
195.5464438971021
 30
0.0
 11
272.5721903334252
 21
195.5464438971021
 31
0.0
  0
LINE
  5
718
330
2
100
AcDbEntity
  8
SICHTBAR
100
AcDbLine
 10
160.5721903334256
 20
242.2512513192587
 30
0.0
 11
161.5721903334274
 21
242.2512513192585
 31
0.0
  0
ARC
  5
719
330
2
100
AcDbEntity
  8
SICHTBAR
100
AcDbCircle
 10
159.5721903334256
 20
232.2512513192589
 30
0.0
 40
1.0
100
AcDbArc
 50
0.0000000000001018
 51
89.99999999998806
  0
ARC
  5
71A
330
2
100
AcDbEntity
  8
SICHTBAR
100
AcDbCircle
 10
159.5721903334256
 20
232.2512513192592
 30
0.0
 40
2.0
100
AcDbArc
 50
359.9999999999999
 51
89.99999999998603
  0
LINE
  5
71B
330
2
100
AcDbEntity
  8
SICHTBAR
100
AcDbLine
 10
160.5721903334256
 20
232.2512513192589
 30
0.0
 11
160.5721903334256
 21
228.2512513192592
 31
0.0
  0
LINE
  5
71C
330
2
100
AcDbEntity
  8
SICHTBAR
100
AcDbLine
 10
154.5721903334252
 20
234.2512513192603
 30
0.0
 11
154.5721903334252
 21
233.2512513192601
 31
0.0
  0
LINE
  5
71D
330
2
100
AcDbEntity
  8
SICHTBAR
100
AcDbLine
 10
154.5721903334252
 20
234.2512513192601
 30
0.0
 11
159.5721903334261
 21
234.2512513192592
 31
0.0
  0
LINE
  5
71E
330
2
100
AcDbEntity
  8
SICHTBAR
100
AcDbLine
 10
154.5721903334252
 20
233.2512513192601
 30
0.0
 11
159.5721903334256
 21
233.2512513192589
 31
0.0
  0
LINE
  5
71F
330
2
100
AcDbEntity
  8
SICHTBAR
100
AcDbLine
 10
161.5721903334252
 20
193.5464438971021
 30
0.0
 11
161.5721903334252
 21
191.5464438971021
 31
0.0
  0
LINE
  5
720
330
2
100
AcDbEntity
  8
SICHTBAR
100
AcDbLine
 10
160.5721903334251
 20
193.5464438971021
 30
0.0
 11
160.5721903334251
 21
191.5464438971021
 31
0.0
  0
LINE
  5
721
330
2
100
AcDbEntity
  8
SICHTBAR
100
AcDbLine
 10
160.5721903334251
 20
191.5464438971021
 30
0.0
 11
215.5721903334253
 21
191.5464438971021
 31
0.0
  0
LINE
  5
722
330
2
100
AcDbEntity
  8
SICHTBAR
100
AcDbLine
 10
156.5721903334242
 20
195.5464438971021
 30
0.0
 11
158.5721903334252
 21
195.5464438971021
 31
0.0
  0
ARC
  5
723
330
2
100
AcDbEntity
  8
SICHTBAR
100
AcDbCircle
 10
156.5721903334247
 20
202.5464438971022
 30
0.0
 40
6.0
100
AcDbArc
 50
179.9999999999984
 51
270.0
  0
ARC
  5
724
330
2
100
AcDbEntity
  8
SICHTBAR
100
AcDbCircle
 10
156.5721903334242
 20
202.5464438971022
 30
0.0
 40
7.0
100
AcDbArc
 50
179.9999999999992
 51
270.0000000000001
  0
ARC
  5
725
330
2
100
AcDbEntity
  8
SICHTBAR
100
AcDbCircle
 10
158.5721903334252
 20
193.5464438971021
 30
0.0
 40
3.0
100
AcDbArc
 50
359.9999999999998
 51
90.0
  0
ARC
  5
726
330
2
100
AcDbEntity
  8
SICHTBAR
100
AcDbCircle
 10
158.5721903334252
 20
193.5464438971021
 30
0.0
 40
2.0
100
AcDbArc
 50
359.9999999999998
 51
90.00000000000019
  0
LINE
  5
727
330
2
100
AcDbEntity
  8
SICHTBAR
100
AcDbLine
 10
156.5721903334247
 20
196.5464438971021
 30
0.0
 11
171.3074901943146
 21
196.5464438971021
 31
0.0
  0
LINE
  5
728
330
2
100
AcDbEntity
  8
SICHTBAR
100
AcDbLine
 10
160.5721903334256
 20
228.2512513192592
 30
0.0
 11
169.5721903334247
 21
228.251251319256
 31
0.0
  0
LINE
  5
729
330
2
100
AcDbEntity
  8
SICHTBAR
100
AcDbLine
 10
261.5721903334247
 20
228.2512513192586
 30
0.0
 11
270.5721903334256
 21
228.2512513192587
 31
0.0
  0
LINE
  5
72A
330
2
100
AcDbEntity
  8
SICHTBAR
100
AcDbLine
 10
274.5721903334252
 20
196.5464438971021
 30
0.0
 11
259.836890472535
 21
196.5464438971021
 31
0.0
  0
LINE
  5
72B
330
2
100
AcDbEntity
  8
SICHTBAR
100
AcDbLine
 10
269.5721903334256
 20
290.5331073673496
 30
0.0
 11
269.5721903334256
 21
228.2512513192587
 31
0.0
  0
LINE
  5
72C
102
{ACAD_REACTORS
330
70D
102
}
330
2
100
AcDbEntity
  8
SICHTBAR
100
AcDbLine
 10
270.5721903334256
 20
290.5331073673496
 30
0.0
 11
270.5721903334256
 21
228.2512513192587
 31
0.0
  0
LINE
  5
72E
330
2
100
AcDbEntity
  8
SICHTBAR
100
AcDbLine
 10
280.5721903334251
 20
271.3422804405043
 30
0.0
 11
280.5721903334251
 21
202.5464438971022
 31
0.0
  0
LINE
  5
72F
330
2
100
AcDbEntity
  8
SICHTBAR
100
AcDbLine
 10
281.5721903334261
 20
202.5464438971023
 30
0.0
 11
281.5721903334261
 21
271.3422804405041
 31
0.0
  0
LINE
  5
731
102
{ACAD_REACTORS
330
70D
102
}
330
2
100
AcDbEntity
  8
SICHTBAR
100
AcDbLine
 10
160.5721903334238
 20
290.5331073673496
 30
0.0
 11
160.5721903334256
 21
233.9833021268278
 31
0.0
  0
LINE
  5
732
330
2
100
AcDbEntity
  8
SICHTBAR
100
AcDbLine
 10
161.572190333427
 20
290.5331073673496
 30
0.0
 11
161.5721903334252
 21
228.2512513192587
 31
0.0
  0
LINE
  5
733
330
2
100
AcDbEntity
  8
SICHTBAR
100
AcDbLine
 10
150.5721903334251
 20
272.638116983906
 30
0.0
 11
150.5721903334251
 21
252.5464438971022
 31
0.0
  0
LINE
  5
734
330
2
100
AcDbEntity
  8
SICHTBAR
100
AcDbLine
 10
149.5721903334251
 20
272.6381169839062
 30
0.0
 11
149.5721903334247
 21
252.5464438971022
 31
0.0
  0
HATCH
  5
735
330
2
100
AcDbEntity
  8
SCHRAFF
100
AcDbHatch
 10
0.0
 20
0.0
 30
0.0
210
0.0
220
0.0
230
1.0
  2
ANSI31
 70
     0
 71
     0
 91
        5
 92
        7
 72
     1
 73
     1
 93
        8
 10
159.5721903334256
 20
233.2512513192589
 42
-0.4142135623730097
 10
160.5721903334256
 20
232.2512513192589
 42
0.0
 10
160.5721903334256
 20
228.2512513192592
 42
0.0
 10
161.5721903334252
 20
228.2512513192588
 42
0.0
 10
161.5721903334254
 20
232.251251319259
 42
0.4142135623730502
 10
159.5721903334256
 20
234.2512513192592
 42
0.0
 10
154.5721903334252
 20
234.2512513192601
 42
0.0
 10
154.5721903334252
 20
233.2512513192601
 42
0.0
 97
        0
 92
        7
 72
     0
 73
     1
 93
        4
 10
161.5721903334267
 20
278.0464438971021
 10
160.5721903334242
 20
278.0464438971021
 10
160.5721903334251
 20
242.2512513192587
 10
161.5721903334256
 20
242.2512513192585
 97
        0
 92
        7
 72
     0
 73
     1
 93
        4
 10
161.572190333427
 20
290.5331073673496
 10
160.5721903334238
 20
290.5331073673496
 10
160.5721903334242
 20
278.0464438971021
 10
161.5721903334267
 20
278.0464438971021
 97
        0
 92
        7
 72
     0
 73
     1
 93
        4
 10
269.5721903334256
 20
278.0464438971021
 10
270.5721903334256
 20
278.0464438971021
 10
270.5721903334256
 20
290.5331073673492
 10
269.5721903334256
 20
290.5331073673492
 97
        0
 92
        7
 72
     0
 73
     1
 93
        4
 10
269.5721903334256
 20
228.2512513192587
 10
270.5721903334256
 20
228.2512513192587
 10
270.5721903334256
 20
278.0464438971021
 10
269.5721903334256
 20
278.0464438971021
 97
        0
 75
     0
 76
     1
 52
90.0
 41
15.0
 77
     0
 78
     1
 53
135.0
 43
1110.002715525484
 44
-499.6060660680627
 45
-1.325825214724776
 46
-1.325825214724776
 79
     0
 47
0.1251130105790822
 98
        5
 10
157.3891781760167
 20
233.701416858818
 10
161.1440249654461
 20
245.4620392424608
 10
161.1440249654461
 20
282.9959437129419
 10
269.9094437585063
 20
282.1201541094851
 10
270.0346033482929
 20
274.8635989226941
  0
LINE
  5
8B3
330
2
100
AcDbEntity
  8
BEMASS
100
AcDbLine
 10
194.0721903334283
 20
126.2507204113913
 30
0.0
 11
237.0721903334283
 21
126.2507204113913
 31
0.0
  0
LINE
  5
9EB
330
2
100
AcDbEntity
  8
0
100
AcDbLine
 10
165.8221903334246
 20
279.5012513192596
 30
0.0
 11
163.2255755503669
 21
283.0466838272069
 31
0.0
  0
LINE
  5
9F3
330
2
100
AcDbEntity
  8
0
100
AcDbLine
 10
165.8221903334246
 20
279.5012513192596
 30
0.0
 11
169.5721903334246
 21
279.5012513192596
 31
0.0
  0
LINE
  5
9F4
330
2
100
AcDbEntity
  8
0
100
AcDbLine
 10
164.0105119911908
 20
273.2512513192596
 30
0.0
 11
170.5721903334244
 21
273.2512513192596
 31
0.0
  0
LINE
  5
9F5
330
2
100
AcDbEntity
  8
0
100
AcDbLine
 10
164.5721903334246
 20
275.5762513192613
 30
0.0
 11
169.7224377032867
 21
275.5762513192612
 31
0.0
  0
LINE
  5
9F6
330
2
100
AcDbEntity
  8
0
100
AcDbLine
 10
164.5721903334246
 20
277.1762513192616
 30
0.0
 11
183.8198896479799
 21
277.1762513192613
 31
0.0
  0
LINE
  5
9FA
330
2
100
AcDbEntity
  8
0
100
AcDbLine
 10
163.5148141799003
 20
273.6858014920526
 30
0.0
 11
162.8114268993826
 21
279.0130506280811
 31
0.0
  0
ARC
  5
9FB
330
2
100
AcDbEntity
  8
0
100
AcDbCircle
 10
164.0105119911908
 20
273.7512513192596
 30
0.0
 40
0.5
100
AcDbArc
 50
187.5215829840688
 51
270.0
  0
LINE
  5
9FC
330
2
100
AcDbEntity
  8
0
100
AcDbLine
 10
169.5721903334246
 20
275.5762513192613
 30
0.0
 11
169.5721903334237
 21
273.2512513192596
 31
0.0
  0
LINE
  5
9FD
330
2
100
AcDbEntity
  8
0
100
AcDbLine
 10
164.5721903334246
 20
277.1762513192616
 30
0.0
 11
164.5721903334246
 21
275.5762513192613
 31
0.0
  0
LINE
  5
9FE
330
2
100
AcDbEntity
  8
0
100
AcDbLine
 10
169.5721903334246
 20
279.5012513192596
 30
0.0
 11
169.5721903334246
 21
277.1762513192612
 31
0.0
  0
ARC
  5
A0C
330
2
100
AcDbEntity
  8
0
100
AcDbCircle
 10
162.8221903334246
 20
282.7512513192596
 30
0.0
 40
0.5
100
AcDbArc
 50
36.21841640738271
 51
180.0
  0
LINE
  5
A0D
330
2
100
AcDbEntity
  8
0
100
AcDbLine
 10
162.3221903334246
 20
282.7512513192596
 30
0.0
 11
161.5721903334269
 21
282.7512513192598
 31
0.0
  0
ARC
  5
A1D
330
2
100
AcDbEntity
  8
0
100
AcDbCircle
 10
160.8286356542188
 20
278.7512513192528
 30
0.0
 40
2.0
100
AcDbArc
 50
7.52158298406876
 51
68.17472775145303
  0
LINE
  5
B62
330
2
100
AcDbEntity
  8
0
100
AcDbLine
 10
265.3221903334266
 20
279.5012513192596
 30
0.0
 11
267.9188051164843
 21
283.0466838272069
 31
0.0
  0
LINE
  5
B63
330
2
100
AcDbEntity
  8
0
100
AcDbLine
 10
265.3221903334266
 20
279.5012513192596
 30
0.0
 11
261.5721903334267
 21
279.5012513192596
 31
0.0
  0
LINE
  5
B64
330
2
100
AcDbEntity
  8
0
100
AcDbLine
 10
266.5721903334266
 20
275.5762513192613
 30
0.0
 11
261.4219429635646
 21
275.5762513192612
 31
0.0
  0
LINE
  5
B65
330
2
100
AcDbEntity
  8
0
100
AcDbLine
 10
267.6295664869509
 20
273.6858014920526
 30
0.0
 11
268.3329537674687
 21
279.0130506280811
 31
0.0
  0
ARC
  5
B66
330
2
100
AcDbEntity
  8
0
100
AcDbCircle
 10
267.1338686756604
 20
273.7512513192596
 30
0.0
 40
0.5
100
AcDbArc
 50
270.0
 51
352.4784170159311
  0
LINE
  5
B67
330
2
100
AcDbEntity
  8
0
100
AcDbLine
 10
261.5721903334267
 20
275.5762513192613
 30
0.0
 11
261.5721903334276
 21
273.2512513192596
 31
0.0
  0
LINE
  5
B68
330
2
100
AcDbEntity
  8
0
100
AcDbLine
 10
266.5721903334266
 20
277.1762513192616
 30
0.0
 11
266.5721903334266
 21
275.5762513192613
 31
0.0
  0
LINE
  5
B69
330
2
100
AcDbEntity
  8
0
100
AcDbLine
 10
261.5721903334267
 20
279.5012513192596
 30
0.0
 11
261.5721903334267
 21
277.1762513192612
 31
0.0
  0
ARC
  5
B6A
330
2
100
AcDbEntity
  8
0
100
AcDbCircle
 10
268.3221903334267
 20
282.7512513192596
 30
0.0
 40
0.5
100
AcDbArc
 50
0.0
 51
143.7815835926176
  0
LINE
  5
B6B
330
2
100
AcDbEntity
  8
0
100
AcDbLine
 10
268.8221903334266
 20
282.7512513192596
 30
0.0
 11
269.5721903334243
 21
282.7512513192598
 31
0.0
  0
ARC
  5
B6C
330
2
100
AcDbEntity
  8
0
100
AcDbCircle
 10
270.3157450126324
 20
278.7512513192528
 30
0.0
 40
2.0
100
AcDbArc
 50
111.8252722485467
 51
172.4784170159311
  0
HATCH
  5
B94
330
2
100
AcDbEntity
  8
BEMASS
100
AcDbHatch
 10
0.0
 20
0.0
 30
0.0
210
0.0
220
0.0
230
1.0
  2
ANSI37
 70
     0
 71
     0
 91
        2
 92
        7
 72
     1
 73
     1
 93
       14
 10
265.3221903334266
 20
279.5012513192596
 42
0.0
 10
261.5721903334267
 20
279.5012513192596
 42
0.0
 10
261.5721903334267
 20
277.1762513192614
 42
0.0
 10
266.5721903334266
 20
277.1762513192614
 42
0.0
 10
266.5721903334266
 20
275.5762513192613
 42
0.0
 10
261.5721903334267
 20
275.5762513192612
 42
0.0
 10
261.5721903334276
 20
273.2512513192592
 42
0.0
 10
267.1338686756604
 20
273.2512513192596
 42
0.3762658388591638
 10
267.6295664869513
 20
273.6858014920525
 42
0.0
 10
268.3329537674689
 20
279.0130506280812
 42
-0.2710060289480383
 10
269.5721903334256
 20
280.6078951836031
 42
0.0
 10
269.5721903334256
 20
282.7512513192598
 42
0.0
 10
268.8221903334266
 20
282.7512513192596
 42
0.7250874480038531
 10
267.9188051164838
 20
283.0466838272069
 42
0.0
 97
        0
 92
        7
 72
     1
 73
     1
 93
       14
 10
162.8114268993823
 20
279.0130506280813
 42
0.0
 10
163.5148141799
 20
273.6858014920524
 42
0.3762658388591471
 10
164.0105119911908
 20
273.2512513192596
 42
0.0
 10
169.5721903334237
 20
273.2512513192596
 42
0.0
 10
169.5721903334246
 20
275.5762513192612
 42
0.0
 10
164.5721903334246
 20
275.5762513192613
 42
0.0
 10
164.5721903334246
 20
277.1762513192616
 42
0.0
 10
169.5721903334246
 20
277.1762513192616
 42
0.0
 10
169.5721903334246
 20
279.5012513192596
 42
0.0
 10
165.8221903334246
 20
279.5012513192596
 42
0.0
 10
163.2255755503674
 20
283.0466838272069
 42
0.7250874480038575
 10
162.3221903334246
 20
282.7512513192596
 42
0.0
 10
161.572190333427
 20
282.7512513192598
 42
0.0
 10
161.5721903334269
 20
280.6078951836026
 42
-0.271006028947834
 97
        0
 75
     0
 76
     1
 52
0.0
 41
10.0
 77
     0
 78
     2
 53
45.0
 43
161.5721903334269
 44
273.2512513192592
 45
-0.8838834764831842
 46
0.8838834764831844
 79
     0
 53
135.0
 43
161.5721903334269
 44
273.2512513192592
 45
-0.8838834764831844
 46
-0.8838834764831842
 79
     0
 47
0.087948215528806
 98
        2
 10
266.8025931476468
 20
280.3720679796805
 10
163.7888565320115
 20
279.7566862592754
1001
ACAD
1010
161.5721903334269
1020
280.2831073673494
1030
0.0
  0
LINE
  5
1382
330
2
100
AcDbEntity
  8
0
100
AcDbLine
 10
141.5721903334253
 20
300.2507204113917
 30
0.0
 11
153.8486053104217
 21
300.2507204113917
 31
0.0
  0
LINE
  5
1383
330
2
100
AcDbEntity
  8
0
100
AcDbLine
 10
289.5721903334254
 20
300.2507204113917
 30
0.0
 11
277.2957753564292
 21
300.2507204113917
 31
0.0
  0
LINE
  5
1652
330
2
100
AcDbEntity
  8
SICHTBAR
100
AcDbLine
 10
169.5721903334246
 20
279.5012513192596
 30
0.0
 11
261.5721903334267
 21
279.5012513192596
 31
0.0
  0
LINE
  5
1653
330
2
100
AcDbEntity
  8
VERDECKT
100
AcDbLine
 10
170.5721903334244
 20
267.2512513192598
 30
0.0
 11
256.7787057272138
 21
267.2512513192596
 31
0.0
  0
LINE
  5
1654
330
2
100
AcDbEntity
  8
VERDECKT
100
AcDbLine
 10
259.8530959106469
 20
273.2512513192587
 30
0.0
 11
170.5721903334244
 21
273.2512513192596
 31
0.0
  0
LINE
  5
1655
330
2
100
AcDbEntity
  8
VERDECKT
100
AcDbLine
 10
169.5721903334246
 20
275.5762513192612
 30
0.0
 11
261.5721903334267
 21
275.5762513192972
 31
0.0
  0
LINE
  5
1656
330
2
100
AcDbEntity
  8
VERDECKT
100
AcDbLine
 10
280.5721903334256
 20
288.4547708102982
 30
0.0
 11
150.5721903334251
 21
288.4547708102982
 31
0.0
  0
LINE
  5
1828
330
2
100
AcDbEntity
  8
VERDECKT
100
AcDbLine
 10
171.3074901943146
 20
196.5464438971021
 30
0.0
 11
259.836890472535
 21
196.5464438971021
 31
0.0
  0
VIEWPORT
  5
31A
330
319
100
AcDbEntity
 67
     1
  8
0
100
AcDbViewport
 10
208.5
 20
172.772378516624
 30
0.0
 40
417.0
 41
345.5447570332481
 68
     1
 69
     1
 12
208.5
 22
172.772378516624
 13
0.0
 23
0.0
 14
10.0
 24
10.0
 15
10.0
 25
10.0
 16
0.0
 26
0.0
 36
1.0
 17
0.0
 27
0.0
 37
0.0
 42
50.0
 43
0.0
 44
0.0
 45
345.5447570332481
 50
0.0
 51
0.0
 72
   100
 90
    32800
  1

281
     0
 71
     1
 74
     0
110
0.0
120
0.0
130
0.0
111
1.0
121
0.0
131
0.0
112
0.0
122
1.0
132
0.0
 79
     0
146
0.0
170
     0
 61
     5
348
BB7
292
     1
282
     1
141
0.0
142
0.0
 63
   250
421
  3355443
1001
GENIUS_GENOBJ-N-SDF_13
1002
{
1000
OWNER
1000
GEN
1002
}
1001
GENIUS_GENODEF_13
1002
{
1000
HIER
1070
     0
1002
}
1002
{
1000
MANEDIT
1070
     0
1002
}
1002
{
1000
NOSEL
1070
     0
1002
}
1002
{
1000
BEHIND
1070
     0
1002
}
1002
{
1000
OTHER
1070
     0
1002
}
1002
{
1000
REACTOR
1002
}
1001
GENIUS_GENSCREG_15
1000
PF
1040
1.0
1000
DF
1040
1.0
1000
MIN
1011
0.0
1021
0.0
1031
0.0
1000
MAX
1011
417.0
1021
345.5447570332481
1031
0.0
1000
FLAGS
1070
     4
  0
ENDSEC
  0
SECTION
  2
OBJECTS
  0
DICTIONARY
  5
7
330
0
100
AcDbDictionary
281
     1
  3
ACAD_CIP_PREVIOUS_PRODUCT_INFO
350
183E
  3
ACAD_COLOR
350
333
  3
ACAD_DETAILVIEWSTYLE
350
1834
  3
ACAD_FIELDLIST
350
1854
  3
ACAD_GROUP
350
32D
  3
ACAD_LAYOUT
350
318
  3
ACAD_MATERIAL
350
332
  3
ACAD_MLEADERSTYLE
350
BE7
  3
ACAD_MLINESTYLE
350
32E
  3
ACAD_PLOTSETTINGS
350
32F
  3
ACAD_PLOTSTYLENAME
350
6
  3
ACAD_SCALELIST
350
BC5
  3
ACAD_SECTIONVIEWSTYLE
350
1832
  3
ACAD_TABLESTYLE
350
8EC
  3
ACAD_VISUALSTYLE
350
BB1
  3
ACDB_RECOMPOSE_DATA
350
186D
  3
AcDbVariableDictionary
350
8F4
  3
AcmDictionary
350
C52
  3
AEC_PROPERTY_SET_DEFS
350
E8A
  3
AMG
350
BF0
  3
AMGSNAPSETTINGS
350
C8B
  0
DICTIONARY
  5
1069
330
328
100
AcDbDictionary
280
     1
281
     1
  0
DICTIONARY
  5
DD4
330
320
100
AcDbDictionary
280
     1
281
     1
  3
ACAD_LAYERSTATES
360
DD5
  0
DICTIONARY
  5
103B
330
44
100
AcDbDictionary
280
     1
281
     1
  3
ADSK_XREC_LAYER_RECONCILED
360
103C
  0
DICTIONARY
  5
103D
330
A
100
AcDbDictionary
280
     1
281
     1
  3
ADSK_XREC_LAYER_RECONCILED
360
103E
  0
DICTIONARY
  5
103F
330
F
100
AcDbDictionary
280
     1
281
     1
  3
ADSK_XREC_LAYER_RECONCILED
360
1040
  0
DICTIONARY
  5
1041
330
D2
100
AcDbDictionary
280
     1
281
     1
  3
ADSK_XREC_LAYER_RECONCILED
360
1042
  0
DICTIONARY
  5
1043
330
4
100
AcDbDictionary
280
     1
281
     1
  3
ADSK_XREC_LAYER_RECONCILED
360
1044
  0
DICTIONARY
  5
1045
330
DA
100
AcDbDictionary
280
     1
281
     1
  3
ADSK_XREC_LAYER_RECONCILED
360
1046
  0
DICTIONARY
  5
1047
330
35
100
AcDbDictionary
280
     1
281
     1
  3
ADSK_XREC_LAYER_RECONCILED
360
1048
  0
DICTIONARY
  5
1049
330
EF
100
AcDbDictionary
280
     1
281
     1
  3
ADSK_XREC_LAYER_RECONCILED
360
104A
  0
DICTIONARY
  5
104B
330
1EB
100
AcDbDictionary
280
     1
281
     1
  3
ADSK_XREC_LAYER_RECONCILED
360
104C
  0
DICTIONARY
  5
104D
330
1EE
100
AcDbDictionary
280
     1
281
     1
  3
ADSK_XREC_LAYER_RECONCILED
360
104E
  0
DICTIONARY
  5
1051
330
23A
100
AcDbDictionary
280
     1
281
     1
  3
ADSK_XREC_LAYER_RECONCILED
360
1052
  0
DICTIONARY
  5
1053
330
23D
100
AcDbDictionary
280
     1
281
     1
  3
ADSK_XREC_LAYER_RECONCILED
360
1054
  0
DICTIONARY
  5
1055
330
336
100
AcDbDictionary
280
     1
281
     1
  3
ADSK_XREC_LAYER_RECONCILED
360
1056
  0
DICTIONARY
  5
B90
330
2
100
AcDbDictionary
280
     1
281
     1
  3
ACAD_SORTENTS
360
B91
  0
XRECORD
  5
183E
102
{ACAD_REACTORS
330
7
102
}
330
7
100
AcDbXrecord
280
     1
300
AMECH_PP
300
2017
300
AMECH_PP_F_S
  0
DICTIONARY
  5
333
102
{ACAD_REACTORS
330
7
102
}
330
7
100
AcDbDictionary
281
     1
  0
DICTIONARY
  5
1834
102
{ACAD_REACTORS
330
7
102
}
330
7
100
AcDbDictionary
281
     1
  3
Imperial24
350
1835
  0
FIELDLIST
  5
1854
102
{ACAD_REACTORS
330
7
102
}
330
7
100
AcDbIdSet
 90
        3
330
1852
330
1853
330
1855
100
AcDbFieldList
  0
DICTIONARY
  5
32D
102
{ACAD_REACTORS
330
7
102
}
330
7
100
AcDbDictionary
281
     1
  0
DICTIONARY
  5
318
102
{ACAD_REACTORS
330
7
102
}
330
7
100
AcDbDictionary
281
     1
  3
Layout1
350
31F
  3
Model
350
317
  0
DICTIONARY
  5
332
102
{ACAD_REACTORS
330
7
102
}
330
7
100
AcDbDictionary
281
     1
  3
ByBlock
350
BA1
  3
ByLayer
350
B99
  3
Global
350
BA9
  0
DICTIONARY
  5
BE7
102
{ACAD_REACTORS
330
7
102
}
330
7
100
AcDbDictionary
281
     1
  3
Standard
350
BE8
  0
DICTIONARY
  5
32E
102
{ACAD_REACTORS
330
7
102
}
330
7
100
AcDbDictionary
281
     1
  3
STANDARD
350
330
  0
DICTIONARY
  5
32F
102
{ACAD_REACTORS
330
7
102
}
330
7
100
AcDbDictionary
281
     1
  0
ACDBDICTIONARYWDFLT
  5
6
102
{ACAD_REACTORS
330
7
102
}
330
7
100
AcDbDictionary
281
     1
  3
Normal
350
5
100
AcDbDictionaryWithDefault
340
5
  0
DICTIONARY
  5
BC5
102
{ACAD_REACTORS
330
7
102
}
330
7
100
AcDbDictionary
281
     1
  3
A0
350
BC6
  3
A1
350
BC7
  3
A2
350
BC8
  3
A3
350
BC9
  3
A4
350
BCA
  3
A5
350
BCB
  3
A6
350
BCC
  3
A7
350
BCD
  3
A8
350
BCE
  3
A9
350
BCF
  3
B0
350
BD0
  3
B1
350
BD1
  3
B2
350
BD2
  3
B3
350
BD3
  3
B4
350
BD4
  3
B5
350
BD5
  3
B6
350
BD6
  3
B7
350
BD7
  3
B8
350
BD8
  3
B9
350
BD9
  3
C0
350
BDA
  3
C1
350
BDB
  3
C2
350
BDC
  3
C3
350
BDD
  3
C4
350
BDE
  3
C5
350
BDF
  3
C6
350
BE0
  3
C7
350
BE1
  3
C8
350
BE2
  3
C9
350
BE3
  3
D0
350
BE4
  3
D1
350
BE5
  3
D2
350
BE6
  0
DICTIONARY
  5
1832
102
{ACAD_REACTORS
330
7
102
}
330
7
100
AcDbDictionary
281
     1
  3
Imperial24
350
1833
  0
DICTIONARY
  5
8EC
102
{ACAD_REACTORS
330
7
102
}
330
7
100
AcDbDictionary
281
     1
  3
Standard
350
8ED
  0
DICTIONARY
  5
BB1
102
{ACAD_REACTORS
330
7
102
}
330
7
100
AcDbDictionary
281
     1
  3
2dWireframe
350
BB7
  3
3D Hidden
350
BB9
  3
3dWireframe
350
BB8
  3
Basic
350
BB6
  3
Brighten
350
BBD
  3
ColorChange
350
BC1
  3
Conceptual
350
BBA
  3
Dim
350
BBC
  3
EdgeColorOff
350
BC4
  3
Facepattern
350
BC0
  3
Flat
350
BB2
  3
FlatWithEdges
350
BB3
  3
Gouraud
350
BB4
  3
GouraudWithEdges
350
BB5
  3
Hidden
350
182C
  3
JitterOff
350
BC2
  3
Linepattern
350
BBF
  3
OverhangOff
350
BC3
  3
Realistic
350
BBB
  3
Shaded
350
1831
  3
Shaded with edges
350
1830
  3
Shades of Gray
350
182D
  3
Sketchy
350
182E
  3
Thicken
350
BBE
  3
Wireframe
350
182B
  3
X-Ray
350
182F
  0
XRECORD
  5
186D
102
{ACAD_REACTORS
330
7
102
}
330
7
100
AcDbXrecord
280
     1
 90
        1
330
8ED
330
1833
330
1835
  0
DICTIONARY
  5
8F4
102
{ACAD_REACTORS
330
7
102
}
330
7
100
AcDbDictionary
281
     1
  3
CANNOSCALE
350
109B
  3
CMLEADERSTYLE
350
109A
  3
CTABLESTYLE
350
8F5
  3
CVIEWDETAILSTYLE
350
1866
  3
CVIEWSECTIONSTYLE
350
1867
  3
DIMASSOC
350
109F
  3
INDEXCTL
350
109D
  3
LAYEREVAL
350
1775
  3
LAYERNOTIFY
350
1776
  3
LIGHTINGUNITS
350
1774
  3
MSLTSCALE
350
1773
  3
SORTENTS
350
109C
  0
DICTIONARY
  5
C52
102
{ACAD_REACTORS
330
7
102
}
330
7
100
AcDbDictionary
281
     1
  3
AcmStdDictionary
350
C5C
  0
DICTIONARY
  5
E8A
102
{ACAD_REACTORS
330
7
102
}
330
7
100
AcDbDictionary
281
     1
  0
DICTIONARY
  5
BF0
102
{ACAD_REACTORS
330
7
102
}
330
7
100
AcDbDictionary
281
     1
  0
DICTIONARY
  5
C8B
102
{ACAD_REACTORS
330
7
102
}
330
7
100
AcDbDictionary
281
     1
  0
DICTIONARY
  5
DD5
102
{ACAD_REACTORS
330
DD4
102
}
330
DD4
100
AcDbDictionary
281
     1
  0
XRECORD
  5
103C
102
{ACAD_REACTORS
330
103B
102
}
330
103B
100
AcDbXrecord
280
     1
290
     1
  0
XRECORD
  5
103E
102
{ACAD_REACTORS
330
103D
102
}
330
103D
100
AcDbXrecord
280
     1
290
     1
  0
XRECORD
  5
1040
102
{ACAD_REACTORS
330
103F
102
}
330
103F
100
AcDbXrecord
280
     1
290
     1
  0
XRECORD
  5
1042
102
{ACAD_REACTORS
330
1041
102
}
330
1041
100
AcDbXrecord
280
     1
290
     1
  0
XRECORD
  5
1044
102
{ACAD_REACTORS
330
1043
102
}
330
1043
100
AcDbXrecord
280
     1
290
     1
  0
XRECORD
  5
1046
102
{ACAD_REACTORS
330
1045
102
}
330
1045
100
AcDbXrecord
280
     1
290
     1
  0
XRECORD
  5
1048
102
{ACAD_REACTORS
330
1047
102
}
330
1047
100
AcDbXrecord
280
     1
290
     1
  0
XRECORD
  5
104A
102
{ACAD_REACTORS
330
1049
102
}
330
1049
100
AcDbXrecord
280
     1
290
     1
  0
XRECORD
  5
104C
102
{ACAD_REACTORS
330
104B
102
}
330
104B
100
AcDbXrecord
280
     1
290
     1
  0
XRECORD
  5
104E
102
{ACAD_REACTORS
330
104D
102
}
330
104D
100
AcDbXrecord
280
     1
290
     1
  0
XRECORD
  5
1052
102
{ACAD_REACTORS
330
1051
102
}
330
1051
100
AcDbXrecord
280
     1
290
     1
  0
XRECORD
  5
1054
102
{ACAD_REACTORS
330
1053
102
}
330
1053
100
AcDbXrecord
280
     1
290
     1
  0
XRECORD
  5
1056
102
{ACAD_REACTORS
330
1055
102
}
330
1055
100
AcDbXrecord
280
     1
290
     1
  0
SORTENTSTABLE
  5
B91
102
{ACAD_REACTORS
330
B90
102
}
330
B90
100
AcDbSortentsTable
330
2
331
6EB
  5
6ED
331
72A
  5
72C
331
6EF
  5
6F1
331
72E
  5
731
331
6F3
  5
6F5
331
6F7
  5
6F9
331
602
  5
602
331
606
  5
606
331
63B
  5
63C
331
686
  5
687
331
63F
  5
640
331
68A
  5
68B
331
60E
  5
60F
331
643
  5
644
331
68E
  5
68F
331
647
  5
648
331
6B8
  5
6BA
331
6BC
  5
6BE
331
6FB
  5
6FD
331
6C0
  5
6C2
331
6FF
  5
701
331
6C4
  5
6C6
331
703
  5
705
331
734
  5
9EC
331
707
  5
709
331
B63
  5
B68
331
612
  5
613
331
64B
  5
64C
331
692
  5
693
331
B67
  5
B6C
331
5BF
  5
5BF
331
616
  5
617
331
64F
  5
650
331
696
  5
698
331
B6B
  5
B71
331
61A
  5
61B
331
653
  5
654
331
69A
  5
69C
331
61E
  5
61F
331
657
  5
658
331
69E
  5
6A0
331
55F
  5
55F
331
6C8
  5
6CA
331
6CC
  5
6CE
331
70B
  5
70D
331
6D0
  5
6D2
331
70F
  5
711
331
6D4
  5
6D6
331
713
  5
715
331
717
  5
719
331
622
  5
623
331
65B
  5
65C
331
6A2
  5
6A4
331
626
  5
628
331
65F
  5
660
331
9F4
  5
9FC
331
6A6
  5
6A8
331
663
  5
664
331
6AA
  5
6AC
331
62E
  5
62F
331
6AE
  5
6B0
331
563
  5
563
331
567
  5
567
331
56B
  5
56B
331
6D8
  5
6DA
331
6DC
  5
6DE
331
71B
  5
71D
331
6E0
  5
6E2
331
71F
  5
721
331
6E4
  5
6E6
331
723
  5
725
331
727
  5
729
331
9FC
  5
A02
331
66B
  5
66C
331
6B2
  5
6B4
331
5F7
  5
5F7
331
636
  5
637
331
A0C
  5
A15
331
6B6
  5
6B8
331
67B
  5
67D
331
67F
  5
683
331
573
  5
573
331
57B
  5
57B
331
6E8
  5
6EA
331
6EC
  5
6EE
331
72B
  5
72E
331
6F0
  5
6F2
331
72F
  5
735
331
6F4
  5
6F6
331
8B3
  5
9F3
331
638
  5
63A
331
603
  5
603
331
63C
  5
63D
331
683
  5
684
331
607
  5
607
331
687
  5
688
331
640
  5
641
331
60B
  5
60C
331
644
  5
645
331
68B
  5
68C
331
60F
  5
610
331
68F
  5
690
331
6B9
  5
6BB
331
6F8
  5
6FA
331
6BD
  5
6BF
331
6FC
  5
6FE
331
6C1
  5
6C3
331
700
  5
702
331
731
  5
8B3
331
6C5
  5
6C7
331
704
  5
706
331
735
  5
9F0
331
648
  5
649
331
B64
  5
B69
331
5BC
  5
5BC
331
613
  5
614
331
64C
  5
64D
331
693
  5
694
331
B68
  5
B6E
331
5C0
  5
5C0
331
617
  5
618
331
650
  5
651
331
B6C
  5
E8F
331
61B
  5
61C
331
654
  5
655
331
69B
  5
69D
331
61F
  5
620
331
69F
  5
6A1
331
55C
  5
55C
331
6C9
  5
6CB
331
708
  5
70A
331
6CD
  5
6CF
331
70C
  5
70E
331
6D1
  5
6D3
331
710
  5
712
331
6D5
  5
6D7
331
714
  5
716
331
658
  5
659
331
B94
  5
608
331
623
  5
624
331
65C
  5
65D
331
6A3
  5
6A5
331
660
  5
661
331
6A7
  5
6A9
331
9F5
  5
9FD
331
5DC
  5
5DC
331
62B
  5
62D
331
664
  5
665
331
6AB
  5
6AD
331
62F
  5
633
331
560
  5
560
331
6AF
  5
6B1
331
564
  5
564
331
6D9
  5
6DB
331
718
  5
71A
331
6DD
  5
6DF
331
71C
  5
71E
331
720
  5
722
331
6E5
  5
6E7
331
724
  5
726
331
668
  5
669
331
9FD
  5
A03
331
633
  5
635
331
66C
  5
66E
331
6B3
  5
6B5
331
637
  5
638
331
A0D
  5
A16
331
6B7
  5
6B9
331
574
  5
574
331
57C
  5
57C
331
6E9
  5
6EB
331
728
  5
72A
331
6ED
  5
6EF
331
72C
  5
72F
331
6F1
  5
6F3
331
6F5
  5
6F7
331
600
  5
600
331
A1D
  5
B66
331
604
  5
604
331
684
  5
685
331
608
  5
60B
331
63D
  5
63E
331
688
  5
689
331
60C
  5
60D
331
641
  5
642
331
68C
  5
68D
331
645
  5
646
331
6BA
  5
6BC
331
6F9
  5
6FB
331
6BE
  5
6C0
331
6FD
  5
6FF
331
732
  5
8F3
331
6C2
  5
6C4
331
701
  5
703
331
610
  5
611
331
6C6
  5
6C8
331
705
  5
707
331
690
  5
691
331
5BD
  5
5BD
331
614
  5
615
331
649
  5
64A
331
B65
  5
B6A
331
694
  5
695
331
618
  5
619
331
64D
  5
64E
331
B69
  5
B6F
331
61C
  5
61D
331
651
  5
652
331
69C
  5
69E
331
655
  5
656
331
55D
  5
55D
331
6CA
  5
6CC
331
709
  5
70B
331
6CE
  5
6D0
331
70D
  5
70F
331
6D2
  5
6D4
331
711
  5
713
331
620
  5
621
331
6D6
  5
6D8
331
715
  5
717
331
6A0
  5
6A2
331
5D5
  5
5D5
331
624
  5
625
331
659
  5
65A
331
6A4
  5
6A6
331
628
  5
629
331
65D
  5
65E
331
6A8
  5
6AA
331
9F6
  5
9FE
331
5DD
  5
5DD
331
661
  5
662
331
6AC
  5
6AE
331
665
  5
666
331
561
  5
561
331
565
  5
565
331
569
  5
569
331
6DA
  5
6DC
331
719
  5
71B
331
6DE
  5
6E0
331
71D
  5
71F
331
721
  5
723
331
9FA
  5
A00
331
6E6
  5
6E8
331
725
  5
727
331
6B0
  5
6B2
331
9FE
  5
A14
331
669
  5
66A
331
6B4
  5
6B6
331
5F9
  5
5F9
331
67D
  5
67F
331
571
  5
571
331
575
  5
575
331
6EA
  5
6EC
331
729
  5
72B
331
6EE
  5
6F0
331
6F2
  5
6F4
331
6F6
  5
6F8
331
605
  5
605
331
63A
  5
63B
331
685
  5
686
331
63E
  5
63F
331
689
  5
68A
331
60D
  5
60E
331
642
  5
643
331
68D
  5
68E
331
646
  5
647
331
6BB
  5
6BD
331
6FA
  5
6FC
331
6BF
  5
6C1
331
6FE
  5
700
331
702
  5
704
331
733
  5
9EB
331
6C3
  5
6C5
331
706
  5
708
331
B62
  5
B67
331
611
  5
612
331
6C7
  5
6C9
331
691
  5
692
331
B66
  5
B6B
331
5BE
  5
5BE
331
615
  5
616
331
64A
  5
64B
331
695
  5
696
331
B6A
  5
B70
331
619
  5
61A
331
64E
  5
64F
331
699
  5
69B
331
61D
  5
61E
331
652
  5
653
331
69D
  5
69F
331
656
  5
657
331
55E
  5
55E
331
6CB
  5
6CD
331
70A
  5
70C
331
6CF
  5
6D1
331
70E
  5
710
331
6D3
  5
6D5
331
712
  5
714
331
6D7
  5
6D9
331
716
  5
718
331
9EB
  5
9FA
331
621
  5
622
331
6A1
  5
6A3
331
625
  5
626
331
65A
  5
65B
331
6A5
  5
6A7
331
9F3
  5
9FB
331
5DA
  5
5DA
331
629
  5
62B
331
65E
  5
65F
331
6A9
  5
6AB
331
62D
  5
62E
331
662
  5
663
331
6AD
  5
6AF
331
666
  5
668
331
562
  5
562
331
566
  5
566
331
56A
  5
56A
331
6DB
  5
6DD
331
71A
  5
71C
331
6DF
  5
6E1
331
71E
  5
720
331
6E3
  5
6E5
331
722
  5
724
331
6E7
  5
6E9
331
726
  5
728
331
9FB
  5
A01
331
5F2
  5
5F2
331
6B1
  5
6B3
331
635
  5
636
331
66A
  5
66B
331
6B5
  5
6B7
331
5FA
  5
5FA
331
66E
  5
67B
331
572
  5
572
  0
ACDBDETAILVIEWSTYLE
  5
1835
102
{ACAD_XDICTIONARY
360
186B
102
}
102
{ACAD_REACTORS
330
1834
330
1848
102
}
330
1834
100
AcDbModelDocViewStyle
 70
     0
  3
Imperial24
290
     0
100
AcDbDetailViewStyle
 70
     0
 71
     0
 90
        3
 71
     1
340
37
 62
   256
 40
0.24
340
0
 62
   256
 40
0.24
300

 40
0.36
280
     3
 71
     2
340
8
 90
       25
 62
   256
 71
     3
340
37
 62
   256
 40
0.24
 90
        1
 40
0.75
 90
        1
300
%<\AcVar ViewType \f "%tc1">% %<\AcVar ViewDetailId>%\PSCALE %<\AcVar ViewScale \f "%sn">%
 71
     4
340
8
 90
       25
 62
   256
340
8
 90
       25
 62
   256
280
     0
  0
LAYOUT
  5
31F
102
{ACAD_REACTORS
330
318
102
}
330
318
100
AcDbPlotSettings
  1

  2
C:\Program Files\AutoCAD R14\plotters\DWF Classic.pc3
  4

  6

 40
0.0
 41
0.0
 42
0.0
 43
0.0
 44
0.0
 45
0.0
 46
0.0
 47
0.0
 48
0.0
 49
0.0
140
0.0
141
0.0
142
1.0
143
1.0
 70
   688
 72
     0
 73
     0
 74
     5
  7

 75
    16
147
1.0
 76
     0
 77
     2
 78
   300
148
0.0
149
0.0
100
AcDbLayout
  1
Layout1
 70
     0
 71
     1
 10
0.0
 20
0.0
 11
417.0
 21
288.0
 12
0.0
 22
0.0
 32
0.0
 14
1.000000000000000E+20
 24
1.000000000000000E+20
 34
1.000000000000000E+20
 15
-1.000000000000000E+20
 25
-1.000000000000000E+20
 35
-1.000000000000000E+20
146
0.0
 13
0.0
 23
0.0
 33
0.0
 16
1.0
 26
0.0
 36
0.0
 17
0.0
 27
1.0
 37
0.0
 76
     0
330
319
331
31A
  0
LAYOUT
  5
317
102
{ACAD_XDICTIONARY
360
1771
102
}
102
{ACAD_REACTORS
330
318
102
}
330
318
100
AcDbPlotSettings
  1

  2
Minolta Di550 / Di450 PS
  4
A4
  6

 40
5.704416751861572
 41
5.746724605560302
 42
5.746734619140625
 43
5.70440673828125
 44
209.8886566162109
 45
297.0106506347656
 46
0.0
 47
0.0
 48
0.0
 49
0.0
140
594.0
141
420.0
142
1.0
143
2.116535377125443
 70
 11952
 72
     1
 73
     1
 74
     4
  7
monochrome.ctb
 75
     0
147
0.4724702505838304
 76
     1
 77
     2
 78
   300
148
0.0
149
0.0
100
AcDbLayout
  1
Model
 70
     1
 71
     0
 10
0.0
 20
0.0
 11
12.0
 21
9.0
 12
0.0
 22
0.0
 32
0.0
 14
0.0
 24
0.0
 34
0.0
 15
0.0
 25
0.0
 35
0.0
146
0.0
 13
0.0
 23
0.0
 33
0.0
 16
1.0
 26
0.0
 36
0.0
 17
0.0
 27
1.0
 37
0.0
 76
     0
330
2
331
B97
  0
MATERIAL
  5
BA1
102
{ACAD_XDICTIONARY
360
BA2
102
}
102
{ACAD_REACTORS
330
332
102
}
330
332
100
AcDbMaterial
  1
ByBlock
 72
     0
 43
0.0208333333333333
 43
0.0
 43
0.0
 43
0.0
 43
0.0
 43
0.0208333333333333
 43
0.0
 43
0.0
 43
0.0
 43
0.0
 43
1.0
 43
0.0
 43
0.0
 43
0.0
 43
0.0
 43
1.0
 77
     0
 47
0.0208333333333333
 47
0.0
 47
0.0
 47
0.0
 47
0.0
 47
0.0208333333333333
 47
0.0
 47
0.0
 47
0.0
 47
0.0
 47
1.0
 47
0.0
 47
0.0
 47
0.0
 47
0.0
 47
1.0
171
     0
 49
0.0208333333333333
 49
0.0
 49
0.0
 49
0.0
 49
0.0
 49
0.0208333333333333
 49
0.0
 49
0.0
 49
0.0
 49
0.0
 49
1.0
 49
0.0
 49
0.0
 49
0.0
 49
0.0
 49
1.0
175
     0
142
0.0208333333333333
142
0.0
142
0.0
142
0.0
142
0.0
142
0.0208333333333333
142
0.0
142
0.0
142
0.0
142
0.0
142
1.0
142
0.0
142
0.0
142
0.0
142
0.0
142
1.0
179
     0
144
0.0208333333333333
144
0.0
144
0.0
144
0.0
144
0.0
144
0.0208333333333333
144
0.0
144
0.0
144
0.0
144
0.0
144
1.0
144
0.0
144
0.0
144
0.0
144
0.0
144
1.0
147
0.0208333333333333
147
0.0
147
0.0
147
0.0
147
0.0
147
0.0208333333333333
147
0.0
147
0.0
147
0.0
147
0.0
147
1.0
147
0.0
147
0.0
147
0.0
147
0.0
147
1.0
  0
MATERIAL
  5
B99
102
{ACAD_XDICTIONARY
360
B9A
102
}
102
{ACAD_REACTORS
330
332
102
}
330
332
100
AcDbMaterial
  1
ByLayer
 72
     0
 43
0.0208333333333333
 43
0.0
 43
0.0
 43
0.0
 43
0.0
 43
0.0208333333333333
 43
0.0
 43
0.0
 43
0.0
 43
0.0
 43
1.0
 43
0.0
 43
0.0
 43
0.0
 43
0.0
 43
1.0
 77
     0
 47
0.0208333333333333
 47
0.0
 47
0.0
 47
0.0
 47
0.0
 47
0.0208333333333333
 47
0.0
 47
0.0
 47
0.0
 47
0.0
 47
1.0
 47
0.0
 47
0.0
 47
0.0
 47
0.0
 47
1.0
171
     0
 49
0.0208333333333333
 49
0.0
 49
0.0
 49
0.0
 49
0.0
 49
0.0208333333333333
 49
0.0
 49
0.0
 49
0.0
 49
0.0
 49
1.0
 49
0.0
 49
0.0
 49
0.0
 49
0.0
 49
1.0
175
     0
142
0.0208333333333333
142
0.0
142
0.0
142
0.0
142
0.0
142
0.0208333333333333
142
0.0
142
0.0
142
0.0
142
0.0
142
1.0
142
0.0
142
0.0
142
0.0
142
0.0
142
1.0
179
     0
144
0.0208333333333333
144
0.0
144
0.0
144
0.0
144
0.0
144
0.0208333333333333
144
0.0
144
0.0
144
0.0
144
0.0
144
1.0
144
0.0
144
0.0
144
0.0
144
0.0
144
1.0
147
0.0208333333333333
147
0.0
147
0.0
147
0.0
147
0.0
147
0.0208333333333333
147
0.0
147
0.0
147
0.0
147
0.0
147
1.0
147
0.0
147
0.0
147
0.0
147
0.0
147
1.0
  0
MATERIAL
  5
BA9
102
{ACAD_XDICTIONARY
360
BAA
102
}
102
{ACAD_REACTORS
330
332
102
}
330
332
100
AcDbMaterial
  1
Global
 72
     0
 43
0.0208333333333333
 43
0.0
 43
0.0
 43
0.0
 43
0.0
 43
0.0208333333333333
 43
0.0
 43
0.0
 43
0.0
 43
0.0
 43
1.0
 43
0.0
 43
0.0
 43
0.0
 43
0.0
 43
1.0
 77
     0
 47
0.0208333333333333
 47
0.0
 47
0.0
 47
0.0
 47
0.0
 47
0.0208333333333333
 47
0.0
 47
0.0
 47
0.0
 47
0.0
 47
1.0
 47
0.0
 47
0.0
 47
0.0
 47
0.0
 47
1.0
171
     0
 49
0.0208333333333333
 49
0.0
 49
0.0
 49
0.0
 49
0.0
 49
0.0208333333333333
 49
0.0
 49
0.0
 49
0.0
 49
0.0
 49
1.0
 49
0.0
 49
0.0
 49
0.0
 49
0.0
 49
1.0
175
     0
142
0.0208333333333333
142
0.0
142
0.0
142
0.0
142
0.0
142
0.0208333333333333
142
0.0
142
0.0
142
0.0
142
0.0
142
1.0
142
0.0
142
0.0
142
0.0
142
0.0
142
1.0
179
     0
144
0.0208333333333333
144
0.0
144
0.0
144
0.0
144
0.0
144
0.0208333333333333
144
0.0
144
0.0
144
0.0
144
0.0
144
1.0
144
0.0
144
0.0
144
0.0
144
0.0
144
1.0
147
0.0208333333333333
147
0.0
147
0.0
147
0.0
147
0.0
147
0.0208333333333333
147
0.0
147
0.0
147
0.0
147
0.0
147
1.0
147
0.0
147
0.0
147
0.0
147
0.0
147
1.0
  0
MLEADERSTYLE
  5
BE8
102
{ACAD_REACTORS
330
BE7
102
}
330
BE7
100
AcDbMLeaderStyle
179
     2
170
     2
171
     1
172
     0
 90
        2
 40
0.0
 41
0.0
173
     1
 91
-1056964608
340
324
 92
       -2
290
     1
 42
0.09
291
     1
 43
0.36
  3
Standard
 44
0.18
300

342
37
174
     1
178
     6
175
     1
176
     0
 93
-1056964608
 45
0.18
292
     0
297
     0
 46
0.18
 94
-1056964608
 47
1.0
 49
1.0
140
1.0
293
     1
141
0.0
294
     1
177
     0
142
1.0
295
     0
296
     0
143
0.125
271
     0
272
     9
273
     9
298
     0
  0
MLINESTYLE
  5
330
102
{ACAD_REACTORS
330
32E
102
}
330
32E
100
AcDbMlineStyle
  2
STANDARD
 70
     0
  3

 62
   256
 51
90.0
 52
90.0
 71
     2
 49
0.5
 62
   256
  6
BYLAYER
 49
-0.5
 62
   256
  6
BYLAYER
  0
ACDBPLACEHOLDER
  5
5
102
{ACAD_REACTORS
330
6
102
}
330
6
  0
SCALE
  5
BC6
102
{ACAD_REACTORS
330
BC5
102
}
330
BC5
100
AcDbScale
 70
     0
300
1:1
140
1.0
141
1.0
290
     1
  0
SCALE
  5
BC7
102
{ACAD_REACTORS
330
BC5
102
}
330
BC5
100
AcDbScale
 70
     0
300
1:2
140
1.0
141
2.0
290
     0
  0
SCALE
  5
BC8
102
{ACAD_REACTORS
330
BC5
102
}
330
BC5
100
AcDbScale
 70
     0
300
1:4
140
1.0
141
4.0
290
     0
  0
SCALE
  5
BC9
102
{ACAD_REACTORS
330
BC5
102
}
330
BC5
100
AcDbScale
 70
     0
300
1:5
140
1.0
141
5.0
290
     0
  0
SCALE
  5
BCA
102
{ACAD_REACTORS
330
BC5
102
}
330
BC5
100
AcDbScale
 70
     0
300
1:8
140
1.0
141
8.0
290
     0
  0
SCALE
  5
BCB
102
{ACAD_REACTORS
330
BC5
102
}
330
BC5
100
AcDbScale
 70
     0
300
1:10
140
1.0
141
10.0
290
     0
  0
SCALE
  5
BCC
102
{ACAD_REACTORS
330
BC5
102
}
330
BC5
100
AcDbScale
 70
     0
300
1:16
140
1.0
141
16.0
290
     0
  0
SCALE
  5
BCD
102
{ACAD_REACTORS
330
BC5
102
}
330
BC5
100
AcDbScale
 70
     0
300
1:20
140
1.0
141
20.0
290
     0
  0
SCALE
  5
BCE
102
{ACAD_REACTORS
330
BC5
102
}
330
BC5
100
AcDbScale
 70
     0
300
1:30
140
1.0
141
30.0
290
     0
  0
SCALE
  5
BCF
102
{ACAD_REACTORS
330
BC5
102
}
330
BC5
100
AcDbScale
 70
     0
300
1:40
140
1.0
141
40.0
290
     0
  0
SCALE
  5
BD0
102
{ACAD_REACTORS
330
BC5
102
}
330
BC5
100
AcDbScale
 70
     0
300
1:50
140
1.0
141
50.0
290
     0
  0
SCALE
  5
BD1
102
{ACAD_REACTORS
330
BC5
102
}
330
BC5
100
AcDbScale
 70
     0
300
1:100
140
1.0
141
100.0
290
     0
  0
SCALE
  5
BD2
102
{ACAD_REACTORS
330
BC5
102
}
330
BC5
100
AcDbScale
 70
     0
300
2:1
140
2.0
141
1.0
290
     0
  0
SCALE
  5
BD3
102
{ACAD_REACTORS
330
BC5
102
}
330
BC5
100
AcDbScale
 70
     0
300
4:1
140
4.0
141
1.0
290
     0
  0
SCALE
  5
BD4
102
{ACAD_REACTORS
330
BC5
102
}
330
BC5
100
AcDbScale
 70
     0
300
8:1
140
8.0
141
1.0
290
     0
  0
SCALE
  5
BD5
102
{ACAD_REACTORS
330
BC5
102
}
330
BC5
100
AcDbScale
 70
     0
300
10:1
140
10.0
141
1.0
290
     0
  0
SCALE
  5
BD6
102
{ACAD_REACTORS
330
BC5
102
}
330
BC5
100
AcDbScale
 70
     0
300
100:1
140
100.0
141
1.0
290
     0
  0
SCALE
  5
BD7
102
{ACAD_REACTORS
330
BC5
102
}
330
BC5
100
AcDbScale
 70
     0
300
1/128" = 1'-0"
140
0.0078125
141
12.0
290
     0
  0
SCALE
  5
BD8
102
{ACAD_REACTORS
330
BC5
102
}
330
BC5
100
AcDbScale
 70
     0
300
1/64" = 1'-0"
140
0.015625
141
12.0
290
     0
  0
SCALE
  5
BD9
102
{ACAD_REACTORS
330
BC5
102
}
330
BC5
100
AcDbScale
 70
     0
300
1/32" = 1'-0"
140
0.03125
141
12.0
290
     0
  0
SCALE
  5
BDA
102
{ACAD_REACTORS
330
BC5
102
}
330
BC5
100
AcDbScale
 70
     0
300
1/16" = 1'-0"
140
0.0625
141
12.0
290
     0
  0
SCALE
  5
BDB
102
{ACAD_REACTORS
330
BC5
102
}
330
BC5
100
AcDbScale
 70
     0
300
3/32" = 1'-0"
140
0.09375
141
12.0
290
     0
  0
SCALE
  5
BDC
102
{ACAD_REACTORS
330
BC5
102
}
330
BC5
100
AcDbScale
 70
     0
300
1/8" = 1'-0"
140
0.125
141
12.0
290
     0
  0
SCALE
  5
BDD
102
{ACAD_REACTORS
330
BC5
102
}
330
BC5
100
AcDbScale
 70
     0
300
3/16" = 1'-0"
140
0.1875
141
12.0
290
     0
  0
SCALE
  5
BDE
102
{ACAD_REACTORS
330
BC5
102
}
330
BC5
100
AcDbScale
 70
     0
300
1/4" = 1'-0"
140
0.25
141
12.0
290
     0
  0
SCALE
  5
BDF
102
{ACAD_REACTORS
330
BC5
102
}
330
BC5
100
AcDbScale
 70
     0
300
3/8" = 1'-0"
140
0.375
141
12.0
290
     0
  0
SCALE
  5
BE0
102
{ACAD_REACTORS
330
BC5
102
}
330
BC5
100
AcDbScale
 70
     0
300
1/2" = 1'-0"
140
0.5
141
12.0
290
     0
  0
SCALE
  5
BE1
102
{ACAD_REACTORS
330
BC5
102
}
330
BC5
100
AcDbScale
 70
     0
300
3/4" = 1'-0"
140
0.75
141
12.0
290
     0
  0
SCALE
  5
BE2
102
{ACAD_REACTORS
330
BC5
102
}
330
BC5
100
AcDbScale
 70
     0
300
1" = 1'-0"
140
1.0
141
12.0
290
     0
  0
SCALE
  5
BE3
102
{ACAD_REACTORS
330
BC5
102
}
330
BC5
100
AcDbScale
 70
     0
300
1-1/2" = 1'-0"
140
1.5
141
12.0
290
     0
  0
SCALE
  5
BE4
102
{ACAD_REACTORS
330
BC5
102
}
330
BC5
100
AcDbScale
 70
     0
300
3" = 1'-0"
140
3.0
141
12.0
290
     0
  0
SCALE
  5
BE5
102
{ACAD_REACTORS
330
BC5
102
}
330
BC5
100
AcDbScale
 70
     0
300
6" = 1'-0"
140
6.0
141
12.0
290
     0
  0
SCALE
  5
BE6
102
{ACAD_REACTORS
330
BC5
102
}
330
BC5
100
AcDbScale
 70
     0
300
1'-0" = 1'-0"
140
12.0
141
12.0
290
     0
  0
ACDBSECTIONVIEWSTYLE
  5
1833
102
{ACAD_XDICTIONARY
360
1869
102
}
102
{ACAD_REACTORS
330
1832
330
1847
102
}
330
1832
100
AcDbModelDocViewStyle
 70
     0
  3
Imperial24
290
     0
100
AcDbSectionViewStyle
 70
     0
 71
     0
 90
       78
 71
     1
340
37
 62
   256
 40
0.24
340
0
340
0
 62
   256
 40
0.24
300
I, O, Q, S, X, Z
 40
0.48
 90
        3
 40
0.18
 90
        1
 71
     2
340
8
 90
       25
 62
   256
340
8
 90
       50
 62
   256
 40
0.24
 40
0.0
 40
0.24
 71
     3
340
37
 62
   256
 40
0.24
 90
        1
 40
0.75
 90
        1
300
%<\AcVar ViewType \f "%tc1">% %<\AcVar ViewSectionStartId>%-%<\AcVar ViewSectionEndId>%\PSCALE %<\AcVar ViewScale \f "%sn">%
 71
     4
 62
   256
 62
   257
300
ANSI31
 40
1.0
 90
        0
290
     0
290
     0
 90
        6
 40
0.0
 40
1.570796326794896
 40
0.2617993877991494
 40
1.308996938995747
 40
-0.2617993877991494
 40
1.832595714594046
  0
TABLESTYLE
  5
8ED
102
{ACAD_XDICTIONARY
360
105F
102
}
102
{ACAD_REACTORS
330
8EC
102
}
330
8EC
100
AcDbTableStyle
280
     0
  3
Standard
 70
     0
 71
     0
 40
0.06
 41
0.06
280
     0
281
     0
  7
STANDARD
140
0.18
170
     2
 62
     0
 63
     7
283
     0
 90
        4
 91
        0
  1

274
    -2
284
     1
 64
     0
275
    -2
285
     1
 65
     0
276
    -2
286
     1
 66
     0
277
    -2
287
     1
 67
     0
278
    -2
288
     1
 68
     0
279
    -2
289
     1
 69
     0
  7
STANDARD
140
0.25
170
     5
 62
     0
 63
     7
283
     0
 90
        4
 91
        0
  1

274
    -2
284
     1
 64
     0
275
    -2
285
     1
 65
     0
276
    -2
286
     1
 66
     0
277
    -2
287
     1
 67
     0
278
    -2
288
     1
 68
     0
279
    -2
289
     1
 69
     0
  7
STANDARD
140
0.18
170
     5
 62
     0
 63
     7
283
     0
 90
        4
 91
        0
  1

274
    -2
284
     1
 64
     0
275
    -2
285
     1
 65
     0
276
    -2
286
     1
 66
     0
277
    -2
287
     1
 67
     0
278
    -2
288
     1
 68
     0
279
    -2
289
     1
 69
     0
  0
VISUALSTYLE
  5
BB7
102
{ACAD_REACTORS
330
BB1
102
}
330
BB1
100
AcDbVisualStyle
  2
2dWireframe
 70
     4
177
     3
291
     0
 70
    58
 90
        0
176
     1
 90
        2
176
     1
 90
        0
176
     1
 90
        0
176
     1
 40
0.6
176
     1
 40
30.0
176
     1
 62
     7
176
     1
 90
        1
176
     1
 90
        4
176
     1
 62
     7
176
     1
 62
   257
176
     1
 90
        1
176
     1
 90
        1
176
     1
 40
1.0
176
     1
 90
        0
176
     1
 62
   257
176
     1
 40
1.0
176
     1
 90
        1
176
     1
 90
        6
176
     1
 90
        2
176
     1
 62
     7
176
     1
 90
        5
176
     1
 90
        0
176
     1
 90
        0
176
     1
290
     0
176
     1
 90
        1
176
     1
 40
0.0
176
     1
 90
        0
176
     1
290
     1
176
     1
290
     1
176
     1
290
     0
176
     1
290
     0
176
     1
290
     0
176
     1
290
     0
176
     1
290
     0
176
     1
290
     0
176
     1
290
     0
176
     1
 90
       50
176
     1
 40
0.0
176
     1
 40
1.0
176
     1
 90
        0
176
     1
 62
    18
420
        0
176
     1
 90
       50
176
     1
 90
        3
176
     1
 62
     5
420
      255
176
     1
290
     0
176
     1
 90
       50
176
     1
 90
       50
176
     1
 90
       50
176
     1
290
     0
176
     1
 90
       50
176
     1
 62
   256
176
     0
 40
1.0
176
     0
 90
        2
176
     1
  1
strokes_ogs.tif
176
     1
290
     0
176
     1
 40
1.0
176
     1
 40
1.0
176
     1
  0
VISUALSTYLE
  5
BB9
102
{ACAD_REACTORS
330
BB1
102
}
330
BB1
100
AcDbVisualStyle
  2
3D Hidden
 70
     6
177
     3
291
     0
 70
    58
 90
        1
176
     1
 90
        2
176
     1
 90
        2
176
     1
 90
        0
176
     1
 40
0.6
176
     1
 40
30.0
176
     1
 62
     7
176
     1
 90
        2
176
     1
 90
        2
176
     1
 62
     7
176
     1
 62
   257
176
     1
 90
        2
176
     1
 90
        1
176
     1
 40
179.0
176
     1
 90
        0
176
     1
 62
   257
176
     1
 40
1.0
176
     1
 90
        1
176
     1
 90
        6
176
     1
 90
        2
176
     1
 62
     7
176
     1
 90
        3
176
     1
 90
        0
176
     1
 90
        0
176
     1
290
     0
176
     1
 90
        1
176
     1
 40
0.0
176
     1
 90
        0
176
     1
290
     0
176
     1
290
     1
176
     1
290
     1
176
     1
290
     0
176
     1
290
     0
176
     1
290
     0
176
     1
290
     0
176
     1
290
     0
176
     1
290
     0
176
     1
 90
       50
176
     1
 40
0.0
176
     1
 40
1.0
176
     1
 90
        0
176
     1
 62
    18
420
        0
176
     1
 90
       50
176
     1
 90
        3
176
     1
 62
     5
420
      255
176
     1
290
     0
176
     1
 90
       50
176
     1
 90
       50
176
     1
 90
       50
176
     1
290
     0
176
     1
 90
       50
176
     1
 62
   256
176
     0
 40
1.0
176
     0
 90
        2
176
     1
  1
strokes_ogs.tif
176
     1
290
     0
176
     1
 40
1.0
176
     1
 40
1.0
176
     1
  0
VISUALSTYLE
  5
BB8
102
{ACAD_REACTORS
330
BB1
102
}
330
BB1
100
AcDbVisualStyle
  2
3dWireframe
 70
     5
177
     3
291
     0
 70
    58
 90
        0
176
     1
 90
        2
176
     1
 90
        0
176
     1
 90
        0
176
     1
 40
0.6
176
     1
 40
30.0
176
     1
 62
     7
176
     1
 90
        1
176
     1
 90
        4
176
     1
 62
     7
176
     1
 62
   257
176
     1
 90
        1
176
     1
 90
        1
176
     1
 40
1.0
176
     1
 90
        0
176
     1
 62
   257
176
     1
 40
1.0
176
     1
 90
        1
176
     1
 90
        6
176
     1
 90
        2
176
     1
 62
     7
176
     1
 90
        5
176
     1
 90
        0
176
     1
 90
        0
176
     1
290
     0
176
     1
 90
        1
176
     1
 40
0.0
176
     1
 90
        0
176
     1
290
     0
176
     1
290
     1
176
     1
290
     1
176
     1
290
     0
176
     1
290
     0
176
     1
290
     0
176
     1
290
     0
176
     1
290
     0
176
     1
290
     0
176
     1
 90
       50
176
     1
 40
0.0
176
     1
 40
1.0
176
     1
 90
        0
176
     1
 62
    18
420
        0
176
     1
 90
       50
176
     1
 90
        3
176
     1
 62
     5
420
      255
176
     1
290
     0
176
     1
 90
       50
176
     1
 90
       50
176
     1
 90
       50
176
     1
290
     0
176
     1
 90
       50
176
     1
 62
   256
176
     0
 40
1.0
176
     0
 90
        2
176
     1
  1
strokes_ogs.tif
176
     1
290
     0
176
     1
 40
1.0
176
     1
 40
1.0
176
     1
  0
VISUALSTYLE
  5
BB6
102
{ACAD_REACTORS
330
BB1
102
}
330
BB1
100
AcDbVisualStyle
  2
Basic
 70
     7
177
     3
291
     1
 70
    58
 90
        1
176
     1
 90
        0
176
     1
 90
        1
176
     1
 90
        0
176
     1
 40
0.6
176
     1
 40
30.0
176
     1
 62
     7
176
     1
 90
        0
176
     1
 90
        4
176
     1
 62
     7
176
     1
 62
   257
176
     1
 90
        1
176
     1
 90
        1
176
     1
 40
1.0
176
     1
 90
        8
176
     1
 62
     7
176
     1
 40
1.0
176
     1
 90
        1
176
     1
 90
        6
176
     1
 90
        2
176
     1
 62
     7
176
     1
 90
        5
176
     1
 90
        0
176
     1
 90
        0
176
     1
290
     0
176
     1
 90
        1
176
     1
 40
0.0
176
     1
 90
        0
176
     1
290
     0
176
     1
290
     1
176
     1
290
     1
176
     1
290
     0
176
     1
290
     0
176
     1
290
     0
176
     1
290
     0
176
     1
290
     0
176
     1
290
     0
176
     1
 90
       50
176
     1
 40
0.0
176
     1
 40
1.0
176
     1
 90
        0
176
     1
 62
    18
420
        0
176
     1
 90
       50
176
     1
 90
        3
176
     1
 62
     5
420
      255
176
     1
290
     0
176
     1
 90
       50
176
     1
 90
       50
176
     1
 90
       50
176
     1
290
     0
176
     1
 90
       50
176
     1
 62
   256
176
     0
 40
1.0
176
     0
 90
        2
176
     1
  1
strokes_ogs.tif
176
     1
290
     0
176
     1
 40
1.0
176
     1
 40
1.0
176
     1
  0
VISUALSTYLE
  5
BBD
102
{ACAD_REACTORS
330
BB1
102
}
330
BB1
100
AcDbVisualStyle
  2
Brighten
 70
    12
177
     3
291
     1
 70
    58
 90
        2
176
     1
 90
        2
176
     1
 90
        0
176
     1
 90
        0
176
     1
 40
0.6
176
     1
 40
30.0
176
     1
 62
     7
176
     1
 90
        1
176
     1
 90
        4
176
     1
 62
     7
176
     1
 62
   257
176
     1
 90
        1
176
     1
 90
        1
176
     1
 40
1.0
176
     1
 90
        8
176
     1
 62
     7
176
     1
 40
1.0
176
     1
 90
        1
176
     1
 90
        6
176
     1
 90
        2
176
     1
 62
     7
176
     1
 90
        5
176
     1
 90
        0
176
     1
 90
        0
176
     1
290
     0
176
     1
 90
        1
176
     1
 40
50.0
176
     1
 90
        0
176
     1
290
     0
176
     1
290
     1
176
     1
290
     1
176
     1
290
     0
176
     1
290
     0
176
     1
290
     0
176
     1
290
     0
176
     1
290
     0
176
     1
290
     0
176
     1
 90
       50
176
     1
 40
0.0
176
     1
 40
1.0
176
     1
 90
        0
176
     1
 62
    18
420
        0
176
     1
 90
       50
176
     1
 90
        3
176
     1
 62
     5
420
      255
176
     1
290
     0
176
     1
 90
       50
176
     1
 90
       50
176
     1
 90
       50
176
     1
290
     0
176
     1
 90
       50
176
     1
 62
   256
176
     0
 40
1.0
176
     0
 90
        2
176
     1
  1
strokes_ogs.tif
176
     1
290
     0
176
     1
 40
1.0
176
     1
 40
1.0
176
     1
  0
VISUALSTYLE
  5
BC1
102
{ACAD_REACTORS
330
BB1
102
}
330
BB1
100
AcDbVisualStyle
  2
ColorChange
 70
    16
177
     3
291
     1
 70
    58
 90
        2
176
     1
 90
        2
176
     1
 90
        3
176
     1
 90
        0
176
     1
 40
0.6
176
     1
 40
30.0
176
     1
 62
     8
176
     1
 90
        1
176
     1
 90
        4
176
     1
 62
     7
176
     1
 62
   257
176
     1
 90
        1
176
     1
 90
        1
176
     1
 40
1.0
176
     1
 90
        8
176
     1
 62
     8
176
     1
 40
1.0
176
     1
 90
        1
176
     1
 90
        6
176
     1
 90
        2
176
     1
 62
     7
176
     1
 90
        5
176
     1
 90
        0
176
     1
 90
        0
176
     1
290
     0
176
     1
 90
        1
176
     1
 40
0.0
176
     1
 90
        0
176
     1
290
     0
176
     1
290
     1
176
     1
290
     1
176
     1
290
     0
176
     1
290
     0
176
     1
290
     0
176
     1
290
     0
176
     1
290
     0
176
     1
290
     0
176
     1
 90
       50
176
     1
 40
0.0
176
     1
 40
1.0
176
     1
 90
        0
176
     1
 62
    18
420
        0
176
     1
 90
       50
176
     1
 90
        3
176
     1
 62
     5
420
      255
176
     1
290
     0
176
     1
 90
       50
176
     1
 90
       50
176
     1
 90
       50
176
     1
290
     0
176
     1
 90
       50
176
     1
 62
   256
176
     0
 40
1.0
176
     0
 90
        2
176
     1
  1
strokes_ogs.tif
176
     1
290
     0
176
     1
 40
1.0
176
     1
 40
1.0
176
     1
  0
VISUALSTYLE
  5
BBA
102
{ACAD_REACTORS
330
BB1
102
}
330
BB1
100
AcDbVisualStyle
  2
Conceptual
 70
     9
177
     3
291
     0
 70
    58
 90
        3
176
     1
 90
        2
176
     1
 90
        0
176
     1
 90
        0
176
     1
 40
0.6
176
     1
 40
30.0
176
     1
 62
     7
176
     1
 90
        2
176
     1
 90
        2
176
     1
 62
     7
176
     1
 62
   257
176
     1
 90
        1
176
     1
 90
        1
176
     1
 40
179.0
176
     1
 90
        8
176
     1
 62
     7
176
     1
 40
1.0
176
     1
 90
        1
176
     1
 90
        6
176
     1
 90
        2
176
     1
 62
     7
176
     1
 90
        3
176
     1
 90
        0
176
     1
 90
        0
176
     1
290
     0
176
     1
 90
        1
176
     1
 40
0.0
176
     1
 90
        0
176
     1
290
     0
176
     1
290
     1
176
     1
290
     1
176
     1
290
     0
176
     1
290
     0
176
     1
290
     0
176
     1
290
     0
176
     1
290
     0
176
     1
290
     0
176
     1
 90
       50
176
     1
 40
0.0
176
     1
 40
1.0
176
     1
 90
        0
176
     1
 62
    18
420
        0
176
     1
 90
       50
176
     1
 90
        3
176
     1
 62
     5
420
      255
176
     1
290
     0
176
     1
 90
       50
176
     1
 90
       50
176
     1
 90
       50
176
     1
290
     0
176
     1
 90
       50
176
     1
 62
   256
176
     0
 40
1.0
176
     0
 90
        2
176
     1
  1
strokes_ogs.tif
176
     1
290
     0
176
     1
 40
1.0
176
     1
 40
1.0
176
     1
  0
VISUALSTYLE
  5
BBC
102
{ACAD_REACTORS
330
BB1
102
}
330
BB1
100
AcDbVisualStyle
  2
Dim
 70
    11
177
     3
291
     1
 70
    58
 90
        2
176
     1
 90
        2
176
     1
 90
        0
176
     1
 90
        0
176
     1
 40
0.6
176
     1
 40
30.0
176
     1
 62
     7
176
     1
 90
        1
176
     1
 90
        4
176
     1
 62
     7
176
     1
 62
   257
176
     1
 90
        1
176
     1
 90
        1
176
     1
 40
1.0
176
     1
 90
        8
176
     1
 62
     7
176
     1
 40
1.0
176
     1
 90
        1
176
     1
 90
        6
176
     1
 90
        2
176
     1
 62
     7
176
     1
 90
        5
176
     1
 90
        0
176
     1
 90
        0
176
     1
290
     0
176
     1
 90
        1
176
     1
 40
-50.0
176
     1
 90
        0
176
     1
290
     0
176
     1
290
     1
176
     1
290
     1
176
     1
290
     0
176
     1
290
     0
176
     1
290
     0
176
     1
290
     0
176
     1
290
     0
176
     1
290
     0
176
     1
 90
       50
176
     1
 40
0.0
176
     1
 40
1.0
176
     1
 90
        0
176
     1
 62
    18
420
        0
176
     1
 90
       50
176
     1
 90
        3
176
     1
 62
     5
420
      255
176
     1
290
     0
176
     1
 90
       50
176
     1
 90
       50
176
     1
 90
       50
176
     1
290
     0
176
     1
 90
       50
176
     1
 62
   256
176
     0
 40
1.0
176
     0
 90
        2
176
     1
  1
strokes_ogs.tif
176
     1
290
     0
176
     1
 40
1.0
176
     1
 40
1.0
176
     1
  0
VISUALSTYLE
  5
BC4
102
{ACAD_REACTORS
330
BB1
102
}
330
BB1
100
AcDbVisualStyle
  2
EdgeColorOff
 70
    22
177
     3
291
     1
 70
    58
 90
        2
176
     0
 90
        2
176
     0
 90
        0
176
     0
 90
        0
176
     0
 40
0.6
176
     0
 40
30.0
176
     0
 62
     7
176
     0
 90
        1
176
     0
 90
        4
176
     0
 62
     7
176
     0
 62
   257
176
     0
 90
        1
176
     0
 90
        1
176
     0
 40
1.0
176
     0
 90
        8
176
     2
 62
     7
176
     0
 40
1.0
176
     0
 90
        1
176
     0
 90
        6
176
     0
 90
        2
176
     0
 62
     7
176
     0
 90
        5
176
     0
 90
        0
176
     0
 90
        0
176
     0
290
     0
176
     0
 90
        1
176
     0
 40
0.0
176
     0
 90
        0
176
     0
290
     0
176
     1
290
     1
176
     1
290
     1
176
     1
290
     0
176
     1
290
     0
176
     1
290
     0
176
     1
290
     0
176
     1
290
     0
176
     1
290
     0
176
     1
 90
       50
176
     1
 40
0.0
176
     1
 40
1.0
176
     1
 90
        0
176
     1
 62
    18
420
        0
176
     1
 90
       50
176
     1
 90
        3
176
     1
 62
     5
420
      255
176
     1
290
     0
176
     1
 90
       50
176
     1
 90
       50
176
     1
 90
       50
176
     1
290
     0
176
     1
 90
       50
176
     1
 62
   256
176
     0
 40
1.0
176
     0
 90
        2
176
     1
  1
strokes_ogs.tif
176
     1
290
     0
176
     1
 40
1.0
176
     1
 40
1.0
176
     1
  0
VISUALSTYLE
  5
BC0
102
{ACAD_REACTORS
330
BB1
102
}
330
BB1
100
AcDbVisualStyle
  2
Facepattern
 70
    15
177
     3
291
     1
 70
    58
 90
        2
176
     1
 90
        2
176
     1
 90
        0
176
     1
 90
        0
176
     1
 40
0.6
176
     1
 40
30.0
176
     1
 62
     7
176
     1
 90
        1
176
     1
 90
        4
176
     1
 62
     7
176
     1
 62
   257
176
     1
 90
        1
176
     1
 90
        1
176
     1
 40
1.0
176
     1
 90
        8
176
     1
 62
     7
176
     1
 40
1.0
176
     1
 90
        1
176
     1
 90
        6
176
     1
 90
        2
176
     1
 62
     7
176
     1
 90
        5
176
     1
 90
        0
176
     1
 90
        0
176
     1
290
     0
176
     1
 90
        1
176
     1
 40
0.0
176
     1
 90
        0
176
     1
290
     0
176
     1
290
     1
176
     1
290
     1
176
     1
290
     0
176
     1
290
     0
176
     1
290
     0
176
     1
290
     0
176
     1
290
     0
176
     1
290
     0
176
     1
 90
       50
176
     1
 40
0.0
176
     1
 40
1.0
176
     1
 90
        0
176
     1
 62
    18
420
        0
176
     1
 90
       50
176
     1
 90
        3
176
     1
 62
     5
420
      255
176
     1
290
     0
176
     1
 90
       50
176
     1
 90
       50
176
     1
 90
       50
176
     1
290
     0
176
     1
 90
       50
176
     1
 62
   256
176
     0
 40
1.0
176
     0
 90
        2
176
     1
  1
strokes_ogs.tif
176
     1
290
     0
176
     1
 40
1.0
176
     1
 40
1.0
176
     1
  0
VISUALSTYLE
  5
BB2
102
{ACAD_REACTORS
330
BB1
102
}
330
BB1
100
AcDbVisualStyle
  2
Flat
 70
     0
177
     3
291
     1
 70
    58
 90
        2
176
     1
 90
        1
176
     1
 90
        1
176
     1
 90
        2
176
     1
 40
0.6
176
     1
 40
30.0
176
     1
 62
     7
176
     1
 90
        0
176
     1
 90
        4
176
     1
 62
     7
176
     1
 62
   257
176
     1
 90
        1
176
     1
 90
        1
176
     1
 40
1.0
176
     1
 90
        8
176
     1
 62
     7
176
     1
 40
1.0
176
     1
 90
        1
176
     1
 90
        6
176
     1
 90
        2
176
     1
 62
     7
176
     1
 90
        5
176
     1
 90
        0
176
     1
 90
        0
176
     1
290
     0
176
     1
 90
       13
176
     1
 40
0.0
176
     1
 90
        0
176
     1
290
     0
176
     1
290
     1
176
     1
290
     1
176
     1
290
     0
176
     1
290
     0
176
     1
290
     0
176
     1
290
     0
176
     1
290
     0
176
     1
290
     0
176
     1
 90
       50
176
     1
 40
0.0
176
     1
 40
1.0
176
     1
 90
        0
176
     1
 62
    18
420
        0
176
     1
 90
       50
176
     1
 90
        3
176
     1
 62
     5
420
      255
176
     1
290
     0
176
     1
 90
       50
176
     1
 90
       50
176
     1
 90
       50
176
     1
290
     0
176
     1
 90
       50
176
     1
 62
   256
176
     0
 40
1.0
176
     0
 90
        2
176
     1
  1
strokes_ogs.tif
176
     1
290
     0
176
     1
 40
1.0
176
     1
 40
1.0
176
     1
  0
VISUALSTYLE
  5
BB3
102
{ACAD_REACTORS
330
BB1
102
}
330
BB1
100
AcDbVisualStyle
  2
FlatWithEdges
 70
     1
177
     3
291
     1
 70
    58
 90
        2
176
     1
 90
        1
176
     1
 90
        1
176
     1
 90
        2
176
     1
 40
0.6
176
     1
 40
30.0
176
     1
 62
     7
176
     1
 90
        1
176
     1
 90
        4
176
     1
 62
     7
176
     1
 62
   257
176
     1
 90
        1
176
     1
 90
        1
176
     1
 40
1.0
176
     1
 90
        0
176
     1
 62
   257
176
     1
 40
1.0
176
     1
 90
        1
176
     1
 90
        6
176
     1
 90
        2
176
     1
 62
     7
176
     1
 90
        5
176
     1
 90
        0
176
     1
 90
        0
176
     1
290
     0
176
     1
 90
       13
176
     1
 40
0.0
176
     1
 90
        0
176
     1
290
     0
176
     1
290
     1
176
     1
290
     1
176
     1
290
     0
176
     1
290
     0
176
     1
290
     0
176
     1
290
     0
176
     1
290
     0
176
     1
290
     0
176
     1
 90
       50
176
     1
 40
0.0
176
     1
 40
1.0
176
     1
 90
        0
176
     1
 62
    18
420
        0
176
     1
 90
       50
176
     1
 90
        3
176
     1
 62
     5
420
      255
176
     1
290
     0
176
     1
 90
       50
176
     1
 90
       50
176
     1
 90
       50
176
     1
290
     0
176
     1
 90
       50
176
     1
 62
   256
176
     0
 40
1.0
176
     0
 90
        2
176
     1
  1
strokes_ogs.tif
176
     1
290
     0
176
     1
 40
1.0
176
     1
 40
1.0
176
     1
  0
VISUALSTYLE
  5
BB4
102
{ACAD_REACTORS
330
BB1
102
}
330
BB1
100
AcDbVisualStyle
  2
Gouraud
 70
     2
177
     3
291
     1
 70
    58
 90
        2
176
     1
 90
        2
176
     1
 90
        1
176
     1
 90
        2
176
     1
 40
0.6
176
     1
 40
30.0
176
     1
 62
     7
176
     1
 90
        0
176
     1
 90
        4
176
     1
 62
     7
176
     1
 62
   257
176
     1
 90
        1
176
     1
 90
        1
176
     1
 40
1.0
176
     1
 90
        0
176
     1
 62
     7
176
     1
 40
1.0
176
     1
 90
        1
176
     1
 90
        6
176
     1
 90
        2
176
     1
 62
     7
176
     1
 90
        5
176
     1
 90
        0
176
     1
 90
        0
176
     1
290
     0
176
     1
 90
       13
176
     1
 40
0.0
176
     1
 90
        0
176
     1
290
     0
176
     1
290
     1
176
     1
290
     1
176
     1
290
     0
176
     1
290
     0
176
     1
290
     0
176
     1
290
     0
176
     1
290
     0
176
     1
290
     0
176
     1
 90
       50
176
     1
 40
0.0
176
     1
 40
1.0
176
     1
 90
        0
176
     1
 62
    18
420
        0
176
     1
 90
       50
176
     1
 90
        3
176
     1
 62
     5
420
      255
176
     1
290
     0
176
     1
 90
       50
176
     1
 90
       50
176
     1
 90
       50
176
     1
290
     0
176
     1
 90
       50
176
     1
 62
   256
176
     0
 40
1.0
176
     0
 90
        2
176
     1
  1
strokes_ogs.tif
176
     1
290
     0
176
     1
 40
1.0
176
     1
 40
1.0
176
     1
  0
VISUALSTYLE
  5
BB5
102
{ACAD_REACTORS
330
BB1
102
}
330
BB1
100
AcDbVisualStyle
  2
GouraudWithEdges
 70
     3
177
     3
291
     1
 70
    58
 90
        2
176
     1
 90
        2
176
     1
 90
        1
176
     1
 90
        2
176
     1
 40
0.6
176
     1
 40
30.0
176
     1
 62
     7
176
     1
 90
        1
176
     1
 90
        4
176
     1
 62
     7
176
     1
 62
   257
176
     1
 90
        1
176
     1
 90
        1
176
     1
 40
1.0
176
     1
 90
        0
176
     1
 62
   257
176
     1
 40
1.0
176
     1
 90
        1
176
     1
 90
        6
176
     1
 90
        2
176
     1
 62
     7
176
     1
 90
        5
176
     1
 90
        0
176
     1
 90
        0
176
     1
290
     0
176
     1
 90
       13
176
     1
 40
0.0
176
     1
 90
        0
176
     1
290
     0
176
     1
290
     1
176
     1
290
     1
176
     1
290
     0
176
     1
290
     0
176
     1
290
     0
176
     1
290
     0
176
     1
290
     0
176
     1
290
     0
176
     1
 90
       50
176
     1
 40
0.0
176
     1
 40
1.0
176
     1
 90
        0
176
     1
 62
    18
420
        0
176
     1
 90
       50
176
     1
 90
        3
176
     1
 62
     5
420
      255
176
     1
290
     0
176
     1
 90
       50
176
     1
 90
       50
176
     1
 90
       50
176
     1
290
     0
176
     1
 90
       50
176
     1
 62
   256
176
     0
 40
1.0
176
     0
 90
        2
176
     1
  1
strokes_ogs.tif
176
     1
290
     0
176
     1
 40
1.0
176
     1
 40
1.0
176
     1
  0
VISUALSTYLE
  5
182C
102
{ACAD_REACTORS
330
BB1
102
}
330
BB1
100
AcDbVisualStyle
  2
Hidden
 70
     6
177
     3
291
     0
 70
    58
 90
        1
176
     1
 90
        2
176
     1
 90
        2
176
     1
 90
        0
176
     1
 40
0.6
176
     1
 40
30.0
176
     1
 62
     7
420
 16777215
176
     1
 90
        2
176
     1
 90
        2
176
     1
 62
     7
176
     1
 62
   257
176
     1
 90
        2
176
     1
 90
        1
176
     1
 40
40.0
176
     1
 90
        0
176
     1
 62
   257
176
     1
 40
1.0
176
     1
 90
        1
176
     1
 90
        6
176
     1
 90
        2
176
     1
 62
     7
176
     1
 90
        3
176
     1
 90
        0
176
     1
 90
        0
176
     1
290
     0
176
     1
 90
        1
176
     1
 40
0.0
176
     1
 90
        0
176
     1
290
     0
176
     1
290
     1
176
     1
290
     1
176
     1
290
     0
176
     1
290
     0
176
     1
290
     0
176
     1
290
     0
176
     1
290
     0
176
     1
290
     0
176
     1
 90
       50
176
     1
 40
0.0
176
     1
 40
1.0
176
     1
 90
        0
176
     1
 62
    18
420
        0
176
     1
 90
       50
176
     1
 90
        3
176
     1
 62
     5
420
      255
176
     1
290
     0
176
     1
 90
       50
176
     1
 90
       50
176
     1
 90
       50
176
     1
290
     0
176
     1
 90
       50
176
     1
 62
   256
176
     0
 40
1.0
176
     0
 90
        2
176
     1
  1
strokes_ogs.tif
176
     1
290
     0
176
     1
 40
1.0
176
     1
 40
1.0
176
     1
  0
VISUALSTYLE
  5
BC2
102
{ACAD_REACTORS
330
BB1
102
}
330
BB1
100
AcDbVisualStyle
  2
JitterOff
 70
    20
177
     3
291
     1
 70
    58
 90
        2
176
     0
 90
        2
176
     0
 90
        0
176
     0
 90
        0
176
     0
 40
0.6
176
     0
 40
30.0
176
     0
 62
     7
176
     0
 90
        1
176
     0
 90
        4
176
     0
 62
     7
176
     0
 62
   257
176
     0
 90
        1
176
     0
 90
        1
176
     0
 40
1.0
176
     0
 90
       10
176
     2
 62
     7
176
     0
 40
1.0
176
     0
 90
        1
176
     0
 90
        6
176
     0
 90
        2
176
     0
 62
     7
176
     0
 90
        5
176
     0
 90
        0
176
     0
 90
        0
176
     0
290
     0
176
     0
 90
        1
176
     0
 40
0.0
176
     0
 90
        0
176
     0
290
     0
176
     1
290
     1
176
     1
290
     1
176
     1
290
     0
176
     1
290
     0
176
     1
290
     0
176
     1
290
     0
176
     1
290
     0
176
     1
290
     0
176
     1
 90
       50
176
     1
 40
0.0
176
     1
 40
1.0
176
     1
 90
        0
176
     1
 62
    18
420
        0
176
     1
 90
       50
176
     1
 90
        3
176
     1
 62
     5
420
      255
176
     1
290
     0
176
     1
 90
       50
176
     1
 90
       50
176
     1
 90
       50
176
     1
290
     0
176
     1
 90
       50
176
     1
 62
   256
176
     0
 40
1.0
176
     0
 90
        2
176
     1
  1
strokes_ogs.tif
176
     1
290
     0
176
     1
 40
1.0
176
     1
 40
1.0
176
     1
  0
VISUALSTYLE
  5
BBF
102
{ACAD_REACTORS
330
BB1
102
}
330
BB1
100
AcDbVisualStyle
  2
Linepattern
 70
    14
177
     3
291
     1
 70
    58
 90
        2
176
     1
 90
        2
176
     1
 90
        0
176
     1
 90
        0
176
     1
 40
0.6
176
     1
 40
30.0
176
     1
 62
     7
176
     1
 90
        1
176
     1
 90
        4
176
     1
 62
     7
176
     1
 62
   257
176
     1
 90
        7
176
     1
 90
        7
176
     1
 40
1.0
176
     1
 90
        8
176
     1
 62
     7
176
     1
 40
1.0
176
     1
 90
        1
176
     1
 90
        6
176
     1
 90
        2
176
     1
 62
     7
176
     1
 90
        5
176
     1
 90
        0
176
     1
 90
        0
176
     1
290
     0
176
     1
 90
        1
176
     1
 40
0.0
176
     1
 90
        0
176
     1
290
     0
176
     1
290
     1
176
     1
290
     1
176
     1
290
     0
176
     1
290
     0
176
     1
290
     0
176
     1
290
     0
176
     1
290
     0
176
     1
290
     0
176
     1
 90
       50
176
     1
 40
0.0
176
     1
 40
1.0
176
     1
 90
        0
176
     1
 62
    18
420
        0
176
     1
 90
       50
176
     1
 90
        3
176
     1
 62
     5
420
      255
176
     1
290
     0
176
     1
 90
       50
176
     1
 90
       50
176
     1
 90
       50
176
     1
290
     0
176
     1
 90
       50
176
     1
 62
   256
176
     0
 40
1.0
176
     0
 90
        2
176
     1
  1
strokes_ogs.tif
176
     1
290
     0
176
     1
 40
1.0
176
     1
 40
1.0
176
     1
  0
VISUALSTYLE
  5
BC3
102
{ACAD_REACTORS
330
BB1
102
}
330
BB1
100
AcDbVisualStyle
  2
OverhangOff
 70
    21
177
     3
291
     1
 70
    58
 90
        2
176
     0
 90
        2
176
     0
 90
        0
176
     0
 90
        0
176
     0
 40
0.6
176
     0
 40
30.0
176
     0
 62
     7
176
     0
 90
        1
176
     0
 90
        4
176
     0
 62
     7
176
     0
 62
   257
176
     0
 90
        1
176
     0
 90
        1
176
     0
 40
1.0
176
     0
 90
        9
176
     2
 62
     7
176
     0
 40
1.0
176
     0
 90
        1
176
     0
 90
        6
176
     0
 90
        2
176
     0
 62
     7
176
     0
 90
        5
176
     0
 90
        0
176
     0
 90
        0
176
     0
290
     0
176
     0
 90
        1
176
     0
 40
0.0
176
     0
 90
        0
176
     0
290
     0
176
     1
290
     1
176
     1
290
     1
176
     1
290
     0
176
     1
290
     0
176
     1
290
     0
176
     1
290
     0
176
     1
290
     0
176
     1
290
     0
176
     1
 90
       50
176
     1
 40
0.0
176
     1
 40
1.0
176
     1
 90
        0
176
     1
 62
    18
420
        0
176
     1
 90
       50
176
     1
 90
        3
176
     1
 62
     5
420
      255
176
     1
290
     0
176
     1
 90
       50
176
     1
 90
       50
176
     1
 90
       50
176
     1
290
     0
176
     1
 90
       50
176
     1
 62
   256
176
     0
 40
1.0
176
     0
 90
        2
176
     1
  1
strokes_ogs.tif
176
     1
290
     0
176
     1
 40
1.0
176
     1
 40
1.0
176
     1
  0
VISUALSTYLE
  5
BBB
102
{ACAD_REACTORS
330
BB1
102
}
330
BB1
100
AcDbVisualStyle
  2
Realistic
 70
     8
177
     3
291
     0
 70
    58
 90
        2
176
     1
 90
        2
176
     1
 90
        0
176
     1
 90
        0
176
     1
 40
0.6
176
     1
 40
30.0
176
     1
 62
     7
176
     1
 90
        1
176
     1
 90
        0
176
     1
 62
     7
176
     1
 62
   257
176
     1
 90
        1
176
     1
 90
        1
176
     1
 40
1.0
176
     1
 90
        8
176
     1
 62
     8
176
     1
 40
1.0
176
     1
 90
        1
176
     1
 90
        6
176
     1
 90
        2
176
     1
 62
     7
176
     1
 90
        5
176
     1
 90
        0
176
     1
 90
        0
176
     1
290
     0
176
     1
 90
       13
176
     1
 40
0.0
176
     1
 90
        0
176
     1
290
     0
176
     1
290
     1
176
     1
290
     1
176
     1
290
     0
176
     1
290
     0
176
     1
290
     0
176
     1
290
     0
176
     1
290
     0
176
     1
290
     0
176
     1
 90
       50
176
     1
 40
0.0
176
     1
 40
1.0
176
     1
 90
        0
176
     1
 62
    18
420
        0
176
     1
 90
       50
176
     1
 90
        3
176
     1
 62
     5
420
      255
176
     1
290
     0
176
     1
 90
       50
176
     1
 90
       50
176
     1
 90
       50
176
     1
290
     0
176
     1
 90
       50
176
     1
 62
   256
176
     0
 40
1.0
176
     0
 90
        2
176
     1
  1
strokes_ogs.tif
176
     1
290
     0
176
     1
 40
1.0
176
     1
 40
1.0
176
     1
  0
VISUALSTYLE
  5
1831
102
{ACAD_REACTORS
330
BB1
102
}
330
BB1
100
AcDbVisualStyle
  2
Shaded
 70
    27
177
     3
291
     0
 70
    58
 90
        2
176
     1
 90
        2
176
     1
 90
        1
176
     1
 90
        2
176
     1
 40
0.6
176
     1
 40
30.0
176
     1
 62
     7
420
 16777215
176
     1
 90
        0
176
     1
 90
        4
176
     1
 62
     7
176
     1
 62
   257
176
     1
 90
        1
176
     1
 90
        1
176
     1
 40
1.0
176
     1
 90
        8
176
     1
 62
   257
176
     1
 40
1.0
176
     1
 90
        1
176
     1
 90
        6
176
     1
 90
        2
176
     1
 62
     8
420
  7895160
176
     1
 90
        3
176
     1
 90
        0
176
     1
 90
        0
176
     1
290
     0
176
     1
 90
        5
176
     1
 40
0.0
176
     1
 90
        0
176
     1
290
     0
176
     1
290
     1
176
     1
290
     1
176
     1
290
     0
176
     1
290
     0
176
     1
290
     0
176
     1
290
     0
176
     1
290
     0
176
     1
290
     0
176
     1
 90
       50
176
     1
 40
0.0
176
     1
 40
1.0
176
     1
 90
        0
176
     1
 62
    18
420
        0
176
     1
 90
       50
176
     1
 90
        3
176
     1
 62
     5
420
      255
176
     1
290
     0
176
     1
 90
       50
176
     1
 90
       50
176
     1
 90
       50
176
     1
290
     0
176
     1
 90
       50
176
     1
 62
   256
176
     0
 40
1.0
176
     0
 90
        2
176
     1
  1
strokes_ogs.tif
176
     1
290
     0
176
     1
 40
1.0
176
     1
 40
1.0
176
     1
  0
VISUALSTYLE
  5
1830
102
{ACAD_REACTORS
330
BB1
102
}
330
BB1
100
AcDbVisualStyle
  2
Shaded with edges
 70
    26
177
     3
291
     0
 70
    58
 90
        2
176
     1
 90
        2
176
     1
 90
        1
176
     1
 90
        2
176
     1
 40
0.6
176
     1
 40
30.0
176
     1
 62
     7
420
 16777215
176
     1
 90
        1
176
     1
 90
        2
176
     1
 62
     7
176
     1
 62
   257
176
     1
 90
        2
176
     1
 90
        1
176
     1
 40
1.0
176
     1
 90
        8
176
     1
 62
   257
176
     1
 40
1.0
176
     1
 90
        1
176
     1
 90
        6
176
     1
 90
        2
176
     1
 62
     7
176
     1
 90
        3
176
     1
 90
        0
176
     1
 90
        0
176
     1
290
     0
176
     1
 90
        5
176
     1
 40
0.0
176
     1
 90
        0
176
     1
290
     0
176
     1
290
     1
176
     1
290
     1
176
     1
290
     0
176
     1
290
     0
176
     1
290
     0
176
     1
290
     0
176
     1
290
     0
176
     1
290
     0
176
     1
 90
       50
176
     1
 40
0.0
176
     1
 40
1.0
176
     1
 90
        0
176
     1
 62
    18
420
        0
176
     1
 90
       50
176
     1
 90
        3
176
     1
 62
     5
420
      255
176
     1
290
     0
176
     1
 90
       50
176
     1
 90
       50
176
     1
 90
       50
176
     1
290
     0
176
     1
 90
       50
176
     1
 62
   256
176
     0
 40
1.0
176
     0
 90
        2
176
     1
  1
strokes_ogs.tif
176
     1
290
     0
176
     1
 40
1.0
176
     1
 40
1.0
176
     1
  0
VISUALSTYLE
  5
182D
102
{ACAD_REACTORS
330
BB1
102
}
330
BB1
100
AcDbVisualStyle
  2
Shades of Gray
 70
    23
177
     3
291
     0
 70
    58
 90
        2
176
     1
 90
        2
176
     1
 90
        3
176
     1
 90
        0
176
     1
 40
0.6
176
     1
 40
30.0
176
     1
 62
     7
420
 16777215
176
     1
 90
        2
176
     1
 90
        2
176
     1
 62
     7
176
     1
 62
     7
176
     1
 90
        1
176
     1
 90
        1
176
     1
 40
40.0
176
     1
 90
        8
176
     1
 62
     7
176
     1
 40
1.0
176
     1
 90
        1
176
     1
 90
        6
176
     1
 90
        2
176
     1
 62
     7
176
     1
 90
        3
176
     1
 90
        0
176
     1
 90
        0
176
     1
290
     0
176
     1
 90
        1
176
     1
 40
0.0
176
     1
 90
        0
176
     1
290
     0
176
     1
290
     1
176
     1
290
     1
176
     1
290
     0
176
     1
290
     0
176
     1
290
     0
176
     1
290
     0
176
     1
290
     0
176
     1
290
     0
176
     1
 90
       50
176
     1
 40
0.0
176
     1
 40
1.0
176
     1
 90
        0
176
     1
 62
    18
420
        0
176
     1
 90
       50
176
     1
 90
        3
176
     1
 62
     5
420
      255
176
     1
290
     0
176
     1
 90
       50
176
     1
 90
       50
176
     1
 90
       50
176
     1
290
     0
176
     1
 90
       50
176
     1
 62
   256
176
     0
 40
1.0
176
     0
 90
        2
176
     1
  1
strokes_ogs.tif
176
     1
290
     0
176
     1
 40
1.0
176
     1
 40
1.0
176
     1
  0
VISUALSTYLE
  5
182E
102
{ACAD_REACTORS
330
BB1
102
}
330
BB1
100
AcDbVisualStyle
  2
Sketchy
 70
    24
177
     3
291
     0
 70
    58
 90
        1
176
     1
 90
        2
176
     1
 90
        2
176
     1
 90
        0
176
     1
 40
0.6
176
     1
 40
30.0
176
     1
 62
     7
420
 16777215
176
     1
 90
        2
176
     1
 90
        2
176
     1
 62
     7
176
     1
 62
     7
176
     1
 90
        1
176
     1
 90
        1
176
     1
 40
40.0
176
     1
 90
       11
176
     1
 62
     7
176
     1
 40
1.0
176
     1
 90
        1
176
     1
 90
        6
176
     1
 90
        2
176
     1
 62
     7
176
     1
 90
        6
176
     1
 90
        0
176
     1
 90
        0
176
     1
290
     0
176
     1
 90
        1
176
     1
 40
0.0
176
     1
 90
        0
176
     1
290
     0
176
     1
290
     1
176
     1
290
     1
176
     1
290
     0
176
     1
290
     0
176
     1
290
     0
176
     1
290
     0
176
     1
290
     0
176
     1
290
     0
176
     1
 90
       50
176
     1
 40
0.0
176
     1
 40
1.0
176
     1
 90
        0
176
     1
 62
    18
420
        0
176
     1
 90
       50
176
     1
 90
        3
176
     1
 62
     5
420
      255
176
     1
290
     0
176
     1
 90
       50
176
     1
 90
       50
176
     1
 90
       50
176
     1
290
     0
176
     1
 90
       50
176
     1
 62
   256
176
     0
 40
1.0
176
     0
 90
        2
176
     1
  1
strokes_ogs.tif
176
     1
290
     0
176
     1
 40
1.0
176
     1
 40
1.0
176
     1
  0
VISUALSTYLE
  5
BBE
102
{ACAD_REACTORS
330
BB1
102
}
330
BB1
100
AcDbVisualStyle
  2
Thicken
 70
    13
177
     3
291
     1
 70
    58
 90
        2
176
     1
 90
        2
176
     1
 90
        0
176
     1
 90
        0
176
     1
 40
0.6
176
     1
 40
30.0
176
     1
 62
     7
176
     1
 90
        1
176
     1
 90
        4
176
     1
 62
     7
176
     1
 62
   257
176
     1
 90
        1
176
     1
 90
        1
176
     1
 40
1.0
176
     1
 90
       12
176
     1
 62
     7
176
     1
 40
1.0
176
     1
 90
        1
176
     1
 90
        6
176
     1
 90
        2
176
     1
 62
     7
176
     1
 90
        5
176
     1
 90
        0
176
     1
 90
        0
176
     1
290
     0
176
     1
 90
        1
176
     1
 40
0.0
176
     1
 90
        0
176
     1
290
     0
176
     1
290
     1
176
     1
290
     1
176
     1
290
     0
176
     1
290
     0
176
     1
290
     0
176
     1
290
     0
176
     1
290
     0
176
     1
290
     0
176
     1
 90
       50
176
     1
 40
0.0
176
     1
 40
1.0
176
     1
 90
        0
176
     1
 62
    18
420
        0
176
     1
 90
       50
176
     1
 90
        3
176
     1
 62
     5
420
      255
176
     1
290
     0
176
     1
 90
       50
176
     1
 90
       50
176
     1
 90
       50
176
     1
290
     0
176
     1
 90
       50
176
     1
 62
   256
176
     0
 40
1.0
176
     0
 90
        2
176
     1
  1
strokes_ogs.tif
176
     1
290
     0
176
     1
 40
1.0
176
     1
 40
1.0
176
     1
  0
VISUALSTYLE
  5
182B
102
{ACAD_REACTORS
330
BB1
102
}
330
BB1
100
AcDbVisualStyle
  2
Wireframe
 70
     5
177
     3
291
     0
 70
    58
 90
        0
176
     1
 90
        2
176
     1
 90
        0
176
     1
 90
        0
176
     1
 40
0.6
176
     1
 40
30.0
176
     1
 62
     7
420
 16777215
176
     1
 90
        1
176
     1
 90
        4
176
     1
 62
     7
176
     1
 62
   257
176
     1
 90
        1
176
     1
 90
        1
176
     1
 40
1.0
176
     1
 90
        0
176
     1
 62
   257
176
     1
 40
1.0
176
     1
 90
        1
176
     1
 90
        6
176
     1
 90
        2
176
     1
 62
     7
176
     1
 90
        3
176
     1
 90
        0
176
     1
 90
        0
176
     1
290
     0
176
     1
 90
        1
176
     1
 40
0.0
176
     1
 90
        0
176
     1
290
     0
176
     1
290
     1
176
     1
290
     1
176
     1
290
     0
176
     1
290
     0
176
     1
290
     0
176
     1
290
     0
176
     1
290
     0
176
     1
290
     0
176
     1
 90
       50
176
     1
 40
0.0
176
     1
 40
1.0
176
     1
 90
        0
176
     1
 62
    18
420
        0
176
     1
 90
       50
176
     1
 90
        3
176
     1
 62
     5
420
      255
176
     1
290
     0
176
     1
 90
       50
176
     1
 90
       50
176
     1
 90
       50
176
     1
290
     0
176
     1
 90
       50
176
     1
 62
   256
176
     0
 40
1.0
176
     0
 90
        2
176
     1
  1
strokes_ogs.tif
176
     1
290
     0
176
     1
 40
1.0
176
     1
 40
1.0
176
     1
  0
VISUALSTYLE
  5
182F
102
{ACAD_REACTORS
330
BB1
102
}
330
BB1
100
AcDbVisualStyle
  2
X-Ray
 70
    25
177
     3
291
     0
 70
    58
 90
        2
176
     1
 90
        2
176
     1
 90
        1
176
     1
 90
        1
176
     1
 40
0.5
176
     1
 40
30.0
176
     1
 62
     7
420
 16777215
176
     1
 90
        1
176
     1
 90
        0
176
     1
 62
     7
176
     1
 62
   257
176
     1
 90
        1
176
     1
 90
        1
176
     1
 40
1.0
176
     1
 90
        8
176
     1
 62
     7
176
     1
 40
1.0
176
     1
 90
        1
176
     1
 90
        6
176
     1
 90
        2
176
     1
 62
     7
176
     1
 90
        3
176
     1
 90
        0
176
     1
 90
        0
176
     1
290
     0
176
     1
 90
       13
176
     1
 40
0.0
176
     1
 90
        0
176
     1
290
     0
176
     1
290
     1
176
     1
290
     1
176
     1
290
     0
176
     1
290
     0
176
     1
290
     0
176
     1
290
     0
176
     1
290
     0
176
     1
290
     0
176
     1
 90
       50
176
     1
 40
0.0
176
     1
 40
1.0
176
     1
 90
        0
176
     1
 62
    18
420
        0
176
     1
 90
       50
176
     1
 90
        3
176
     1
 62
     5
420
      255
176
     1
290
     0
176
     1
 90
       50
176
     1
 90
       50
176
     1
 90
       50
176
     1
290
     0
176
     1
 90
       50
176
     1
 62
   256
176
     0
 40
1.0
176
     0
 90
        2
176
     1
  1
strokes_ogs.tif
176
     1
290
     0
176
     1
 40
1.0
176
     1
 40
1.0
176
     1
  0
DICTIONARYVAR
  5
109B
102
{ACAD_REACTORS
330
8F4
102
}
330
8F4
100
DictionaryVariables
280
     0
  1
1:1
  0
DICTIONARYVAR
  5
109A
102
{ACAD_REACTORS
330
8F4
102
}
330
8F4
100
DictionaryVariables
280
     0
  1
STANDARD
  0
DICTIONARYVAR
  5
8F5
102
{ACAD_REACTORS
330
8F4
102
}
330
8F4
100
DictionaryVariables
280
     0
  1
STANDARD
  0
DICTIONARYVAR
  5
1866
102
{ACAD_REACTORS
330
8F4
102
}
330
8F4
100
DictionaryVariables
280
     0
  1
Imperial24
  0
DICTIONARYVAR
  5
1867
102
{ACAD_REACTORS
330
8F4
102
}
330
8F4
100
DictionaryVariables
280
     0
  1
Imperial24
  0
DICTIONARYVAR
  5
109F
102
{ACAD_REACTORS
330
8F4
102
}
330
8F4
100
DictionaryVariables
280
     0
  1
1
  0
DICTIONARYVAR
  5
109D
102
{ACAD_REACTORS
330
8F4
102
}
330
8F4
100
DictionaryVariables
280
     0
  1
0
  0
DICTIONARYVAR
  5
1775
102
{ACAD_REACTORS
330
8F4
102
}
330
8F4
100
DictionaryVariables
280
     0
  1
1
  0
DICTIONARYVAR
  5
1776
102
{ACAD_REACTORS
330
8F4
102
}
330
8F4
100
DictionaryVariables
280
     0
  1
15
  0
DICTIONARYVAR
  5
1774
102
{ACAD_REACTORS
330
8F4
102
}
330
8F4
100
DictionaryVariables
280
     0
  1
0
  0
DICTIONARYVAR
  5
1773
102
{ACAD_REACTORS
330
8F4
102
}
330
8F4
100
DictionaryVariables
280
     0
  1
0
  0
DICTIONARYVAR
  5
109C
102
{ACAD_REACTORS
330
8F4
102
}
330
8F4
100
DictionaryVariables
280
     0
  1
127
  0
DICTIONARY
  5
C5C
102
{ACAD_REACTORS
330
C52
102
}
330
C52
100
AcDbDictionary
281
     1
  0
DICTIONARY
  5
186B
330
1835
100
AcDbDictionary
280
     1
281
     1
  3
ACAD_XREC_ROUNDTRIP
360
186C
  0
DICTIONARY
  5
1771
330
317
100
AcDbDictionary
280
     1
281
     1
  0
DICTIONARY
  5
BA2
330
BA1
100
AcDbDictionary
280
     1
281
     1
  3
BUMPTILE
360
BA4
  3
DIFFUSETILE
360
BA3
  3
OPACITYTILE
360
BA7
  3
REFLECTIONTILE
360
BA6
  3
REFRACTIONTILE
360
BA8
  3
SPECULARTILE
360
BA5
  0
DICTIONARY
  5
B9A
330
B99
100
AcDbDictionary
280
     1
281
     1
  3
BUMPTILE
360
B9C
  3
DIFFUSETILE
360
B9B
  3
OPACITYTILE
360
B9F
  3
REFLECTIONTILE
360
B9E
  3
REFRACTIONTILE
360
BA0
  3
SPECULARTILE
360
B9D
  0
DICTIONARY
  5
BAA
330
BA9
100
AcDbDictionary
280
     1
281
     1
  3
BUMPTILE
360
BAC
  3
DIFFUSETILE
360
BAB
  3
OPACITYTILE
360
BAF
  3
REFLECTIONTILE
360
BAE
  3
REFRACTIONTILE
360
BB0
  3
SPECULARTILE
360
BAD
  0
DICTIONARY
  5
1869
330
1833
100
AcDbDictionary
280
     1
281
     1
  3
ACAD_XREC_ROUNDTRIP
360
186A
  0
DICTIONARY
  5
105F
330
8ED
100
AcDbDictionary
280
     1
281
     1
  3
ACAD_ROUNDTRIP_2008_TABLESTYLE_CELLSTYLEMAP
360
1868
  0
XRECORD
  5
186C
102
{ACAD_REACTORS
330
186B
102
}
330
186B
100
AcDbXrecord
280
     1
102
DISPLAYNAME
  1
Imperial24
102
FLAGS
 90
        0
  0
XRECORD
  5
BA4
102
{ACAD_REACTORS
330
BA2
102
}
330
BA2
100
AcDbXrecord
280
     1
270
     1
271
     1
  0
XRECORD
  5
BA3
102
{ACAD_REACTORS
330
BA2
102
}
330
BA2
100
AcDbXrecord
280
     1
270
     1
271
     1
  0
XRECORD
  5
BA7
102
{ACAD_REACTORS
330
BA2
102
}
330
BA2
100
AcDbXrecord
280
     1
270
     1
271
     1
  0
XRECORD
  5
BA6
102
{ACAD_REACTORS
330
BA2
102
}
330
BA2
100
AcDbXrecord
280
     1
270
     1
271
     1
  0
XRECORD
  5
BA8
102
{ACAD_REACTORS
330
BA2
102
}
330
BA2
100
AcDbXrecord
280
     1
270
     1
271
     1
  0
XRECORD
  5
BA5
102
{ACAD_REACTORS
330
BA2
102
}
330
BA2
100
AcDbXrecord
280
     1
270
     1
271
     1
  0
XRECORD
  5
B9C
102
{ACAD_REACTORS
330
B9A
102
}
330
B9A
100
AcDbXrecord
280
     1
270
     1
271
     1
  0
XRECORD
  5
B9B
102
{ACAD_REACTORS
330
B9A
102
}
330
B9A
100
AcDbXrecord
280
     1
270
     1
271
     1
  0
XRECORD
  5
B9F
102
{ACAD_REACTORS
330
B9A
102
}
330
B9A
100
AcDbXrecord
280
     1
270
     1
271
     1
  0
XRECORD
  5
B9E
102
{ACAD_REACTORS
330
B9A
102
}
330
B9A
100
AcDbXrecord
280
     1
270
     1
271
     1
  0
XRECORD
  5
BA0
102
{ACAD_REACTORS
330
B9A
102
}
330
B9A
100
AcDbXrecord
280
     1
270
     1
271
     1
  0
XRECORD
  5
B9D
102
{ACAD_REACTORS
330
B9A
102
}
330
B9A
100
AcDbXrecord
280
     1
270
     1
271
     1
  0
XRECORD
  5
BAC
102
{ACAD_REACTORS
330
BAA
102
}
330
BAA
100
AcDbXrecord
280
     1
270
     1
271
     1
  0
XRECORD
  5
BAB
102
{ACAD_REACTORS
330
BAA
102
}
330
BAA
100
AcDbXrecord
280
     1
270
     1
271
     1
  0
XRECORD
  5
BAF
102
{ACAD_REACTORS
330
BAA
102
}
330
BAA
100
AcDbXrecord
280
     1
270
     1
271
     1
  0
XRECORD
  5
BAE
102
{ACAD_REACTORS
330
BAA
102
}
330
BAA
100
AcDbXrecord
280
     1
270
     1
271
     1
  0
XRECORD
  5
BB0
102
{ACAD_REACTORS
330
BAA
102
}
330
BAA
100
AcDbXrecord
280
     1
270
     1
271
     1
  0
XRECORD
  5
BAD
102
{ACAD_REACTORS
330
BAA
102
}
330
BAA
100
AcDbXrecord
280
     1
270
     1
271
     1
  0
XRECORD
  5
186A
102
{ACAD_REACTORS
330
1869
102
}
330
1869
100
AcDbXrecord
280
     1
102
DISPLAYNAME
  1
Imperial24
102
FLAGS
 90
        0
  0
CELLSTYLEMAP
  5
1868
102
{ACAD_REACTORS
330
105F
102
}
330
105F
100
AcDbCellStyleMap
 90
        3
300
CELLSTYLE
  1
TABLEFORMAT_BEGIN
 90
        5
170
     1
 91
        0
 92
    32768
 62
   257
 93
        1
300
CONTENTFORMAT
  1
CONTENTFORMAT_BEGIN
 90
        0
 91
        0
 92
        4
 93
        0
300

 40
0.0
140
1.0
 94
        5
 62
     0
340
37
144
0.25
309
CONTENTFORMAT_END
171
     0
 94
        6
 95
        1
302
GRIDFORMAT
  1
GRIDFORMAT_BEGIN
 90
        0
 91
        1
 62
     0
 92
       -2
340
0
 93
        0
 40
0.045
309
GRIDFORMAT_END
 95
        2
302
GRIDFORMAT
  1
GRIDFORMAT_BEGIN
 90
        0
 91
        1
 62
     0
 92
       -2
340
0
 93
        0
 40
0.045
309
GRIDFORMAT_END
 95
        4
302
GRIDFORMAT
  1
GRIDFORMAT_BEGIN
 90
        0
 91
        1
 62
     0
 92
       -2
340
0
 93
        0
 40
0.045
309
GRIDFORMAT_END
 95
        8
302
GRIDFORMAT
  1
GRIDFORMAT_BEGIN
 90
        0
 91
        1
 62
     0
 92
       -2
340
0
 93
        0
 40
0.045
309
GRIDFORMAT_END
 95
       16
302
GRIDFORMAT
  1
GRIDFORMAT_BEGIN
 90
        0
 91
        1
 62
     0
 92
       -2
340
0
 93
        0
 40
0.045
309
GRIDFORMAT_END
 95
       32
302
GRIDFORMAT
  1
GRIDFORMAT_BEGIN
 90
        0
 91
        1
 62
     0
 92
       -2
340
0
 93
        0
 40
0.045
309
GRIDFORMAT_END
309
TABLEFORMAT_END
  1
CELLSTYLE_BEGIN
 90
        1
 91
        1
300
_TITLE
309
CELLSTYLE_END
300
CELLSTYLE
  1
TABLEFORMAT_BEGIN
 90
        5
170
     1
 91
        0
 92
        0
 62
   257
 93
        1
300
CONTENTFORMAT
  1
CONTENTFORMAT_BEGIN
 90
        0
 91
        0
 92
        4
 93
        0
300

 40
0.0
140
1.0
 94
        5
 62
     0
340
37
144
0.18
309
CONTENTFORMAT_END
171
     0
 94
        6
 95
        1
302
GRIDFORMAT
  1
GRIDFORMAT_BEGIN
 90
        0
 91
        1
 62
     0
 92
       -2
340
0
 93
        0
 40
0.045
309
GRIDFORMAT_END
 95
        2
302
GRIDFORMAT
  1
GRIDFORMAT_BEGIN
 90
        0
 91
        1
 62
     0
 92
       -2
340
0
 93
        0
 40
0.045
309
GRIDFORMAT_END
 95
        4
302
GRIDFORMAT
  1
GRIDFORMAT_BEGIN
 90
        0
 91
        1
 62
     0
 92
       -2
340
0
 93
        0
 40
0.045
309
GRIDFORMAT_END
 95
        8
302
GRIDFORMAT
  1
GRIDFORMAT_BEGIN
 90
        0
 91
        1
 62
     0
 92
       -2
340
0
 93
        0
 40
0.045
309
GRIDFORMAT_END
 95
       16
302
GRIDFORMAT
  1
GRIDFORMAT_BEGIN
 90
        0
 91
        1
 62
     0
 92
       -2
340
0
 93
        0
 40
0.045
309
GRIDFORMAT_END
 95
       32
302
GRIDFORMAT
  1
GRIDFORMAT_BEGIN
 90
        0
 91
        1
 62
     0
 92
       -2
340
0
 93
        0
 40
0.045
309
GRIDFORMAT_END
309
TABLEFORMAT_END
  1
CELLSTYLE_BEGIN
 90
        2
 91
        1
300
_HEADER
309
CELLSTYLE_END
300
CELLSTYLE
  1
TABLEFORMAT_BEGIN
 90
        5
170
     1
 91
        0
 92
        0
 62
   257
 93
        1
300
CONTENTFORMAT
  1
CONTENTFORMAT_BEGIN
 90
        0
 91
        0
 92
        4
 93
        0
300

 40
0.0
140
1.0
 94
        2
 62
     0
340
37
144
0.18
309
CONTENTFORMAT_END
171
     0
 94
        6
 95
        1
302
GRIDFORMAT
  1
GRIDFORMAT_BEGIN
 90
        0
 91
        1
 62
     0
 92
       -2
340
0
 93
        0
 40
0.045
309
GRIDFORMAT_END
 95
        2
302
GRIDFORMAT
  1
GRIDFORMAT_BEGIN
 90
        0
 91
        1
 62
     0
 92
       -2
340
0
 93
        0
 40
0.045
309
GRIDFORMAT_END
 95
        4
302
GRIDFORMAT
  1
GRIDFORMAT_BEGIN
 90
        0
 91
        1
 62
     0
 92
       -2
340
0
 93
        0
 40
0.045
309
GRIDFORMAT_END
 95
        8
302
GRIDFORMAT
  1
GRIDFORMAT_BEGIN
 90
        0
 91
        1
 62
     0
 92
       -2
340
0
 93
        0
 40
0.045
309
GRIDFORMAT_END
 95
       16
302
GRIDFORMAT
  1
GRIDFORMAT_BEGIN
 90
        0
 91
        1
 62
     0
 92
       -2
340
0
 93
        0
 40
0.045
309
GRIDFORMAT_END
 95
       32
302
GRIDFORMAT
  1
GRIDFORMAT_BEGIN
 90
        0
 91
        1
 62
     0
 92
       -2
340
0
 93
        0
 40
0.045
309
GRIDFORMAT_END
309
TABLEFORMAT_END
  1
CELLSTYLE_BEGIN
 90
        3
 91
        2
300
_DATA
309
CELLSTYLE_END
  0
ENDSEC
  0
SECTION
  2
ACDSDATA
 70
     2
 71
     8
  0
ACDSSCHEMA
 90
        0
  1
AcDb_Thumbnail_Schema
  2
AcDbDs::ID
280
    10
 91
        8
  2
Thumbnail_Data
280
    15
 91
        0
101
ACDSRECORD
 95
        0
 90
        1
  2
AcDbDs::TreatedAsObjectData
280
     1
291
     1
101
ACDSRECORD
 95
        0
 90
        2
  2
AcDbDs::Legacy
280
     1
291
     1
101
ACDSRECORD
  1
AcDbDs::ID
 90
        3
  2
AcDs:Indexable
280
     1
291
     1
101
ACDSRECORD
  1
AcDbDs::ID
 90
        4
  2
AcDbDs::HandleAttribute
280
     7
282
     1
  0
ACDSSCHEMA
 90
        1
  1
AcDbDs::TreatedAsObjectDataSchema
  2
AcDbDs::TreatedAsObjectData
280
     1
 91
        0
  0
ACDSSCHEMA
 90
        2
  1
AcDbDs::LegacySchema
  2
AcDbDs::Legacy
280
     1
 91
        0
  0
ACDSSCHEMA
 90
        3
  1
AcDbDs::IndexedPropertySchema
  2
AcDs:Indexable
280
     1
 91
        0
  0
ACDSSCHEMA
 90
        4
  1
AcDbDs::HandleAttributeSchema
  2
AcDbDs::HandleAttribute
280
     7
 91
        1
284
     1
  0
ACDSRECORD
 90
        0
  2
AcDbDs::ID
280
    10
320
317
  2
Thumbnail_Data
280
    15
 94
     2108
310
89504E470D0A1A0A0000000D4948445200000100000000870803000000CE6E778000000300504C5445000000000000FFFFFF0000000000000000000000000000000000000000000000000000330000660000990000CC0000FF0033000033330033660033990033CC0033FF0066000066330066660066990066CC0066FF0099
310
000099330099660099990099CC0099FF00CC0000CC3300CC6600CC9900CCCC00CCFF00FF0000FF3300FF6600FF9900FFCC00FFFF3300003300333300663300993300CC3300FF3333003333333333663333993333CC3333FF3366003366333366663366993366CC3366FF3399003399333399663399993399CC3399FF33CC00
310
33CC3333CC6633CC9933CCCC33CCFF33FF0033FF3333FF6633FF9933FFCC33FFFF6600006600336600666600996600CC6600FF6633006633336633666633996633CC6633FF6666006666336666666666996666CC6666FF6699006699336699666699996699CC6699FF66CC0066CC3366CC6666CC9966CCCC66CCFF66FF0066
310
FF3366FF6666FF9966FFCC66FFFF9900009900339900669900999900CC9900FF9933009933339933669933999933CC9933FF9966009966339966669966999966CC9966FF9999009999339999669999999999CC9999FF99CC0099CC3399CC6699CC9999CCCC99CCFF99FF0099FF3399FF6699FF9999FFCC99FFFFCC0000CC00
310
33CC0066CC0099CC00CCCC00FFCC3300CC3333CC3366CC3399CC33CCCC33FFCC6600CC6633CC6666CC6699CC66CCCC66FFCC9900CC9933CC9966CC9999CC99CCCC99FFCCCC00CCCC33CCCC66CCCC99CCCCCCCCCCFFCCFF00CCFF33CCFF66CCFF99CCFFCCCCFFFFFF0000FF0033FF0066FF0099FF00CCFF00FFFF3300FF3333
310
FF3366FF3399FF33CCFF33FFFF6600FF6633FF6666FF6699FF66CCFF66FFFF9900FF9933FF9966FF9999FF99CCFF99FFFFCC00FFCC33FFCC66FFCC99FFCCCCFFCCFFFFFF00FFFF33FFFF66FFFF99FFFFCCFFFFFF0000000D0D0D1A1A1A2828283535354343435050505D5D5D6B6B6B787878868686939393A1A1A1AEAEAEBB
310
BBBBC9C9C9D6D6D6E4E4E4F1F1F1FFFFFF000000000000000000000000000000000000000000000000000000000000C11FEF66000004F74944415478DAED9D4DBEA3200CC0DF69DE2F9BB9B02B4EE2866BBC55EEC07E04048382622B2A814C9FB6D6769A3F215F6AFB834722AA9643F57E8E01EC6D118F6E16879BAF0350E9
310
F85F0900EB930EA003E8003A808B00883A01880EA04F810EA003E8003A800EA059003D0C76001D4007D00174001D4007D0017400DF02E82DB15E0BC4DF0A323E06CCC2D207001E2BC61C805170A36CAE7089025E95944A63E2658CC2A06590D268C48F5D484579C08E4DB70160E50F4E03807A00A4BD9A5427444206BB9702
310
487830905AD474537AE9576E9B5DD98D9340597FF8000033B018682B1704CADE33DACFBB961AFC8B01AC4F38DB73F8382997E103942C1F0CCBA5C2BB006204B600E40DB940C129900460E77686FFB33EA06C2AF40C80BF6C59594A5551200940E55B800A010002A729B03FF6760A2859B82CB81B80CB858E01985858BE2ABA
310
DD02C01BC1B450A928A02DDFD849F138F80880D9BA0F6680CD124BC7C18700283BC47F2A6E0176E41D80A271F0210026C999D4A40446A2BF9AF3A069CFC21D91726DF14429B006F02F26BA22980140E1EE40B9B638C4EB973C0BB0CF232895D54A78692D10F9B876532E00C000407579C0D7009002A8310FB80E00D499071C
310
F900C804506B397CE804A76C380340F02EC00A006600581F526203C0BB813C27E874AFBF1C76A9F00900450F103E5A0BE400807A52E1FC7E80564B778474C76BA9FF46D207B3D520AC33C19A00EC1D079DD5DAB300903E63280CA0502A0CDF0180B9255EAF057C09003B805600243AE2F503C87482186F89613316403556ED
310
0190FEB194A613B634CA25F2009022E09C5DF2A898DB51F204907D920C62AD00FCF9910989E8366E678AAC0A40E40C114C4378C7F8976D8B87957CDC0DEC5A406500F01C00750420DF025CC4F9A4722EEB035C6B281E0BD51E803333C09D55FD49E7A43C00D8F38454C69507C8D7C5A9FE5E00BB2F56A1057C30F301DF6C01
310
78D4C9FC1E002E538010B1C908B40DE0D82FB200402F2FF1CE003C97462C805E9BE400605B53800C375043F0A509FA05B40180AE825C81ECCBCA07F853F4031F105E8146915C980A9BB749658270BB05403805364E126FB5801B01E0260F7843187CC2025E05E05E1FB0C9039A0A8318F7012DE70173E877E9C0260D606A01
310
611EB00E833D0F781B805597A4641E80A44C6464011F0914F701900B403D02E07A2728722F9E4EF406C71B8F0604597C210B386B8BCE02A05A0BF80600F1CC8D02802F01904A77CE7F32DFEA0D00AEF8D698E5B580A7DEEA1500D28FCE0300AC0EC035519D02C0F600F8DF8C81467F65A6F99FD9116489E2CC8BF8580080FE
310
D34B6197C76276630A005A0360FE7761337BB1F50FA90020B87CB97A7A948786A2807B30D0511DF0D7CA74DFAEF53F348F3939C1DF45CD49672283519800588425808DD55300B1AA83552244A680884D81D8B775B24A84BCCEE114681D401BC5D0A045981B596B1F30B87BC2ADC5306F35C2BC189A7BACCE45B8D04FB30046
310
798070F3DACF6FD764769F4C03996E650088F75880AB05FC4107F7C43889EEBF13007C526132CE1BD7482CC0D8C0A236AF86882B035D31B8058005A7C0D300261FAF010C66EDA2C22C225CD315973CC01D55B35ECEDC2747D9E2BF316E9266560092971D251A0203A34C50CDEE2D582F00C22766E3D05B05B729906B21D602
310
B80150FBA9F25A5839C18F52654E4EF07723793DC3A600942F876B940B0124B688ACCDE2D4DE2BF2597E20FA3105E255D70BD42B87EAFD0787532F81DE2291FD0000000049454E44AE426082
  0
ENDSEC
  0
EOF
