  0
SECTION
  2
HEADER
  9
$ACADVER
  1
AC1027
  9
$ACADMAINTVER
 70
   125
  9
$DWGCODEPAGE
  3
ANSI_1250
  9
$LASTSAVEDBY
  1
jprorok
  9
$REQUIREDVERSIONS
160
                 0
  9
$INSBASE
 10
0.0
 20
0.0
 30
0.0
  9
$EXTMIN
 10
68.09573510486598
 20
20.27069191945566
 30
-0.0015258207003583
  9
$EXTMAX
 10
415.5987865757183
 20
398.4796152106483
 30
0.0000000349246037
  9
$LIMMIN
 10
0.0
 20
0.0
  9
$LIMMAX
 10
594.0
 20
420.0
  9
$ORTHOMODE
 70
     0
  9
$REGENMODE
 70
     1
  9
$FILLMODE
 70
     1
  9
$QTEXTMODE
 70
     0
  9
$MIRRTEXT
 70
     1
  9
$LTSCALE
 40
7.0
  9
$ATTMODE
 70
     1
  9
$TEXTSIZE
 40
7.5
  9
$TRACEWID
 40
0.05
  9
$TEXTSTYLE
  7
STANDARD
  9
$CLAYER
  8
BEMASS
  9
$CELTYPE
  6
BYLAYER
  9
$CECOLOR
 62
   256
  9
$CELTSCALE
 40
1.0
  9
$DISPSILH
 70
     0
  9
$DIMSCALE
 40
1.0
  9
$DIMASZ
 40
3.5
  9
$DIMEXO
 40
0.0
  9
$DIMDLI
 40
7.0
  9
$DIMRND
 40
0.0
  9
$DIMDLE
 40
0.0
  9
$DIMEXE
 40
2.0
  9
$DIMTP
 40
0.0
  9
$DIMTM
 40
0.0
  9
$DIMTXT
 40
5.0
  9
$DIMCEN
 40
3.0
  9
$DIMTSZ
 40
0.0
  9
$DIMTOL
 70
     0
  9
$DIMLIM
 70
     0
  9
$DIMTIH
 70
     0
  9
$DIMTOH
 70
     0
  9
$DIMSE1
 70
     0
  9
$DIMSE2
 70
     0
  9
$DIMTAD
 70
     1
  9
$DIMZIN
 70
     8
  9
$DIMBLK
  1

  9
$DIMASO
 70
     1
  9
$DIMSHO
 70
     1
  9
$DIMPOST
  1

  9
$DIMAPOST
  1

  9
$DIMALT
 70
     0
  9
$DIMALTD
 70
     2
  9
$DIMALTF
 40
25.4
  9
$DIMLFAC
 40
1.0
  9
$DIMTOFL
 70
     0
  9
$DIMTVP
 40
0.0
  9
$DIMTIX
 70
     1
  9
$DIMSOXD
 70
     0
  9
$DIMSAH
 70
     0
  9
$DIMBLK1
  1

  9
$DIMBLK2
  1

  9
$DIMSTYLE
  2
STANDARD
  9
$DIMCLRD
 70
   256
  9
$DIMCLRE
 70
   256
  9
$DIMCLRT
 70
   256
  9
$DIMTFAC
 40
0.875
  9
$DIMGAP
 40
2.0
  9
$DIMJUST
 70
     0
  9
$DIMSD1
 70
     0
  9
$DIMSD2
 70
     0
  9
$DIMTOLJ
 70
     1
  9
$DIMTZIN
 70
     8
  9
$DIMALTZ
 70
     8
  9
$DIMALTTZ
 70
     8
  9
$DIMUPT
 70
     0
  9
$DIMDEC
 70
     1
  9
$DIMTDEC
 70
     1
  9
$DIMALTU
 70
     2
  9
$DIMALTTD
 70
     2
  9
$DIMTXSTY
  7
STANDARD
  9
$DIMAUNIT
 70
     0
  9
$DIMADEC
 70
     0
  9
$DIMALTRND
 40
0.0
  9
$DIMAZIN
 70
     0
  9
$DIMDSEP
 70
    46
  9
$DIMATFIT
 70
     0
  9
$DIMFRAC
 70
     0
  9
$DIMLDRBLK
  1

  9
$DIMLUNIT
 70
     2
  9
$DIMLWD
 70
    -2
  9
$DIMLWE
 70
    -2
  9
$DIMTMOVE
 70
     0
  9
$DIMFXL
 40
1.0
  9
$DIMFXLON
 70
     0
  9
$DIMJOGANG
 40
0.7853981633974483
  9
$DIMTFILL
 70
     0
  9
$DIMTFILLCLR
 70
     0
  9
$DIMARCSYM
 70
     0
  9
$DIMLTYPE
  6

  9
$DIMLTEX1
  6

  9
$DIMLTEX2
  6

  9
$DIMTXTDIRECTION
 70
     0
  9
$LUNITS
 70
     2
  9
$LUPREC
 70
     1
  9
$SKETCHINC
 40
0.1
  9
$FILLETRAD
 40
3.0
  9
$AUNITS
 70
     0
  9
$AUPREC
 70
     0
  9
$MENU
  1
ACAD
  9
$ELEVATION
 40
0.0
  9
$PELEVATION
 40
0.0
  9
$THICKNESS
 40
0.0
  9
$LIMCHECK
 70
     0
  9
$CHAMFERA
 40
0.0
  9
$CHAMFERB
 40
0.0
  9
$CHAMFERC
 40
0.0
  9
$CHAMFERD
 40
0.0
  9
$SKPOLY
 70
     0
  9
$TDCREATE
 40
2451432.464722222
  9
$TDUCREATE
 40
2451432.381393970
  9
$TDUPDATE
 40
2458564.565416667
  9
$TDUUPDATE
 40
2458564.523750000
  9
$TDINDWG
 40
0.3123771759
  9
$TDUSRTIMER
 40
0.3123771759
  9
$USRTIMER
 70
     1
  9
$ANGBASE
 50
0.0
  9
$ANGDIR
 70
     0
  9
$PDMODE
 70
     0
  9
$PDSIZE
 40
0.0
  9
$PLINEWID
 40
0.0
  9
$SPLFRAME
 70
     0
  9
$SPLINETYPE
 70
     6
  9
$SPLINESEGS
 70
     8
  9
$HANDSEED
  5
559
  9
$SURFTAB1
 70
     6
  9
$SURFTAB2
 70
     6
  9
$SURFTYPE
 70
     6
  9
$SURFU
 70
     6
  9
$SURFV
 70
     6
  9
$UCSBASE
  2

  9
$UCSNAME
  2

  9
$UCSORG
 10
0.0
 20
0.0
 30
0.0
  9
$UCSXDIR
 10
1.0
 20
0.0
 30
0.0
  9
$UCSYDIR
 10
0.0
 20
1.0
 30
0.0
  9
$UCSORTHOREF
  2

  9
$UCSORTHOVIEW
 70
     0
  9
$UCSORGTOP
 10
0.0
 20
0.0
 30
0.0
  9
$UCSORGBOTTOM
 10
0.0
 20
0.0
 30
0.0
  9
$UCSORGLEFT
 10
0.0
 20
0.0
 30
0.0
  9
$UCSORGRIGHT
 10
0.0
 20
0.0
 30
0.0
  9
$UCSORGFRONT
 10
0.0
 20
0.0
 30
0.0
  9
$UCSORGBACK
 10
0.0
 20
0.0
 30
0.0
  9
$PUCSBASE
  2

  9
$PUCSNAME
  2

  9
$PUCSORG
 10
0.0
 20
0.0
 30
0.0
  9
$PUCSXDIR
 10
1.0
 20
0.0
 30
0.0
  9
$PUCSYDIR
 10
0.0
 20
1.0
 30
0.0
  9
$PUCSORTHOREF
  2

  9
$PUCSORTHOVIEW
 70
     0
  9
$PUCSORGTOP
 10
0.0
 20
0.0
 30
0.0
  9
$PUCSORGBOTTOM
 10
0.0
 20
0.0
 30
0.0
  9
$PUCSORGLEFT
 10
0.0
 20
0.0
 30
0.0
  9
$PUCSORGRIGHT
 10
0.0
 20
0.0
 30
0.0
  9
$PUCSORGFRONT
 10
0.0
 20
0.0
 30
0.0
  9
$PUCSORGBACK
 10
0.0
 20
0.0
 30
0.0
  9
$USERI1
 70
     0
  9
$USERI2
 70
     0
  9
$USERI3
 70
     0
  9
$USERI4
 70
     0
  9
$USERI5
 70
     0
  9
$USERR1
 40
0.0
  9
$USERR2
 40
0.0
  9
$USERR3
 40
0.0
  9
$USERR4
 40
0.0
  9
$USERR5
 40
0.0
  9
$WORLDVIEW
 70
     1
  9
$SHADEDGE
 70
     3
  9
$SHADEDIF
 70
    70
  9
$TILEMODE
 70
     1
  9
$MAXACTVP
 70
    16
  9
$PINSBASE
 10
0.0
 20
0.0
 30
0.0
  9
$PLIMCHECK
 70
     0
  9
$PEXTMIN
 10
1.000000000000000E+20
 20
1.000000000000000E+20
 30
1.000000000000000E+20
  9
$PEXTMAX
 10
-1.000000000000000E+20
 20
-1.000000000000000E+20
 30
-1.000000000000000E+20
  9
$PLIMMIN
 10
0.0
 20
0.0
  9
$PLIMMAX
 10
417.0
 20
288.0
  9
$UNITMODE
 70
     0
  9
$VISRETAIN
 70
     0
  9
$PLINEGEN
 70
     0
  9
$PSLTSCALE
 70
     0
  9
$TREEDEPTH
 70
  3020
  9
$CMLSTYLE
  2
STANDARD
  9
$CMLJUST
 70
     0
  9
$CMLSCALE
 40
1.0
  9
$PROXYGRAPHICS
 70
     1
  9
$MEASUREMENT
 70
     0
  9
$CELWEIGHT
370
    -1
  9
$ENDCAPS
280
     0
  9
$JOINSTYLE
280
     0
  9
$LWDISPLAY
290
     0
  9
$INSUNITS
 70
     0
  9
$HYPERLINKBASE
  1

  9
$STYLESHEET
  1
monochrome.ctb
  9
$XEDIT
290
     1
  9
$CEPSNTYPE
380
     0
  9
$PSTYLEMODE
290
     1
  9
$FINGERPRINTGUID
  2

  9
$VERSIONGUID
  2
{48B18C86-08AA-0C40-BAD9-60E66E2BC6BB}
  9
$EXTNAMES
290
     1
  9
$PSVPSCALE
 40
0.0
  9
$OLESTARTUP
290
     0
  9
$SORTENTS
280
   127
  9
$INDEXCTL
280
     0
  9
$HIDETEXT
280
     0
  9
$XCLIPFRAME
280
     0
  9
$HALOGAP
280
     0
  9
$OBSCOLOR
 70
   257
  9
$OBSLTYPE
280
     0
  9
$INTERSECTIONDISPLAY
280
     0
  9
$INTERSECTIONCOLOR
 70
   257
  9
$DIMASSOC
280
     1
  9
$PROJECTNAME
  1

  9
$CAMERADISPLAY
290
     0
  9
$LENSLENGTH
 40
50.0
  9
$CAMERAHEIGHT
 40
0.0
  9
$STEPSPERSEC
 40
2.0
  9
$STEPSIZE
 40
6.0
  9
$3DDWFPREC
 40
2.0
  9
$PSOLWIDTH
 40
0.25
  9
$PSOLHEIGHT
 40
4.0
  9
$LOFTANG1
 40
1.570796326794896
  9
$LOFTANG2
 40
1.570796326794896
  9
$LOFTMAG1
 40
0.0
  9
$LOFTMAG2
 40
0.0
  9
$LOFTPARAM
 70
     7
  9
$LOFTNORMALS
280
     1
  9
$LATITUDE
 40
37.795
  9
$LONGITUDE
 40
-122.394
  9
$NORTHDIRECTION
 40
0.0
  9
$TIMEZONE
 70
 -8000
  9
$LIGHTGLYPHDISPLAY
280
     1
  9
$TILEMODELIGHTSYNCH
280
     1
  9
$CMATERIAL
347
451
  9
$SOLIDHIST
280
     0
  9
$SHOWHIST
280
     1
  9
$DWFFRAME
280
     2
  9
$DGNFRAME
280
     0
  9
$REALWORLDSCALE
290
     1
  9
$INTERFERECOLOR
 62
     1
  9
$INTERFEREOBJVS
345
473
  9
$INTERFEREVPVS
346
470
  9
$CSHADOW
280
     0
  9
$SHADOWPLANELOCATION
 40
0.0
  0
ENDSEC
  0
SECTION
  2
CLASSES
  0
CLASS
  1
DICTIONARYVAR
  2
AcDbDictionaryVar
  3
ObjectDBX Classes
 90
        0
 91
        9
280
     0
281
     0
  0
CLASS
  1
ACDBDICTIONARYWDFLT
  2
AcDbDictionaryWithDefault
  3
ObjectDBX Classes
 90
        0
 91
        1
280
     0
281
     0
  0
CLASS
  1
MATERIAL
  2
AcDbMaterial
  3
ObjectDBX Classes
 90
     1153
 91
        3
280
     0
281
     0
  0
CLASS
  1
VISUALSTYLE
  2
AcDbVisualStyle
  3
ObjectDBX Classes
 90
     4095
 91
       24
280
     0
281
     0
  0
CLASS
  1
TABLESTYLE
  2
AcDbTableStyle
  3
ObjectDBX Classes
 90
     4095
 91
        1
280
     0
281
     0
  0
CLASS
  1
SCALE
  2
AcDbScale
  3
ObjectDBX Classes
 90
     1153
 91
       17
280
     0
281
     0
  0
CLASS
  1
MLEADERSTYLE
  2
AcDbMLeaderStyle
  3
ACDB_MLEADERSTYLE_CLASS
 90
     4095
 91
        1
280
     0
281
     0
  0
CLASS
  1
ACDBSECTIONVIEWSTYLE
  2
AcDbSectionViewStyle
  3
ObjectDBX Classes
 90
     1025
 91
        2
280
     0
281
     0
  0
CLASS
  1
ACDBDETAILVIEWSTYLE
  2
AcDbDetailViewStyle
  3
ObjectDBX Classes
 90
     1025
 91
        2
280
     0
281
     0
  0
CLASS
  1
ACME_DOCUMENT
  2
AcMeDbDoc
  3
AcMeServices
 90
     1024
 91
        2
280
     0
281
     0
  0
CLASS
  1
AMGSETTINGSOBJ
  2
AmgSettingsObj
  3
"AcadM|Product Description: AutoCAD Mechanical|Company: Autodesk, Inc."
 90
     1024
 91
        2
280
     0
281
     0
  0
CLASS
  1
ACMESCOPE
  2
AcMeScope
  3
AcMeServices
 90
     1024
 91
        1
280
     0
281
     0
  0
CLASS
  1
ACMECOMMANDHISTORY
  2
AcMeCommandHistory
  3
AcMeServices
 90
     1024
 91
        1
280
     0
281
     0
  0
CLASS
  1
ACIMSYSVARMAN
  2
AcImSysVarManager
  3
AcMeServices
 90
     1024
 91
        3
280
     0
281
     0
  0
CLASS
  1
ACIMINTSYSVAR
  2
AcImIntSysVar
  3
AcMeServices
 90
     1024
 91
        2
280
     0
281
     0
  0
CLASS
  1
ACMESTATEMGR
  2
AcMeStateMgr
  3
AcMeServices
 90
     1024
 91
        1
280
     0
281
     0
  0
CLASS
  1
ACDBENTITYCACHE
  2
AcMeEntityCache
  3
AcMeServices
 90
     1024
 91
        1
280
     0
281
     0
  0
CLASS
  1
ACGREFMASTER
  2
AcGrefMaster
  3
AcAttribServices
 90
     1024
 91
        1
280
     0
281
     0
  0
CLASS
  1
ACME_DATABASE
  2
AcMeDbDatabase
  3
AcMeServices
 90
     1024
 91
        1
280
     0
281
     0
  0
CLASS
  1
ACRFINSADJUSTERMGR
  2
AcRfInsAdjusterMgr
  3
AcMeServices
 90
     1024
 91
        1
280
     0
281
     0
  0
CLASS
  1
ACGREFACADMASTER
  2
AcGrefacadMaster
  3
AcGrefServices
 90
     1024
 91
        1
280
     0
281
     0
  0
CLASS
  1
AMDTMENUSTATEMGR
  2
AmdtMenuStateMgr
  3
McadcomServices
 90
     1024
 91
        1
280
     0
281
     0
  0
CLASS
  1
AMDTMCOMMENUSTATE
  2
AmdtMcomMenuState
  3
McadcomServices
 90
     1024
 91
        1
280
     0
281
     0
  0
CLASS
  1
AMIMASTER
  2
AmiMaster
  3
AmiServices
 90
     1024
 91
        1
280
     0
281
     0
  0
CLASS
  1
MAPIAMMOUDLE
  2
MApiAmModule
  3
MApiAmServices
 90
     1024
 91
        1
280
     0
281
     0
  0
CLASS
  1
ACIMSTRSYSVAR
  2
AcImStrSysVar
  3
AcMeServices
 90
     1024
 91
        5
280
     0
281
     0
  0
CLASS
  1
AMDTAMMENUSTATE
  2
AmdtAmMenuState
  3
DesignerAssemblies
 90
     1024
 91
        1
280
     0
281
     0
  0
CLASS
  1
ACAMPROJECT
  2
AcAmProject
  3
DesignerAssemblies
 90
     1024
 91
        1
280
     0
281
     0
  0
CLASS
  1
ACAMGRCOMPDEF
  2
AcAmGrCompDef
  3
DesignerAssemblies
 90
     1024
 91
        1
280
     0
281
     0
  0
CLASS
  1
ACAMCOMPDEF
  2
AcAmCompDef
  3
DesignerAssemblies
 90
     1024
 91
        1
280
     0
281
     0
  0
CLASS
  1
ACAMCOMPDEFMGR
  2
AcAmCompDefMgr
  3
DesignerAssemblies
 90
     1024
 91
        1
280
     0
281
     0
  0
CLASS
  1
AMCONTEXTMGR
  2
AcAmContextMgr
  3
DesignerAssemblies
 90
     1024
 91
        1
280
     0
281
     0
  0
CLASS
  1
ACAMCONTEXTMODELER
  2
AcAmContextModeler
  3
DesignerAssemblies
 90
     1024
 91
        1
280
     0
281
     0
  0
CLASS
  1
ACMDATADICTIONARY
  2
AcmDataDictionary
  3
"AcmSymBB|Product Description: AutoCAD Mechanical|Company: Autodesk, Inc."
 90
     1024
 91
        1
280
     0
281
     0
  0
CLASS
  1
ACAMGRCOMPDEFSET
  2
AcAmGrCompDefSet
  3
DesignerAssemblies
 90
     1024
 91
        1
280
     0
281
     0
  0
CLASS
  1
AMDTBROWSERDBTAB
  2
AmdtBrowserDbTab
  3
McadcomServices
 90
     1024
 91
        1
280
     0
281
     0
  0
CLASS
  1
CBROWSERAPPOBJECT
  2
CBrowserAppObject
  3
McadcomServices
 90
     1024
 91
        2
280
     0
281
     0
  0
CLASS
  1
DM_PLACEHOLDER
  2
AcDmSelsetPlaceholder
  3
McadcomServices
 90
     1024
 91
        1
280
     0
281
     0
  0
CLASS
  1
EXACXREFPANELOBJECT
  2
ExAcXREFPanelObject
  3
EXAC_ESW
 90
     1025
 91
        1
280
     0
281
     0
  0
CLASS
  1
NPOCOLLECTION
  2
AcDbImpNonPersistentObjectsCollection
  3
ObjectDBX Classes
 90
     1153
 91
        1
280
     0
281
     0
  0
CLASS
  1
ACMSTANDARDANSI
  2
AcmStandardANSI
  3
"Amdt_StdImp|Product Description: AutoCAD Mechanical|Company: Autodesk, Inc."
 90
     1024
 91
        1
280
     0
281
     0
  0
CLASS
  1
ACMSURFSTANDARDANSI
  2
AcmSurfTextStdANSI
  3
"Amdt_StdImp|Product Description: AutoCAD Mechanical|Company: Autodesk, Inc."
 90
     1024
 91
        1
280
     0
281
     0
  0
CLASS
  1
ACMFCFSTANDARDANSI
  2
AcmFCFStdANSI
  3
"Amdt_StdImp|Product Description: AutoCAD Mechanical|Company: Autodesk, Inc."
 90
     1024
 91
        1
280
     0
281
     0
  0
CLASS
  1
ACMWELDSTANDARDANSI
  2
AcmWeldingStdANSI
  3
"Amdt_StdImp|Product Description: AutoCAD Mechanical|Company: Autodesk, Inc."
 90
     1024
 91
        1
280
     0
281
     0
  0
CLASS
  1
ACMIDSTANDARDANSI
  2
AcmIdStdANSI
  3
"Amdt_StdImp|Product Description: AutoCAD Mechanical|Company: Autodesk, Inc."
 90
     1024
 91
        1
280
     0
281
     0
  0
CLASS
  1
ACMDATUMSTANDARDANSI
  2
AcmDatumStdANSI
  3
"Amdt_StdImp|Product Description: AutoCAD Mechanical|Company: Autodesk, Inc."
 90
     1024
 91
        1
280
     0
281
     0
  0
CLASS
  1
ACMBOMSTANDARDANSI
  2
AcmBOMStdANSI
  3
"Amdt_StdImp|Product Description: AutoCAD Mechanical|Company: Autodesk, Inc."
 90
     1024
 91
        1
280
     0
281
     0
  0
CLASS
  1
ACMDETAILSTANDARDANSI
  2
AmdtDetailSymStdANSI
  3
"Amdt_StdImp|Product Description: AutoCAD Mechanical|Company: Autodesk, Inc."
 90
     1024
 91
        1
280
     0
281
     0
  0
CLASS
  1
ACMSECTIONSTANDARDANSI
  2
AmdtSectionSymStdANSI
  3
"Amdt_StdImp|Product Description: AutoCAD Mechanical|Company: Autodesk, Inc."
 90
     1024
 91
        1
280
     0
281
     0
  0
CLASS
  1
ACMCENTERLINESTANDARDANSI
  2
AmdtCenterLineStdANSI
  3
"Amdt_StdImp|Product Description: AutoCAD Mechanical|Company: Autodesk, Inc."
 90
     1024
 91
        1
280
     0
281
     0
  0
CLASS
  1
ACMTHREADLINESTANDARDANSI
  2
AmdtThreadLineStdANSI
  3
"Amdt_StdImp|Product Description: AutoCAD Mechanical|Company: Autodesk, Inc."
 90
     1024
 91
        1
280
     0
281
     0
  0
CLASS
  1
ACMNOTESTANDARDANSI
  2
AmdtNoteStdANSI
  3
"Amdt_StdImp|Product Description: AutoCAD Mechanical|Company: Autodesk, Inc."
 90
     1024
 91
        1
280
     0
281
     0
  0
CLASS
  1
ACMTAPERSTANDARDANSI
  2
AcmTaperStdANSI
  3
"Amdt_StdImp|Product Description: AutoCAD Mechanical|Company: Autodesk, Inc."
 90
     1024
 91
        1
280
     0
281
     0
  0
CLASS
  1
ACMANOOTATIONVIEWSTANDARDANSI
  2
AmdtAnViewStdANSI
  3
"Amdt_StdImp|Product Description: AutoCAD Mechanical|Company: Autodesk, Inc."
 90
     1024
 91
        1
280
     0
281
     0
  0
CLASS
  1
ACAMGLAYSTD
  2
AcAmgLayStd
  3
"AmgLay|Product Description: AutoCAD Mechanical|Company: Autodesk, Inc."
 90
     1024
 91
        1
280
     0
281
     0
  0
CLASS
  1
ACAMGDIMSTD
  2
AcAmgDimStd
  3
"AmgDim|Product Description: AutoCAD Mechanical|Company: Autodesk, Inc."
 90
     1024
 91
        1
280
     0
281
     0
  0
CLASS
  1
AMGOBJPROPCFG
  2
AmgObjPropCfg
  3
"AmgLay|Product Description: AutoCAD Mechanical|Company: Autodesk, Inc."
 90
     1024
 91
        1
280
     0
281
     0
  0
CLASS
  1
ACAMGHOLECHARTSTDANSI
  2
AcAmgHoleChartStdANSI
  3
AmgDim|Product Description: AutoCAD Mechanical|Company: Autodesk, Inc.
 90
     1024
 91
        1
280
     0
281
     0
  0
CLASS
  1
ACAMGTITLESTD
  2
AcAmgTitleStd
  3
"AmgTitle|Product Description: AutoCAD Mechanical|Company: Autodesk, Inc."
 90
     1024
 91
        1
280
     0
281
     0
  0
CLASS
  1
ACMSECTIONSTANDARDCUSTOM
  2
AmdtSectionSymStdCustom
  3
"Amdt_StdImp|Product Description: AutoCAD Mechanical|Company: Autodesk, Inc."
 90
     1024
 91
        1
280
     0
281
     0
  0
CLASS
  1
ACMDETAILTANDARDCUSTOM
  2
AmdtDetailSymStdCustom
  3
"Amdt_StdImp|Product Description: AutoCAD Mechanical|Company: Autodesk, Inc."
 90
     1024
 91
        1
280
     0
281
     0
  0
CLASS
  1
FIELD
  2
AcDbField
  3
ObjectDBX Classes
 90
     1152
 91
        4
280
     0
281
     0
  0
CLASS
  1
FIELDLIST
  2
AcDbFieldList
  3
ObjectDBX Classes
 90
     1152
 91
        1
280
     0
281
     0
  0
CLASS
  1
AMDTNOTETEMPLATEDB
  2
AmdtNoteTemplateDB
  3
AcmSymBB|Product Description: AutoCAD Mechanical|Company: Autodesk, Inc.
 90
     1024
 91
        7
280
     0
281
     0
  0
CLASS
  1
ACAMGFILTERDAT
  2
AcAmgFilterDat
  3
"AcadM|Product Description: AutoCAD Mechanical|Company: Autodesk, Inc."
 90
     1024
 91
        6
280
     0
281
     0
  0
CLASS
  1
CELLSTYLEMAP
  2
AcDbCellStyleMap
  3
ObjectDBX Classes
 90
     1152
 91
        1
280
     0
281
     0
  0
ENDSEC
  0
SECTION
  2
TABLES
  0
TABLE
  2
VPORT
  5
33E
330
0
100
AcDbSymbolTable
 70
     1
1001
ACAD
1000
DbSaveVer
1071
        8
  0
VPORT
  5
44F
330
33E
100
AcDbSymbolTableRecord
100
AcDbViewportTableRecord
  2
*Active
 70
     0
 10
0.0
 20
0.0
 11
1.0
 21
1.0
 12
248.8508804537566
 22
172.8417453626615
 13
0.0
 23
0.0
 14
10.0
 24
10.0
 15
20.0
 25
20.0
 16
0.0
 26
0.0
 36
1.0
 17
0.0
 27
0.0
 37
0.0
 40
608.3853873848814
 41
2.358195211786371
 42
50.0
 43
0.0
 44
0.0
 50
0.0
 51
0.0
 71
     0
 72
   100
 73
     1
 74
     1
 75
     0
 76
     0
 77
     0
 78
     0
281
     0
 65
     1
110
0.0
120
0.0
130
0.0
111
1.0
121
0.0
131
0.0
112
0.0
122
1.0
132
0.0
 79
     0
146
0.0
348
46F
 60
     3
 61
     5
292
     1
282
     1
141
0.0
142
0.0
 63
   250
421
  3355443
1001
ACAD_NAV_VCDISPLAY
1070
     3
  0
ENDTAB
  0
TABLE
  2
LTYPE
  5
339
330
0
100
AcDbSymbolTable
 70
    19
  0
LTYPE
  5
33A
330
339
100
AcDbSymbolTableRecord
100
AcDbLinetypeTableRecord
  2
BYBLOCK
 70
     0
  3

 72
    65
 73
     0
 40
0.0
  0
LTYPE
  5
33B
330
339
100
AcDbSymbolTableRecord
100
AcDbLinetypeTableRecord
  2
BYLAYER
 70
     0
  3

 72
    65
 73
     0
 40
0.0
  0
LTYPE
  5
8
330
339
100
AcDbSymbolTableRecord
100
AcDbLinetypeTableRecord
  2
CONTINUOUS
 70
     0
  3
Solid line
 72
    65
 73
     0
 40
0.0
  0
LTYPE
  5
17
330
339
100
AcDbSymbolTableRecord
100
AcDbLinetypeTableRecord
  2
STRICHPUNKT
 70
     0
  3
__ . __ . __ . __ . __ . __ . __ . __ . __ . __
 72
    65
 73
     4
 40
1.0
 49
0.5
 74
     0
 49
-0.25
 74
     0
 49
0.0
 74
     0
 49
-0.25
 74
     0
  0
LTYPE
  5
F4
330
339
100
AcDbSymbolTableRecord
100
AcDbLinetypeTableRecord
  2
GESTRICHELT
 70
     0
  3
__ __ __ __ __ __ __ __ __ __ __ __ __ __ __ __
 72
    65
 73
     2
 40
0.75
 49
0.5
 74
     0
 49
-0.25
 74
     0
  0
LTYPE
  5
20C
330
339
100
AcDbSymbolTableRecord
100
AcDbLinetypeTableRecord
  2
AUSGEZOGEN
 70
     0
  3
Ausgezogene Linie
 72
    65
 73
     0
 40
0.0
  0
LTYPE
  5
4AF
330
339
100
AcDbSymbolTableRecord
100
AcDbLinetypeTableRecord
  2
HIDDEN
 70
     0
  3
Hidden __ __ __ __ __ __ __ __ __ __ __ __ __ _
 72
    65
 73
     2
 40
0.375
 49
0.25
 74
     0
 49
-0.125
 74
     0
  0
LTYPE
  5
4B0
330
339
100
AcDbSymbolTableRecord
100
AcDbLinetypeTableRecord
  2
PHANTOM2
 70
     0
  3
Phantom (.5x) ___ _ _ ___ _ _ ___ _ _ ___ _ _
 72
    65
 73
     6
 40
1.25
 49
0.625
 74
     0
 49
-0.125
 74
     0
 49
0.125
 74
     0
 49
-0.125
 74
     0
 49
0.125
 74
     0
 49
-0.125
 74
     0
  0
LTYPE
  5
4B1
330
339
100
AcDbSymbolTableRecord
100
AcDbLinetypeTableRecord
  2
CENTER
 70
     0
  3
Center ____ _ ____ _ ____ _ ____ _ ____ _ ____
 72
    65
 73
     4
 40
2.0
 49
1.25
 74
     0
 49
-0.25
 74
     0
 49
0.25
 74
     0
 49
-0.25
 74
     0
  0
LTYPE
  5
4ED
330
339
100
AcDbSymbolTableRecord
100
AcDbLinetypeTableRecord
  2
AM_ISO02W050
 70
     0
  3
__ __ __ __ __ __ __ __ __ __ __ __ __ __ __
 72
    65
 73
     2
 40
7.5
 49
6.0
 74
     0
 49
-1.5
 74
     0
  0
LTYPE
  5
4EE
330
339
100
AcDbSymbolTableRecord
100
AcDbLinetypeTableRecord
  2
AM_ISO08W050
 70
     0
  3
____ . ____ . ____ . ____ . ____ . ____ . ____
 72
    65
 73
     4
 40
18.0
 49
12.0
 74
     0
 49
-1.5
 74
     0
 49
3.0
 74
     0
 49
-1.5
 74
     0
  0
LTYPE
  5
4EF
330
339
100
AcDbSymbolTableRecord
100
AcDbLinetypeTableRecord
  2
AM_ISO09W050
 70
     0
  3
_____ . . _____ . . _____ . . ____ .. ____
 72
    65
 73
     6
 40
22.5
 49
12.0
 74
     0
 49
-1.5
 74
     0
 49
3.0
 74
     0
 49
-1.5
 74
     0
 49
3.0
 74
     0
 49
-1.5
 74
     0
  0
LTYPE
  5
4F0
330
339
100
AcDbSymbolTableRecord
100
AcDbLinetypeTableRecord
  2
Amconstr
 70
     0
  3
_______________________
 72
    65
 73
     2
 40
9999.0
 49
9999.0
 74
     0
 49
0.0
 74
     0
  0
LTYPE
  5
4F1
330
339
100
AcDbSymbolTableRecord
100
AcDbLinetypeTableRecord
  2
AM_ISO08W050x2
 70
     0
  3
__ . __ . __ . __ . __ . __
 72
    65
 73
     4
 40
9.0
 49
6.0
 74
     0
 49
-0.75
 74
     0
 49
1.5
 74
     0
 49
-0.75
 74
     0
  0
LTYPE
  5
4F2
330
339
100
AcDbSymbolTableRecord
100
AcDbLinetypeTableRecord
  2
AM_ISO02W050x2
 70
     0
  3
 _ _ _ _ _ _ _ _ _ _ _ _
 72
    65
 73
     2
 40
3.75
 49
3.0
 74
     0
 49
-0.75
 74
     0
  0
LTYPE
  5
4F5
330
339
100
AcDbSymbolTableRecord
100
AcDbLinetypeTableRecord
  2
Amzigzag
 70
     0
  3
/\/-/\/-/\/-/\/-/\/-/\/
 72
    65
 73
     2
 40
11.0001
 49
0.0001
 74
     4
 75
   136
340
4F4
 46
0.04
 50
0.0
 44
0.0
 45
0.0
 49
-11.0
 74
     0
  0
LTYPE
  5
4F6
330
339
100
AcDbSymbolTableRecord
100
AcDbLinetypeTableRecord
  2
CENTER2
 70
     0
  3
Center (.5x) ___ _ ___ _ ___ _ ___ _ ___ _ ___
 72
    65
 73
     4
 40
1.125
 49
0.75
 74
     0
 49
-0.125
 74
     0
 49
0.125
 74
     0
 49
-0.125
 74
     0
  0
LTYPE
  5
4F7
330
339
100
AcDbSymbolTableRecord
100
AcDbLinetypeTableRecord
  2
HIDDEN2
 70
     0
  3
Hidden (.5x) _ _ _ _ _ _ _ _ _ _ _ _ _ _ _ _ _
 72
    65
 73
     2
 40
0.1875
 49
0.125
 74
     0
 49
-0.0625
 74
     0
  0
LTYPE
  5
4F8
330
339
100
AcDbSymbolTableRecord
100
AcDbLinetypeTableRecord
  2
Amzigzag2
 70
     0
  3
/\/-/\/-/\/-/\/-/\/-/\/
 72
    65
 73
     2
 40
0.4401
 49
0.0001
 74
     4
 75
   136
340
4F4
 46
0.0016
 50
0.0
 44
0.0
 45
0.0
 49
-0.4400000000000001
 74
     0
  0
LTYPE
  5
508
330
339
100
AcDbSymbolTableRecord
100
AcDbLinetypeTableRecord
  2
ACANSTGB
 70
     0
  3
__ . . __ . .
 72
    65
 73
     6
 40
0.35433070866
 49
0.15748031496
 74
     0
 49
-0.03937007874
 74
     0
 49
0.03937007874
 74
     0
 49
-0.03937007874
 74
     0
 49
0.03937007874
 74
     0
 49
-0.03937007874
 74
     0
  0
LTYPE
  5
509
330
339
100
AcDbSymbolTableRecord
100
AcDbLinetypeTableRecord
  2
ACANSTGL
 70
     0
  3
_ _ _ _ _
 72
    65
 73
     2
 40
0.11811023622
 49
0.07874015748
 74
     0
 49
-0.03937007874
 74
     0
  0
ENDTAB
  0
TABLE
  2
LAYER
  5
336
330
0
100
AcDbSymbolTable
 70
    16
  0
LAYER
  5
28
102
{ACAD_XDICTIONARY
360
52A
102
}
330
336
100
AcDbSymbolTableRecord
100
AcDbLayerTableRecord
  2
0
 70
     0
 62
     7
  6
CONTINUOUS
370
    -3
390
5
347
461
348
0
  0
LAYER
  5
C
102
{ACAD_XDICTIONARY
360
52C
102
}
330
336
100
AcDbSymbolTableRecord
100
AcDbLayerTableRecord
  2
SICHTBAR
 70
     0
 62
     7
  6
CONTINUOUS
370
    -3
390
5
347
461
348
0
  0
LAYER
  5
16
102
{ACAD_XDICTIONARY
360
52E
102
}
330
336
100
AcDbSymbolTableRecord
100
AcDbLayerTableRecord
  2
MITTE
 70
     0
 62
     1
  6
STRICHPUNKT
370
    -3
390
5
347
461
348
0
  0
LAYER
  5
F3
102
{ACAD_XDICTIONARY
360
530
102
}
330
336
100
AcDbSymbolTableRecord
100
AcDbLayerTableRecord
  2
VERDECKT
 70
     0
 62
     2
  6
GESTRICHELT
370
    -3
390
5
347
461
348
0
  0
LAYER
  5
4
102
{ACAD_XDICTIONARY
360
532
102
}
330
336
100
AcDbSymbolTableRecord
100
AcDbLayerTableRecord
  2
BEMASS
 70
     0
 62
     3
  6
CONTINUOUS
370
    -3
390
5
347
461
348
0
  0
LAYER
  5
24
330
336
100
AcDbSymbolTableRecord
100
AcDbLayerTableRecord
  2
DEFPOINTS
 70
     0
 62
     7
  6
CONTINUOUS
290
     0
370
    -3
390
5
347
461
348
0
  0
LAYER
  5
44
102
{ACAD_XDICTIONARY
360
534
102
}
330
336
100
AcDbSymbolTableRecord
100
AcDbLayerTableRecord
  2
SCHRAFF
 70
     0
 62
     6
  6
CONTINUOUS
370
    -3
390
5
347
461
348
0
  0
LAYER
  5
E3
102
{ACAD_XDICTIONARY
360
536
102
}
330
336
100
AcDbSymbolTableRecord
100
AcDbLayerTableRecord
  2
WHITE
 70
     0
 62
     7
  6
CONTINUOUS
370
    -3
390
5
347
461
348
0
  0
LAYER
  5
208
102
{ACAD_XDICTIONARY
360
538
102
}
330
336
100
AcDbSymbolTableRecord
100
AcDbLayerTableRecord
  2
GAIN_ZRA
 70
     0
 62
     7
  6
CONTINUOUS
370
    -3
390
5
347
461
348
0
  0
LAYER
  5
20B
102
{ACAD_XDICTIONARY
360
53A
102
}
330
336
100
AcDbSymbolTableRecord
100
AcDbLayerTableRecord
  2
KOPF
 70
     0
 62
    22
  6
AUSGEZOGEN
370
    -3
390
5
347
461
348
0
  0
LAYER
  5
280
102
{ACAD_XDICTIONARY
360
53C
102
}
330
336
100
AcDbSymbolTableRecord
100
AcDbLayerTableRecord
  2
GAIN_ZSF
 70
     0
 62
     7
  6
CONTINUOUS
370
    -3
390
5
347
461
348
0
  0
LAYER
  5
1E2
102
{ACAD_XDICTIONARY
360
53E
102
}
330
336
100
AcDbSymbolTableRecord
100
AcDbLayerTableRecord
  2
TEXT50
 70
     0
 62
     7
  6
CONTINUOUS
370
    -3
390
5
347
461
348
0
  0
LAYER
  5
1E4
102
{ACAD_XDICTIONARY
360
540
102
}
330
336
100
AcDbSymbolTableRecord
100
AcDbLayerTableRecord
  2
TEXT35
 70
     0
 62
   132
  6
CONTINUOUS
370
    -3
390
5
347
461
348
0
  0
LAYER
  5
259
102
{ACAD_XDICTIONARY
360
542
102
}
330
336
100
AcDbSymbolTableRecord
100
AcDbLayerTableRecord
  2
TEXT25
 70
     0
 62
     3
  6
CONTINUOUS
370
    -3
390
5
347
461
348
0
  0
LAYER
  5
34C
102
{ACAD_XDICTIONARY
360
544
102
}
330
336
100
AcDbSymbolTableRecord
100
AcDbLayerTableRecord
  2
DUENN
 70
     0
 62
     4
  6
CONTINUOUS
370
    -3
390
5
347
461
348
0
  0
LAYER
  5
34D
102
{ACAD_XDICTIONARY
360
546
102
}
330
336
100
AcDbSymbolTableRecord
100
AcDbLayerTableRecord
  2
Sperrlayer
 70
     1
 62
     7
  6
CONTINUOUS
370
    50
390
5
347
461
348
0
  0
ENDTAB
  0
TABLE
  2
STYLE
  5
337
330
0
100
AcDbSymbolTable
 70
    11
  0
STYLE
  5
9
330
337
100
AcDbSymbolTableRecord
100
AcDbTextStyleTableRecord
  2
STANDARD
 70
     0
 40
0.0
 41
0.8
 50
0.0
 71
     0
 42
7.5
  3
SIMPLEX.SHX
  4

  0
STYLE
  5
211
330
337
100
AcDbSymbolTableRecord
100
AcDbTextStyleTableRecord
  2
TEXT25
 70
     0
 40
2.5
 41
0.8
 50
0.0
 71
     0
 42
2.5
  3
din
  4

  0
STYLE
  5
233
330
337
100
AcDbSymbolTableRecord
100
AcDbTextStyleTableRecord
  2
BEMSTIL
 70
     0
 40
3.5
 41
0.8
 50
0.0
 71
     0
 42
3.5
  3
simplex
  4

  0
STYLE
  5
31C
330
337
100
AcDbSymbolTableRecord
100
AcDbTextStyleTableRecord
  2
ROMANS8
 70
     0
 40
2.1
 41
0.7
 50
0.0
 71
     0
 42
2.1
  3
ROMANS8.SHX
  4

  0
STYLE
  5
25A
330
337
100
AcDbSymbolTableRecord
100
AcDbTextStyleTableRecord
  2
TEXT20
 70
     0
 40
2.0
 41
0.8
 50
0.0
 71
     0
 42
2.0
  3
isocp3.shx
  4

  0
STYLE
  5
257
330
337
100
AcDbSymbolTableRecord
100
AcDbTextStyleTableRecord
  2
TEXT35
 70
     0
 40
3.5
 41
0.8
 50
0.0
 71
     0
 42
3.5
  3
isocp3.shx
  4

  0
STYLE
  5
269
330
337
100
AcDbSymbolTableRecord
100
AcDbTextStyleTableRecord
  2
TEXT50
 70
     0
 40
5.0
 41
0.8
 50
0.0
 71
     0
 42
5.0
  3
isocp3.shx
  4

  0
STYLE
  5
322
330
337
100
AcDbSymbolTableRecord
100
AcDbTextStyleTableRecord
  2
ITALICC8
 70
     0
 40
3.0
 41
0.8
 50
0.0
 71
     0
 42
3.0
  3
italicc8
  4

  0
STYLE
  5
4F4
330
337
100
AcDbSymbolTableRecord
100
AcDbTextStyleTableRecord
  2

 70
     1
 40
0.0
 41
1.0
 50
0.0
 71
     0
 42
7.5
  3
genltshp.shx
  4

  0
STYLE
  5
506
330
337
100
AcDbSymbolTableRecord
100
AcDbTextStyleTableRecord
  2
ACANSTS
 70
     0
 40
0.0
 41
1.0
 50
0.0
 71
     0
 42
7.5
  3
romans.shx
  4

  0
STYLE
  5
507
330
337
100
AcDbSymbolTableRecord
100
AcDbTextStyleTableRecord
  2
ACANSGDT
 70
     0
 40
0.0
 41
1.0
 50
0.0
 71
     0
 42
7.5
  3
amgdt.shx
  4

  0
ENDTAB
  0
TABLE
  2
VIEW
  5
33C
330
0
100
AcDbSymbolTable
 70
     0
  0
ENDTAB
  0
TABLE
  2
UCS
  5
33D
330
0
100
AcDbSymbolTable
 70
     0
  0
ENDTAB
  0
TABLE
  2
APPID
  5
340
330
0
100
AcDbSymbolTable
 70
    12
  0
APPID
  5
1F9
330
340
100
AcDbSymbolTableRecord
100
AcDbRegAppTableRecord
  2
ACAD
 70
     0
  0
APPID
  5
3ED
330
340
100
AcDbSymbolTableRecord
100
AcDbRegAppTableRecord
  2
DCO15
 70
     0
  0
APPID
  5
4A8
330
340
100
AcDbSymbolTableRecord
100
AcDbRegAppTableRecord
  2
MCAD_NO_VIS
 70
     0
  0
APPID
  5
4A9
330
340
100
AcDbSymbolTableRecord
100
AcDbRegAppTableRecord
  2
ACAD_TEMP_GRAPHIC
 70
     0
  0
APPID
  5
4B6
330
340
100
AcDbSymbolTableRecord
100
AcDbRegAppTableRecord
  2
ACATTRIBSERVICES
 70
     0
  0
APPID
  5
4CE
330
340
100
AcDbSymbolTableRecord
100
AcDbRegAppTableRecord
  2
DESIGNERASSEMBLIES
 70
     0
  0
APPID
  5
4EA
330
340
100
AcDbSymbolTableRecord
100
AcDbRegAppTableRecord
  2
ACAD_DSTYLE_DIMJAG
 70
     0
  0
APPID
  5
4EB
330
340
100
AcDbSymbolTableRecord
100
AcDbRegAppTableRecord
  2
ACAD_DSTYLE_DIMBREAK
 70
     0
  0
APPID
  5
51F
330
340
100
AcDbSymbolTableRecord
100
AcDbRegAppTableRecord
  2
GENIUS_GENSCREG_15
 70
     0
  0
APPID
  5
520
330
340
100
AcDbSymbolTableRecord
100
AcDbRegAppTableRecord
  2
GENIUS_GENOBJ-N-SDF_13
 70
     0
  0
APPID
  5
521
330
340
100
AcDbSymbolTableRecord
100
AcDbRegAppTableRecord
  2
GENIUS_GENODEF_13
 70
     0
  0
APPID
  5
522
330
340
100
AcDbSymbolTableRecord
100
AcDbRegAppTableRecord
  2
ACAD_NAV_VCDISPLAY
 70
     0
  0
ENDTAB
  0
TABLE
  2
DIMSTYLE
  5
341
330
0
100
AcDbSymbolTable
 70
     7
100
AcDbDimStyleTable
 71
     1
340
1A
  0
DIMSTYLE
105
1A
102
{ACAD_REACTORS
330
46
330
19
330
18C
330
19B
330
1A8
330
1B5
330
1C5
330
1D3
330
1F8
330
1FA
330
1FC
330
1FD
330
1FE
102
}
330
341
100
AcDbSymbolTableRecord
100
AcDbDimStyleTableRecord
  2
STANDARD
 70
     0
 41
3.5
 42
0.0
 43
7.0
 44
2.0
 73
     0
 74
     0
 77
     1
 78
     8
140
5.0
141
3.0
146
0.875
147
2.0
174
     1
176
   256
177
   256
178
   256
271
     1
272
     1
284
     8
285
     8
286
     8
289
     0
340
9
  0
DIMSTYLE
105
4E9
102
{ACAD_REACTORS
330
4D9
102
}
330
341
100
AcDbSymbolTableRecord
100
AcDbDimStyleTableRecord
  2
AM_ANSI
 70
     0
  4
mm
 41
0.12
 42
0.05
 43
0.5
 44
0.1
 47
0.1
 48
0.1
 78
     7
 79
     2
 90
     1
140
0.12
141
0.0
146
0.71
147
0.06
176
   256
177
   256
178
     2
274
     4
284
     7
340
9
345
33A
346
33A
347
33A
371
    -1
372
    -1
1001
ACAD_DSTYLE_DIMJAG
1070
   388
1040
1.5
1001
ACAD_DSTYLE_DIMBREAK
1070
   391
1040
0.125
  0
DIMSTYLE
105
4F9
330
341
100
AcDbSymbolTableRecord
100
AcDbDimStyleTableRecord
  2
AM_ANSI$3
 70
     0
  4
mm
 41
0.12
 42
0.05
 43
0.5
 44
0.1
 47
0.1
 48
0.1
 78
     7
 79
     2
 90
     1
140
0.12
141
0.0
146
0.71
147
0.06
176
   256
177
   256
178
     2
274
     4
284
     7
288
     1
289
     0
340
9
345
33A
346
33A
347
33A
371
    -1
372
    -1
1001
ACAD_DSTYLE_DIMBREAK
1070
   391
1040
0.125
1001
ACAD_DSTYLE_DIMJAG
1070
   388
1040
1.5
  0
DIMSTYLE
105
4FA
330
341
100
AcDbSymbolTableRecord
100
AcDbDimStyleTableRecord
  2
AM_ANSI$4
 70
     0
  4
mm
 41
0.12
 42
0.05
 43
0.5
 44
0.1
 47
0.1
 48
0.1
 78
     7
 79
     2
 90
     1
140
0.12
141
0.0
146
0.71
147
0.06
176
   256
177
   256
178
     2
274
     4
284
     7
288
     1
289
     0
340
9
345
33A
346
33A
347
33A
371
    -1
372
    -1
1001
ACAD_DSTYLE_DIMBREAK
1070
   391
1040
0.125
1001
ACAD_DSTYLE_DIMJAG
1070
   388
1040
1.5
  0
DIMSTYLE
105
4FB
330
341
100
AcDbSymbolTableRecord
100
AcDbDimStyleTableRecord
  2
AM_ANSI$7
 70
     0
  4
mm
 41
0.12
 42
0.05
 43
0.5
 44
0.1
 47
0.1
 48
0.1
 78
     7
 79
     2
 90
     1
140
0.12
141
0.0
146
0.71
147
0.06
176
   256
177
   256
178
     2
274
     4
284
     7
340
9
345
33A
346
33A
347
33A
371
    -1
372
    -1
1001
ACAD_DSTYLE_DIMBREAK
1070
   391
1040
0.125
1001
ACAD_DSTYLE_DIMJAG
1070
   388
1040
1.5
  0
DIMSTYLE
105
4FC
330
341
100
AcDbSymbolTableRecord
100
AcDbDimStyleTableRecord
  2
AM_ANSI$SF
 70
     0
  4
mm
 41
0.12
 42
0.05
 43
0.5
 44
0.1
 47
0.1
 48
0.1
 75
     1
 76
     1
 78
     7
 79
     2
 90
     1
140
0.12
141
0.0
146
0.71
147
0.06
176
   256
177
   256
178
     2
274
     4
284
     7
340
9
345
33A
346
33A
347
33A
371
    -1
372
    -1
1001
ACAD_DSTYLE_DIMBREAK
1070
   391
1040
0.125
1001
ACAD_DSTYLE_DIMJAG
1070
   388
1040
1.5
  0
DIMSTYLE
105
501
330
341
100
AcDbSymbolTableRecord
100
AcDbDimStyleTableRecord
  2
AM_ANSI$SH
 70
     0
  4
mm
 41
0.12
 42
0.05
 43
0.5
 44
0.1
 47
0.1
 48
0.1
 75
     1
 76
     1
 78
     7
 79
     2
 90
     1
140
0.12
141
0.0
146
0.71
147
0.06
173
     1
176
   256
177
   256
178
     2
274
     4
284
     7
340
9
343
4FD
345
33A
346
33A
347
33A
371
    -1
372
    -1
1001
ACAD_DSTYLE_DIMBREAK
1070
   391
1040
0.125
1001
ACAD_DSTYLE_DIMJAG
1070
   388
1040
1.5
  0
ENDTAB
  0
TABLE
  2
BLOCK_RECORD
  5
1
330
0
100
AcDbSymbolTable
 70
    16
  0
BLOCK_RECORD
  5
2
330
1
100
AcDbSymbolTableRecord
100
AcDbBlockTableRecord
  2
*MODEL_SPACE
340
32D
 70
     0
280
     1
281
     0
  0
BLOCK_RECORD
  5
32F
330
1
100
AcDbSymbolTableRecord
100
AcDbBlockTableRecord
  2
*PAPER_SPACE
340
335
 70
     0
280
     1
281
     0
  0
BLOCK_RECORD
  5
47
330
1
100
AcDbSymbolTableRecord
100
AcDbBlockTableRecord
  2
*D0
340
0
 70
     0
280
     1
281
     0
  0
BLOCK_RECORD
  5
1B
330
1
100
AcDbSymbolTableRecord
100
AcDbBlockTableRecord
  2
*D1
340
0
 70
     0
280
     1
281
     0
  0
BLOCK_RECORD
  5
18D
330
1
100
AcDbSymbolTableRecord
100
AcDbBlockTableRecord
  2
*D2
340
0
 70
     0
280
     1
281
     0
  0
BLOCK_RECORD
  5
19C
330
1
100
AcDbSymbolTableRecord
100
AcDbBlockTableRecord
  2
*D3
340
0
 70
     0
280
     1
281
     0
  0
BLOCK_RECORD
  5
1A9
330
1
100
AcDbSymbolTableRecord
100
AcDbBlockTableRecord
  2
*D4
340
0
 70
     0
280
     1
281
     0
  0
BLOCK_RECORD
  5
1B6
330
1
100
AcDbSymbolTableRecord
100
AcDbBlockTableRecord
  2
*D5
340
0
 70
     0
280
     1
281
     0
  0
BLOCK_RECORD
  5
1C6
330
1
100
AcDbSymbolTableRecord
100
AcDbBlockTableRecord
  2
*D6
340
0
 70
     0
280
     1
281
     0
  0
BLOCK_RECORD
  5
1D4
330
1
100
AcDbSymbolTableRecord
100
AcDbBlockTableRecord
  2
*D7
340
0
 70
     0
280
     1
281
     0
  0
BLOCK_RECORD
  5
209
330
1
100
AcDbSymbolTableRecord
100
AcDbBlockTableRecord
  2
RA_A2_Pr
340
0
 70
     0
280
     1
281
     0
  0
BLOCK_RECORD
  5
314
330
1
100
AcDbSymbolTableRecord
100
AcDbBlockTableRecord
  2
A$C17D61B2D
340
0
102
{BLKREFS
331
313
102
}
 70
     0
280
     1
281
     0
  0
BLOCK_RECORD
  5
281
330
1
100
AcDbSymbolTableRecord
100
AcDbBlockTableRecord
  2
SF_PRI
340
0
 70
     0
280
     1
281
     0
  0
BLOCK_RECORD
  5
34E
330
1
100
AcDbSymbolTableRecord
100
AcDbBlockTableRecord
  2
ACO-SF
340
0
 70
     0
280
     1
281
     0
  0
BLOCK_RECORD
  5
3EE
330
1
100
AcDbSymbolTableRecord
100
AcDbBlockTableRecord
  2
logo_1200
340
0
 70
     0
280
     1
281
     0
  0
BLOCK_RECORD
  5
4FD
330
1
100
AcDbSymbolTableRecord
100
AcDbBlockTableRecord
  2
GENAXEH
340
0
 70
     0
280
     1
281
     0
  0
BLOCK_RECORD
  5
50B
330
1
100
AcDbSymbolTableRecord
100
AcDbBlockTableRecord
  2
_ACMFILLEDHALF
340
0
 70
     0
280
     1
281
     0
  0
ENDTAB
  0
ENDSEC
  0
SECTION
  2
BLOCKS
  0
BLOCK
  5
32B
330
2
100
AcDbEntity
  8
0
100
AcDbBlockBegin
  2
*MODEL_SPACE
 70
     0
 10
0.0
 20
0.0
 30
0.0
  3
*MODEL_SPACE
  1

  0
ENDBLK
  5
32C
330
2
100
AcDbEntity
  8
0
100
AcDbBlockEnd
  0
BLOCK
  5
333
330
32F
100
AcDbEntity
 67
     1
  8
0
100
AcDbBlockBegin
  2
*PAPER_SPACE
 70
     0
 10
0.0
 20
0.0
 30
0.0
  3
*PAPER_SPACE
  1

  0
ENDBLK
  5
334
330
32F
100
AcDbEntity
 67
     1
  8
0
100
AcDbBlockEnd
  0
BLOCK
  5
51
330
47
100
AcDbEntity
  8
0
100
AcDbBlockBegin
  2
*D0
 70
     1
 10
0.0
 20
0.0
 30
0.0
  3
*D0
  1

  0
LINE
  5
48
330
47
100
AcDbEntity
  8
BEMASS
440
 16777216
370
    -2
100
AcDbLine
 10
152.9862592776398
 20
362.3799399270654
 30
0.0
 11
152.9862592776398
 21
381.6420681836992
 31
0.0
  0
LINE
  5
49
330
47
100
AcDbEntity
  8
BEMASS
440
 16777216
370
    -2
100
AcDbLine
 10
302.9862592776404
 20
363.1420681836989
 30
0.0
 11
302.9862592776404
 21
381.6420681836992
 31
0.0
  0
LINE
  5
4A
330
47
100
AcDbEntity
  8
BEMASS
440
 16777216
370
    -2
100
AcDbLine
 10
156.4862592776399
 20
379.6420681836992
 30
0.0
 11
299.4862592776403
 21
379.6420681836992
 31
0.0
  0
SOLID
  5
4B
330
47
100
AcDbEntity
  8
BEMASS
440
 16777216
100
AcDbTrace
 10
156.4862592776399
 20
380.2254015170325
 30
0.0
 11
156.4862592776399
 21
379.0587348503659
 31
0.0
 12
152.9862592776398
 22
379.6420681836992
 32
0.0
 13
152.9862592776398
 23
379.6420681836992
 33
0.0
  0
SOLID
  5
4C
330
47
100
AcDbEntity
  8
BEMASS
440
 16777216
100
AcDbTrace
 10
299.4862592776403
 20
380.2254015170325
 30
0.0
 11
299.4862592776403
 21
379.0587348503659
 31
0.0
 12
302.9862592776404
 22
379.6420681836992
 32
0.0
 13
302.9862592776404
 23
379.6420681836992
 33
0.0
  0
MTEXT
  5
4D
330
47
100
AcDbEntity
  8
BEMASS
440
 16777216
100
AcDbMText
 10
227.9862592776401
 20
384.1420681836991
 30
0.0
 40
5.0
 41
0.0
 46
0.0
 71
     5
 72
     1
  1
\A1;150x150
 73
     1
 44
1.0
  0
POINT
  5
4E
330
47
100
AcDbEntity
  8
DEFPOINTS
 62
     0
440
 16777216
100
AcDbPoint
 10
152.9862592776398
 20
362.3799399270654
 30
0.0
  0
POINT
  5
4F
330
47
100
AcDbEntity
  8
DEFPOINTS
 62
     0
440
 16777216
100
AcDbPoint
 10
302.9862592776404
 20
363.1420681836989
 30
0.0
  0
POINT
  5
50
330
47
100
AcDbEntity
  8
DEFPOINTS
 62
     0
440
 16777216
100
AcDbPoint
 10
302.9862592776404
 20
379.6420681836992
 30
0.0
  0
ENDBLK
  5
52
330
47
100
AcDbEntity
  8
0
100
AcDbBlockEnd
  0
BLOCK
  5
27
330
1B
100
AcDbEntity
  8
0
100
AcDbBlockBegin
  2
*D1
 70
     1
 10
0.0
 20
0.0
 30
0.0
  3
*D1
  1

  0
LINE
  5
401
330
1B
100
AcDbEntity
  8
BEMASS
440
 16777216
370
    -2
100
AcDbLine
 10
152.9862592776396
 20
358.6420681836992
 30
0.0
 11
135.9862592776396
 21
358.6420681836992
 31
0.0
  0
LINE
  5
402
330
1B
100
AcDbEntity
  8
BEMASS
440
 16777216
370
    -2
100
AcDbLine
 10
154.4862592776398
 20
364.6420681836992
 30
0.0
 11
135.9862592776396
 21
364.6420681836992
 31
0.0
  0
LINE
  5
403
330
1B
100
AcDbEntity
  8
BEMASS
440
 16777216
370
    -2
100
AcDbLine
 10
137.9862592776396
 20
355.1420681836991
 30
0.0
 11
137.9862592776396
 21
351.6420681836992
 31
0.0
  0
LINE
  5
404
330
1B
100
AcDbEntity
  8
BEMASS
440
 16777216
370
    -2
100
AcDbLine
 10
137.9862592776396
 20
368.1420681836992
 30
0.0
 11
137.9862592776396
 21
371.6420681836992
 31
0.0
  0
SOLID
  5
405
330
1B
100
AcDbEntity
  8
BEMASS
440
 16777216
100
AcDbTrace
 10
137.4029259443063
 20
355.1420681836991
 30
0.0
 11
138.569592610973
 21
355.1420681836991
 31
0.0
 12
137.9862592776396
 22
358.6420681836992
 32
0.0
 13
137.9862592776396
 23
358.6420681836992
 33
0.0
  0
SOLID
  5
406
330
1B
100
AcDbEntity
  8
BEMASS
440
 16777216
100
AcDbTrace
 10
137.4029259443063
 20
368.1420681836992
 30
0.0
 11
138.569592610973
 21
368.1420681836992
 31
0.0
 12
137.9862592776396
 22
364.6420681836992
 32
0.0
 13
137.9862592776396
 23
364.6420681836992
 33
0.0
  0
MTEXT
  5
407
330
1B
100
AcDbEntity
  8
BEMASS
440
 16777216
100
AcDbMText
 10
133.4862592776396
 20
361.6420681836992
 30
0.0
 40
5.0
 41
0.0
 46
0.0
 71
     5
 72
     1
  1
\A1;6
 11
0.0000000000000001
 21
1.0
 31
0.0
 73
     1
 44
1.0
  0
POINT
  5
408
330
1B
100
AcDbEntity
  8
DEFPOINTS
 62
     0
440
 16777216
100
AcDbPoint
 10
152.9862592776396
 20
358.6420681836992
 30
0.0
  0
POINT
  5
409
330
1B
100
AcDbEntity
  8
DEFPOINTS
 62
     0
440
 16777216
100
AcDbPoint
 10
154.4862592776398
 20
364.6420681836992
 30
0.0
  0
POINT
  5
40A
330
1B
100
AcDbEntity
  8
DEFPOINTS
 62
     0
440
 16777216
100
AcDbPoint
 10
137.9862592776396
 20
364.6420681836992
 30
0.0
  0
ENDBLK
  5
29
330
1B
100
AcDbEntity
  8
0
100
AcDbBlockEnd
  0
BLOCK
  5
197
330
18D
100
AcDbEntity
  8
0
100
AcDbBlockBegin
  2
*D2
 70
     1
 10
0.0
 20
0.0
 30
0.0
  3
*D2
  1

  0
LINE
  5
18E
330
18D
100
AcDbEntity
  8
BEMASS
440
 16777216
370
    -2
100
AcDbLine
 10
328.4580647105782
 20
290.6669615353866
 30
0.0
 11
375.3287638453057
 21
288.6205426163833
 31
0.0
  0
LINE
  5
18F
330
18D
100
AcDbEntity
  8
BEMASS
440
 16777216
370
    -2
100
AcDbLine
 10
329.8538851062689
 20
322.6365046260061
 30
0.0
 11
376.7245842409964
 21
320.5900857070028
 31
0.0
  0
LINE
  5
190
330
18D
100
AcDbEntity
  8
BEMASS
440
 16777216
370
    -2
100
AcDbLine
 10
373.4833352579206
 20
292.2044501666504
 30
0.0
 11
374.573819942054
 21
317.180655706197
 31
0.0
  0
SOLID
  5
191
330
18D
100
AcDbEntity
  8
BEMASS
440
 16777216
100
AcDbTrace
 10
372.9005571286645
 20
292.2298948092802
 30
0.0
 11
374.0661133871767
 21
292.1790055240206
 31
0.0
 12
373.330667402142
 22
288.7077813911139
 32
0.0
 13
373.330667402142
 23
288.7077813911139
 33
0.0
  0
SOLID
  5
192
330
18D
100
AcDbEntity
  8
BEMASS
440
 16777216
100
AcDbTrace
 10
373.991041812798
 20
317.2061003488267
 30
0.0
 11
375.1565980713101
 21
317.1552110635671
 31
0.0
 12
374.7264877978327
 22
320.6773244817334
 32
0.0
 13
374.7264877978327
 23
320.6773244817334
 33
0.0
  0
MTEXT
  5
193
330
18D
100
AcDbEntity
  8
BEMASS
440
 16777216
100
AcDbMText
 10
369.532860602869
 20
304.8888401795677
 30
0.0
 40
5.0
 41
0.0
 46
0.0
 71
     5
 72
     1
  1
\A1;%%c32
 11
0.0436193873653358
 21
0.9990482215818577
 31
0.0
 73
     1
 44
1.0
  0
POINT
  5
194
330
18D
100
AcDbEntity
  8
DEFPOINTS
 62
     0
440
 16777216
100
AcDbPoint
 10
328.4580647105782
 20
290.6669615353866
 30
0.0
  0
POINT
  5
195
330
18D
100
AcDbEntity
  8
DEFPOINTS
 62
     0
440
 16777216
100
AcDbPoint
 10
329.8538851062689
 20
322.6365046260061
 30
0.0
  0
POINT
  5
196
330
18D
100
AcDbEntity
  8
DEFPOINTS
 62
     0
440
 16777216
100
AcDbPoint
 10
374.7264877978327
 20
320.6773244817334
 30
0.0
  0
ENDBLK
  5
198
330
18D
100
AcDbEntity
  8
0
100
AcDbBlockEnd
  0
BLOCK
  5
1A6
330
19C
100
AcDbEntity
  8
0
100
AcDbBlockBegin
  2
*D3
 70
     1
 10
0.0
 20
0.0
 30
0.0
  3
*D3
  1

  0
LINE
  5
19D
330
19C
100
AcDbEntity
  8
BEMASS
440
 16777216
370
    -2
100
AcDbLine
 10
102.9862592776414
 20
342.6420681837018
 30
0.0
 11
102.9862592776414
 21
393.4554806773886
 31
0.0
  0
LINE
  5
19E
330
19C
100
AcDbEntity
  8
BEMASS
440
 16777216
370
    -2
100
AcDbLine
 10
352.9862592776385
 20
342.6420681837015
 30
0.0
 11
352.9862592776385
 21
393.4554806773886
 31
0.0
  0
LINE
  5
19F
330
19C
100
AcDbEntity
  8
BEMASS
440
 16777216
370
    -2
100
AcDbLine
 10
106.4862592776414
 20
391.4554806773886
 30
0.0
 11
349.4862592776385
 21
391.4554806773886
 31
0.0
  0
SOLID
  5
1A0
330
19C
100
AcDbEntity
  8
BEMASS
440
 16777216
100
AcDbTrace
 10
106.4862592776414
 20
392.0388140107219
 30
0.0
 11
106.4862592776414
 21
390.8721473440552
 31
0.0
 12
102.9862592776414
 22
391.4554806773886
 32
0.0
 13
102.9862592776414
 23
391.4554806773886
 33
0.0
  0
SOLID
  5
1A1
330
19C
100
AcDbEntity
  8
BEMASS
440
 16777216
100
AcDbTrace
 10
349.4862592776385
 20
392.0388140107219
 30
0.0
 11
349.4862592776385
 21
390.8721473440552
 31
0.0
 12
352.9862592776385
 22
391.4554806773886
 32
0.0
 13
352.9862592776385
 23
391.4554806773886
 33
0.0
  0
MTEXT
  5
1A2
330
19C
100
AcDbEntity
  8
BEMASS
440
 16777216
100
AcDbMText
 10
227.98625927764
 20
395.9554806773886
 30
0.0
 40
5.0
 41
0.0
 46
0.0
 71
     5
 72
     1
  1
\A1;%%c250
 73
     1
 44
1.0
  0
POINT
  5
1A3
330
19C
100
AcDbEntity
  8
DEFPOINTS
 62
     0
440
 16777216
100
AcDbPoint
 10
102.9862592776414
 20
342.6420681837018
 30
0.0
  0
POINT
  5
1A4
330
19C
100
AcDbEntity
  8
DEFPOINTS
 62
     0
440
 16777216
100
AcDbPoint
 10
352.9862592776385
 20
342.6420681837015
 30
0.0
  0
POINT
  5
1A5
330
19C
100
AcDbEntity
  8
DEFPOINTS
 62
     0
440
 16777216
100
AcDbPoint
 10
352.9862592776385
 20
391.4554806773886
 30
0.0
  0
ENDBLK
  5
1A7
330
19C
100
AcDbEntity
  8
0
100
AcDbBlockEnd
  0
BLOCK
  5
1B3
330
1A9
100
AcDbEntity
  8
0
100
AcDbBlockBegin
  2
*D4
 70
     1
 10
0.0
 20
0.0
 30
0.0
  3
*D4
  1

  0
LINE
  5
1AA
330
1A9
100
AcDbEntity
  8
BEMASS
440
 16777216
370
    -2
100
AcDbLine
 10
233.0386341954838
 20
292.6420681836992
 30
0.0
 11
86.47598137426372
 21
292.6420681836992
 31
0.0
  0
LINE
  5
1AB
330
1A9
100
AcDbEntity
  8
BEMASS
440
 16777216
370
    -2
100
AcDbLine
 10
109.601094470506
 20
344.6420681837015
 30
0.0
 11
86.47598137426371
 21
344.6420681837015
 31
0.0
  0
LINE
  5
1AC
330
1A9
100
AcDbEntity
  8
BEMASS
440
 16777216
370
    -2
100
AcDbLine
 10
88.47598137426372
 20
296.1420681836992
 30
0.0
 11
88.47598137426372
 21
341.1420681837014
 31
0.0
  0
SOLID
  5
1AD
330
1A9
100
AcDbEntity
  8
BEMASS
440
 16777216
100
AcDbTrace
 10
87.89264804093038
 20
296.1420681836992
 30
0.0
 11
89.05931470759703
 21
296.1420681836992
 31
0.0
 12
88.47598137426372
 22
292.6420681836992
 32
0.0
 13
88.47598137426372
 23
292.6420681836992
 33
0.0
  0
SOLID
  5
1AE
330
1A9
100
AcDbEntity
  8
BEMASS
440
 16777216
100
AcDbTrace
 10
87.89264804093038
 20
341.1420681837014
 30
0.0
 11
89.05931470759703
 21
341.1420681837014
 31
0.0
 12
88.47598137426372
 22
344.6420681837015
 32
0.0
 13
88.47598137426372
 23
344.6420681837015
 33
0.0
  0
MTEXT
  5
1AF
330
1A9
100
AcDbEntity
  8
BEMASS
440
 16777216
100
AcDbMText
 10
83.97598137426365
 20
318.6420681837003
 30
0.0
 40
5.0
 41
0.0
 46
0.0
 71
     5
 72
     1
  1
\A1;52
 11
0.0000000000000001
 21
1.0
 31
0.0
 73
     1
 44
1.0
  0
POINT
  5
1B0
330
1A9
100
AcDbEntity
  8
DEFPOINTS
 62
     0
440
 16777216
100
AcDbPoint
 10
233.0386341954838
 20
292.6420681836992
 30
0.0
  0
POINT
  5
1B1
330
1A9
100
AcDbEntity
  8
DEFPOINTS
 62
     0
440
 16777216
100
AcDbPoint
 10
109.601094470506
 20
344.6420681837015
 30
0.0
  0
POINT
  5
1B2
330
1A9
100
AcDbEntity
  8
DEFPOINTS
 62
     0
440
 16777216
100
AcDbPoint
 10
88.47598137426372
 20
344.6420681837015
 30
0.0
  0
ENDBLK
  5
1B4
330
1A9
100
AcDbEntity
  8
0
100
AcDbBlockEnd
  0
BLOCK
  5
1C0
330
1B6
100
AcDbEntity
  8
0
100
AcDbBlockBegin
  2
*D5
 70
     1
 10
0.0
 20
0.0
 30
0.0
  3
*D5
  1

  0
LINE
  5
1B7
330
1B6
100
AcDbEntity
  8
BEMASS
440
 16777216
370
    -2
100
AcDbLine
 10
154.4862592776398
 20
364.6420681836992
 30
0.0
 11
73.11355757554135
 21
364.6420681836992
 31
0.0
  0
LINE
  5
1B8
330
1B6
100
AcDbEntity
  8
BEMASS
440
 16777216
370
    -2
100
AcDbLine
 10
233.0386341954838
 20
292.6420681836992
 30
0.0
 11
73.11355757554135
 21
292.6420681836992
 31
0.0
  0
LINE
  5
1B9
330
1B6
100
AcDbEntity
  8
BEMASS
440
 16777216
370
    -2
100
AcDbLine
 10
75.11355757554134
 20
361.1420681836992
 30
0.0
 11
75.11355757554134
 21
296.1420681836992
 31
0.0
  0
SOLID
  5
1BA
330
1B6
100
AcDbEntity
  8
BEMASS
440
 16777216
100
AcDbTrace
 10
74.53022424220802
 20
361.1420681836992
 30
0.0
 11
75.69689090887468
 21
361.1420681836992
 31
0.0
 12
75.11355757554134
 22
364.6420681836992
 32
0.0
 13
75.11355757554134
 23
364.6420681836992
 33
0.0
  0
SOLID
  5
1BB
330
1B6
100
AcDbEntity
  8
BEMASS
440
 16777216
100
AcDbTrace
 10
74.53022424220801
 20
296.1420681836992
 30
0.0
 11
75.69689090887466
 21
296.1420681836992
 31
0.0
 12
75.11355757554134
 22
292.6420681836992
 32
0.0
 13
75.11355757554134
 23
292.6420681836992
 33
0.0
  0
MTEXT
  5
1BC
330
1B6
100
AcDbEntity
  8
BEMASS
440
 16777216
100
AcDbMText
 10
70.61355757554128
 20
328.6420681836992
 30
0.0
 40
5.0
 41
0.0
 46
0.0
 71
     5
 72
     1
  1
\A1;62-72
 11
0.0000000000000001
 21
1.0
 31
0.0
 73
     1
 44
1.0
  0
POINT
  5
1BD
330
1B6
100
AcDbEntity
  8
DEFPOINTS
 62
     0
440
 16777216
100
AcDbPoint
 10
154.4862592776398
 20
364.6420681836992
 30
0.0
  0
POINT
  5
1BE
330
1B6
100
AcDbEntity
  8
DEFPOINTS
 62
     0
440
 16777216
100
AcDbPoint
 10
233.0386341954838
 20
292.6420681836992
 30
0.0
  0
POINT
  5
1BF
330
1B6
100
AcDbEntity
  8
DEFPOINTS
 62
     0
440
 16777216
100
AcDbPoint
 10
75.11355757554134
 20
292.6420681836992
 30
0.0
  0
ENDBLK
  5
1C1
330
1B6
100
AcDbEntity
  8
0
100
AcDbBlockEnd
  0
BLOCK
  5
1D1
330
1C6
100
AcDbEntity
  8
0
100
AcDbBlockBegin
  2
*D6
 70
     1
 10
0.0
 20
0.0
 30
0.0
  3
*D6
  1

  0
LINE
  5
1C7
330
1C6
100
AcDbEntity
  8
BEMASS
440
 16777216
370
    -2
100
AcDbLine
 10
110.1718725308467
 20
344.6420681837004
 30
0.0
 11
86.51350930280363
 21
344.6420681837004
 31
0.0
  0
LINE
  5
1C8
330
1C6
100
AcDbEntity
  8
BEMASS
440
 16777216
370
    -2
100
AcDbLine
 10
154.4862592776398
 20
364.6420681836992
 30
0.0
 11
86.51350930280363
 21
364.6420681836992
 31
0.0
  0
LINE
  5
1C9
330
1C6
100
AcDbEntity
  8
BEMASS
440
 16777216
370
    -2
100
AcDbLine
 10
88.51350930280363
 20
341.1420681837004
 30
0.0
 11
88.51350930280363
 21
337.6420681837004
 31
0.0
  0
LINE
  5
1CA
330
1C6
100
AcDbEntity
  8
BEMASS
440
 16777216
370
    -2
100
AcDbLine
 10
88.51350930280364
 20
368.1420681836992
 30
0.0
 11
88.51350930280364
 21
371.6420681836992
 31
0.0
  0
SOLID
  5
1CB
330
1C6
100
AcDbEntity
  8
BEMASS
440
 16777216
100
AcDbTrace
 10
87.93017596947029
 20
341.1420681837004
 30
0.0
 11
89.09684263613696
 21
341.1420681837004
 31
0.0
 12
88.51350930280363
 22
344.6420681837004
 32
0.0
 13
88.51350930280363
 23
344.6420681837004
 33
0.0
  0
SOLID
  5
1CC
330
1C6
100
AcDbEntity
  8
BEMASS
440
 16777216
100
AcDbTrace
 10
87.93017596947031
 20
368.1420681836992
 30
0.0
 11
89.09684263613696
 21
368.1420681836992
 31
0.0
 12
88.51350930280364
 22
364.6420681836992
 32
0.0
 13
88.51350930280364
 23
364.6420681836992
 33
0.0
  0
MTEXT
  5
1CD
330
1C6
100
AcDbEntity
  8
BEMASS
440
 16777216
100
AcDbMText
 10
84.01350930280358
 20
354.6420681836999
 30
0.0
 40
5.0
 41
0.0
 46
0.0
 71
     5
 72
     1
  1
\A1;10-20
 11
0.0000000000000001
 21
1.0
 31
0.0
 73
     1
 44
1.0
  0
POINT
  5
1CE
330
1C6
100
AcDbEntity
  8
DEFPOINTS
 62
     0
440
 16777216
100
AcDbPoint
 10
110.1718725308467
 20
344.6420681837004
 30
0.0
  0
POINT
  5
1CF
330
1C6
100
AcDbEntity
  8
DEFPOINTS
 62
     0
440
 16777216
100
AcDbPoint
 10
154.4862592776398
 20
364.6420681836992
 30
0.0
  0
POINT
  5
1D0
330
1C6
100
AcDbEntity
  8
DEFPOINTS
 62
     0
440
 16777216
100
AcDbPoint
 10
88.51350930280364
 20
364.6420681836992
 30
0.0
  0
ENDBLK
  5
1D2
330
1C6
100
AcDbEntity
  8
0
100
AcDbBlockEnd
  0
BLOCK
  5
1DE
330
1D4
100
AcDbEntity
  8
0
100
AcDbBlockBegin
  2
*D7
 70
     1
 10
0.0
 20
0.0
 30
0.0
  3
*D7
  1

  0
LINE
  5
1D5
330
1D4
100
AcDbEntity
  8
BEMASS
440
 16777216
370
    -2
100
AcDbLine
 10
227.9862592776399
 20
292.6420681836992
 30
0.0
 11
227.9862592776399
 21
277.2906641465452
 31
0.0
  0
LINE
  5
1D6
330
1D4
100
AcDbEntity
  8
BEMASS
440
 16777216
370
    -2
100
AcDbLine
 10
333.152167794751
 20
306.4772555312352
 30
0.0
 11
333.152167794751
 21
277.2906641465452
 31
0.0
  0
LINE
  5
1D7
330
1D4
100
AcDbEntity
  8
BEMASS
440
 16777216
370
    -2
100
AcDbLine
 10
231.4862592776399
 20
279.2906641465452
 30
0.0
 11
329.652167794751
 21
279.2906641465452
 31
0.0
  0
SOLID
  5
1D8
330
1D4
100
AcDbEntity
  8
BEMASS
440
 16777216
100
AcDbTrace
 10
231.4862592776399
 20
279.8739974798785
 30
0.0
 11
231.4862592776399
 21
278.7073308132118
 31
0.0
 12
227.9862592776399
 22
279.2906641465452
 32
0.0
 13
227.9862592776399
 23
279.2906641465452
 33
0.0
  0
SOLID
  5
1D9
330
1D4
100
AcDbEntity
  8
BEMASS
440
 16777216
100
AcDbTrace
 10
329.652167794751
 20
279.8739974798785
 30
0.0
 11
329.652167794751
 21
278.7073308132118
 31
0.0
 12
333.152167794751
 22
279.2906641465452
 32
0.0
 13
333.152167794751
 23
279.2906641465452
 33
0.0
  0
MTEXT
  5
1DA
330
1D4
100
AcDbEntity
  8
BEMASS
440
 16777216
100
AcDbMText
 10
280.5692135361955
 20
283.7906641465452
 30
0.0
 40
5.0
 41
0.0
 46
0.0
 71
     5
 72
     1
  1
\A1;105
 73
     1
 44
1.0
  0
POINT
  5
1DB
330
1D4
100
AcDbEntity
  8
DEFPOINTS
 62
     0
440
 16777216
100
AcDbPoint
 10
227.9862592776399
 20
292.6420681836992
 30
0.0
  0
POINT
  5
1DC
330
1D4
100
AcDbEntity
  8
DEFPOINTS
 62
     0
440
 16777216
100
AcDbPoint
 10
333.152167794751
 20
306.4772555312352
 30
0.0
  0
POINT
  5
1DD
330
1D4
100
AcDbEntity
  8
DEFPOINTS
 62
     0
440
 16777216
100
AcDbPoint
 10
333.152167794751
 20
279.2906641465452
 30
0.0
  0
ENDBLK
  5
1DF
330
1D4
100
AcDbEntity
  8
0
100
AcDbBlockEnd
  0
BLOCK
  5
253
330
209
100
AcDbEntity
  8
0
100
AcDbBlockBegin
  2
RA_A2_Pr
 70
     0
 10
0.0
 20
0.0
 30
0.0
  3
RA_A2_Pr
  1

  0
LWPOLYLINE
  5
20A
330
209
100
AcDbEntity
  8
KOPF
 62
    22
100
AcDbPolyline
 90
        4
 70
     1
 43
0.7
 10
588.0
 20
414.0
 10
588.0
 20
6.0
 10
21.0
 20
6.0
 10
21.0
 20
414.0
  0
LINE
  5
20D
330
209
100
AcDbEntity
  8
KOPF
 62
    22
100
AcDbLine
 10
0.0
 20
420.0
 30
0.0
 11
594.0
 21
420.0
 31
0.0
  0
LINE
  5
20E
330
209
100
AcDbEntity
  8
KOPF
 62
    22
100
AcDbLine
 10
594.0
 20
0.0
 30
0.0
 11
0.0
 21
0.0
 31
0.0
  0
LINE
  5
20F
330
209
100
AcDbEntity
  8
KOPF
 62
    22
100
AcDbLine
 10
0.0
 20
0.0
 30
0.0
 11
0.0
 21
420.0
 31
0.0
  0
TEXT
  5
210
330
209
100
AcDbEntity
  8
KOPF
 62
    22
100
AcDbText
 10
16.12763230177199
 20
41.42224686135696
 30
0.0
 40
2.5
  1
A
 41
0.8
  7
TEXT25
100
AcDbText
  0
LINE
  5
212
330
209
100
AcDbEntity
  8
KOPF
 62
    22
100
AcDbLine
 10
21.0
 20
79.00000000000002
 30
0.0
 11
18.0
 21
79.00000000000002
 31
0.0
  0
TEXT
  5
213
330
209
100
AcDbEntity
  8
KOPF
 62
    22
100
AcDbText
 10
16.12763230177199
 20
114.422246861357
 30
0.0
 40
2.5
  1
B
 41
0.8
  7
TEXT25
100
AcDbText
  0
TEXT
  5
214
330
209
100
AcDbEntity
  8
KOPF
 62
    22
100
AcDbText
 10
56.29677316682592
 20
1.370968748636755
 30
0.0
 40
2.5
  1
1
 41
0.8
  7
TEXT25
100
AcDbText
  0
LINE
  5
215
330
209
100
AcDbEntity
  8
KOPF
 62
    22
100
AcDbLine
 10
93.0
 20
6.0
 30
0.0
 11
93.0
 21
3.0
 31
0.0
  0
TEXT
  5
216
330
209
100
AcDbEntity
  8
KOPF
 62
    22
100
AcDbText
 10
128.2967731668259
 20
1.370968748636755
 30
0.0
 40
2.5
  1
2
 41
0.8
  7
TEXT25
100
AcDbText
  0
LINE
  5
217
330
209
100
AcDbEntity
  8
KOPF
 62
    22
100
AcDbLine
 10
165.0
 20
6.0
 30
0.0
 11
165.0
 21
3.0
 31
0.0
  0
TEXT
  5
218
330
209
100
AcDbEntity
  8
KOPF
 62
    22
100
AcDbText
 10
200.2967731668259
 20
1.370968748636755
 30
0.0
 40
2.5
  1
3
 41
0.8
  7
TEXT25
100
AcDbText
  0
LINE
  5
219
330
209
100
AcDbEntity
  8
KOPF
 62
    22
100
AcDbLine
 10
210.0
 20
0.0
 30
0.0
 11
210.0
 21
6.0
 31
0.0
  0
LINE
  5
21A
330
209
100
AcDbEntity
  8
KOPF
 62
    22
100
AcDbLine
 10
0.0
 20
148.5
 30
0.0
 11
10.54770188609711
 21
148.5
 31
0.0
  0
LINE
  5
21B
330
209
100
AcDbEntity
  8
KOPF
 62
    22
100
AcDbLine
 10
21.0
 20
152.0
 30
0.0
 11
18.0
 21
152.0
 31
0.0
  0
TEXT
  5
21C
330
209
100
AcDbEntity
  8
KOPF
 62
    22
100
AcDbText
 10
16.12763230177199
 20
187.4222468613569
 30
0.0
 40
2.5
  1
C
 41
0.8
  7
TEXT25
100
AcDbText
  0
LINE
  5
21D
330
209
100
AcDbEntity
  8
KOPF
 62
    22
100
AcDbLine
 10
21.0
 20
225.0
 30
0.0
 11
18.0
 21
225.0
 31
0.0
  0
TEXT
  5
21E
330
209
100
AcDbEntity
  8
KOPF
 62
    22
100
AcDbText
 10
16.12763230177199
 20
260.422246861357
 30
0.0
 40
2.5
  1
D
 41
0.8
  7
TEXT25
100
AcDbText
  0
LINE
  5
21F
330
209
100
AcDbEntity
  8
KOPF
 62
    22
100
AcDbLine
 10
12.33785021057986
 20
296.9999999999999
 30
0.0
 11
21.0
 21
296.9999999999999
 31
0.0
  0
LINE
  5
220
330
209
100
AcDbEntity
  8
KOPF
 62
    22
100
AcDbLine
 10
21.0
 20
298.0
 30
0.0
 11
18.0
 21
298.0
 31
0.0
  0
TEXT
  5
221
330
209
100
AcDbEntity
  8
KOPF
 62
    22
100
AcDbText
 10
16.12763230177199
 20
333.422246861357
 30
0.0
 40
2.5
  1
E
 41
0.8
  7
TEXT25
100
AcDbText
  0
LINE
  5
222
330
209
100
AcDbEntity
  8
KOPF
 62
    22
100
AcDbLine
 10
21.0
 20
371.0
 30
0.0
 11
18.0
 21
371.0
 31
0.0
  0
TEXT
  5
223
330
209
100
AcDbEntity
  8
KOPF
 62
    22
100
AcDbText
 10
16.12763230177199
 20
393.4920404627393
 30
0.0
 40
2.5
  1
F
 41
0.8
  7
TEXT25
100
AcDbText
  0
TEXT
  5
224
330
209
100
AcDbEntity
  8
KOPF
 62
    22
100
AcDbText
 10
56.29677316682592
 20
415.6290312513632
 30
0.0
 40
2.5
  1
1
 41
0.8
  7
TEXT25
100
AcDbText
  0
LINE
  5
225
330
209
100
AcDbEntity
  8
KOPF
 62
    22
100
AcDbLine
 10
93.0
 20
414.0
 30
0.0
 11
93.0
 21
417.0
 31
0.0
  0
TEXT
  5
226
330
209
100
AcDbEntity
  8
KOPF
 62
    22
100
AcDbText
 10
128.2967731668259
 20
415.6290312513632
 30
0.0
 40
2.5
  1
2
 41
0.8
  7
TEXT25
100
AcDbText
  0
LINE
  5
227
330
209
100
AcDbEntity
  8
KOPF
 62
    22
100
AcDbLine
 10
165.0
 20
414.0
 30
0.0
 11
165.0
 21
417.0
 31
0.0
  0
TEXT
  5
228
330
209
100
AcDbEntity
  8
KOPF
 62
    22
100
AcDbText
 10
200.2967731668259
 20
415.6290312513632
 30
0.0
 40
2.5
  1
3
 41
0.8
  7
TEXT25
100
AcDbText
  0
LINE
  5
229
330
209
100
AcDbEntity
  8
KOPF
 62
    22
100
AcDbLine
 10
594.0
 20
420.0
 30
0.0
 11
594.0
 21
0.0
 31
0.0
  0
LINE
  5
22A
330
209
100
AcDbEntity
  8
KOPF
 62
    22
100
AcDbLine
 10
237.0
 20
6.0
 30
0.0
 11
237.0
 21
3.0
 31
0.0
  0
TEXT
  5
22B
330
209
100
AcDbEntity
  8
KOPF
 62
    22
100
AcDbText
 10
272.2967731668259
 20
1.370968748636755
 30
0.0
 40
2.5
  1
4
 41
0.8
  7
TEXT25
100
AcDbText
  0
LINE
  5
22C
330
209
100
AcDbEntity
  8
KOPF
 62
    22
100
AcDbLine
 10
309.0
 20
6.0
 30
0.0
 11
309.0
 21
3.0
 31
0.0
  0
TEXT
  5
22D
330
209
100
AcDbEntity
  8
KOPF
 62
    22
100
AcDbText
 10
345.2967731668259
 20
1.370968748636755
 30
0.0
 40
2.5
  1
5
 41
0.8
  7
TEXT25
100
AcDbText
  0
LINE
  5
22E
330
209
100
AcDbEntity
  8
KOPF
 62
    22
100
AcDbLine
 10
381.0
 20
6.0
 30
0.0
 11
381.0
 21
3.0
 31
0.0
  0
LINE
  5
22F
330
209
100
AcDbEntity
  8
KOPF
 62
    22
100
AcDbLine
 10
398.0
 20
6.0
 30
0.0
 11
398.0
 21
0.0
 31
0.0
  0
TEXT
  5
230
330
209
100
AcDbEntity
  8
KOPF
 62
    22
100
AcDbText
 10
416.2967731668259
 20
1.370968748636755
 30
0.0
 40
2.5
  1
6
 41
0.8
  7
TEXT25
100
AcDbText
  0
LINE
  5
231
330
209
100
AcDbEntity
  8
KOPF
 62
    22
100
AcDbLine
 10
525.0699601119618
 20
6.0
 30
0.0
 11
525.0699601119618
 21
3.0
 31
0.0
  0
TEXT
  5
232
330
209
100
AcDbEntity
  8
KOPF
 62
    22
100
AcDbText
 10
580.8263465050426
 20
1.370968748636755
 30
0.0
 40
3.0
  1
A2
 41
0.8
  7
BEMSTIL
100
AcDbText
  0
TEXT
  5
234
330
209
100
AcDbEntity
  8
KOPF
 62
    22
100
AcDbText
 10
589.5361572162235
 20
41.42224686135693
 30
0.0
 40
2.5
  1
A
 41
0.8
  7
TEXT25
100
AcDbText
  0
LINE
  5
235
330
209
100
AcDbEntity
  8
KOPF
 62
    22
100
AcDbLine
 10
588.0
 20
79.00000000000002
 30
0.0
 11
591.0
 21
79.00000000000002
 31
0.0
  0
TEXT
  5
236
330
209
100
AcDbEntity
  8
KOPF
 62
    22
100
AcDbText
 10
589.8161572162234
 20
114.422246861357
 30
0.0
 40
2.5
  1
B
 41
0.8
  7
TEXT25
100
AcDbText
  0
LINE
  5
237
330
209
100
AcDbEntity
  8
KOPF
 62
    22
100
AcDbLine
 10
237.0
 20
414.0
 30
0.0
 11
237.0
 21
417.0
 31
0.0
  0
TEXT
  5
238
330
209
100
AcDbEntity
  8
KOPF
 62
    22
100
AcDbText
 10
272.2967731668259
 20
415.6290312513632
 30
0.0
 40
3.0
  1
4
 41
0.8
  7
BEMSTIL
100
AcDbText
  0
LINE
  5
239
330
209
100
AcDbEntity
  8
KOPF
 62
    22
100
AcDbLine
 10
309.0
 20
414.0
 30
0.0
 11
309.0
 21
417.0
 31
0.0
  0
TEXT
  5
23A
330
209
100
AcDbEntity
  8
KOPF
 62
    22
100
AcDbText
 10
345.2967731668259
 20
415.6290312513632
 30
0.0
 40
2.5
  1
5
 41
0.8
  7
TEXT25
100
AcDbText
  0
LINE
  5
23B
330
209
100
AcDbEntity
  8
KOPF
 62
    22
100
AcDbLine
 10
381.0
 20
414.0
 30
0.0
 11
381.0
 21
417.0
 31
0.0
  0
LINE
  5
23C
330
209
100
AcDbEntity
  8
KOPF
 62
    22
100
AcDbLine
 10
588.0
 20
152.0
 30
0.0
 11
591.0
 21
152.0
 31
0.0
  0
TEXT
  5
23D
330
209
100
AcDbEntity
  8
KOPF
 62
    22
100
AcDbText
 10
589.9421173281852
 20
187.4222468613569
 30
0.0
 40
2.5
  1
C
 41
0.8
  7
TEXT25
100
AcDbText
  0
TEXT
  5
23E
330
209
100
AcDbEntity
  8
KOPF
 62
    22
100
AcDbText
 10
589.9421173281852
 20
187.4222468613569
 30
0.0
 40
2.5
  1
C
 41
0.8
  7
TEXT25
100
AcDbText
  0
TEXT
  5
23F
330
209
100
AcDbEntity
  8
KOPF
 62
    22
100
AcDbText
 10
589.8721572162234
 20
187.4222468613569
 30
0.0
 40
2.5
  1
C
 41
0.8
  7
TEXT25
100
AcDbText
  0
LINE
  5
240
330
209
100
AcDbEntity
  8
KOPF
 62
    22
100
AcDbLine
 10
588.0699601119617
 20
225.0
 30
0.0
 11
591.0699601119618
 21
225.0
 31
0.0
  0
LINE
  5
241
330
209
100
AcDbEntity
  8
KOPF
 62
    22
100
AcDbLine
 10
588.0699601119617
 20
225.0
 30
0.0
 11
591.0699601119618
 21
225.0
 31
0.0
  0
LINE
  5
242
330
209
100
AcDbEntity
  8
KOPF
 62
    22
100
AcDbLine
 10
588.0
 20
225.0
 30
0.0
 11
591.0
 21
225.0
 31
0.0
  0
TEXT
  5
243
330
209
100
AcDbEntity
  8
KOPF
 62
    22
100
AcDbText
 10
589.8861173281852
 20
260.422246861357
 30
0.0
 40
2.5
  1
D
 41
0.8
  7
TEXT25
100
AcDbText
  0
TEXT
  5
244
330
209
100
AcDbEntity
  8
KOPF
 62
    22
100
AcDbText
 10
589.8861173281852
 20
260.422246861357
 30
0.0
 40
2.5
  1
D
 41
0.8
  7
TEXT25
100
AcDbText
  0
TEXT
  5
245
330
209
100
AcDbEntity
  8
KOPF
 62
    22
100
AcDbText
 10
589.8161572162234
 20
260.422246861357
 30
0.0
 40
2.5
  1
D
 41
0.8
  7
TEXT25
100
AcDbText
  0
TEXT
  5
246
330
209
100
AcDbEntity
  8
KOPF
 62
    22
100
AcDbText
 10
416.2967731668259
 20
415.6290312513632
 30
0.0
 40
2.5
  1
6
 41
0.8
  7
TEXT25
100
AcDbText
  0
LINE
  5
247
330
209
100
AcDbEntity
  8
KOPF
 62
    22
100
AcDbLine
 10
453.0
 20
414.0
 30
0.0
 11
453.0
 21
417.0
 31
0.0
  0
TEXT
  5
248
330
209
100
AcDbEntity
  8
KOPF
 62
    22
100
AcDbText
 10
488.2967731668259
 20
415.6290312513632
 30
0.0
 40
2.5
  1
7
 41
0.8
  7
TEXT25
100
AcDbText
  0
LINE
  5
249
330
209
100
AcDbEntity
  8
KOPF
 62
    22
100
AcDbLine
 10
588.0699601119617
 20
298.0
 30
0.0
 11
591.0699601119618
 21
298.0
 31
0.0
  0
LINE
  5
24A
330
209
100
AcDbEntity
  8
KOPF
 62
    22
100
AcDbLine
 10
588.0699601119617
 20
298.0
 30
0.0
 11
591.0699601119618
 21
298.0
 31
0.0
  0
LINE
  5
24B
330
209
100
AcDbEntity
  8
KOPF
 62
    22
100
AcDbLine
 10
588.0
 20
298.0
 30
0.0
 11
591.0
 21
298.0
 31
0.0
  0
TEXT
  5
24C
330
209
100
AcDbEntity
  8
KOPF
 62
    22
100
AcDbText
 10
589.8861173281852
 20
333.422246861357
 30
0.0
 40
2.5
  1
E
 41
0.8
  7
TEXT25
100
AcDbText
  0
TEXT
  5
24D
330
209
100
AcDbEntity
  8
KOPF
 62
    22
100
AcDbText
 10
589.8861173281852
 20
333.422246861357
 30
0.0
 40
2.5
  1
E
 41
0.8
  7
TEXT25
100
AcDbText
  0
TEXT
  5
24E
330
209
100
AcDbEntity
  8
KOPF
 62
    22
100
AcDbText
 10
589.8161572162234
 20
333.422246861357
 30
0.0
 40
2.5
  1
E
 41
0.8
  7
TEXT25
100
AcDbText
  0
LINE
  5
24F
330
209
100
AcDbEntity
  8
KOPF
 62
    22
100
AcDbLine
 10
525.0
 20
414.0
 30
0.0
 11
525.0
 21
417.0
 31
0.0
  0
LINE
  5
250
330
209
100
AcDbEntity
  8
KOPF
 62
    22
100
AcDbLine
 10
588.0
 20
371.0
 30
0.0
 11
591.0
 21
371.0
 31
0.0
  0
TEXT
  5
251
330
209
100
AcDbEntity
  8
KOPF
 62
    22
100
AcDbText
 10
560.2967731668258
 20
415.6290312513632
 30
0.0
 40
2.5
  1
8
 41
0.8
  7
TEXT25
100
AcDbText
  0
TEXT
  5
252
330
209
100
AcDbEntity
  8
KOPF
 62
    22
100
AcDbText
 10
589.8161572162234
 20
393.4920404627393
 30
0.0
 40
2.5
  1
F
 41
0.8
  7
TEXT25
100
AcDbText
  0
ENDBLK
  5
254
330
209
100
AcDbEntity
  8
0
100
AcDbBlockEnd
  0
BLOCK
  5
326
330
314
100
AcDbEntity
  8
0
100
AcDbBlockBegin
  2
A$C17D61B2D
 70
     0
 10
0.0
 20
0.0
 30
0.0
  3
A$C17D61B2D
  1

  0
TEXT
  5
315
330
314
100
AcDbEntity
  8
TEXT25
100
AcDbText
 10
30.87850901831645
 20
0.9382700750549801
 30
0.0
 40
2.0
  1
582 22 Pribyslav
 41
0.8
  7
TEXT25
100
AcDbText
  0
CIRCLE
  5
316
330
314
100
AcDbEntity
  8
TEXT35
100
AcDbCircle
 10
15.72339699741562
 20
3.469033628030828
 30
0.0
 40
2.281499999999998
  0
CIRCLE
  5
317
330
314
100
AcDbEntity
  8
TEXT35
100
AcDbCircle
 10
15.72339699741562
 20
3.469033628030828
 30
0.0
 40
1.579499999999999
  0
LWPOLYLINE
  5
318
330
314
100
AcDbEntity
  8
TEXT35
100
AcDbPolyline
 90
        4
 70
     1
 43
0.0
 10
10.62677788559575
 20
2.679283628030795
 42
-3.664441495333134
 10
10.61199359762702
 20
4.283854443711881
 10
11.2200148949108
 20
4.634895703371711
 42
3.685001202565794
 10
11.23472771905243
 20
2.328283628030796
  0
LWPOLYLINE
  5
319
330
314
100
AcDbEntity
  8
TEXT35
100
AcDbPolyline
 90
        4
 70
     1
 43
0.0
 10
6.464506005892886
 20
13.23480232842506
 10
6.464506005892886
 20
0.0000000074210078
 10
12.05327551474352
 20
0.0000000074210078
 10
12.05327551474352
 20
13.23480232842506
  0
LWPOLYLINE
  5
31A
330
314
100
AcDbEntity
  8
TEXT35
100
AcDbPolyline
 90
        4
 70
     1
 43
0.0
 10
18.51778175184091
 20
13.23480232842506
 10
18.51778175184091
 20
0.0000000074210078
 10
12.92901224299031
 20
0.0000000074210078
 10
12.92901224299031
 20
13.23480232842506
  0
TEXT
  5
31B
330
314
100
AcDbEntity
  8
TEXT25
100
AcDbText
 10
56.32815580692983
 20
1.133682847130231
 30
0.0
 40
2.1
  1
Fax: 0451 / 482529
 41
0.7
  7
ROMANS8
100
AcDbText
  0
LWPOLYLINE
  5
31D
330
314
100
AcDbEntity
  8
TEXT35
100
AcDbPolyline
 90
        7
 70
     1
 43
0.0
 10
1.214946902987747
 20
1.156826878358494
 42
-0.0323236910300514
 10
1.259126029445354
 20
1.78997874937292
 10
4.329643016996229
 20
1.78997874937292
 42
-0.0323236910300515
 10
4.373822143453722
 20
1.156826878358494
 10
5.075829941005736
 20
1.156826878358494
 42
0.2369604974400691
 10
2.794384523220728
 20
5.650978749372697
 42
0.2369604974400691
 10
0.5129391054357058
 20
1.156826878358494
  0
LWPOLYLINE
  5
31E
330
314
100
AcDbEntity
  8
TEXT35
100
AcDbPolyline
 90
        4
 70
     1
 43
0.0
 10
-0.0000002312045524
 20
13.23480232842506
 10
-0.0000002312045524
 20
0.0000000074210078
 10
5.588769277646022
 20
0.0000000074210078
 10
5.588769277646022
 20
13.23480232842506
  0
LWPOLYLINE
  5
31F
330
314
100
AcDbEntity
  8
TEXT25
100
AcDbPolyline
 90
        3
 70
     0
 43
0.0
 10
35.97331500896064
 20
6.576413418349517
 10
36.28329402847027
 20
6.233280786482978
 10
36.56006185210757
 20
6.598551176006488
  0
TEXT
  5
320
330
314
100
AcDbEntity
  8
TEXT25
100
AcDbText
 10
31.16484510745873
 20
4.564567807056448
 30
0.0
 40
2.0
  1
Havlickova 260
 41
0.8
  7
TEXT25
100
AcDbText
  0
TEXT
  5
321
330
314
100
AcDbEntity
  8
TEXT35
100
AcDbText
 10
30.60986516410871
 20
9.757637146467189
 30
0.0
 40
3.0
  1
ACO Stavebni prvky k.s
 41
0.8
  7
ITALICC8
100
AcDbText
  0
LWPOLYLINE
  5
323
330
314
100
AcDbEntity
  8
TEXT35
100
AcDbPolyline
 90
        3
 70
     1
 43
0.0
 10
2.794384523220813
 20
4.741568886939916
 42
-0.1369919174131033
 10
4.181964078490665
 20
2.491978749372925
 10
1.406804967950819
 20
2.491978749372925
 42
-0.136991917413112
  0
TEXT
  5
324
330
314
100
AcDbEntity
  8
TEXT25
100
AcDbText
 10
56.27541966991671
 20
4.462289744237651
 30
0.0
 40
2.1
  1
Tel.: 0451 / 491660
 41
0.7
  7
ROMANS8
100
AcDbText
  0
LWPOLYLINE
  5
325
330
314
100
AcDbEntity
  8
TEXT25
100
AcDbPolyline
 90
        3
 70
     0
 43
0.0
 10
39.25755894031892
 20
3.085395868142015
 10
39.56753795982848
 20
2.742263236275476
 10
39.84430578346579
 20
3.107533625798993
  0
ENDBLK
  5
327
330
314
100
AcDbEntity
  8
0
100
AcDbBlockEnd
  0
BLOCK
  5
328
330
281
100
AcDbEntity
  8
0
100
AcDbBlockBegin
  2
SF_PRI
 70
     2
 10
0.0
 20
0.0
 30
0.0
  3
SF_PRI
  1

  0
LINE
  5
282
330
281
100
AcDbEntity
  8
KOPF
100
AcDbLine
 10
-162.682677
 20
78.49999999999997
 30
0.0
 11
0.0
 21
78.49999999999997
 31
0.0
  0
TEXT
  5
283
330
281
100
AcDbEntity
  8
KOPF
100
AcDbText
 10
-94.40535829344497
 20
70.39773773357916
 30
0.0
 40
2.0
  1
Benennung
 41
0.8
  7
TEXT20
100
AcDbText
  0
LINE
  5
284
330
281
100
AcDbEntity
  8
KOPF
100
AcDbLine
 10
0.0
 20
73.49999999999997
 30
0.0
 11
-182.0
 21
73.49999999999997
 31
0.0
  0
LINE
  5
285
330
281
100
AcDbEntity
  8
KOPF
100
AcDbLine
 10
-182.0
 20
83.49999999999997
 30
0.0
 11
0.0
 21
83.49999999999997
 31
0.0
  0
LINE
  5
286
330
281
100
AcDbEntity
  8
KOPF
100
AcDbLine
 10
0.0
 20
88.49999999999996
 30
0.0
 11
-182.0
 21
88.49999999999996
 31
0.0
  0
LINE
  5
287
330
281
100
AcDbEntity
  8
KOPF
100
AcDbLine
 10
0.0
 20
68.49999999999997
 30
0.0
 11
-182.0
 21
68.49999999999997
 31
0.0
  0
LINE
  5
288
330
281
100
AcDbEntity
  8
KOPF
 62
     9
100
AcDbLine
 10
0.0
 20
27.0
 30
0.0
 11
-182.0
 21
27.0
 31
0.0
  0
LINE
  5
289
330
281
100
AcDbEntity
  8
KOPF
 62
    12
100
AcDbLine
 10
-162.682677
 20
78.49999999999997
 30
0.0
 11
0.0
 21
78.49999999999997
 31
0.0
  0
LINE
  5
28A
330
281
100
AcDbEntity
  8
KOPF
 62
    12
100
AcDbLine
 10
0.0
 20
73.49999999999997
 30
0.0
 11
-182.0
 21
73.49999999999997
 31
0.0
  0
LINE
  5
28B
330
281
100
AcDbEntity
  8
KOPF
 62
    12
100
AcDbLine
 10
-182.0
 20
83.49999999999997
 30
0.0
 11
0.0
 21
83.49999999999997
 31
0.0
  0
LINE
  5
28C
330
281
100
AcDbEntity
  8
KOPF
 62
    12
100
AcDbLine
 10
0.0
 20
88.49999999999996
 30
0.0
 11
-182.0
 21
88.49999999999996
 31
0.0
  0
LWPOLYLINE
  5
28D
330
281
100
AcDbEntity
  8
KOPF
 62
    12
100
AcDbPolyline
 90
        2
 70
     0
 43
0.5
 10
0.0
 20
27.0
 10
-182.0
 20
27.0
  0
LWPOLYLINE
  5
28E
330
281
100
AcDbEntity
  8
KOPF
 62
    12
100
AcDbPolyline
 90
        2
 70
     0
 43
0.5
 10
0.0
 20
46.99999999999997
 10
-182.0
 20
46.99999999999997
  0
LWPOLYLINE
  5
28F
330
281
100
AcDbEntity
  8
KOPF
 62
    12
100
AcDbPolyline
 90
        2
 70
     0
 43
0.5
 10
0.0
 20
68.49999999999997
 10
-182.0
 20
68.49999999999997
  0
LINE
  5
290
330
281
100
AcDbEntity
  8
KOPF
100
AcDbLine
 10
-113.4
 20
38.18891161795127
 30
0.0
 11
-182.0
 21
38.18891161795127
 31
0.0
  0
LINE
  5
291
330
281
100
AcDbEntity
  8
KOPF
100
AcDbLine
 10
-182.0
 20
41.99999999999996
 30
0.0
 11
-113.4
 21
41.99999999999996
 31
0.0
  0
LINE
  5
292
330
281
100
AcDbEntity
  8
KOPF
100
AcDbLine
 10
-182.0
 20
57.74999999999997
 30
0.0
 11
-100.0
 21
57.74999999999997
 31
0.0
  0
LINE
  5
293
330
281
100
AcDbEntity
  8
KOPF
 62
    12
100
AcDbLine
 10
-182.0
 20
41.99999999999996
 30
0.0
 11
-113.4
 21
41.99999999999996
 31
0.0
  0
LINE
  5
294
330
281
100
AcDbEntity
  8
KOPF
 62
    12
100
AcDbLine
 10
-182.0
 20
57.74999999999997
 30
0.0
 11
-100.0
 21
57.74999999999997
 31
0.0
  0
LINE
  5
295
330
281
100
AcDbEntity
  8
KOPF
 62
    12
100
AcDbLine
 10
-182.0
 20
34.17599418553943
 30
0.0
 11
-113.4
 21
34.17599418553943
 31
0.0
  0
ATTDEF
  5
296
330
281
100
AcDbEntity
  8
TEXT35
100
AcDbText
 10
-179.7
 20
49.7
 30
0.0
 40
3.5
  1

 41
0.8
  7
TEXT35
100
AcDbAttributeDefinition
280
     0
  3
zul. Abweichung
  2
F62
 70
     0
280
     0
  0
LINE
  5
297
330
281
100
AcDbEntity
  8
KOPF
100
AcDbLine
 10
-182.0
 20
88.49999999999996
 30
0.0
 11
-182.0
 21
0.0
 31
0.0
  0
LWPOLYLINE
  5
298
330
281
100
AcDbEntity
  8
KOPF
 62
    12
100
AcDbPolyline
 90
        2
 70
     0
 43
0.7
 10
-182.0
 20
88.49999999999996
 10
-182.0
 20
0.0
  0
TEXT
  5
299
330
281
100
AcDbEntity
  8
KOPF
100
AcDbText
 10
-179.738589
 20
35.31866212537803
 30
0.0
 40
2.0
  1
Geprüft
 41
0.8
  7
TEXT20
100
AcDbText
  0
TEXT
  5
29A
330
281
100
AcDbEntity
  8
KOPF
100
AcDbText
 10
-179.738589
 20
39.09466554638483
 30
0.0
 40
2.0
  1
Gezeichnet:
 41
0.8
  7
TEXT20
100
AcDbText
  0
TEXT
  5
29B
330
281
100
AcDbEntity
  8
KOPF
100
AcDbText
 10
-179.738589
 20
31.60503909815258
 30
0.0
 40
2.0
  1
Update:
 41
0.8
  7
TEXT20
100
AcDbText
  0
LINE
  5
29C
330
281
100
AcDbEntity
  8
KOPF
100
AcDbLine
 10
-163.0
 20
46.99999999999997
 30
0.0
 11
-163.0
 21
27.0
 31
0.0
  0
LINE
  5
29D
330
281
100
AcDbEntity
  8
KOPF
 62
    12
100
AcDbLine
 10
-163.0
 20
46.99999999999997
 30
0.0
 11
-163.0
 21
27.0
 31
0.0
  0
TEXT
  5
29E
330
281
100
AcDbEntity
  8
KOPF
100
AcDbText
 10
-155.964455
 20
43.13467299999999
 30
0.0
 40
2.0
  1
Datum
 41
0.8
  7
TEXT20
100
AcDbText
  0
TEXT
  5
29F
330
281
100
AcDbEntity
  8
KOPF
100
AcDbText
 10
-155.964455
 20
43.13467299999999
 30
0.0
 40
2.0
  1
Datum
 41
0.8
  7
TEXT20
100
AcDbText
  0
ATTDEF
  5
2A0
330
281
100
AcDbEntity
  8
TEXT25
100
AcDbText
 10
-161.5207141482394
 20
39.11011087449218
 30
0.0
 40
2.0
  1

 41
0.8
  7
TEXT20
100
AcDbAttributeDefinition
280
     0
  3
Gezeichnet am:
  2
F9
 70
     0
280
     0
  0
ATTDEF
  5
2A1
330
281
100
AcDbEntity
  8
TEXT25
100
AcDbText
 10
-161.5009557098303
 20
31.40199757513767
 30
0.0
 40
2.0
  1

 41
0.8
  7
TEXT20
100
AcDbAttributeDefinition
280
     0
  3
Update am:
  2
F53
 70
     0
280
     0
  0
ATTDEF
  5
2A2
330
281
100
AcDbEntity
  8
TEXT25
100
AcDbText
 10
-161.5539333606331
 20
35.00516559301049
 30
0.0
 40
2.0
  1

 41
0.8
  7
TEXT20
100
AcDbAttributeDefinition
280
     0
  3
Geprüft am:
  2
F22
 70
     0
280
     0
  0
ATTDEF
  5
2A3
330
281
100
AcDbEntity
  8
TEXT25
100
AcDbText
 10
-174.360415155955
 20
74.59999999999999
 30
0.0
 40
2.0
  1

 41
0.8
  7
TEXT20
100
AcDbAttributeDefinition
280
     0
  3
Index vv.:
  2
F72
 70
     0
280
     0
  0
ATTDEF
  5
2A4
330
281
100
AcDbEntity
  8
TEXT25
100
AcDbText
 10
-174.4435409453564
 20
79.47378932523601
 30
0.0
 40
2.0
  1

 41
0.8
  7
TEXT20
100
AcDbAttributeDefinition
280
     0
  3
Index v.:
  2
F68
 70
     0
280
     0
  0
ATTDEF
  5
2A5
330
281
100
AcDbEntity
  8
TEXT25
100
AcDbText
 10
-174.3700408782365
 20
84.63034186138365
 30
0.0
 40
2.0
  1

 41
0.8
  7
TEXT20
100
AcDbAttributeDefinition
280
     0
  3
Index l.:
  2
F64
 70
     0
280
     0
  0
ATTDEF
  5
2A6
330
281
100
AcDbEntity
  8
TEXT35
100
AcDbText
 10
-179.7
 20
59.6
 30
0.0
 40
3.5
  1

 41
0.8
  7
TEXT35
100
AcDbAttributeDefinition
280
     0
  3
Werkstoff:
  2
F61
 70
     0
280
     0
  0
TEXT
  5
2A7
330
281
100
AcDbEntity
  8
KOPF
100
AcDbText
 10
-181.0
 20
54.49999999999997
 30
0.0
 40
2.0
  1
zul. Abweich.:
 41
0.8
  7
TEXT20
100
AcDbText
  0
TEXT
  5
2A8
330
281
100
AcDbEntity
  8
KOPF
100
AcDbText
 10
-180.0
 20
65.166273
 30
0.0
 40
2.0
  1
Werkstoff:
 41
0.8
  7
TEXT20
100
AcDbText
  0
LINE
  5
2A9
330
281
100
AcDbEntity
  8
KOPF
100
AcDbLine
 10
-182.0
 20
78.49999999999997
 30
0.0
 11
-162.682677
 21
78.49999999999997
 31
0.0
  0
TEXT
  5
2AA
330
281
100
AcDbEntity
  8
KOPF
100
AcDbText
 10
-181.0
 20
54.49999999999997
 30
0.0
 40
2.0
  1
zul. Abweich.:
 41
0.8
  7
TEXT20
100
AcDbText
  0
TEXT
  5
2AB
330
281
100
AcDbEntity
  8
KOPF
100
AcDbText
 10
-180.0
 20
65.166273
 30
0.0
 40
2.0
  1
Werkstoff:
 41
0.8
  7
TEXT20
100
AcDbText
  0
LINE
  5
2AC
330
281
100
AcDbEntity
  8
KOPF
100
AcDbLine
 10
-182.0
 20
78.49999999999997
 30
0.0
 11
-162.682677
 21
78.49999999999997
 31
0.0
  0
LINE
  5
2AD
330
281
100
AcDbEntity
  8
KOPF
100
AcDbLine
 10
-162.682677
 20
88.49999999999996
 30
0.0
 11
-162.682677
 21
68.49999999999997
 31
0.0
  0
LINE
  5
2AE
330
281
100
AcDbEntity
  8
KOPF
100
AcDbLine
 10
-162.682677
 20
88.49999999999996
 30
0.0
 11
-162.682677
 21
68.49999999999997
 31
0.0
  0
TEXT
  5
2AF
330
281
100
AcDbEntity
  8
KOPF
100
AcDbText
 10
-174.6925639999999
 20
69.53813999999997
 30
0.0
 40
2.0
  1
Index
 41
0.8
  7
TEXT20
100
AcDbText
  0
TEXT
  5
2B0
330
281
100
AcDbEntity
  8
KOPF
100
AcDbText
 10
-174.6925639999999
 20
69.53813999999997
 30
0.0
 40
2.0
  1
Index
 41
0.8
  7
TEXT20
100
AcDbText
  0
TEXT
  5
2B1
330
281
100
AcDbEntity
  8
KOPF
100
AcDbText
 10
-156.706568
 20
69.53813999999997
 30
0.0
 40
2.0
  1
Datum
 41
0.8
  7
TEXT20
100
AcDbText
  0
TEXT
  5
2B2
330
281
100
AcDbEntity
  8
KOPF
100
AcDbText
 10
-156.706568
 20
69.53813999999997
 30
0.0
 40
2.0
  1
Datum
 41
0.8
  7
TEXT20
100
AcDbText
  0
ATTDEF
  5
2B3
330
281
100
AcDbEntity
  8
TEXT25
100
AcDbText
 10
-160.9
 20
75.09999999999999
 30
0.0
 40
2.0
  1

 41
0.8
  7
TEXT20
100
AcDbAttributeDefinition
280
     0
  3
Datum vv.:
  2
F73
 70
     0
280
     0
  0
ATTDEF
  5
2B4
330
281
100
AcDbEntity
  8
TEXT25
100
AcDbText
 10
-160.9
 20
79.40000000000001
 30
0.0
 40
2.0
  1

 41
0.8
  7
TEXT20
100
AcDbAttributeDefinition
280
     0
  3
Datum v.:
  2
F69
 70
     0
280
     0
  0
ATTDEF
  5
2B5
330
281
100
AcDbEntity
  8
TEXT25
100
AcDbText
 10
-160.6
 20
84.50000000000001
 30
0.0
 40
2.0
  1

 41
0.8
  7
TEXT20
100
AcDbAttributeDefinition
280
     0
  3
Datum l.:
  2
F65
 70
     0
280
     0
  0
ATTDEF
  5
2B6
330
281
100
AcDbEntity
  8
TEXT35
100
AcDbText
 10
-140.2
 20
49.4
 30
0.0
 40
3.5
  1

 41
0.8
  7
TEXT35
100
AcDbAttributeDefinition
280
     0
  3
Oberfläche:
  2
F63
 70
     0
280
     0
  0
LINE
  5
2B7
330
281
100
AcDbEntity
  8
KOPF
 62
    12
100
AcDbLine
 10
-100.0
 20
68.49999999999997
 30
0.0
 11
-100.0
 21
46.99999999999997
 31
0.0
  0
LINE
  5
2B8
330
281
100
AcDbEntity
  8
KOPF
 62
    12
100
AcDbLine
 10
-142.0
 20
68.49999999999997
 30
0.0
 11
-142.0
 21
46.99999999999997
 31
0.0
  0
LINE
  5
2B9
330
281
100
AcDbEntity
  8
KOPF
 62
    12
100
AcDbLine
 10
-100.0
 20
68.49999999999997
 30
0.0
 11
-100.0
 21
46.99999999999997
 31
0.0
  0
LINE
  5
2BA
330
281
100
AcDbEntity
  8
KOPF
 62
    12
100
AcDbLine
 10
-142.0
 20
68.49999999999997
 30
0.0
 11
-142.0
 21
46.99999999999997
 31
0.0
  0
ATTDEF
  5
2BB
330
281
100
AcDbEntity
  8
TEXT25
100
AcDbText
 10
-136.3996291720711
 20
31.31210389537199
 30
0.0
 40
2.0
  1

 41
0.8
  7
TEXT20
100
AcDbAttributeDefinition
280
     0
  3
Update von:
  2
F52
 70
     0
280
     0
  0
LINE
  5
2BC
330
281
100
AcDbEntity
  8
KOPF
100
AcDbLine
 10
-138.4
 20
46.99999999999997
 30
0.0
 11
-138.4
 21
27.0
 31
0.0
  0
LINE
  5
2BD
330
281
100
AcDbEntity
  8
KOPF
 62
    12
100
AcDbLine
 10
-138.4
 20
46.99999999999997
 30
0.0
 11
-138.4
 21
27.0
 31
0.0
  0
ATTDEF
  5
2BE
330
281
100
AcDbEntity
  8
TEXT25
100
AcDbText
 10
-136.1922113552417
 20
39.25199730580077
 30
0.0
 40
2.0
  1

 41
0.8
  7
TEXT20
100
AcDbAttributeDefinition
280
     0
  3
Gezeichnet von
  2
F8
 70
     0
280
     0
  0
ATTDEF
  5
2BF
330
281
100
AcDbEntity
  8
TEXT25
100
AcDbText
 10
-136.2746977811447
 20
35.16759793113587
 30
0.0
 40
2.0
  1

 41
0.8
  7
TEXT20
100
AcDbAttributeDefinition
280
     0
  3
Geprüft von:
  2
F21
 70
     0
280
     0
  0
TEXT
  5
2C0
330
281
100
AcDbEntity
  8
KOPF
100
AcDbText
 10
-130.065072
 20
43.14125800000002
 30
0.0
 40
2.0
  1
Name
 41
0.8
  7
TEXT20
100
AcDbText
  0
TEXT
  5
2C1
330
281
100
AcDbEntity
  8
KOPF
100
AcDbText
 10
-130.065072
 20
43.14125800000002
 30
0.0
 40
2.0
  1
Name
 41
0.8
  7
TEXT20
100
AcDbText
  0
ATTDEF
  5
2C2
330
281
100
AcDbEntity
  8
TEXT50
100
AcDbText
 10
-106.6
 20
37.8
 30
0.0
 40
5.0
  1

 41
0.8
  7
TEXT50
100
AcDbAttributeDefinition
280
     0
  3
Maßstab 1:
  2
F25
 70
     0
280
     0
  0
TEXT
  5
2C3
330
281
100
AcDbEntity
  8
KOPF
100
AcDbText
 10
-112.263457
 20
43.88678899999999
 30
0.0
 40
2.0
  1
Massstab:
 41
0.8
  7
TEXT20
100
AcDbText
  0
LINE
  5
2C4
330
281
100
AcDbEntity
  8
KOPF
100
AcDbLine
 10
-113.4
 20
27.0
 30
0.0
 11
-113.4
 21
46.99999999999997
 31
0.0
  0
LINE
  5
2C5
330
281
100
AcDbEntity
  8
KOPF
100
AcDbLine
 10
-113.4
 20
27.0
 30
0.0
 11
-113.4
 21
46.99999999999997
 31
0.0
  0
LWPOLYLINE
  5
2C6
330
281
100
AcDbEntity
  8
KOPF
100
AcDbPolyline
 90
        2
 70
     0
 43
0.5
 10
-113.4
 20
27.0
 10
-113.4
 20
46.99999999999997
  0
LINE
  5
2C7
330
281
100
AcDbEntity
  8
KOPF
 62
    12
100
AcDbLine
 10
-113.4
 20
27.0
 30
0.0
 11
-113.4
 21
46.99999999999997
 31
0.0
  0
ATTDEF
  5
2C8
330
281
100
AcDbEntity
  8
TEXT35
100
AcDbText
 10
-104.487948258847
 20
28.6
 30
0.0
 40
3.5
  1

 41
0.8
  7
TEXT35
100
AcDbAttributeDefinition
280
     0
  3
Maßstab 3:
  2
F55
 70
     0
280
     0
  0
ATTDEF
  5
2C9
330
281
100
AcDbEntity
  8
TEXT35
100
AcDbText
 10
-104.4935632823758
 20
33.13408015176805
 30
0.0
 40
3.5
  1

 41
0.8
  7
TEXT35
100
AcDbAttributeDefinition
280
     0
  3
Maßstab 2:
  2
F54
 70
     0
280
     0
  0
ATTDEF
  5
2CA
330
281
100
AcDbEntity
  8
TEXT35
100
AcDbText
 10
-139.9
 20
59.29999999999999
 30
0.0
 40
3.5
  1

 41
0.8
  7
TEXT35
100
AcDbAttributeDefinition
280
     0
  3
Gewicht:
  2
F60
 70
     0
280
     0
  0
TEXT
  5
2CB
330
281
100
AcDbEntity
  8
KOPF
100
AcDbText
 10
-140.1020469999999
 20
65.166273
 30
0.0
 40
2.0
  1
Gewicht:
 41
0.8
  7
TEXT20
100
AcDbText
  0
TEXT
  5
2CC
330
281
100
AcDbEntity
  8
KOPF
100
AcDbText
 10
-140.387393
 20
54.54752599999996
 30
0.0
 40
2.0
  1
Oberfläche
 41
0.8
  7
TEXT20
100
AcDbText
  0
TEXT
  5
2CD
330
281
100
AcDbEntity
  8
KOPF
100
AcDbText
 10
-140.1020469999999
 20
65.166273
 30
0.0
 40
2.0
  1
Gewicht:
 41
0.8
  7
TEXT20
100
AcDbText
  0
LINE
  5
2CE
330
281
100
AcDbEntity
  8
KOPF
100
AcDbLine
 10
-142.0
 20
68.49999999999997
 30
0.0
 11
-142.0
 21
88.49999999999996
 31
0.0
  0
LINE
  5
2CF
330
281
100
AcDbEntity
  8
KOPF
 62
    12
100
AcDbLine
 10
-142.0
 20
68.49999999999997
 30
0.0
 11
-142.0
 21
88.49999999999996
 31
0.0
  0
ATTDEF
  5
2D0
330
281
100
AcDbEntity
  8
TEXT25
100
AcDbText
 10
-140.4
 20
74.59999999999999
 30
0.0
 40
2.0
  1

 41
0.8
  7
TEXT20
100
AcDbAttributeDefinition
280
     0
  3
Bennenung vv.:
  2
F74
 70
     0
280
     0
  0
ATTDEF
  5
2D1
330
281
100
AcDbEntity
  8
TEXT25
100
AcDbText
 10
-140.5063960262479
 20
79.64480359078786
 30
0.0
 40
2.0
  1

 41
0.8
  7
TEXT20
100
AcDbAttributeDefinition
280
     0
  3
Benennung v.:
  2
F70
 70
     0
280
     0
  0
ATTDEF
  5
2D2
330
281
100
AcDbEntity
  8
TEXT25
100
AcDbText
 10
-140.390233442385
 20
84.56120109651198
 30
0.0
 40
2.0
  1

 41
0.8
  7
TEXT20
100
AcDbAttributeDefinition
280
     0
  3
Bennenung l.:
  2
F66
 70
     0
280
     0
  0
TEXT
  5
2D3
330
281
100
AcDbEntity
  8
KOPF
100
AcDbText
 10
-33.7904806989385
 20
30.30982488917614
 30
0.0
 40
1.54
  1
Schutzvermerk nach DIN 34 beachten
 41
0.75
  7
TEXT20
100
AcDbText
  0
LINE
  5
2D4
330
281
100
AcDbEntity
  8
KOPF
100
AcDbLine
 10
0.0
 20
5.0
 30
0.0
 11
-83.0
 21
5.0
 31
0.0
  0
LINE
  5
2D5
330
281
100
AcDbEntity
  8
KOPF
100
AcDbLine
 10
-83.0
 20
10.0
 30
0.0
 11
0.0
 21
10.0
 31
0.0
  0
LWPOLYLINE
  5
2D6
330
281
100
AcDbEntity
  8
KOPF
 62
    12
100
AcDbPolyline
 90
        2
 70
     0
 43
0.5
 10
-83.0
 20
10.0
 10
0.0
 20
10.0
  0
LINE
  5
2D7
330
281
100
AcDbEntity
  8
KOPF
 62
    12
100
AcDbLine
 10
0.0
 20
5.0
 30
0.0
 11
-83.0
 21
5.0
 31
0.0
  0
TEXT
  5
2D8
330
281
100
AcDbEntity
  8
KOPF
100
AcDbText
 10
-33.57569784693112
 20
37.97994933403727
 30
0.0
 40
1.54
  1
zum Zweck anderweitiger Benutzung
 41
0.8
  7
TEXT20
100
AcDbText
  0
TEXT
  5
2D9
330
281
100
AcDbEntity
  8
KOPF
100
AcDbText
 10
-33.57569784693112
 20
33.37532604459598
 30
0.0
 40
1.54
  1
Eigentum.
 41
0.8
  7
TEXT20
100
AcDbText
  0
TEXT
  5
2DA
330
281
100
AcDbEntity
  8
KOPF
100
AcDbText
 10
-33.57569784693112
 20
35.63814072439632
 30
0.0
 40
1.54
  1
mitgeteilt werden und bleibt unser
 41
0.8
  7
TEXT20
100
AcDbText
  0
TEXT
  5
2DB
330
281
100
AcDbEntity
  8
KOPF
100
AcDbText
 10
-33.57569784693112
 20
40.26106040199917
 30
0.0
 40
1.54
  1
noch dritten Personen, insbesondere
 41
0.8
  7
TEXT20
100
AcDbText
  0
TEXT
  5
2DC
330
281
100
AcDbEntity
  8
KOPF
100
AcDbText
 10
-33.57569784693112
 20
42.62823225872138
 30
0.0
 40
1.54
  1
Diese Zeichnung darf weder kopiert
 41
0.8
  7
TEXT20
100
AcDbText
  0
ATTDEF
  5
2DD
330
281
100
AcDbEntity
  8
TEXT25
100
AcDbText
 10
-62.5
 20
1.6
 30
0.0
 40
2.5
  1

 41
0.8
  7
TEXT25
100
AcDbAttributeDefinition
280
     0
  3
Ersetz durch:
  2
F12
 70
     0
280
     0
  0
ATTDEF
  5
2DE
330
281
100
AcDbEntity
  8
TEXT25
100
AcDbText
 10
-62.35900683211929
 20
5.946350224884298
 30
0.0
 40
2.5
  1

 41
0.8
  7
TEXT25
100
AcDbAttributeDefinition
280
     0
  3
Ersatz für:
  2
F11
 70
     0
280
     0
  0
ATTDEF
  5
2DF
330
281
100
AcDbEntity
  8
TEXT50
100
AcDbText
 10
-63.83064645486058
 20
14.53725216120369
 30
0.0
 40
5.0
  1

 41
0.8
  7
TEXT50
100
AcDbAttributeDefinition
280
     0
  3
Zeichnungsnummer
  2
F1A
 70
     0
280
     0
  0
LINE
  5
2E0
330
281
100
AcDbEntity
  8
KOPF
100
AcDbLine
 10
-57.80813400000011
 20
36.213444
 30
0.0
 11
-83.0
 21
36.213444
 31
0.0
  0
LINE
  5
2E1
330
281
100
AcDbEntity
  8
KOPF
 62
    12
100
AcDbLine
 10
-57.80813400000011
 20
36.213444
 30
0.0
 11
-83.0
 21
36.213444
 31
0.0
  0
LINE
  5
2E2
330
281
100
AcDbEntity
  8
KOPF
100
AcDbLine
 10
-83.0
 20
46.99999999999997
 30
0.0
 11
-83.0
 21
0.0
 31
0.0
  0
LWPOLYLINE
  5
2E3
330
281
100
AcDbEntity
  8
KOPF
 62
    12
100
AcDbPolyline
 90
        2
 70
     0
 43
0.5
 10
-83.0
 20
46.99999999999997
 10
-83.0
 20
0.0
  0
TEXT
  5
2E4
330
281
100
AcDbEntity
  8
KOPF
100
AcDbText
 10
-81.0
 20
1.714285999999985
 30
0.0
 40
2.0
  1
Ersetzt durch:
 41
0.8
  7
TEXT20
100
AcDbText
  0
TEXT
  5
2E5
330
281
100
AcDbEntity
  8
KOPF
100
AcDbText
 10
-81.0
 20
1.714285999999985
 30
0.0
 40
2.0
  1
Ersetzt durch:
 41
0.8
  7
TEXT20
100
AcDbText
  0
ATTDEF
  5
2E6
330
281
100
AcDbEntity
  8
TEXT50
100
AcDbText
 10
-78.29193986361122
 20
14.50587824180555
 30
0.0
 40
5.0
  1

 41
0.8
  7
TEXT50
100
AcDbAttributeDefinition
280
     0
  3
Standart:
  2
F1
 70
     0
280
     0
  0
ATTDEF
  5
2E7
330
281
100
AcDbEntity
  8
TEXT35
100
AcDbText
 10
-79.40896486611496
 20
38.08722024605356
 30
0.0
 40
3.5
  1

 41
0.8
  7
TEXT35
100
AcDbAttributeDefinition
280
     0
  3
Maßeinheit:
  2
F56
 70
     0
280
     0
  0
TEXT
  5
2E8
330
281
100
AcDbEntity
  8
KOPF
100
AcDbText
 10
-81.59296000000006
 20
23.69783599999999
 30
0.0
 40
2.0
  1
Zeichnung Nr.:
 41
0.8
  7
TEXT20
100
AcDbText
  0
TEXT
  5
2E9
330
281
100
AcDbEntity
  8
KOPF
100
AcDbText
 10
-81.48889200000008
 20
43.86057200000001
 30
0.0
 40
2.0
  1
Masseinheit:
 41
0.8
  7
TEXT20
100
AcDbText
  0
TEXT
  5
2EA
330
281
100
AcDbEntity
  8
KOPF
100
AcDbText
 10
-81.00375700000006
 20
5.924711999999997
 30
0.0
 40
2.0
  1
Ersatz für:
 41
0.8
  7
TEXT20
100
AcDbText
  0
TEXT
  5
2EB
330
281
100
AcDbEntity
  8
KOPF
100
AcDbText
 10
-81.59296000000006
 20
23.69783599999999
 30
0.0
 40
2.0
  1
Zeichnung Nr.:
 41
0.8
  7
TEXT20
100
AcDbText
  0
LINE
  5
2EC
330
281
100
AcDbEntity
  8
KOPF
100
AcDbLine
 10
-68.51451399999996
 20
10.0
 30
0.0
 11
-68.51451399999996
 21
19.56467499999998
 31
0.0
  0
LINE
  5
2ED
330
281
100
AcDbEntity
  8
KOPF
100
AcDbLine
 10
-68.51451399999996
 20
10.0
 30
0.0
 11
-68.51451399999996
 21
19.56467499999998
 31
0.0
  0
TEXT
  5
2EE
330
281
100
AcDbEntity
  8
KOPF
100
AcDbText
 10
-57.12244047883302
 20
43.82431699999997
 30
0.0
 40
2.0
  1
Projektion: ISO-E
 41
0.8
  7
TEXT20
100
AcDbText
  0
LINE
  5
2EF
330
281
100
AcDbEntity
  8
MITTE
100
AcDbLine
 10
-56.48631039339966
 20
36.04852954632858
 30
0.0
 11
-46.50279089147699
 21
36.04852954632858
 31
0.0
  0
LINE
  5
2F0
330
281
100
AcDbEntity
  8
KOPF
100
AcDbLine
 10
-57.80813400000011
 20
27.0
 30
0.0
 11
-57.80813400000011
 21
46.99999999999997
 31
0.0
  0
LINE
  5
2F1
330
281
100
AcDbEntity
  8
KOPF
 62
    12
100
AcDbLine
 10
-57.80813400000011
 20
27.0
 30
0.0
 11
-57.80813400000011
 21
46.99999999999997
 31
0.0
  0
CIRCLE
  5
2F2
330
281
100
AcDbEntity
  8
TEXT50
100
AcDbCircle
 10
-51.4945506424383
 20
36.04852954632858
 30
0.0
 40
4.022933351625178
  0
LINE
  5
2F3
330
281
100
AcDbEntity
  8
MITTE
100
AcDbLine
 10
-51.4945506424383
 20
40.07146289795374
 30
0.0
 11
-51.4945506424383
 21
30.76413131482123
 31
0.0
  0
CIRCLE
  5
2F4
330
281
100
AcDbEntity
  8
TEXT50
100
AcDbCircle
 10
-51.4945506424383
 20
36.04852954632858
 30
0.0
 40
1.979948192651899
  0
LINE
  5
2F5
330
281
100
AcDbEntity
  8
KOPF
100
AcDbLine
 10
-34.94281200000012
 20
47.01203199999999
 30
0.0
 11
-34.94281200000012
 21
27.0
 31
0.0
  0
LINE
  5
2F6
330
281
100
AcDbEntity
  8
KOPF
100
AcDbLine
 10
-34.94281200000012
 20
47.01203199999999
 30
0.0
 11
-34.94281200000012
 21
27.0
 31
0.0
  0
LINE
  5
2F7
330
281
100
AcDbEntity
  8
TEXT50
100
AcDbLine
 10
-36.50894043783512
 20
38.02847773898061
 30
0.0
 11
-45.05865660703466
 21
40.07146289795374
 31
0.0
  0
LINE
  5
2F8
330
281
100
AcDbEntity
  8
TEXT50
100
AcDbLine
 10
-45.05865660703466
 20
32.02559619470341
 30
0.0
 11
-36.50894043783512
 21
34.06858135367652
 31
0.0
  0
LINE
  5
2F9
330
281
100
AcDbEntity
  8
MITTE
100
AcDbLine
 10
-45.85521401410289
 20
36.04852954632858
 30
0.0
 11
-35.23444858652556
 21
36.04852954632858
 31
0.0
  0
LINE
  5
2FA
330
281
100
AcDbEntity
  8
TEXT50
100
AcDbLine
 10
-45.05865660703466
 20
40.07146289795374
 30
0.0
 11
-45.05865660703466
 21
32.02559619470346
 31
0.0
  0
LINE
  5
2FB
330
281
100
AcDbEntity
  8
TEXT50
100
AcDbLine
 10
-36.50894043783512
 20
38.02847773898061
 30
0.0
 11
-36.50894043783512
 21
34.06858135367652
 31
0.0
  0
ATTDEF
  5
2FC
330
281
100
AcDbEntity
  8
TEXT50
100
AcDbText
 10
-8.161293408750509
 20
15.05881749525164
 30
0.0
 40
5.0
  1

 41
0.8
  7
TEXT50
100
AcDbAttributeDefinition
280
     0
  3
Index:
  2
F1B
 70
     0
280
     0
  0
TEXT
  5
2FD
330
281
100
AcDbEntity
  8
KOPF
100
AcDbText
 10
-8.353129999999964
 20
23.330072
 30
0.0
 40
2.0
  1
Index
 41
0.8
  7
TEXT20
100
AcDbText
  0
TEXT
  5
2FE
330
281
100
AcDbEntity
  8
KOPF
100
AcDbText
 10
-8.353129999999964
 20
23.330072
 30
0.0
 40
2.0
  1
Index
 41
0.8
  7
TEXT20
100
AcDbText
  0
LINE
  5
2FF
330
281
100
AcDbEntity
  8
KOPF
100
AcDbLine
 10
-12.0
 20
27.0
 30
0.0
 11
-12.0
 21
10.0
 31
0.0
  0
LWPOLYLINE
  5
300
330
281
100
AcDbEntity
  8
KOPF
 62
    12
100
AcDbPolyline
 90
        2
 70
     0
 43
0.5
 10
-12.0
 20
27.0
 10
-12.0
 20
10.0
  0
LINE
  5
301
330
281
100
AcDbEntity
  8
KOPF
100
AcDbLine
 10
-15.0
 20
88.49999999999996
 30
0.0
 11
-15.0
 21
68.49999999999997
 31
0.0
  0
LINE
  5
302
330
281
100
AcDbEntity
  8
KOPF
100
AcDbLine
 10
-15.0
 20
88.49999999999996
 30
0.0
 11
-15.0
 21
68.49999999999997
 31
0.0
  0
TEXT
  5
303
330
281
100
AcDbEntity
  8
KOPF
100
AcDbText
 10
-11.65833600000008
 20
69.53813999999997
 30
0.0
 40
2.0
  1
Name
 41
0.8
  7
TEXT20
100
AcDbText
  0
TEXT
  5
304
330
281
100
AcDbEntity
  8
KOPF
100
AcDbText
 10
-11.65833600000008
 20
69.53813999999997
 30
0.0
 40
2.0
  1
Name
 41
0.8
  7
TEXT20
100
AcDbText
  0
ATTDEF
  5
305
330
281
100
AcDbEntity
  8
TEXT25
100
AcDbText
 10
-13.39999999999998
 20
74.90000000000001
 30
0.0
 40
2.0
  1

 41
0.8
  7
TEXT20
100
AcDbAttributeDefinition
280
     0
  3
Name vv.:
  2
F75
 70
     0
280
     0
  0
ATTDEF
  5
306
330
281
100
AcDbEntity
  8
TEXT25
100
AcDbText
 10
-13.39999999999998
 20
79.7
 30
0.0
 40
2.0
  1

 41
0.8
  7
TEXT20
100
AcDbAttributeDefinition
280
     0
  3
Name v.:
  2
F71
 70
     0
280
     0
  0
ATTDEF
  5
307
330
281
100
AcDbEntity
  8
TEXT25
100
AcDbText
 10
-13.31006638105163
 20
84.29999999999999
 30
0.0
 40
2.0
  1

 41
0.8
  7
TEXT20
100
AcDbAttributeDefinition
280
     0
  3
Name l.:
  2
F67
 70
     0
280
     0
  0
ATTDEF
  5
308
330
281
100
AcDbEntity
  8
TEXT50
100
AcDbText
 10
-176.6
 20
18.56318324460701
 30
0.0
 40
5.0
  1

 41
0.8
  7
TEXT50
100
AcDbAttributeDefinition
280
     0
  3
Z-Titel 1
  2
F2
 70
     0
280
     0
  0
ATTDEF
  5
309
330
281
100
AcDbEntity
  8
TEXT50
100
AcDbText
 10
-176.6
 20
10.63250279796295
 30
0.0
 40
5.0
  1

 41
0.8
  7
TEXT50
100
AcDbAttributeDefinition
280
     0
  3
Z-Titel 2
  2
F3
 70
     0
280
     0
  0
ATTDEF
  5
30A
330
281
100
AcDbEntity
  8
TEXT35
100
AcDbText
 10
-176.6
 20
3.399999999999999
 30
0.0
 40
3.5
  1

 41
0.8
  7
TEXT35
100
AcDbAttributeDefinition
280
     0
  3
Z-Titel 3
  2
F13
 70
     0
280
     0
  0
TEXT
  5
30B
330
281
100
AcDbEntity
  8
KOPF
100
AcDbText
 10
-81.2168100232509
 20
-4.904930646817639
 30
0.0
 40
2.0
  1
St 1:  
 41
0.8
  7
TEXT20
100
AcDbText
  0
TEXT
  5
30C
330
281
100
AcDbEntity
  8
KOPF
100
AcDbText
 10
-55.57636971189049
 20
-5.051087285630934
 30
0.0
 40
2.0
  1
St 2:  
 41
0.8
  7
TEXT20
100
AcDbText
  0
LINE
  5
30D
330
281
100
AcDbEntity
  8
KOPF
 62
    12
100
AcDbLine
 10
-182.0
 20
30.3922591784613
 30
0.0
 11
-113.4
 21
30.3922591784613
 31
0.0
  0
TEXT
  5
30E
330
281
100
AcDbEntity
  8
KOPF
100
AcDbText
 10
-179.738589
 20
27.91139328475685
 30
0.0
 40
2.0
  1
SF /  FM
 41
0.8
  7
TEXT20
100
AcDbText
  0
ATTDEF
  5
30F
330
281
100
AcDbEntity
  8
TEXT25
100
AcDbText
 10
-161.5009557098303
 20
27.70835176174194
 30
0.0
 40
2.0
  1

 41
0.8
  7
TEXT20
100
AcDbAttributeDefinition
280
     0
  3
Update am:
  2
F30
 70
     0
280
     0
  0
ATTDEF
  5
310
330
281
100
AcDbEntity
  8
TEXT25
100
AcDbText
 10
-136.3996291720711
 20
27.61845808197626
 30
0.0
 40
2.0
  1

 41
0.8
  7
TEXT20
100
AcDbAttributeDefinition
280
     0
  3
Update von:
  2
F23
 70
     0
280
     0
  0
ATTDEF
  5
311
330
281
100
AcDbEntity
  8
KOPF
100
AcDbText
 10
-76.14196676074652
 20
-4.909327569934726
 30
0.0
 40
2.0
  1

 41
0.8
  7
TEXT20
100
AcDbAttributeDefinition
280
     0
  3
Ersetz durch:
  2
F19
 70
     0
280
     0
  0
ATTDEF
  5
312
330
281
100
AcDbEntity
  8
KOPF
100
AcDbText
 10
-50.33283836985083
 20
-5.032145431237973
 30
0.0
 40
2.0
  1

 41
0.8
  7
TEXT20
100
AcDbAttributeDefinition
280
     0
  3
Ersetz durch:
  2
F20
 70
     0
280
     0
  0
INSERT
  5
313
330
281
100
AcDbEntity
  8
KOPF
100
AcDbBlockReference
  2
A$C17D61B2D
 10
-93.62972968665189
 20
51.4441636028745
 30
0.0
  0
ENDBLK
  5
329
330
281
100
AcDbEntity
  8
0
100
AcDbBlockEnd
  0
BLOCK
  5
3CA
330
34E
100
AcDbEntity
  8
0
100
AcDbBlockBegin
  2
ACO-SF
 70
     2
 10
0.0
 20
0.0
 30
0.0
  3
ACO-SF
  1

  0
LINE
  5
34F
330
34E
100
AcDbEntity
  8
KOPF
 62
    12
100
AcDbLine
 10
0.0
 20
5.0
 30
0.0
 11
-83.0
 21
5.0
 31
0.0
  0
LWPOLYLINE
  5
350
330
34E
100
AcDbEntity
  8
KOPF
 62
    12
100
AcDbPolyline
 90
        2
 70
     0
 43
0.5
 10
-83.0
 20
10.0
 10
0.0
 20
10.0
  0
LINE
  5
351
330
34E
100
AcDbEntity
  8
KOPF
100
AcDbLine
 10
-83.0
 20
10.0
 30
0.0
 11
0.0
 21
10.0
 31
0.0
  0
LINE
  5
352
330
34E
100
AcDbEntity
  8
KOPF
100
AcDbLine
 10
0.0
 20
5.0
 30
0.0
 11
-83.0
 21
5.0
 31
0.0
  0
LWPOLYLINE
  5
353
330
34E
100
AcDbEntity
  8
KOPF
 62
    12
100
AcDbPolyline
 90
        2
 70
     0
 43
0.5
 10
0.0
 20
68.49999999999997
 10
-182.0
 20
68.49999999999997
  0
LWPOLYLINE
  5
354
330
34E
100
AcDbEntity
  8
KOPF
 62
    12
100
AcDbPolyline
 90
        2
 70
     0
 43
0.5
 10
0.0
 20
46.99999999999997
 10
-182.0
 20
46.99999999999997
  0
LWPOLYLINE
  5
355
330
34E
100
AcDbEntity
  8
KOPF
 62
    12
100
AcDbPolyline
 90
        2
 70
     0
 43
0.5
 10
-0.2154115848244373
 20
27.23910754630094
 10
-182.1882840408789
 20
27.23910754630094
  0
LINE
  5
356
330
34E
100
AcDbEntity
  8
KOPF
 62
    12
100
AcDbLine
 10
0.0
 20
88.49999999999996
 30
0.0
 11
-182.0
 21
88.49999999999996
 31
0.0
  0
LINE
  5
357
330
34E
100
AcDbEntity
  8
KOPF
 62
    12
100
AcDbLine
 10
-182.0
 20
83.49999999999997
 30
0.0
 11
0.0
 21
83.49999999999997
 31
0.0
  0
LINE
  5
358
330
34E
100
AcDbEntity
  8
KOPF
 62
    12
100
AcDbLine
 10
0.0
 20
73.49999999999997
 30
0.0
 11
-182.0
 21
73.49999999999997
 31
0.0
  0
LINE
  5
359
330
34E
100
AcDbEntity
  8
KOPF
 62
    12
100
AcDbLine
 10
-162.682677
 20
78.49999999999997
 30
0.0
 11
0.0
 21
78.49999999999997
 31
0.0
  0
LINE
  5
35A
330
34E
100
AcDbEntity
  8
KOPF
100
AcDbLine
 10
0.0
 20
68.49999999999997
 30
0.0
 11
-182.0
 21
68.49999999999997
 31
0.0
  0
LINE
  5
35B
330
34E
100
AcDbEntity
  8
KOPF
100
AcDbLine
 10
0.0
 20
88.49999999999996
 30
0.0
 11
-182.0
 21
88.49999999999996
 31
0.0
  0
LINE
  5
35C
330
34E
100
AcDbEntity
  8
KOPF
100
AcDbLine
 10
-182.0
 20
83.49999999999997
 30
0.0
 11
0.0
 21
83.49999999999997
 31
0.0
  0
LINE
  5
35D
330
34E
100
AcDbEntity
  8
KOPF
100
AcDbLine
 10
0.0
 20
73.49999999999997
 30
0.0
 11
-182.0
 21
73.49999999999997
 31
0.0
  0
LINE
  5
35E
330
34E
100
AcDbEntity
  8
KOPF
100
AcDbLine
 10
-162.682677
 20
78.49999999999997
 30
0.0
 11
0.0
 21
78.49999999999997
 31
0.0
  0
LINE
  5
35F
330
34E
100
AcDbEntity
  8
KOPF
 62
    12
100
AcDbLine
 10
-182.0
 20
57.74999999999997
 30
0.0
 11
-100.0
 21
57.74999999999997
 31
0.0
  0
LINE
  5
360
330
34E
100
AcDbEntity
  8
KOPF
 62
    12
100
AcDbLine
 10
-182.0
 20
41.99999999999996
 30
0.0
 11
-113.4
 21
41.99999999999996
 31
0.0
  0
LINE
  5
361
330
34E
100
AcDbEntity
  8
KOPF
100
AcDbLine
 10
-182.0
 20
57.74999999999997
 30
0.0
 11
-100.0
 21
57.74999999999997
 31
0.0
  0
LINE
  5
362
330
34E
100
AcDbEntity
  8
KOPF
100
AcDbLine
 10
-182.0
 20
41.99999999999996
 30
0.0
 11
-113.4
 21
41.99999999999996
 31
0.0
  0
LINE
  5
363
330
34E
100
AcDbEntity
  8
KOPF
 62
    12
100
AcDbLine
 10
-142.0
 20
68.49999999999997
 30
0.0
 11
-142.0
 21
46.99999999999997
 31
0.0
  0
LINE
  5
364
330
34E
100
AcDbEntity
  8
KOPF
 62
    12
100
AcDbLine
 10
-142.0
 20
68.49999999999997
 30
0.0
 11
-142.0
 21
46.99999999999997
 31
0.0
  0
ATTDEF
  5
365
330
34E
100
AcDbEntity
  8
TEXT35
100
AcDbText
 10
-140.2
 20
49.4
 30
0.0
 40
3.5
  1

 41
0.8
  7
TEXT35
100
AcDbAttributeDefinition
280
     0
  3
Oberfläche:
  2
F63
 70
     0
280
     0
  0
LWPOLYLINE
  5
366
330
34E
100
AcDbEntity
  8
KOPF
 62
    12
100
AcDbPolyline
 90
        2
 70
     0
 43
0.7
 10
-182.0
 20
88.49999999999996
 10
-182.0
 20
0.0
  0
LINE
  5
367
330
34E
100
AcDbEntity
  8
KOPF
100
AcDbLine
 10
-182.0
 20
88.49999999999996
 30
0.0
 11
-182.0
 21
0.0
 31
0.0
  0
TEXT
  5
368
330
34E
100
AcDbEntity
  8
KOPF
100
AcDbText
 10
-179.738589
 20
38.32439403633659
 30
0.0
 40
2.0
  1
Gezeichnet:
 41
0.8
  7
TEXT20
100
AcDbText
  0
ATTDEF
  5
369
330
34E
100
AcDbEntity
  8
TEXT35
100
AcDbText
 10
-176.6
 20
3.399999999999999
 30
0.0
 40
3.5
  1

 41
0.8
  7
TEXT35
100
AcDbAttributeDefinition
280
     0
  3
Z-Titel 3
  2
F13
 70
     0
280
     0
  0
ATTDEF
  5
36A
330
34E
100
AcDbEntity
  8
TEXT50
100
AcDbText
 10
-176.6
 20
10.63250279796295
 30
0.0
 40
5.0
  1

 41
0.8
  7
TEXT50
100
AcDbAttributeDefinition
280
     0
  3
Z-Titel 2
  2
F3
 70
     0
280
     0
  0
ATTDEF
  5
36B
330
34E
100
AcDbEntity
  8
TEXT50
100
AcDbText
 10
-176.6
 20
18.56318324460701
 30
0.0
 40
5.0
  1

 41
0.8
  7
TEXT50
100
AcDbAttributeDefinition
280
     0
  3
Z-Titel 1
  2
F2
 70
     0
280
     0
  0
TEXT
  5
36C
330
34E
100
AcDbEntity
  8
KOPF
100
AcDbText
 10
-179.738589
 20
28.52395361420514
 30
0.0
 40
2.0
  1
Update:
 41
0.8
  7
TEXT20
100
AcDbText
  0
TEXT
  5
36D
330
34E
100
AcDbEntity
  8
KOPF
100
AcDbText
 10
-179.738589
 20
33.43577642824449
 30
0.0
 40
2.0
  1
Geprüft
 41
0.8
  7
TEXT20
100
AcDbText
  0
LINE
  5
36E
330
34E
100
AcDbEntity
  8
KOPF
 62
    12
100
AcDbLine
 10
-163.0
 20
46.99999999999997
 30
0.0
 11
-163.0
 21
27.0
 31
0.0
  0
LINE
  5
36F
330
34E
100
AcDbEntity
  8
KOPF
100
AcDbLine
 10
-163.0
 20
46.99999999999997
 30
0.0
 11
-163.0
 21
27.0
 31
0.0
  0
ATTDEF
  5
370
330
34E
100
AcDbEntity
  8
TEXT25
100
AcDbText
 10
-161.5009557098303
 20
28.32091209119023
 30
0.0
 40
2.0
  1

 41
0.8
  7
TEXT20
100
AcDbAttributeDefinition
280
     0
  3
Update am:
  2
F53
 70
     0
280
     0
  0
ATTDEF
  5
371
330
34E
100
AcDbEntity
  8
TEXT25
100
AcDbText
 10
-161.5539333606331
 20
33.12227989587696
 30
0.0
 40
2.0
  1

 41
0.8
  7
TEXT20
100
AcDbAttributeDefinition
280
     0
  3
Geprüft am:
  2
F22
 70
     0
280
     0
  0
ATTDEF
  5
372
330
34E
100
AcDbEntity
  8
TEXT25
100
AcDbText
 10
-161.5207141482394
 20
38.33983936444393
 30
0.0
 40
2.0
  1

 41
0.8
  7
TEXT20
100
AcDbAttributeDefinition
280
     0
  3
Gezeichnet am:
  2
F9
 70
     0
280
     0
  0
TEXT
  5
373
330
34E
100
AcDbEntity
  8
KOPF
100
AcDbText
 10
-155.964455
 20
43.13467299999999
 30
0.0
 40
2.0
  1
Datum
 41
0.8
  7
TEXT20
100
AcDbText
  0
LINE
  5
374
330
34E
100
AcDbEntity
  8
KOPF
 62
    12
100
AcDbLine
 10
-138.4
 20
46.99999999999997
 30
0.0
 11
-138.4
 21
27.0
 31
0.0
  0
LINE
  5
375
330
34E
100
AcDbEntity
  8
KOPF
100
AcDbLine
 10
-138.4
 20
46.99999999999997
 30
0.0
 11
-138.4
 21
27.0
 31
0.0
  0
TEXT
  5
376
330
34E
100
AcDbEntity
  8
KOPF
100
AcDbText
 10
-130.065072
 20
43.14125800000002
 30
0.0
 40
2.0
  1
Name
 41
0.8
  7
TEXT20
100
AcDbText
  0
ATTDEF
  5
377
330
34E
100
AcDbEntity
  8
TEXT25
100
AcDbText
 10
-136.2746977811447
 20
33.28471223400234
 30
0.0
 40
2.0
  1

 41
0.8
  7
TEXT20
100
AcDbAttributeDefinition
280
     0
  3
Geprüft von:
  2
F21
 70
     0
280
     0
  0
ATTDEF
  5
378
330
34E
100
AcDbEntity
  8
TEXT25
100
AcDbText
 10
-136.3996291720711
 20
28.23101841142455
 30
0.0
 40
2.0
  1

 41
0.8
  7
TEXT20
100
AcDbAttributeDefinition
280
     0
  3
Update von:
  2
F52
 70
     0
280
     0
  0
ATTDEF
  5
379
330
34E
100
AcDbEntity
  8
TEXT25
100
AcDbText
 10
-136.1922113552417
 20
38.48172579575253
 30
0.0
 40
2.0
  1

 41
0.8
  7
TEXT20
100
AcDbAttributeDefinition
280
     0
  3
Gezeichnet von
  2
F8
 70
     0
280
     0
  0
TEXT
  5
37A
330
34E
100
AcDbEntity
  8
KOPF
100
AcDbText
 10
-174.6925639999999
 20
69.53813999999997
 30
0.0
 40
2.0
  1
Index
 41
0.8
  7
TEXT20
100
AcDbText
  0
LINE
  5
37B
330
34E
100
AcDbEntity
  8
KOPF
100
AcDbLine
 10
-182.0
 20
78.49999999999997
 30
0.0
 11
-162.682677
 21
78.49999999999997
 31
0.0
  0
LINE
  5
37C
330
34E
100
AcDbEntity
  8
KOPF
100
AcDbLine
 10
-182.0
 20
78.49999999999997
 30
0.0
 11
-162.682677
 21
78.49999999999997
 31
0.0
  0
TEXT
  5
37D
330
34E
100
AcDbEntity
  8
KOPF
100
AcDbText
 10
-180.0
 20
65.166273
 30
0.0
 40
2.0
  1
Werkstoff:
 41
0.8
  7
TEXT20
100
AcDbText
  0
TEXT
  5
37E
330
34E
100
AcDbEntity
  8
KOPF
100
AcDbText
 10
-181.0
 20
54.49999999999997
 30
0.0
 40
2.0
  1
zul. Abweich.:
 41
0.8
  7
TEXT20
100
AcDbText
  0
ATTDEF
  5
37F
330
34E
100
AcDbEntity
  8
TEXT35
100
AcDbText
 10
-179.7
 20
59.6
 30
0.0
 40
3.5
  1

 41
0.8
  7
TEXT35
100
AcDbAttributeDefinition
280
     0
  3
Werkstoff:
  2
F61
 70
     0
280
     0
  0
ATTDEF
  5
380
330
34E
100
AcDbEntity
  8
TEXT35
100
AcDbText
 10
-179.7
 20
49.7
 30
0.0
 40
3.5
  1

 41
0.8
  7
TEXT35
100
AcDbAttributeDefinition
280
     0
  3
zul. Abweichung
  2
F62
 70
     0
280
     0
  0
ATTDEF
  5
381
330
34E
100
AcDbEntity
  8
TEXT25
100
AcDbText
 10
-174.360415155955
 20
74.59999999999999
 30
0.0
 40
2.0
  1

 41
0.8
  7
TEXT20
100
AcDbAttributeDefinition
280
     0
  3
Index vv.:
  2
F72
 70
     0
280
     0
  0
ATTDEF
  5
382
330
34E
100
AcDbEntity
  8
TEXT25
100
AcDbText
 10
-174.4435409453564
 20
79.47378932523601
 30
0.0
 40
2.0
  1

 41
0.8
  7
TEXT20
100
AcDbAttributeDefinition
280
     0
  3
Index v.:
  2
F68
 70
     0
280
     0
  0
ATTDEF
  5
383
330
34E
100
AcDbEntity
  8
TEXT25
100
AcDbText
 10
-174.3700408782365
 20
84.63034186138365
 30
0.0
 40
2.0
  1

 41
0.8
  7
TEXT20
100
AcDbAttributeDefinition
280
     0
  3
Index l.:
  2
F64
 70
     0
280
     0
  0
LINE
  5
384
330
34E
100
AcDbEntity
  8
KOPF
100
AcDbLine
 10
-162.682677
 20
88.49999999999996
 30
0.0
 11
-162.682677
 21
68.49999999999997
 31
0.0
  0
LINE
  5
385
330
34E
100
AcDbEntity
  8
KOPF
100
AcDbLine
 10
-162.682677
 20
88.49999999999996
 30
0.0
 11
-162.682677
 21
68.49999999999997
 31
0.0
  0
TEXT
  5
386
330
34E
100
AcDbEntity
  8
KOPF
100
AcDbText
 10
-156.706568
 20
69.53813999999997
 30
0.0
 40
2.0
  1
Datum
 41
0.8
  7
TEXT20
100
AcDbText
  0
ATTDEF
  5
387
330
34E
100
AcDbEntity
  8
TEXT25
100
AcDbText
 10
-160.9
 20
75.09999999999999
 30
0.0
 40
2.0
  1

 41
0.8
  7
TEXT20
100
AcDbAttributeDefinition
280
     0
  3
Datum vv.:
  2
F73
 70
     0
280
     0
  0
ATTDEF
  5
388
330
34E
100
AcDbEntity
  8
TEXT25
100
AcDbText
 10
-160.9
 20
79.40000000000001
 30
0.0
 40
2.0
  1

 41
0.8
  7
TEXT20
100
AcDbAttributeDefinition
280
     0
  3
Datum v.:
  2
F69
 70
     0
280
     0
  0
ATTDEF
  5
389
330
34E
100
AcDbEntity
  8
TEXT25
100
AcDbText
 10
-160.6
 20
84.50000000000001
 30
0.0
 40
2.0
  1

 41
0.8
  7
TEXT20
100
AcDbAttributeDefinition
280
     0
  3
Datum l.:
  2
F65
 70
     0
280
     0
  0
LINE
  5
38A
330
34E
100
AcDbEntity
  8
KOPF
 62
    12
100
AcDbLine
 10
-142.0
 20
68.49999999999997
 30
0.0
 11
-142.0
 21
88.49999999999996
 31
0.0
  0
LINE
  5
38B
330
34E
100
AcDbEntity
  8
KOPF
100
AcDbLine
 10
-142.0
 20
68.49999999999997
 30
0.0
 11
-142.0
 21
88.49999999999996
 31
0.0
  0
ATTDEF
  5
38C
330
34E
100
AcDbEntity
  8
TEXT35
100
AcDbText
 10
-139.9
 20
59.29999999999999
 30
0.0
 40
3.5
  1

 41
0.8
  7
TEXT35
100
AcDbAttributeDefinition
280
     0
  3
Gewicht:
  2
F60
 70
     0
280
     0
  0
TEXT
  5
38D
330
34E
100
AcDbEntity
  8
KOPF
100
AcDbText
 10
-140.387393
 20
54.54752599999996
 30
0.0
 40
2.0
  1
Oberfläche
 41
0.8
  7
TEXT20
100
AcDbText
  0
TEXT
  5
38E
330
34E
100
AcDbEntity
  8
KOPF
100
AcDbText
 10
-140.1020469999999
 20
65.166273
 30
0.0
 40
2.0
  1
Gewicht:
 41
0.8
  7
TEXT20
100
AcDbText
  0
TEXT
  5
38F
330
34E
100
AcDbEntity
  8
KOPF
100
AcDbText
 10
-140.1020469999999
 20
65.166273
 30
0.0
 40
2.0
  1
Gewicht:
 41
0.8
  7
TEXT20
100
AcDbText
  0
ATTDEF
  5
390
330
34E
100
AcDbEntity
  8
TEXT25
100
AcDbText
 10
-140.4
 20
74.59999999999999
 30
0.0
 40
2.0
  1

 41
0.8
  7
TEXT20
100
AcDbAttributeDefinition
280
     0
  3
Bennenung vv.:
  2
F74
 70
     0
280
     0
  0
ATTDEF
  5
391
330
34E
100
AcDbEntity
  8
TEXT25
100
AcDbText
 10
-140.5063960262479
 20
79.64480359078786
 30
0.0
 40
2.0
  1

 41
0.8
  7
TEXT20
100
AcDbAttributeDefinition
280
     0
  3
Benennung v.:
  2
F70
 70
     0
280
     0
  0
ATTDEF
  5
392
330
34E
100
AcDbEntity
  8
TEXT25
100
AcDbText
 10
-140.390233442385
 20
84.56120109651198
 30
0.0
 40
2.0
  1

 41
0.8
  7
TEXT20
100
AcDbAttributeDefinition
280
     0
  3
Bennenung l.:
  2
F66
 70
     0
280
     0
  0
LINE
  5
393
330
34E
100
AcDbEntity
  8
KOPF
 62
    12
100
AcDbLine
 10
-100.0
 20
68.49999999999997
 30
0.0
 11
-100.0
 21
46.99999999999997
 31
0.0
  0
LWPOLYLINE
  5
394
330
34E
100
AcDbEntity
  8
KOPF
 62
    12
100
AcDbPolyline
 90
        2
 70
     0
 43
0.5
 10
-83.0
 20
46.99999999999997
 10
-83.0
 20
0.0
  0
LINE
  5
395
330
34E
100
AcDbEntity
  8
KOPF
100
AcDbLine
 10
-83.0
 20
46.99999999999997
 30
0.0
 11
-83.0
 21
0.0
 31
0.0
  0
TEXT
  5
396
330
34E
100
AcDbEntity
  8
KOPF
100
AcDbText
 10
-81.0
 20
1.714285999999985
 30
0.0
 40
2.0
  1
Ersetzt durch:
 41
0.8
  7
TEXT20
100
AcDbText
  0
LINE
  5
397
330
34E
100
AcDbEntity
  8
KOPF
 62
    12
100
AcDbLine
 10
-113.4
 20
27.0
 30
0.0
 11
-113.4
 21
46.99999999999997
 31
0.0
  0
LWPOLYLINE
  5
398
330
34E
100
AcDbEntity
  8
KOPF
100
AcDbPolyline
 90
        2
 70
     0
 43
0.5
 10
-113.4
 20
27.0
 10
-113.4
 20
46.99999999999997
  0
LINE
  5
399
330
34E
100
AcDbEntity
  8
KOPF
100
AcDbLine
 10
-113.4
 20
27.0
 30
0.0
 11
-113.4
 21
46.99999999999997
 31
0.0
  0
LINE
  5
39A
330
34E
100
AcDbEntity
  8
KOPF
100
AcDbLine
 10
-113.4
 20
27.0
 30
0.0
 11
-113.4
 21
46.99999999999997
 31
0.0
  0
ATTDEF
  5
39B
330
34E
100
AcDbEntity
  8
TEXT35
100
AcDbText
 10
-104.4935632823758
 20
33.13408015176805
 30
0.0
 40
3.5
  1

 41
0.8
  7
TEXT35
100
AcDbAttributeDefinition
280
     0
  3
Maßstab 2:
  2
F54
 70
     0
280
     0
  0
ATTDEF
  5
39C
330
34E
100
AcDbEntity
  8
TEXT35
100
AcDbText
 10
-104.487948258847
 20
28.6
 30
0.0
 40
3.5
  1

 41
0.8
  7
TEXT35
100
AcDbAttributeDefinition
280
     0
  3
Maßstab 3:
  2
F55
 70
     0
280
     0
  0
ATTDEF
  5
39D
330
34E
100
AcDbEntity
  8
TEXT50
100
AcDbText
 10
-106.6
 20
37.8
 30
0.0
 40
5.0
  1

 41
0.8
  7
TEXT50
100
AcDbAttributeDefinition
280
     0
  3
Maßstab 1:
  2
F25
 70
     0
280
     0
  0
TEXT
  5
39E
330
34E
100
AcDbEntity
  8
KOPF
100
AcDbText
 10
-112.263457
 20
43.88678899999999
 30
0.0
 40
2.0
  1
Massstab:
 41
0.8
  7
TEXT20
100
AcDbText
  0
LINE
  5
39F
330
34E
100
AcDbEntity
  8
KOPF
 62
    12
100
AcDbLine
 10
-57.80813400000011
 20
27.0
 30
0.0
 11
-57.80813400000011
 21
46.99999999999997
 31
0.0
  0
LINE
  5
3A0
330
34E
100
AcDbEntity
  8
KOPF
100
AcDbLine
 10
-57.80813400000011
 20
27.0
 30
0.0
 11
-57.80813400000011
 21
46.99999999999997
 31
0.0
  0
TEXT
  5
3A1
330
34E
100
AcDbEntity
  8
KOPF
100
AcDbText
 10
-81.59296000000006
 20
23.69783599999999
 30
0.0
 40
2.0
  1
Zeichnung Nr.:
 41
0.8
  7
TEXT20
100
AcDbText
  0
TEXT
  5
3A2
330
34E
100
AcDbEntity
  8
KOPF
100
AcDbText
 10
-81.00375700000006
 20
5.924711999999997
 30
0.0
 40
2.0
  1
Ersatz für:
 41
0.8
  7
TEXT20
100
AcDbText
  0
TEXT
  5
3A3
330
34E
100
AcDbEntity
  8
KOPF
100
AcDbText
 10
-81.59296000000006
 20
23.69783599999999
 30
0.0
 40
2.0
  1
Zeichnung Nr.:
 41
0.8
  7
TEXT20
100
AcDbText
  0
ATTDEF
  5
3A4
330
34E
100
AcDbEntity
  8
TEXT50
100
AcDbText
 10
-78.29193986361122
 20
14.50587824180555
 30
0.0
 40
5.0
  1

 41
0.8
  7
TEXT50
100
AcDbAttributeDefinition
280
     0
  3
Standart:
  2
F1
 70
     0
280
     0
  0
TEXT
  5
3A5
330
34E
100
AcDbEntity
  8
KOPF
100
AcDbText
 10
-81.48889200000008
 20
43.86057200000001
 30
0.0
 40
2.0
  1
Masseinheit:
 41
0.8
  7
TEXT20
100
AcDbText
  0
LINE
  5
3A6
330
34E
100
AcDbEntity
  8
KOPF
 62
    12
100
AcDbLine
 10
-57.80813400000011
 20
36.213444
 30
0.0
 11
-83.0
 21
36.213444
 31
0.0
  0
LINE
  5
3A7
330
34E
100
AcDbEntity
  8
KOPF
100
AcDbLine
 10
-57.80813400000011
 20
36.213444
 30
0.0
 11
-83.0
 21
36.213444
 31
0.0
  0
ATTDEF
  5
3A8
330
34E
100
AcDbEntity
  8
TEXT35
100
AcDbText
 10
-79.40896486611496
 20
38.08722024605356
 30
0.0
 40
3.5
  1

 41
0.8
  7
TEXT35
100
AcDbAttributeDefinition
280
     0
  3
Maßeinheit:
  2
F56
 70
     0
280
     0
  0
TEXT
  5
3A9
330
34E
100
AcDbEntity
  8
KOPF
100
AcDbText
 10
-33.57569784693112
 20
42.62823225872138
 30
0.0
 40
1.54
  1
Diese Zeichnung darf weder kopiert
 41
0.8
  7
TEXT20
100
AcDbText
  0
TEXT
  5
3AA
330
34E
100
AcDbEntity
  8
KOPF
100
AcDbText
 10
-33.57569784693112
 20
40.26106040199917
 30
0.0
 40
1.54
  1
noch dritten Personen, insbesondere
 41
0.8
  7
TEXT20
100
AcDbText
  0
TEXT
  5
3AB
330
34E
100
AcDbEntity
  8
KOPF
100
AcDbText
 10
-33.57569784693112
 20
35.63814072439632
 30
0.0
 40
1.54
  1
mitgeteilt werden und bleibt unser
 41
0.8
  7
TEXT20
100
AcDbText
  0
TEXT
  5
3AC
330
34E
100
AcDbEntity
  8
KOPF
100
AcDbText
 10
-33.57569784693112
 20
33.37532604459598
 30
0.0
 40
1.54
  1
Eigentum.
 41
0.8
  7
TEXT20
100
AcDbText
  0
TEXT
  5
3AD
330
34E
100
AcDbEntity
  8
KOPF
100
AcDbText
 10
-33.57569784693112
 20
37.97994933403727
 30
0.0
 40
1.54
  1
zum Zweck anderweitiger Benutzung
 41
0.8
  7
TEXT20
100
AcDbText
  0
TEXT
  5
3AE
330
34E
100
AcDbEntity
  8
KOPF
100
AcDbText
 10
-33.7904806989385
 20
30.30982488917614
 30
0.0
 40
1.54
  1
Schutzvermerk nach DIN 34 beachten
 41
0.75
  7
TEXT20
100
AcDbText
  0
LINE
  5
3AF
330
34E
100
AcDbEntity
  8
KOPF
100
AcDbLine
 10
-34.94281200000012
 20
47.01203199999999
 30
0.0
 11
-34.94281200000012
 21
27.0
 31
0.0
  0
LINE
  5
3B0
330
34E
100
AcDbEntity
  8
KOPF
100
AcDbLine
 10
-34.94281200000012
 20
47.01203199999999
 30
0.0
 11
-34.94281200000012
 21
27.0
 31
0.0
  0
LINE
  5
3B1
330
34E
100
AcDbEntity
  8
MITTE
100
AcDbLine
 10
-45.85521401410289
 20
36.04852954632858
 30
0.0
 11
-35.23444858652556
 21
36.04852954632858
 31
0.0
  0
LINE
  5
3B2
330
34E
100
AcDbEntity
  8
TEXT50
100
AcDbLine
 10
-45.05865660703466
 20
32.02559619470341
 30
0.0
 11
-36.50894043783512
 21
34.06858135367652
 31
0.0
  0
LINE
  5
3B3
330
34E
100
AcDbEntity
  8
TEXT50
100
AcDbLine
 10
-36.50894043783512
 20
38.02847773898061
 30
0.0
 11
-45.05865660703466
 21
40.07146289795374
 31
0.0
  0
TEXT
  5
3B4
330
34E
100
AcDbEntity
  8
KOPF
100
AcDbText
 10
-57.12244047883302
 20
43.82431699999997
 30
0.0
 40
2.0
  1
Projektion: ISO-E
 41
0.8
  7
TEXT20
100
AcDbText
  0
LINE
  5
3B5
330
34E
100
AcDbEntity
  8
TEXT50
100
AcDbLine
 10
-45.05865660703466
 20
40.07146289795374
 30
0.0
 11
-45.05865660703466
 21
32.02559619470346
 31
0.0
  0
LINE
  5
3B6
330
34E
100
AcDbEntity
  8
MITTE
100
AcDbLine
 10
-51.4945506424383
 20
40.07146289795374
 30
0.0
 11
-51.4945506424383
 21
30.76413131482123
 31
0.0
  0
CIRCLE
  5
3B7
330
34E
100
AcDbEntity
  8
TEXT50
100
AcDbCircle
 10
-51.4945506424383
 20
36.04852954632858
 30
0.0
 40
4.022933351625178
  0
CIRCLE
  5
3B8
330
34E
100
AcDbEntity
  8
TEXT50
100
AcDbCircle
 10
-51.4945506424383
 20
36.04852954632858
 30
0.0
 40
1.979948192651899
  0
LINE
  5
3B9
330
34E
100
AcDbEntity
  8
MITTE
100
AcDbLine
 10
-56.48631039339966
 20
36.04852954632858
 30
0.0
 11
-46.50279089147699
 21
36.04852954632858
 31
0.0
  0
LINE
  5
3BA
330
34E
100
AcDbEntity
  8
TEXT50
100
AcDbLine
 10
-36.50894043783512
 20
38.02847773898061
 30
0.0
 11
-36.50894043783512
 21
34.06858135367652
 31
0.0
  0
LWPOLYLINE
  5
3BB
330
34E
100
AcDbEntity
  8
KOPF
 62
    12
100
AcDbPolyline
 90
        2
 70
     0
 43
0.5
 10
-12.0
 20
27.0
 10
-12.0
 20
10.0
  0
LINE
  5
3BC
330
34E
100
AcDbEntity
  8
KOPF
100
AcDbLine
 10
-12.0
 20
27.0
 30
0.0
 11
-12.0
 21
10.0
 31
0.0
  0
ATTDEF
  5
3BD
330
34E
100
AcDbEntity
  8
TEXT50
100
AcDbText
 10
-5.58570360403041
 20
17.00587824180555
 30
0.0
 40
5.0
  1

 41
0.8
  7
TEXT50
 72
     4
 11
-5.58570360403041
 21
17.00587824180555
 31
0.0
100
AcDbAttributeDefinition
280
     0
  3
Index:
  2
F1B
 70
     0
280
     0
  0
TEXT
  5
3BE
330
34E
100
AcDbEntity
  8
KOPF
100
AcDbText
 10
-8.353129999999964
 20
23.330072
 30
0.0
 40
2.0
  1
Index
 41
0.8
  7
TEXT20
100
AcDbText
  0
TEXT
  5
3BF
330
34E
100
AcDbEntity
  8
KOPF
100
AcDbText
 10
-94.40535829344497
 20
70.39773773357916
 30
0.0
 40
2.0
  1
Benennung
 41
0.8
  7
TEXT20
100
AcDbText
  0
LINE
  5
3C0
330
34E
100
AcDbEntity
  8
KOPF
100
AcDbLine
 10
-15.0
 20
88.49999999999996
 30
0.0
 11
-15.0
 21
68.49999999999997
 31
0.0
  0
LINE
  5
3C1
330
34E
100
AcDbEntity
  8
KOPF
100
AcDbLine
 10
-15.0
 20
88.49999999999996
 30
0.0
 11
-15.0
 21
68.49999999999997
 31
0.0
  0
TEXT
  5
3C2
330
34E
100
AcDbEntity
  8
KOPF
100
AcDbText
 10
-11.65833600000008
 20
69.53813999999997
 30
0.0
 40
2.0
  1
Name
 41
0.8
  7
TEXT20
100
AcDbText
  0
TEXT
  5
3C3
330
34E
100
AcDbEntity
  8
KOPF
100
AcDbText
 10
-11.65833600000008
 20
69.53813999999997
 30
0.0
 40
2.0
  1
Name
 41
0.8
  7
TEXT20
100
AcDbText
  0
ATTDEF
  5
3C4
330
34E
100
AcDbEntity
  8
TEXT25
100
AcDbText
 10
-13.39999999999998
 20
74.90000000000001
 30
0.0
 40
2.0
  1

 41
0.8
  7
TEXT20
100
AcDbAttributeDefinition
280
     0
  3
Name vv.:
  2
F75
 70
     0
280
     0
  0
ATTDEF
  5
3C5
330
34E
100
AcDbEntity
  8
TEXT25
100
AcDbText
 10
-13.39999999999998
 20
79.7
 30
0.0
 40
2.0
  1

 41
0.8
  7
TEXT20
100
AcDbAttributeDefinition
280
     0
  3
Name v.:
  2
F71
 70
     0
280
     0
  0
ATTDEF
  5
3C6
330
34E
100
AcDbEntity
  8
TEXT25
100
AcDbText
 10
-13.31006638105163
 20
84.29999999999999
 30
0.0
 40
2.0
  1

 41
0.8
  7
TEXT20
100
AcDbAttributeDefinition
280
     0
  3
Name l.:
  2
F67
 70
     0
280
     0
  0
LINE
  5
3C7
330
34E
100
AcDbEntity
  8
KOPF
100
AcDbLine
 10
-182.0
 20
36.99999999999997
 30
0.0
 11
-113.4
 21
36.99999999999997
 31
0.0
  0
LINE
  5
3C8
330
34E
100
AcDbEntity
  8
KOPF
100
AcDbLine
 10
-182.0
 20
31.99999999999997
 30
0.0
 11
-113.4
 21
31.99999999999997
 31
0.0
  0
MTEXT
  5
3C9
330
34E
100
AcDbEntity
  8
Sperrlayer
 62
     1
100
AcDbMText
 10
-166.0749851709908
 20
9.027899370527848
 30
0.0
 40
10.0
 41
771.0
 46
0.0
 71
     1
 72
     5
  1
VORABZUG - nicht FREIGEGEBEN !
  7
TEXT20
 11
0.8660254037844387
 21
0.5
 31
0.0
 73
     1
 44
1.0
  0
ENDBLK
  5
3CB
330
34E
100
AcDbEntity
  8
0
100
AcDbBlockEnd
  0
BLOCK
  5
3FE
330
3EE
100
AcDbEntity
  8
0
100
AcDbBlockBegin
  2
logo_1200
 70
     0
 10
0.0
 20
0.0
 30
0.0
  3
logo_1200
  1

  0
TEXT
  5
3EF
330
3EE
100
AcDbEntity
  8
TEXT25
100
AcDbText
 10
-62.75122066833545
 20
52.38243367792947
 30
0.0
 40
2.0
  1
582 22 Pribyslav
 41
0.8
  7
TEXT25
100
AcDbText
  0
CIRCLE
  5
3F0
330
3EE
100
AcDbEntity
  8
TEXT35
100
AcDbCircle
 10
-77.90633268923627
 20
54.91319723090533
 30
0.0
 40
2.281499999999998
  0
CIRCLE
  5
3F1
330
3EE
100
AcDbEntity
  8
TEXT35
100
AcDbCircle
 10
-77.90633268923627
 20
54.91319723090533
 30
0.0
 40
1.579499999999999
  0
LWPOLYLINE
  5
3F2
330
3EE
100
AcDbEntity
  8
TEXT35
100
AcDbPolyline
 90
        4
 70
     1
 43
0.0
 10
-83.00295180105614
 20
54.12344723090529
 42
-3.664441495333134
 10
-83.01773608902488
 20
55.72801804658638
 10
-82.4097147917411
 20
56.07905930624621
 42
3.685001202565794
 10
-82.39500196759946
 20
53.77244723090529
  0
LWPOLYLINE
  5
3F3
330
3EE
100
AcDbEntity
  8
TEXT35
100
AcDbPolyline
 90
        4
 70
     1
 43
0.0
 10
-87.16522368075901
 20
64.67896593129956
 10
-87.16522368075901
 20
51.4441636102955
 10
-81.57645417190838
 20
51.4441636102955
 10
-81.57645417190838
 20
64.67896593129956
  0
LWPOLYLINE
  5
3F4
330
3EE
100
AcDbEntity
  8
TEXT35
100
AcDbPolyline
 90
        4
 70
     1
 43
0.0
 10
-75.11194793481099
 20
64.67896593129956
 10
-75.11194793481099
 20
51.4441636102955
 10
-80.70071744366158
 20
51.4441636102955
 10
-80.70071744366158
 20
64.67896593129956
  0
TEXT
  5
3F5
330
3EE
100
AcDbEntity
  8
TEXT25
100
AcDbText
 10
-42.07144434927065
 20
52.73160429576707
 30
0.0
 40
2.1
  1
Fax: +420 569 484 848
 41
0.7
  7
ROMANS8
100
AcDbText
  0
LWPOLYLINE
  5
3F6
330
3EE
100
AcDbEntity
  8
TEXT35
100
AcDbPolyline
 90
        7
 70
     1
 43
0.0
 10
-92.41478278366415
 20
52.60099048123299
 42
-0.0323236910300514
 10
-92.37060365720655
 20
53.23414235224742
 10
-89.30008666965568
 20
53.23414235224742
 42
-0.0323236910300515
 10
-89.25590754319818
 20
52.60099048123299
 10
-88.55389974564616
 20
52.60099048123299
 42
0.2369604974400691
 10
-90.83534516343117
 20
57.0951423522472
 42
0.2369604974400691
 10
-93.11679058121619
 20
52.60099048123299
  0
LWPOLYLINE
  5
3F7
330
3EE
100
AcDbEntity
  8
TEXT35
100
AcDbPolyline
 90
        4
 70
     1
 43
0.0
 10
-93.62972991785644
 20
64.67896593129956
 10
-93.62972991785644
 20
51.4441636102955
 10
-88.04096040900587
 20
51.4441636102955
 10
-88.04096040900587
 20
64.67896593129956
  0
LWPOLYLINE
  5
3F8
330
3EE
100
AcDbEntity
  8
TEXT25
100
AcDbPolyline
 90
        3
 70
     0
 43
0.0
 10
-57.65641467769126
 20
58.02057702122401
 10
-57.34643565818164
 20
57.67744438935747
 10
-57.06966783454433
 20
58.04271477888098
  0
TEXT
  5
3F9
330
3EE
100
AcDbEntity
  8
TEXT25
100
AcDbText
 10
-62.46488457919316
 20
56.00873140993094
 30
0.0
 40
2.0
  1
Havlickova 260
 41
0.8
  7
TEXT25
100
AcDbText
  0
TEXT
  5
3FA
330
3EE
100
AcDbEntity
  8
TEXT35
100
AcDbText
 10
-63.01986452254318
 20
61.20180074934168
 30
0.0
 40
3.0
  1
ACO Stavebni prvky k.s
 41
0.8
  7
ITALICC8
100
AcDbText
  0
LWPOLYLINE
  5
3FB
330
3EE
100
AcDbEntity
  8
TEXT35
100
AcDbPolyline
 90
        3
 70
     1
 43
0.0
 10
-90.83534516343108
 20
56.18573248981441
 42
-0.1369919174131033
 10
-89.44776560816123
 20
53.93614235224742
 10
-92.22292471870108
 20
53.93614235224742
 42
-0.136991917413112
  0
TEXT
  5
3FC
330
3EE
100
AcDbEntity
  8
TEXT25
100
AcDbText
 10
-42.12418048628376
 20
56.06021119287449
 30
0.0
 40
2.1
  1
Tel.:+420 569 491 111
 41
0.7
  7
ROMANS8
100
AcDbText
  0
LWPOLYLINE
  5
3FD
330
3EE
100
AcDbEntity
  8
TEXT25
100
AcDbPolyline
 90
        3
 70
     0
 43
0.0
 10
-54.37217074633299
 20
54.52955947101651
 10
-54.06219172682341
 20
54.18642683914997
 10
-53.78542390318611
 20
54.55169722867349
  0
ENDBLK
  5
3FF
330
3EE
100
AcDbEntity
  8
0
100
AcDbBlockEnd
  0
BLOCK
  5
4FF
330
4FD
100
AcDbEntity
  8
0
100
AcDbBlockBegin
  2
GENAXEH
 70
     0
 10
0.0
 20
0.0
 30
0.0
  3
GENAXEH
  1

  0
LINE
  5
4FE
330
4FD
100
AcDbEntity
  8
0
100
AcDbLine
 10
-1.0
 20
0.0
 30
0.0
 11
1.0
 21
0.0
 31
0.0
  0
ENDBLK
  5
500
330
4FD
100
AcDbEntity
  8
0
100
AcDbBlockEnd
  0
BLOCK
  5
50C
330
50B
100
AcDbEntity
  8
0
100
AcDbBlockBegin
  2
_ACMFILLEDHALF
 70
     0
 10
0.0
 20
0.0
 30
0.0
  3
_ACMFILLEDHALF
  1

  0
TRACE
  5
50E
330
50B
100
AcDbEntity
  8
BEMASS
 62
     0
100
AcDbTrace
 10
-0.8
 20
0.0
 30
0.0
 11
-1.0
 21
0.166666666
 31
0.0
 12
0.0
 22
0.0
 32
0.0
 13
0.0
 23
0.0
 33
0.0
  0
LINE
  5
50F
330
50B
100
AcDbEntity
  8
BEMASS
 62
     0
100
AcDbLine
 10
-1.0
 20
0.0
 30
0.0
 11
-0.8
 21
0.0
 31
0.0
  0
ENDBLK
  5
50D
330
50B
100
AcDbEntity
  8
0
100
AcDbBlockEnd
  0
ENDSEC
  0
SECTION
  2
ENTITIES
  0
MTEXT
  5
3
330
2
100
AcDbEntity
  8
BEMASS
100
AcDbMText
 10
-47.73523245021823
 20
836.4692453873351
 30
0.0
 40
5.0
 41
0.0
 46
0.0
 71
     1
 72
     1
  1

 73
     1
 44
1.0
  0
MTEXT
  5
A
330
2
100
AcDbEntity
  8
BEMASS
100
AcDbMText
 10
-52.15464983263416
 20
832.7573096157982
 30
0.0
 40
5.0
 41
0.0
 46
0.0
 71
     1
 72
     1
  1

 73
     1
 44
1.0
  0
LINE
  5
B
330
2
100
AcDbEntity
  8
SICHTBAR
100
AcDbLine
 10
346.371424084774
 20
344.6420681837005
 30
0.0
 11
282.9862592776428
 21
344.6420681836997
 31
0.0
  0
HATCH
  5
D
330
2
100
AcDbEntity
  8
BEMASS
100
AcDbHatch
 10
0.0
 20
0.0
 30
0.0
210
0.0
220
0.0
230
1.0
  2
ANSI31
 70
     0
 71
     0
 91
        2
 92
        7
 72
     1
 73
     1
 93
       27
 10
122.5154486984681
 20
344.4990215654712
 42
0.0954145723997281
 10
121.77266734576
 20
344.6420681837004
 42
0.0
 10
109.601094470506
 20
344.6420681837005
 42
0.3178372451957354
 10
107.7154763873416
 20
343.3087348503678
 42
-0.3178372451957583
 10
106.7726673457596
 20
342.6420681837015
 42
0.0
 10
102.9862592776414
 20
342.6420681837017
 42
0.0
 10
102.986259277641
 20
341.6420681837006
 42
0.0
 10
103.9862592776387
 20
341.6420681837006
 42
0.0
 10
106.7726673457598
 20
341.6420681837006
 42
0.317837245195811
 10
108.6582854289238
 20
342.9754015170345
 42
-0.3178372451958503
 10
109.601094470506
 20
343.6420681837014
 42
0.0
 10
121.7726673457589
 20
343.6420681837016
 42
-0.095414572399246
 10
122.1440580221113
 20
343.5705448745868
 42
0.0
 10
126.6076332037521
 20
341.7851148019303
 42
0.0954145723997938
 10
127.3504145564607
 20
341.6420681837006
 42
0.0
 10
161.0484535693031
 20
341.6420681837006
 42
-0.087488663525927
 10
161.3904737126288
 20
341.5817608044864
 42
0.0
 10
170.3282794209644
 20
338.328665566998
 42
-0.3152987888797318
 10
170.9862592776423
 20
337.388972946212
 42
0.0
 10
170.9862592776419
 20
332.4244551396585
 42
0.0
 10
171.9862592776387
 20
332.4244551396585
 42
0.0
 10
171.9862592776387
 20
337.3889729462125
 42
0.3152987888789498
 10
170.6702995642902
 20
339.2683581877841
 42
0.0
 10
161.7324938559538
 20
342.5214534252729
 42
0.0874886635259531
 10
161.0484535693024
 20
342.6420681837011
 42
0.0
 10
127.3504145564609
 20
342.6420681837007
 42
-0.0954145723997624
 10
126.9790238801067
 20
342.7135914928154
 42
0.0
 97
        0
 92
        7
 72
     1
 73
     1
 93
       27
 10
346.3714240847742
 20
344.6420681837005
 42
0.0
 10
334.1998512095202
 20
344.6420681837004
 42
0.0954145723998053
 10
333.4570698568116
 20
344.4990215654709
 42
0.0
 10
328.9934946751734
 20
342.7135914928154
 42
-0.0954145723997337
 10
328.6221039988193
 20
342.6420681837007
 42
0.0
 10
294.9240649859774
 20
342.6420681837011
 42
0.0874886635259173
 10
294.2400246993261
 20
342.5214534252729
 42
0.0
 10
285.3022189909905
 20
339.2683581877843
 42
0.3152987888790459
 10
283.986259277641
 20
337.3889729462125
 42
0.0
 10
283.9862592776412
 20
332.4244551396583
 42
0.0
 10
284.9862592776381
 20
332.4244551396587
 42
0.0
 10
284.9862592776374
 20
337.3889729462119
 42
-0.3152987888786662
 10
285.6442391343119
 20
338.3286655669966
 42
0.0
 10
294.5820448426512
 20
341.5817608044864
 42
-0.0874886635260416
 10
294.9240649859774
 20
341.6420681837006
 42
0.0
 10
328.6221039988195
 20
341.6420681837006
 42
0.0954145723997723
 10
329.3648853515277
 20
341.7851148019303
 42
0.0
 10
333.8284605331668
 20
343.570544874586
 42
-0.0954145723997722
 10
334.1998512095208
 20
343.6420681837016
 42
0.0
 10
346.3714240847739
 20
343.6420681837014
 42
-0.3178372451957903
 10
347.3142331263559
 20
342.9754015170347
 42
0.3178372451958485
 10
349.1998512095201
 20
341.6420681837006
 42
0.0
 10
351.9862592776413
 20
341.6420681837006
 42
0.0
 10
352.986259277639
 20
341.6420681837006
 42
0.0
 10
352.9862592776385
 20
342.6420681837018
 42
0.0
 10
349.1998512095203
 20
342.6420681837015
 42
-0.3178372451958088
 10
348.2570421679382
 20
343.3087348503682
 42
0.3178372451956708
 97
        0
 75
     0
 76
     1
 52
0.0
 41
15.0
 77
     0
 78
     1
 53
45.0
 43
719.5625045897936
 44
-602.4861018442402
 45
-1.325825214724776
 46
1.325825214724776
 79
     0
 47
0.2171131923132787
 98
        2
 10
117.9591819349698
 20
344.0544478820125
 10
342.9846366943412
 20
344.4886742251306
  0
LINE
  5
E
330
2
100
AcDbEntity
  8
SICHTBAR
100
AcDbLine
 10
333.4570698568118
 20
344.499021565471
 30
0.0
 11
328.9934946751732
 21
342.7135914928154
 31
0.0
  0
LINE
  5
F
330
2
100
AcDbEntity
  8
SICHTBAR
100
AcDbLine
 10
333.8284605331669
 20
343.570544874586
 30
0.0
 11
329.3648853515279
 21
341.7851148019303
 31
0.0
  0
LINE
  5
10
330
2
100
AcDbEntity
  8
SICHTBAR
100
AcDbLine
 10
337.7936768740742
 20
341.6420681837006
 30
0.0
 11
294.9240649859767
 21
341.6420681837006
 31
0.0
  0
LINE
  5
11
330
2
100
AcDbEntity
  8
SICHTBAR
100
AcDbLine
 10
328.2580769472288
 20
291.6467599302165
 30
0.0
 11
332.542838819629
 21
292.5213275431742
 31
0.0
  0
LINE
  5
12
330
2
100
AcDbEntity
  8
SICHTBAR
100
AcDbLine
 10
329.5692632998928
 20
321.6778647419335
 30
0.0
 11
333.761496769873
 21
320.4331835192964
 31
0.0
  0
LINE
  5
13
330
2
100
AcDbEntity
  8
SICHTBAR
100
AcDbLine
 10
328.4580647105782
 20
290.6669615353869
 30
0.0
 11
332.497876984271
 21
291.4915322075074
 31
0.0
  0
LINE
  5
14
330
2
100
AcDbEntity
  8
SICHTBAR
100
AcDbLine
 10
329.853885106269
 20
322.6365046260063
 30
0.0
 11
333.8064586052311
 21
321.4629788549631
 31
0.0
  0
LINE
  5
15
330
2
100
AcDbEntity
  8
MITTE
100
AcDbLine
 10
288.1521677947512
 20
308.4419979621184
 30
0.0
 11
335.1502642379146
 21
306.3900167565046
 31
0.0
  0
LINE
  5
18
330
2
100
AcDbEntity
  8
SICHTBAR
100
AcDbLine
 10
109.601094470506
 20
344.6420681837005
 30
0.0
 11
172.9862592776401
 21
344.6420681836997
 31
0.0
  0
DIMENSION
  5
19
330
2
100
AcDbEntity
  8
BEMASS
100
AcDbDimension
280
     0
  2
*D1
 10
137.9862592776396
 20
364.6420681836992
 30
0.0
 11
133.4862592776396
 21
361.6420681836992
 31
0.0
 70
    32
 71
     5
 42
6.0
 73
     0
 74
     0
 75
     0
  3
STANDARD
100
AcDbAlignedDimension
 13
152.9862592776396
 23
358.6420681836992
 33
0.0
 14
154.4862592776398
 24
364.6420681836992
 34
0.0
 50
90.0
100
AcDbRotatedDimension
  0
LINE
  5
2A
330
2
100
AcDbEntity
  8
SICHTBAR
100
AcDbLine
 10
127.3504145564609
 20
342.6420681837007
 30
0.0
 11
161.0484535693024
 21
342.6420681837011
 31
0.0
  0
LINE
  5
2B
330
2
100
AcDbEntity
  8
SICHTBAR
100
AcDbLine
 10
118.1788416812057
 20
341.6420681837006
 30
0.0
 11
161.0484535693033
 21
341.6420681837006
 31
0.0
  0
LINE
  5
2C
330
2
100
AcDbEntity
  8
SICHTBAR
100
AcDbLine
 10
109.601094470506
 20
343.6420681837014
 30
0.0
 11
121.7726673457598
 21
343.6420681837016
 31
0.0
  0
LINE
  5
2D
330
2
100
AcDbEntity
  8
SICHTBAR
100
AcDbLine
 10
103.9862592776387
 20
341.6420681837006
 30
0.0
 11
118.1788416812053
 21
341.6420681837006
 31
0.0
  0
LINE
  5
2E
330
2
100
AcDbEntity
  8
SICHTBAR
100
AcDbLine
 10
106.7726673457598
 20
342.6420681837015
 30
0.0
 11
102.9862592776414
 21
342.6420681837018
 31
0.0
  0
LINE
  5
2F
330
2
100
AcDbEntity
  8
SICHTBAR
100
AcDbLine
 10
102.9862592776387
 20
341.6420681837006
 30
0.0
 11
103.9862592776387
 21
341.6420681837006
 31
0.0
  0
LINE
  5
30
330
2
100
AcDbEntity
  8
SICHTBAR
100
AcDbLine
 10
102.9862592776414
 20
342.6420681837015
 30
0.0
 11
102.986259277641
 21
341.6420681837016
 31
0.0
  0
ARC
  5
31
330
2
100
AcDbEntity
  8
SICHTBAR
100
AcDbCircle
 10
106.7726673457598
 20
343.6420681837014
 30
0.0
 40
2.0
100
AcDbArc
 50
270.0
 51
340.528779365507
  0
ARC
  5
32
330
2
100
AcDbEntity
  8
SICHTBAR
100
AcDbCircle
 10
106.7726673457598
 20
343.6420681837014
 30
0.0
 40
1.0
100
AcDbArc
 50
270.0
 51
340.528779365507
  0
ARC
  5
33
330
2
100
AcDbEntity
  8
SICHTBAR
100
AcDbCircle
 10
106.7726673457598
 20
343.6420681837013
 30
0.0
 40
2.0
100
AcDbArc
 50
270.0
 51
340.528779365507
  0
ARC
  5
34
330
2
100
AcDbEntity
  8
SICHTBAR
100
AcDbCircle
 10
109.601094470506
 20
342.6420681837015
 30
0.0
 40
2.0
100
AcDbArc
 50
90.0
 51
160.5287793655101
  0
ARC
  5
35
330
2
100
AcDbEntity
  8
SICHTBAR
100
AcDbCircle
 10
109.601094470506
 20
342.6420681837013
 30
0.0
 40
1.0
100
AcDbArc
 50
90.0
 51
160.5287793655143
  0
ARC
  5
36
330
2
100
AcDbEntity
  8
SICHTBAR
100
AcDbCircle
 10
127.3504145564609
 20
343.6420681837008
 30
0.0
 40
1.0
100
AcDbArc
 50
248.1985905136476
 51
270.0
  0
ARC
  5
37
330
2
100
AcDbEntity
  8
SICHTBAR
100
AcDbCircle
 10
127.3504145564604
 20
343.6420681837006
 30
0.0
 40
2.0
100
AcDbArc
 50
248.1985905136476
 51
270.0
  0
ARC
  5
38
330
2
100
AcDbEntity
  8
SICHTBAR
100
AcDbCircle
 10
121.7726673457589
 20
342.6420681837007
 30
0.0
 40
1.0
100
AcDbArc
 50
68.19859051364758
 51
90.0
  0
ARC
  5
39
330
2
100
AcDbEntity
  8
SICHTBAR
100
AcDbCircle
 10
121.7726673457598
 20
342.6420681837005
 30
0.0
 40
2.0
100
AcDbArc
 50
68.19859051364758
 51
90.0
  0
LINE
  5
3A
330
2
100
AcDbEntity
  8
SICHTBAR
100
AcDbLine
 10
122.5154486984681
 20
344.499021565471
 30
0.0
 11
126.9790238801067
 21
342.7135914928154
 31
0.0
  0
LINE
  5
3B
330
2
100
AcDbEntity
  8
SICHTBAR
100
AcDbLine
 10
122.1440580221131
 20
343.570544874586
 30
0.0
 11
126.6076332037521
 21
341.7851148019303
 31
0.0
  0
LINE
  5
3C
330
2
100
AcDbEntity
  8
0
100
AcDbLine
 10
172.9862592776401
 20
333.9296300825215
 30
0.0
 11
282.986259277644
 21
333.9296300825209
 31
0.0
  0
LINE
  5
3D
102
{ACAD_REACTORS
330
44C
102
}
330
2
100
AcDbEntity
  8
SICHTBAR
100
AcDbLine
 10
282.9862592776401
 20
348.9244551396566
 30
0.0
 11
227.9862592776401
 21
348.9244551396571
 31
0.0
  0
LINE
  5
3E
330
2
100
AcDbEntity
  8
SICHTBAR
100
AcDbLine
 10
227.9862592776403
 20
363.6420681836993
 30
0.0
 11
294.4862592776406
 21
363.6420681836987
 31
0.0
  0
LINE
  5
3F
330
2
100
AcDbEntity
  8
SICHTBAR
100
AcDbLine
 10
227.9862592776403
 20
362.1420681836993
 30
0.0
 11
277.9862592776406
 21
362.142068183699
 31
0.0
  0
LINE
  5
40
330
2
100
AcDbEntity
  8
SICHTBAR
100
AcDbLine
 10
227.9862592776403
 20
360.1420681836992
 30
0.0
 11
277.9862592776403
 21
360.142068183699
 31
0.0
  0
LINE
  5
41
330
2
100
AcDbEntity
  8
SICHTBAR
100
AcDbLine
 10
227.9862592776401
 20
364.6420681836992
 30
0.0
 11
297.4862592776403
 21
364.6420681836989
 31
0.0
  0
LINE
  5
42
102
{ACAD_REACTORS
330
430
102
}
330
2
100
AcDbEntity
  8
0
100
AcDbLine
 10
172.9862592776401
 20
348.9296300825217
 30
0.0
 11
276.0051449363416
 21
348.929630082521
 31
0.0
  0
HATCH
  5
43
330
2
100
AcDbEntity
  8
SCHRAFF
100
AcDbHatch
 10
0.0
 20
0.0
 30
0.0
210
0.0
220
0.0
230
1.0
  2
ANSI31
 70
     0
 71
     0
 91
        6
 92
        7
 72
     0
 73
     1
 93
        8
 10
177.9862592776403
 20
360.1420681836992
 10
181.9862592776396
 20
360.1420681836992
 10
181.9862592776396
 20
362.1420681836993
 10
177.9862592776396
 20
362.1420681836993
 10
167.9862592776401
 20
363.6420681836993
 10
161.4862592776401
 20
363.6420681836994
 10
161.4862592776401
 20
361.6420681836993
 10
167.9862592776401
 20
361.6420681836992
 97
        0
 92
        7
 72
     0
 73
     1
 93
        4
 10
205.9862592776394
 20
360.1420681836992
 10
205.9862592776394
 20
362.1420681836993
 10
187.9862592776396
 20
362.1420681836993
 10
187.9862592776396
 20
360.1420681836992
 97
        0
 92
        7
 72
     0
 73
     1
 93
        4
 10
227.9862592776401
 20
360.1420681836993
 10
227.9862592776401
 20
362.1420681836993
 10
211.9862592776396
 20
362.1420681836992
 10
211.9862592776396
 20
360.1420681836992
 97
        0
 92
        7
 72
     0
 73
     1
 93
        4
 10
243.986259277641
 20
360.1420681836992
 10
243.986259277641
 20
362.1420681836992
 10
227.9862592776403
 20
362.1420681836993
 10
227.9862592776403
 20
360.1420681836992
 97
        0
 92
        7
 72
     0
 73
     1
 93
        4
 10
267.986259277641
 20
360.142068183699
 10
267.986259277641
 20
362.142068183699
 10
249.986259277641
 20
362.1420681836992
 10
249.986259277641
 20
360.1420681836992
 97
        0
 92
        7
 72
     0
 73
     1
 93
        8
 10
287.9862592776405
 20
361.6420681836987
 10
294.4862592776406
 20
361.6420681836987
 10
294.4862592776406
 20
363.6420681836987
 10
287.9862592776401
 20
363.6420681836987
 10
277.9862592776406
 20
362.142068183699
 10
273.986259277641
 20
362.142068183699
 10
273.986259277641
 20
360.142068183699
 10
277.9862592776401
 20
360.142068183699
 97
        0
 75
     0
 76
     1
 52
90.0
 41
25.0
 77
     0
 78
     1
 53
135.0
 43
-0.9584605541524524
 44
-39.89270773176554
 45
-2.209708691207961
 46
-2.20970869120796
 79
     0
 47
0.138524483993227
 98
        6
 10
168.6849730440106
 20
361.9533028303128
 10
192.9368722745168
 20
360.7065822627794
 10
222.593475269224
 20
360.5680595943184
 10
231.7399048653299
 20
360.5680595943184
 10
256.4075493511598
 20
360.5680595943184
 10
280.7980303334409
 20
360.9836317375477
  0
DIMENSION
  5
46
330
2
100
AcDbEntity
  8
BEMASS
100
AcDbDimension
280
     0
  2
*D0
 10
302.9862592776404
 20
379.6420681836992
 30
0.0
 11
227.9862592776401
 21
384.1420681836991
 31
0.0
 70
    32
  1
150x150
 71
     5
 42
150.0000000000004
 73
     0
 74
     0
 75
     0
  3
STANDARD
100
AcDbAlignedDimension
 13
152.9862592776398
 23
362.3799399270654
 33
0.0
 14
302.9862592776404
 24
363.1420681836989
 34
0.0
100
AcDbRotatedDimension
  0
LINE
  5
53
330
2
100
AcDbEntity
  8
SICHTBAR
100
AcDbLine
 10
227.9862592776401
 20
364.6420681836992
 30
0.0
 11
278.2882202690832
 21
364.6420681836982
 31
0.0
  0
LINE
  5
54
330
2
100
AcDbEntity
  8
SICHTBAR
100
AcDbLine
 10
233.0386341954836
 20
293.642068183699
 30
0.0
 11
278.5627204351645
 21
293.6420681836982
 31
0.0
  0
LINE
  5
55
330
2
100
AcDbEntity
  8
SICHTBAR
100
AcDbLine
 10
233.0386341954838
 20
292.6420681836992
 30
0.0
 11
278.2882202690819
 21
292.6420681836983
 31
0.0
  0
LINE
  5
56
330
2
100
AcDbEntity
  8
MITTE
100
AcDbLine
 10
227.9862592776401
 20
364.6420681836992
 30
0.0
 11
227.9862592776399
 21
288.6420681836988
 31
0.0
  0
LINE
  5
57
330
2
100
AcDbEntity
  8
SICHTBAR
100
AcDbLine
 10
227.9862592776403
 20
360.1420681836992
 30
0.0
 11
177.9862592776403
 21
360.1420681836992
 31
0.0
  0
LINE
  5
58
330
2
100
AcDbEntity
  8
SICHTBAR
100
AcDbLine
 10
227.9862592776403
 20
362.1420681836993
 30
0.0
 11
177.9862592776401
 21
362.1420681836993
 31
0.0
  0
LINE
  5
59
330
2
100
AcDbEntity
  8
SICHTBAR
100
AcDbLine
 10
227.9862592776403
 20
363.6420681836993
 30
0.0
 11
161.4862592776401
 21
363.6420681836991
 31
0.0
  0
LINE
  5
5A
330
2
100
AcDbEntity
  8
SICHTBAR
100
AcDbLine
 10
227.9862592776401
 20
364.6420681836992
 30
0.0
 11
158.4862592776401
 21
364.6420681836992
 31
0.0
  0
LINE
  5
5B
330
2
100
AcDbEntity
  8
SICHTBAR
100
AcDbLine
 10
161.4862592776401
 20
361.6420681836992
 30
0.0
 11
161.4862592776401
 21
363.6420681836991
 31
0.0
  0
ARC
  5
5C
102
{ACAD_REACTORS
330
430
102
}
330
2
100
AcDbEntity
  8
SICHTBAR
100
AcDbCircle
 10
158.4862592776401
 20
363.1420681836992
 30
0.0
 40
0.5
100
AcDbArc
 50
0.0
 51
90.0
  0
ARC
  5
5D
102
{ACAD_REACTORS
330
430
102
}
330
2
100
AcDbEntity
  8
SICHTBAR
100
AcDbCircle
 10
158.4862592776401
 20
363.1420681836992
 30
0.0
 40
1.5
100
AcDbArc
 50
0.0
 51
90.0
  0
ARC
  5
5E
102
{ACAD_REACTORS
330
430
102
}
330
2
100
AcDbEntity
  8
SICHTBAR
100
AcDbCircle
 10
154.4862592776401
 20
363.1420681836992
 30
0.0
 40
0.5
100
AcDbArc
 50
90.0
 51
180.0
  0
ARC
  5
5F
102
{ACAD_REACTORS
330
430
102
}
330
2
100
AcDbEntity
  8
SICHTBAR
100
AcDbCircle
 10
154.4862592776398
 20
363.1420681836992
 30
0.0
 40
1.5
100
AcDbArc
 50
90.0
 51
180.0
  0
LINE
  5
60
330
2
100
AcDbEntity
  8
SICHTBAR
100
AcDbLine
 10
167.9862592776403
 20
363.6420681836991
 30
0.0
 11
177.9862592776403
 21
362.1420681836992
 31
0.0
  0
LINE
  5
61
330
2
100
AcDbEntity
  8
SICHTBAR
100
AcDbLine
 10
172.9862592776401
 20
342.6420681837007
 30
0.0
 11
152.9862592776385
 21
342.6420681837007
 31
0.0
  0
ARC
  5
62
102
{ACAD_REACTORS
330
430
102
}
330
2
100
AcDbEntity
  8
SICHTBAR
100
AcDbCircle
 10
164.0652051465881
 20
359.6420681836992
 30
0.0
 40
1.0
100
AcDbArc
 50
41.06238228687488
 51
90.0
  0
LINE
  5
63
102
{ACAD_REACTORS
330
430
102
}
330
2
100
AcDbEntity
  8
SICHTBAR
100
AcDbLine
 10
164.0652051465881
 20
361.6420681836992
 30
0.0
 11
160.4862592776401
 21
361.6420681836992
 31
0.0
  0
ARC
  5
64
102
{ACAD_REACTORS
330
430
102
}
330
2
100
AcDbEntity
  8
SICHTBAR
100
AcDbCircle
 10
164.0652051465881
 20
359.6420681836992
 30
0.0
 40
2.0
100
AcDbArc
 50
41.06238228687488
 51
90.0
  0
LINE
  5
66
330
2
100
AcDbEntity
  8
SICHTBAR
100
AcDbLine
 10
170.6702995642897
 20
339.2683581877842
 30
0.0
 11
161.7324938559538
 21
342.5214534252729
 31
0.0
  0
LINE
  5
67
330
2
100
AcDbEntity
  8
SICHTBAR
100
AcDbLine
 10
170.3282794209644
 20
338.328665566998
 30
0.0
 11
161.3904737126288
 21
341.5817608044864
 31
0.0
  0
LINE
  5
68
102
{ACAD_REACTORS
330
430
102
}
330
2
100
AcDbEntity
  8
SICHTBAR
100
AcDbLine
 10
164.0652051465881
 20
360.6420681836992
 30
0.0
 11
160.4862592776401
 21
360.6420681836992
 31
0.0
  0
LINE
  5
69
102
{ACAD_REACTORS
330
430
102
}
330
2
100
AcDbEntity
  8
SICHTBAR
100
AcDbLine
 10
153.9862592776401
 20
363.1420681836992
 30
0.0
 11
153.9862592776398
 21
358.6420681836994
 31
0.0
  0
LINE
  5
6A
102
{ACAD_REACTORS
330
430
102
}
330
2
100
AcDbEntity
  8
SICHTBAR
100
AcDbLine
 10
158.9862592776401
 20
363.1420681836992
 30
0.0
 11
158.9862592776401
 21
362.1420681836992
 31
0.0
  0
LINE
  5
6B
102
{ACAD_REACTORS
330
430
102
}
330
2
100
AcDbEntity
  8
SICHTBAR
100
AcDbLine
 10
159.9862592776401
 20
363.1420681836992
 30
0.0
 11
159.9862592776401
 21
362.1420681836992
 31
0.0
  0
ARC
  5
6C
102
{ACAD_REACTORS
330
430
102
}
330
2
100
AcDbEntity
  8
SICHTBAR
100
AcDbCircle
 10
160.4862592776401
 20
362.1420681836992
 30
0.0
 40
1.5
100
AcDbArc
 50
180.0
 51
270.0
  0
ARC
  5
6D
102
{ACAD_REACTORS
330
430
102
}
330
2
100
AcDbEntity
  8
SICHTBAR
100
AcDbCircle
 10
160.4862592776401
 20
362.1420681836992
 30
0.0
 40
0.5
100
AcDbArc
 50
180.0
 51
270.0
  0
LINE
  5
6E
102
{ACAD_REACTORS
330
430
102
}
330
2
100
AcDbEntity
  8
SICHTBAR
100
AcDbLine
 10
152.9862592776398
 20
363.1420681836994
 30
0.0
 11
152.9862592776396
 21
358.6420681836992
 31
0.0
  0
ARC
  5
6F
330
2
100
AcDbEntity
  8
SICHTBAR
100
AcDbCircle
 10
161.0484535693033
 20
340.6420681837007
 30
0.0
 40
1.0
100
AcDbArc
 50
70.00000000000047
 51
90.0
  0
ARC
  5
70
330
2
100
AcDbEntity
  8
SICHTBAR
100
AcDbCircle
 10
161.0484535693024
 20
340.6420681837011
 30
0.0
 40
2.0
100
AcDbArc
 50
70.00000000000047
 51
90.0
  0
LINE
  5
71
330
2
100
AcDbEntity
  8
SICHTBAR
100
AcDbLine
 10
173.9862592776401
 20
348.9244551396571
 30
0.0
 11
173.9862592776401
 21
333.9296300825216
 31
0.0
  0
LINE
  5
72
330
2
100
AcDbEntity
  8
SICHTBAR
100
AcDbLine
 10
172.9862592776401
 20
348.9244551396571
 30
0.0
 11
172.9862592776401
 21
333.9296300825215
 31
0.0
  0
ARC
  5
73
330
2
100
AcDbEntity
  8
SICHTBAR
100
AcDbCircle
 10
169.9862592776383
 20
337.3889729462125
 30
0.0
 40
2.0
100
AcDbArc
 50
0.0
 51
70.00000000000047
  0
LINE
  5
74
330
2
100
AcDbEntity
  8
SICHTBAR
100
AcDbLine
 10
227.9862592776401
 20
332.4244551396585
 30
0.0
 11
170.9862592776423
 21
332.4244551396585
 31
0.0
  0
LINE
  5
75
330
2
100
AcDbEntity
  8
BEMASS
100
AcDbLine
 10
172.891773826153
 20
338.1977591907977
 30
0.0
 11
172.9862592776401
 21
338.1977591907976
 31
0.0
  0
ARC
  5
76
330
2
100
AcDbEntity
  8
SICHTBAR
100
AcDbCircle
 10
169.9862592776387
 20
337.388972946212
 30
0.0
 40
1.0
100
AcDbArc
 50
0.0
 51
70.00000000000354
  0
LINE
  5
77
330
2
100
AcDbEntity
  8
SICHTBAR
100
AcDbLine
 10
170.9862592776423
 20
337.388972946212
 30
0.0
 11
170.9862592776419
 21
332.4244551396585
 31
0.0
  0
LINE
  5
78
330
2
100
AcDbEntity
  8
SICHTBAR
100
AcDbLine
 10
171.9862592776387
 20
337.3889729462125
 30
0.0
 11
171.9862592776387
 21
332.4244551396587
 31
0.0
  0
LINE
  5
79
330
2
100
AcDbEntity
  8
SICHTBAR
100
AcDbLine
 10
167.9862592776403
 20
361.6420681836992
 30
0.0
 11
177.9862592776403
 21
360.1420681836992
 31
0.0
  0
LINE
  5
7A
102
{ACAD_REACTORS
330
430
102
}
330
2
100
AcDbEntity
  8
SICHTBAR
100
AcDbLine
 10
173.9862592776401
 20
350.5499498457564
 30
0.0
 11
173.9862592776401
 21
348.9244551396571
 31
0.0
  0
ARC
  5
7B
102
{ACAD_REACTORS
330
430
102
}
330
2
100
AcDbEntity
  8
SICHTBAR
100
AcDbCircle
 10
171.9862592776401
 20
350.5499498457564
 30
0.0
 40
2.0
100
AcDbArc
 50
0.0
 51
41.06238228687488
  0
LINE
  5
7C
102
{ACAD_REACTORS
330
430
102
}
330
2
100
AcDbEntity
  8
SICHTBAR
100
AcDbLine
 10
172.9862592776401
 20
350.5499498457564
 30
0.0
 11
172.9862592776401
 21
348.9244551396571
 31
0.0
  0
ARC
  5
7D
102
{ACAD_REACTORS
330
430
102
}
330
2
100
AcDbEntity
  8
SICHTBAR
100
AcDbCircle
 10
171.9862592776401
 20
350.5499498457564
 30
0.0
 40
1.0
100
AcDbArc
 50
0.0
 51
41.06238228687488
  0
LINE
  5
7E
102
{ACAD_REACTORS
330
430
102
}
330
2
100
AcDbEntity
  8
SICHTBAR
100
AcDbLine
 10
165.5731948096122
 20
360.955828883451
 30
0.0
 11
173.4942489406644
 21
351.863710545508
 31
0.0
  0
LINE
  5
7F
102
{ACAD_REACTORS
330
430
102
}
330
2
100
AcDbEntity
  8
SICHTBAR
100
AcDbLine
 10
164.8191999781002
 20
360.2989485335752
 30
0.0
 11
172.7402541091523
 21
351.2068301956322
 31
0.0
  0
LINE
  5
80
330
2
100
AcDbEntity
  8
SICHTBAR
100
AcDbLine
 10
181.9862592776396
 20
360.1420681836993
 30
0.0
 11
181.9862592776396
 21
362.1420681836992
 31
0.0
  0
LINE
  5
81
330
2
100
AcDbEntity
  8
SICHTBAR
100
AcDbLine
 10
187.9862592776396
 20
360.1420681836993
 30
0.0
 11
187.9862592776396
 21
362.1420681836992
 31
0.0
  0
LINE
  5
82
102
{ACAD_REACTORS
330
430
102
}
330
2
100
AcDbEntity
  8
SICHTBAR
100
AcDbLine
 10
158.4862592776401
 20
363.6420681836991
 30
0.0
 11
154.4862592776401
 21
363.6420681836991
 31
0.0
  0
LINE
  5
83
330
2
100
AcDbEntity
  8
SICHTBAR
100
AcDbLine
 10
205.9862592776394
 20
360.1420681836993
 30
0.0
 11
205.9862592776394
 21
362.1420681836992
 31
0.0
  0
LINE
  5
84
330
2
100
AcDbEntity
  8
SICHTBAR
100
AcDbLine
 10
211.9862592776396
 20
360.1420681836993
 30
0.0
 11
211.9862592776396
 21
362.1420681836992
 31
0.0
  0
POINT
  5
85
330
2
100
AcDbEntity
  8
SICHTBAR
100
AcDbPoint
 10
226.4862592776401
 20
364.6420681836992
 30
0.0
  0
ARC
  5
86
330
2
100
AcDbEntity
  8
BEMASS
100
AcDbCircle
 10
413.4386029597313
 20
304.8281275904842
 30
0.0
 40
131.4095310196863
100
AcDbArc
 50
170.8817072319247
 51
183.6377217181437
  0
LINE
  5
87
330
2
100
AcDbEntity
  8
SICHTBAR
100
AcDbLine
 10
288.5976621591963
 20
323.4368375355562
 30
0.0
 11
329.6872772625639
 21
321.6428261963951
 31
0.0
  0
LINE
  5
88
330
2
100
AcDbEntity
  8
SICHTBAR
100
AcDbLine
 10
288.6412815465615
 20
324.4358857571377
 30
0.0
 11
287.2454611508706
 21
292.4663426665185
 31
0.0
  0
LINE
  5
89
330
2
100
AcDbEntity
  8
SICHTBAR
100
AcDbLine
 10
288.6412815465615
 20
324.435885757138
 30
0.0
 11
329.8538851062698
 21
322.6365046260062
 31
0.0
  0
LINE
  5
8A
330
2
100
AcDbEntity
  8
SICHTBAR
100
AcDbLine
 10
287.289080538236
 20
293.4653908881004
 30
0.0
 11
279.5858883039884
 21
293.8017195244532
 31
0.0
  0
LINE
  5
8B
330
2
100
AcDbEntity
  8
SICHTBAR
100
AcDbLine
 10
287.2454611508706
 20
292.4663426665186
 30
0.0
 11
279.6982698026456
 21
292.7958601570932
 31
0.0
  0
ARC
  5
8C
330
2
100
AcDbEntity
  8
BEMASS
100
AcDbCircle
 10
278.4628095532689
 20
297.6408202159802
 30
0.0
 40
4.0
100
AcDbArc
 50
269.9999999999988
 51
343.2870396692236
  0
ARC
  5
8D
330
2
100
AcDbEntity
  8
SICHTBAR
100
AcDbCircle
 10
278.2882202690819
 20
297.6420681836982
 30
0.0
 40
5.0
100
AcDbArc
 50
269.9999999999988
 51
284.3055011505493
  0
LINE
  5
8E
330
2
100
AcDbEntity
  8
SICHTBAR
100
AcDbLine
 10
287.289080538236
 20
293.4653908881004
 30
0.0
 11
328.3786956416029
 21
291.6713795489394
 31
0.0
  0
LINE
  5
8F
330
2
100
AcDbEntity
  8
SICHTBAR
100
AcDbLine
 10
287.2454611508706
 20
292.4663426665186
 30
0.0
 11
328.4580647105781
 21
290.6669615353867
 31
0.0
  0
LINE
  5
90
330
2
100
AcDbEntity
  8
BEMASS
100
AcDbLine
 10
329.853885106269
 20
322.6365046260063
 30
0.0
 11
328.4580647105782
 21
290.6669615353869
 31
0.0
  0
LINE
  5
91
330
2
100
AcDbEntity
  8
SICHTBAR
100
AcDbLine
 10
287.9862592776403
 20
361.6420681836987
 30
0.0
 11
277.9862592776403
 21
360.142068183699
 31
0.0
  0
LINE
  5
92
102
{ACAD_REACTORS
330
44C
102
}
330
2
100
AcDbEntity
  8
SICHTBAR
100
AcDbLine
 10
290.399323745668
 20
360.9558288834508
 30
0.0
 11
282.4782696146158
 21
351.863710545508
 31
0.0
  0
LINE
  5
93
330
2
100
AcDbEntity
  8
SICHTBAR
100
AcDbLine
 10
287.9862592776403
 20
363.6420681836987
 30
0.0
 11
277.9862592776403
 21
362.142068183699
 31
0.0
  0
LINE
  5
94
330
2
100
AcDbEntity
  8
SICHTBAR
100
AcDbLine
 10
243.986259277641
 20
360.1420681836992
 30
0.0
 11
243.986259277641
 21
362.1420681836992
 31
0.0
  0
LINE
  5
95
330
2
100
AcDbEntity
  8
SICHTBAR
100
AcDbLine
 10
249.986259277641
 20
360.1420681836992
 30
0.0
 11
249.986259277641
 21
362.142068183699
 31
0.0
  0
LINE
  5
96
330
2
100
AcDbEntity
  8
SICHTBAR
100
AcDbLine
 10
281.9862592776429
 20
348.9244551396571
 30
0.0
 11
281.9862592776429
 21
333.9296300825211
 31
0.0
  0
LINE
  5
97
330
2
100
AcDbEntity
  8
SICHTBAR
100
AcDbLine
 10
267.986259277641
 20
360.142068183699
 30
0.0
 11
267.986259277641
 21
362.142068183699
 31
0.0
  0
ARC
  5
98
102
{ACAD_REACTORS
330
44C
102
}
330
2
100
AcDbEntity
  8
SICHTBAR
100
AcDbCircle
 10
283.9862592776401
 20
350.5499498457559
 30
0.0
 40
2.0
100
AcDbArc
 50
138.9376177131251
 51
180.0
  0
LINE
  5
99
330
2
100
AcDbEntity
  8
0
100
AcDbLine
 10
275.9862592776415
 20
348.9244551396571
 30
0.0
 11
280.7362592776412
 21
348.9244551396571
 31
0.0
  0
LINE
  5
9A
330
2
100
AcDbEntity
  8
0
100
AcDbLine
 10
276.0051449363416
 20
348.929630082521
 30
0.0
 11
280.7551449363416
 21
348.929630082521
 31
0.0
  0
LINE
  5
9B
330
2
100
AcDbEntity
  8
SICHTBAR
100
AcDbLine
 10
273.986259277641
 20
360.142068183699
 30
0.0
 11
273.986259277641
 21
362.142068183699
 31
0.0
  0
LINE
  5
9C
102
{ACAD_REACTORS
330
44C
102
}
330
2
100
AcDbEntity
  8
SICHTBAR
100
AcDbLine
 10
281.9862592776401
 20
350.5499498457561
 30
0.0
 11
281.9862592776401
 21
348.9244551396566
 31
0.0
  0
ARC
  5
9D
102
{ACAD_REACTORS
330
44C
102
}
330
2
100
AcDbEntity
  8
SICHTBAR
100
AcDbCircle
 10
297.4862592776403
 20
363.1420681836989
 30
0.0
 40
0.5
100
AcDbArc
 50
90.0
 51
180.0
  0
ARC
  5
9E
102
{ACAD_REACTORS
330
44C
102
}
330
2
100
AcDbEntity
  8
SICHTBAR
100
AcDbCircle
 10
301.4862592776403
 20
363.1420681836989
 30
0.0
 40
1.5
100
AcDbArc
 50
0.0
 51
90.0
  0
ARC
  5
9F
102
{ACAD_REACTORS
330
44C
102
}
330
2
100
AcDbEntity
  8
SICHTBAR
100
AcDbCircle
 10
301.4862592776403
 20
363.1420681836989
 30
0.0
 40
0.5
100
AcDbArc
 50
0.0
 51
90.0
  0
ARC
  5
A0
102
{ACAD_REACTORS
330
44C
102
}
330
2
100
AcDbEntity
  8
SICHTBAR
100
AcDbCircle
 10
297.4862592776403
 20
363.1420681836989
 30
0.0
 40
1.5
100
AcDbArc
 50
90.0
 51
180.0
  0
LINE
  5
A1
330
2
100
AcDbEntity
  8
SICHTBAR
100
AcDbLine
 10
294.4862592776406
 20
361.6420681836987
 30
0.0
 11
294.4862592776406
 21
363.6420681836987
 31
0.0
  0
LINE
  5
A2
330
2
100
AcDbEntity
  8
SICHTBAR
100
AcDbLine
 10
328.6221039988191
 20
342.6420681837007
 30
0.0
 11
294.9240649859776
 21
342.6420681837011
 31
0.0
  0
LINE
  5
A3
330
2
100
AcDbEntity
  8
SICHTBAR
100
AcDbLine
 10
282.9862592776428
 20
348.9244551396571
 30
0.0
 11
282.986259277644
 21
333.9296300825209
 31
0.0
  0
LINE
  5
A4
330
2
100
AcDbEntity
  8
SICHTBAR
100
AcDbLine
 10
285.6442391343155
 20
338.328665566998
 30
0.0
 11
294.5820448426512
 21
341.5817608044864
 31
0.0
  0
LINE
  5
A5
330
2
100
AcDbEntity
  8
SICHTBAR
100
AcDbLine
 10
285.3022189909903
 20
339.2683581877842
 30
0.0
 11
294.2400246993261
 21
342.5214534252729
 31
0.0
  0
ARC
  5
A6
330
2
100
AcDbEntity
  8
SICHTBAR
100
AcDbCircle
 10
285.9862592776417
 20
337.3889729462125
 30
0.0
 40
2.0
100
AcDbArc
 50
109.9999999999995
 51
180.0
  0
LINE
  5
A7
330
2
100
AcDbEntity
  8
SICHTBAR
100
AcDbLine
 10
284.986259277639
 20
332.4244551396585
 30
0.0
 11
227.9862592776401
 21
332.4244551396555
 31
0.0
  0
LINE
  5
A8
330
2
100
AcDbEntity
  8
BEMASS
100
AcDbLine
 10
283.080744729127
 20
338.1977591907977
 30
0.0
 11
282.9862592776433
 21
338.1977591907977
 31
0.0
  0
LINE
  5
A9
330
2
100
AcDbEntity
  8
SICHTBAR
100
AcDbLine
 10
283.986259277641
 20
337.3889729462125
 30
0.0
 11
283.986259277641
 21
332.4244551396587
 31
0.0
  0
LINE
  5
AA
330
2
100
AcDbEntity
  8
SICHTBAR
100
AcDbLine
 10
284.9862592776374
 20
337.388972946212
 30
0.0
 11
284.9862592776381
 21
332.4244551396585
 31
0.0
  0
ARC
  5
AB
330
2
100
AcDbEntity
  8
SICHTBAR
100
AcDbCircle
 10
285.9862592776412
 20
337.388972946212
 30
0.0
 40
1.0
100
AcDbArc
 50
109.9999999999964
 51
180.0
  0
ARC
  5
AC
330
2
100
AcDbEntity
  8
SICHTBAR
100
AcDbCircle
 10
285.6877562691811
 20
325.5657921408159
 30
0.0
 40
2.0
100
AcDbArc
 50
177.4999999999999
 51
267.4999999999998
  0
LINE
  5
AD
330
2
100
AcDbEntity
  8
SICHTBAR
100
AcDbLine
 10
288.597662159196
 20
323.4368375355562
 30
0.0
 11
285.6005174944505
 21
323.5676956976523
 31
0.0
  0
ARC
  5
AE
330
2
100
AcDbEntity
  8
SICHTBAR
100
AcDbCircle
 10
285.6877562691811
 20
325.5657921408159
 30
0.0
 40
1.0
100
AcDbArc
 50
177.4999999999999
 51
267.4999999999998
  0
LINE
  5
AF
330
2
100
AcDbEntity
  8
SICHTBAR
100
AcDbLine
 10
288.6412815465615
 20
324.435885757138
 30
0.0
 11
285.6441368818159
 21
324.5667439192341
 31
0.0
  0
LINE
  5
B0
330
2
100
AcDbEntity
  8
SICHTBAR
100
AcDbLine
 10
282.9862592776428
 20
342.6420681837007
 30
0.0
 11
302.9862592776415
 21
342.6420681837007
 31
0.0
  0
LINE
  5
B1
330
2
100
AcDbEntity
  8
SICHTBAR
100
AcDbLine
 10
291.9073134086921
 20
361.6420681836988
 30
0.0
 11
295.4862592776406
 21
361.6420681836987
 31
0.0
  0
LINE
  5
B2
102
{ACAD_REACTORS
330
44C
102
}
330
2
100
AcDbEntity
  8
SICHTBAR
100
AcDbLine
 10
291.9073134086923
 20
360.6420681836989
 30
0.0
 11
295.4862592776403
 21
360.6420681836989
 31
0.0
  0
LINE
  5
B3
102
{ACAD_REACTORS
330
44C
102
}
330
2
100
AcDbEntity
  8
SICHTBAR
100
AcDbLine
 10
291.9073134086921
 20
361.6420681836989
 30
0.0
 11
295.4862592776403
 21
361.6420681836989
 31
0.0
  0
ARC
  5
B5
330
2
100
AcDbEntity
  8
SICHTBAR
100
AcDbCircle
 10
294.9240649859776
 20
340.6420681837011
 30
0.0
 40
2.0
100
AcDbArc
 50
90.0
 51
109.9999999999995
  0
ARC
  5
B6
102
{ACAD_REACTORS
330
44C
102
}
330
2
100
AcDbEntity
  8
SICHTBAR
100
AcDbCircle
 10
291.9073134086923
 20
359.6420681836989
 30
0.0
 40
1.0
100
AcDbArc
 50
90.0
 51
138.9376177131251
  0
ARC
  5
B7
102
{ACAD_REACTORS
330
44C
102
}
330
2
100
AcDbEntity
  8
SICHTBAR
100
AcDbCircle
 10
291.9073134086921
 20
359.6420681836989
 30
0.0
 40
2.0
100
AcDbArc
 50
90.0
 51
138.9376177131251
  0
LINE
  5
B8
102
{ACAD_REACTORS
330
44C
102
}
330
2
100
AcDbEntity
  8
SICHTBAR
100
AcDbLine
 10
282.9862592776401
 20
350.5499498457559
 30
0.0
 11
282.9862592776401
 21
348.9244551396566
 31
0.0
  0
ARC
  5
B9
102
{ACAD_REACTORS
330
44C
102
}
330
2
100
AcDbEntity
  8
SICHTBAR
100
AcDbCircle
 10
283.9862592776401
 20
350.5499498457559
 30
0.0
 40
1.0
100
AcDbArc
 50
138.9376177131251
 51
180.0
  0
LINE
  5
BA
102
{ACAD_REACTORS
330
44C
102
}
330
2
100
AcDbEntity
  8
SICHTBAR
100
AcDbLine
 10
291.15331857718
 20
360.298948533575
 30
0.0
 11
283.2322644461278
 21
351.2068301956317
 31
0.0
  0
LINE
  5
BB
102
{ACAD_REACTORS
330
44C
102
}
330
2
100
AcDbEntity
  8
SICHTBAR
100
AcDbLine
 10
302.9862592776404
 20
363.1420681836989
 30
0.0
 11
302.9862592776406
 21
358.6420681836989
 31
0.0
  0
LINE
  5
BC
102
{ACAD_REACTORS
330
44C
102
}
330
2
100
AcDbEntity
  8
SICHTBAR
100
AcDbLine
 10
301.9862592776403
 20
363.1420681836989
 30
0.0
 11
301.9862592776403
 21
358.6420681836989
 31
0.0
  0
LINE
  5
BD
102
{ACAD_REACTORS
330
44C
102
}
330
2
100
AcDbEntity
  8
SICHTBAR
100
AcDbLine
 10
295.9862592776403
 20
363.1420681836989
 30
0.0
 11
295.9862592776403
 21
362.142068183699
 31
0.0
  0
LINE
  5
BE
102
{ACAD_REACTORS
330
44C
102
}
330
2
100
AcDbEntity
  8
SICHTBAR
100
AcDbLine
 10
296.9862592776403
 20
363.1420681836989
 30
0.0
 11
296.9862592776403
 21
362.142068183699
 31
0.0
  0
ARC
  5
BF
102
{ACAD_REACTORS
330
44C
102
}
330
2
100
AcDbEntity
  8
SICHTBAR
100
AcDbCircle
 10
295.4862592776403
 20
362.142068183699
 30
0.0
 40
1.5
100
AcDbArc
 50
270.0
 51
0.0
  0
ARC
  5
C0
102
{ACAD_REACTORS
330
44C
102
}
330
2
100
AcDbEntity
  8
SICHTBAR
100
AcDbCircle
 10
295.4862592776403
 20
362.142068183699
 30
0.0
 40
0.5
100
AcDbArc
 50
270.0
 51
0.0
  0
ARC
  5
C1
330
2
100
AcDbEntity
  8
SICHTBAR
100
AcDbCircle
 10
294.9240649859767
 20
340.6420681837007
 30
0.0
 40
1.0
100
AcDbArc
 50
90.0
 51
109.9999999999995
  0
ARC
  5
C2
330
2
100
AcDbEntity
  8
SICHTBAR
100
AcDbCircle
 10
328.6221039988191
 20
343.6420681837008
 30
0.0
 40
1.0
100
AcDbArc
 50
270.0
 51
291.8014094863524
  0
ARC
  5
C3
330
2
100
AcDbEntity
  8
SICHTBAR
100
AcDbCircle
 10
328.6221039988195
 20
343.6420681837006
 30
0.0
 40
2.0
100
AcDbArc
 50
270.0
 51
291.8014094863524
  0
LINE
  5
C4
102
{ACAD_REACTORS
330
44C
102
}
330
2
100
AcDbEntity
  8
SICHTBAR
100
AcDbLine
 10
297.4862592776403
 20
363.6420681836989
 30
0.0
 11
301.4862592776403
 21
363.6420681836989
 31
0.0
  0
LINE
  5
C5
330
2
100
AcDbEntity
  8
SICHTBAR
100
AcDbLine
 10
333.806458605231
 20
321.4629788549631
 30
0.0
 11
332.497876984271
 21
291.4915322075074
 31
0.0
  0
LINE
  5
C6
330
2
100
AcDbEntity
  8
SICHTBAR
100
AcDbLine
 10
351.9862592776413
 20
341.6420681837006
 30
0.0
 11
337.7936768740747
 21
341.6420681837006
 31
0.0
  0
LINE
  5
C7
330
2
100
AcDbEntity
  8
SICHTBAR
100
AcDbLine
 10
346.3714240847739
 20
343.6420681837014
 30
0.0
 11
334.1998512095202
 21
343.6420681837016
 31
0.0
  0
ARC
  5
C8
330
2
100
AcDbEntity
  8
SICHTBAR
100
AcDbCircle
 10
334.19985120952
 20
342.6420681837005
 30
0.0
 40
2.0
100
AcDbArc
 50
90.0
 51
111.8014094863524
  0
ARC
  5
C9
330
2
100
AcDbEntity
  8
SICHTBAR
100
AcDbCircle
 10
334.199851209521
 20
342.6420681837007
 30
0.0
 40
1.0
100
AcDbArc
 50
90.0
 51
111.8014094863524
  0
ARC
  5
CA
330
2
100
AcDbEntity
  8
SICHTBAR
100
AcDbCircle
 10
346.3714240847739
 20
342.6420681837013
 30
0.0
 40
1.0
100
AcDbArc
 50
19.47122063448573
 51
90.0
  0
ARC
  5
CB
330
2
100
AcDbEntity
  8
SICHTBAR
100
AcDbCircle
 10
346.371424084774
 20
342.6420681837015
 30
0.0
 40
2.0
100
AcDbArc
 50
19.47122063448991
 51
90.0
  0
LINE
  5
CC
330
2
100
AcDbEntity
  8
SICHTBAR
100
AcDbLine
 10
349.1998512095203
 20
342.6420681837015
 30
0.0
 11
352.9862592776386
 21
342.6420681837018
 31
0.0
  0
ARC
  5
CD
330
2
100
AcDbEntity
  8
SICHTBAR
100
AcDbCircle
 10
349.1998512095201
 20
343.6420681837014
 30
0.0
 40
1.0
100
AcDbArc
 50
199.471220634493
 51
270.0
  0
LINE
  5
CE
330
2
100
AcDbEntity
  8
SICHTBAR
100
AcDbLine
 10
352.9862592776412
 20
341.6420681837006
 30
0.0
 11
351.9862592776413
 21
341.6420681837006
 31
0.0
  0
ARC
  5
CF
330
2
100
AcDbEntity
  8
SICHTBAR
100
AcDbCircle
 10
349.1998512095201
 20
343.6420681837013
 30
0.0
 40
2.0
100
AcDbArc
 50
199.471220634493
 51
270.0
  0
LINE
  5
D0
330
2
100
AcDbEntity
  8
SICHTBAR
100
AcDbLine
 10
352.9862592776385
 20
342.6420681837015
 30
0.0
 11
352.986259277639
 21
341.6420681837016
 31
0.0
  0
ARC
  5
D1
330
2
100
AcDbEntity
  8
SICHTBAR
100
AcDbCircle
 10
349.1998512095201
 20
343.6420681837014
 30
0.0
 40
2.0
100
AcDbArc
 50
199.471220634493
 51
270.0
  0
LINE
  5
D2
330
2
100
AcDbEntity
  8
SICHTBAR
100
AcDbLine
 10
233.0386341954838
 20
292.6420681836993
 30
0.0
 11
278.2882202690819
 21
292.6420681836983
 31
0.0
  0
LINE
  5
D3
330
2
100
AcDbEntity
  8
SICHTBAR
100
AcDbLine
 10
227.9862592776401
 20
364.6420681836992
 30
0.0
 11
278.2882202690832
 21
364.6420681836982
 31
0.0
  0
LINE
  5
D4
330
2
100
AcDbEntity
  8
SICHTBAR
100
AcDbLine
 10
170.9862592776419
 20
332.4244551396585
 30
0.0
 11
171.2947949036722
 21
325.3578274977215
 31
0.0
  0
LINE
  5
D5
330
2
100
AcDbEntity
  8
SICHTBAR
100
AcDbLine
 10
284.986259277639
 20
332.4244551396585
 30
0.0
 11
284.6887080475992
 21
325.6094115281812
 31
0.0
  0
LINE
  5
D6
330
2
100
AcDbEntity
  8
SICHTBAR
100
AcDbLine
 10
229.6576881015585
 20
293.3916058874059
 30
0.0
 11
175.9062345824015
 21
318.456320300351
 31
0.0
  0
LINE
  5
D7
330
2
100
AcDbEntity
  8
SICHTBAR
100
AcDbLine
 10
283.9872110560571
 20
332.4680745270239
 30
0.0
 11
283.6896598260173
 21
325.6530309155465
 31
0.0
  0
LINE
  5
D8
330
2
100
AcDbEntity
  8
SICHTBAR
100
AcDbLine
 10
171.9853074992238
 20
332.4680745270239
 30
0.0
 11
172.2938431252544
 21
325.4014468850869
 31
0.0
  0
LINE
  5
D9
330
2
100
AcDbEntity
  8
SICHTBAR
100
AcDbLine
 10
230.0803063632989
 20
294.2979136744424
 30
0.0
 11
176.3288528441423
 21
319.3626280873879
 31
0.0
  0
ARC
  5
DA
330
2
100
AcDbEntity
  8
SICHTBAR
100
AcDbCircle
 10
179.2871806763273
 20
325.7067825966444
 30
0.0
 40
7.0
100
AcDbArc
 50
182.5000000000009
 51
244.9999999999998
  0
ARC
  5
DB
330
2
100
AcDbEntity
  8
SICHTBAR
100
AcDbCircle
 10
233.0386341954838
 20
300.6420681836989
 30
0.0
 40
7.0
100
AcDbArc
 50
244.9999999999998
 51
269.999999999999
  0
ARC
  5
DC
330
2
100
AcDbEntity
  8
SICHTBAR
100
AcDbCircle
 10
179.2871806763271
 20
325.7067825966442
 30
0.0
 40
8.0
100
AcDbArc
 50
182.5000000000002
 51
244.9999999999999
  0
ARC
  5
DD
330
2
100
AcDbEntity
  8
SICHTBAR
100
AcDbCircle
 10
233.0386341954841
 20
300.6420681836992
 30
0.0
 40
8.0
100
AcDbArc
 50
245.0000000000001
 51
269.9999999999989
  0
LINE
  5
DE
330
2
100
AcDbEntity
  8
BEMASS
100
AcDbLine
 10
279.5236805184588
 20
292.7971081248113
 30
0.0
 11
279.6982698026456
 21
292.7958601570932
 31
0.0
  0
HATCH
  5
DF
330
2
100
AcDbEntity
  8
BEMASS
100
AcDbHatch
 10
0.0
 20
0.0
 30
0.0
210
0.0
220
0.0
230
1.0
  2
ANSI31
 70
     0
 71
     0
 91
        6
 92
        7
 72
     1
 73
     1
 93
        8
 10
172.2938431252544
 20
325.4014468850869
 42
0.0
 10
171.9872119628051
 20
332.4244551396588
 42
0.0
 10
170.9862592776419
 20
332.4244551396585
 42
0.0
 10
171.2947949036722
 20
325.3578274977215
 42
0.2796754208987364
 10
175.9062345824015
 20
318.456320300351
 42
0.0
 10
227.9862592776399
 20
294.1710059480603
 42
0.0
 10
227.9862592776399
 20
295.2743838670222
 42
0.0
 10
176.3288528441423
 20
319.3626280873879
 42
-0.2796754208987327
 97
        0
 92
        7
 72
     0
 73
     1
 93
        4
 10
229.5823524076836
 20
294.5301134173543
 10
227.9862592776399
 20
295.2743838670222
 10
227.9862592776399
 20
294.1710059480602
 10
229.5823524076836
 20
293.4267354983922
 97
        0
 92
        7
 72
     1
 73
     1
 93
        8
 10
233.6682360465909
 20
293.642068183699
 42
0.0
 10
233.038634195485
 20
293.642068183699
 42
-0.1095178116832873
 10
230.0803063632989
 20
294.2979136744424
 42
0.0
 10
229.5823524076839
 20
294.5301134173542
 42
0.0
 10
229.5823524076839
 20
293.4267354983923
 42
0.0
 10
229.6576881015433
 20
293.391605887413
 42
0.1095178116837591
 10
233.0386341954836
 20
292.6420681836993
 42
0.0
 10
233.6682360465909
 20
292.6420681836994
 42
0.0
 97
        0
 92
        7
 72
     0
 73
     1
 93
        4
 10
275.8128672121136
 20
293.6420681836985
 10
233.6682360465909
 20
293.642068183699
 10
233.6682360465909
 20
292.6420681836993
 10
275.8128672121136
 20
292.6420681836983
 97
        0
 92
        7
 72
     1
 73
     1
 93
        9
 10
287.2890805382356
 20
293.4653908881005
 42
0.0
 10
279.5858883039884
 20
293.8017195244532
 42
-0.0649952007781304
 10
278.5627204351656
 20
293.6420681836982
 42
0.0
 10
275.8128672121138
 20
293.6420681836984
 42
0.0
 10
275.8128672121138
 20
292.6420681836983
 42
0.0
 10
278.2882202690819
 20
292.6420681836983
 42
0.0625007168496198
 10
279.5236805184591
 20
292.7971081248113
 42
0.0
 10
279.6982698026436
 20
292.7958601570933
 42
0.0
 10
287.2454611508708
 20
292.4663426665183
 42
0.0
 97
        0
 92
        7
 72
     1
 73
     1
 93
        8
 10
288.6412815465617
 20
324.435885757138
 42
0.0
 10
285.6441368818157
 20
324.5667439192341
 42
-0.4142135623730942
 10
284.6887080475992
 20
325.6094115281812
 42
0.0
 10
284.9862592776392
 20
332.4244551396585
 42
0.0
 10
283.9853065924756
 20
332.4244551396582
 42
0.0
 10
283.6896598260173
 20
325.6530309155465
 42
0.4142135623730769
 10
285.6005174944503
 20
323.5676956976523
 42
0.0
 10
288.597662159196
 20
323.4368375355562
 42
0.0
 97
        0
 75
     0
 76
     1
 52
90.0
 41
15.0
 77
     0
 78
     1
 53
135.0
 43
1336.875025255112
 44
-602.4861018442402
 45
-1.325825214724776
 46
-1.325825214724776
 79
     0
 47
0.1554164120192555
 98
        6
 10
172.1057871329346
 20
324.2099128710065
 10
229.0125242862775
 20
294.2145421344135
 10
231.8112172033814
 20
293.2820455482838
 10
235.5428050698381
 20
293.1266294505954
 10
277.9896301629831
 20
292.9712133529069
 10
286.2302264227371
 20
324.0544967733181
  0
LINE
  5
E0
330
2
100
AcDbEntity
  8
MITTE
100
AcDbLine
 10
227.9862592776399
 20
20.28059872201925
 30
0.0
 11
227.9862592776399
 21
245.9164434431987
 31
0.0
  0
LINE
  5
E1
330
2
100
AcDbEntity
  8
SICHTBAR
100
AcDbLine
 10
154.9862592776398
 20
220.280598722019
 30
0.0
 11
300.9862592776399
 21
220.280598722019
 31
0.0
  0
CIRCLE
  5
E2
330
2
100
AcDbEntity
  8
WHITE
  6
Continuous
100
AcDbCircle
 10
200.5663833223843
 20
181.5903825632702
 30
0.0
 40
3.0
  0
CIRCLE
  5
E4
330
2
100
AcDbEntity
  8
WHITE
  6
Continuous
100
AcDbCircle
 10
197.8251492856334
 20
165.1178728303753
 30
0.0
 40
3.0
  0
CIRCLE
  5
E5
330
2
100
AcDbEntity
  8
WHITE
  6
Continuous
100
AcDbCircle
 10
202.4979446409302
 20
153.5622541712678
 30
0.0
 40
3.0
  0
ARC
  5
E6
330
2
100
AcDbEntity
  8
WHITE
  6
Continuous
100
AcDbCircle
 10
201.1862592776402
 20
145.2805987220192
 30
0.0
 40
3.0
100
AcDbArc
 50
0.0
 51
180.0
  0
CIRCLE
  5
E7
330
2
100
AcDbEntity
  8
WHITE
  6
Continuous
100
AcDbCircle
 10
203.212936150579
 20
171.5387871828063
 30
0.0
 40
3.0
  0
LINE
  5
E8
330
2
100
AcDbEntity
  8
SICHTBAR
100
AcDbLine
 10
160.9862592776399
 20
77.28059872201924
 30
0.0
 11
294.9862592776399
 21
77.28059872201902
 31
0.0
  0
LINE
  5
E9
330
2
100
AcDbEntity
  8
SICHTBAR
100
AcDbLine
 10
154.9862592776398
 20
70.28059872201902
 30
0.0
 11
300.9862592776399
 21
70.28059872201902
 31
0.0
  0
LINE
  5
EA
330
2
100
AcDbEntity
  8
SICHTBAR
100
AcDbLine
 10
160.9862592776399
 20
213.2805987220192
 30
0.0
 11
294.9862592776399
 21
213.280598722019
 31
0.0
  0
LINE
  5
EB
330
2
100
AcDbEntity
  8
SICHTBAR
100
AcDbLine
 10
184.4776373062886
 20
78.78059872201925
 30
0.0
 11
227.9862592776399
 21
78.78059872201925
 31
0.0
  0
LINE
  5
EC
330
2
100
AcDbEntity
  8
SICHTBAR
100
AcDbLine
 10
161.4862592776403
 20
211.7805987220192
 30
0.0
 11
294.4862592776399
 21
211.780598722019
 31
0.0
  0
ARC
  5
ED
330
2
100
AcDbEntity
  8
BEMASS
100
AcDbCircle
 10
227.9862592776403
 20
145.2805987220192
 30
0.0
 40
49.99999999999994
100
AcDbArc
 50
0.0
 51
180.0
  0
LINE
  5
EE
330
2
100
AcDbEntity
  8
SICHTBAR
100
AcDbLine
 10
161.4862592776403
 20
211.7805987220192
 30
0.0
 11
294.4862592776399
 21
211.780598722019
 31
0.0
  0
LINE
  5
EF
330
2
100
AcDbEntity
  8
0
100
AcDbLine
 10
161.4862592776399
 20
211.7805987220192
 30
0.0
 11
294.4862592776394
 21
211.7805987220195
 31
0.0
  0
LINE
  5
F0
330
2
100
AcDbEntity
  8
BEMASS
100
AcDbLine
 10
182.2888712497597
 20
206.7805987220193
 30
0.0
 11
273.6836473055209
 21
206.7805987220193
 31
0.0
  0
ARC
  5
F1
330
2
100
AcDbEntity
  8
0
100
AcDbCircle
 10
227.9862592776403
 20
145.2805987220192
 30
0.0
 40
54.0
100
AcDbArc
 50
180.0
 51
0.0
  0
ARC
  5
F2
330
2
100
AcDbEntity
  8
VERDECKT
100
AcDbCircle
 10
227.9862592776403
 20
145.2805987220192
 30
0.0
 40
55.25
100
AcDbArc
 50
180.0
 51
0.0
  0
LINE
  5
F5
330
2
100
AcDbEntity
  8
SICHTBAR
100
AcDbLine
 10
159.9862592776398
 20
78.28059872201925
 30
0.0
 11
159.9862592776398
 21
212.2805987220192
 31
0.0
  0
LINE
  5
F6
330
2
100
AcDbEntity
  8
SICHTBAR
100
AcDbLine
 10
161.4862592776399
 20
101.771976750668
 30
0.0
 11
161.4862592776399
 21
145.2805987220192
 31
0.0
  0
LINE
  5
F7
330
2
100
AcDbEntity
  8
SICHTBAR
100
AcDbLine
 10
152.9862592776398
 20
72.28059872201902
 30
0.0
 11
152.9862592776398
 21
218.280598722019
 31
0.0
  0
LINE
  5
F8
330
2
100
AcDbEntity
  8
MITTE
100
AcDbLine
 10
167.3502203083189
 20
80.4445597526983
 30
0.0
 11
167.3502203083189
 21
88.84455975269839
 31
0.0
  0
LWPOLYLINE
  5
F9
330
2
100
AcDbEntity
  8
SICHTBAR
100
AcDbPolyline
 90
        6
 70
     1
 43
0.0
 10
165.3294943661553
 20
88.14455975269835
 10
163.3087684239917
 20
84.64455975269833
 10
165.3294943661553
 20
81.14455975269834
 10
169.370946250483
 20
81.14455975269834
 10
171.3916721926462
 20
84.64455975269833
 10
169.370946250483
 20
88.14455975269835
  0
CIRCLE
  5
FA
330
2
100
AcDbEntity
  8
SICHTBAR
100
AcDbCircle
 10
167.3502203083189
 20
84.64455975269833
 30
0.0
 40
4.2
  0
LINE
  5
FB
330
2
100
AcDbEntity
  8
SICHTBAR
100
AcDbLine
 10
184.4776373062886
 20
78.78059872201925
 30
0.0
 11
161.4862592776399
 21
101.771976750668
 31
0.0
  0
ARC
  5
FC
330
2
100
AcDbEntity
  8
BEMASS
100
AcDbCircle
 10
167.3502203083189
 20
84.64455975269833
 30
0.0
 40
2.0
100
AcDbArc
 50
156.2275580154768
 51
106.5206475200847
  0
CIRCLE
  5
FD
330
2
100
AcDbEntity
  8
SICHTBAR
100
AcDbCircle
 10
167.3502203083189
 20
84.64455975269833
 30
0.0
 40
1.5
  0
LINE
  5
FE
330
2
100
AcDbEntity
  8
MITTE
100
AcDbLine
 10
171.5502203083188
 20
84.64455975269833
 30
0.0
 11
163.1502203083191
 21
84.64455975269833
 31
0.0
  0
ARC
  5
FF
330
2
100
AcDbEntity
  8
SICHTBAR
100
AcDbCircle
 10
154.9862592776398
 20
72.28059872201902
 30
0.0
 40
2.0
100
AcDbArc
 50
180.0
 51
270.0
  0
ARC
  5
100
330
2
100
AcDbEntity
  8
SICHTBAR
100
AcDbCircle
 10
160.9862592776399
 20
78.28059872201925
 30
0.0
 40
1.0
100
AcDbArc
 50
180.0
 51
270.0
  0
LINE
  5
101
330
2
100
AcDbEntity
  8
SICHTBAR
100
AcDbLine
 10
161.4862592776399
 20
145.2805987220192
 30
0.0
 11
161.4862592776403
 21
211.7805987220192
 31
0.0
  0
LINE
  5
102
330
2
100
AcDbEntity
  8
BEMASS
100
AcDbLine
 10
166.4862592776398
 20
145.2805987220192
 30
0.0
 11
166.4862592776403
 21
190.9779867499001
 31
0.0
  0
LINE
  5
103
330
2
100
AcDbEntity
  8
SICHTBAR
100
AcDbLine
 10
161.4862592776399
 20
145.2805987220192
 30
0.0
 11
161.4862592776403
 21
211.7805987220192
 31
0.0
  0
LINE
  5
104
330
2
100
AcDbEntity
  8
0
100
AcDbLine
 10
161.4862592776394
 20
211.7805987220195
 30
0.0
 11
161.4862592776394
 21
145.2805987220192
 31
0.0
  0
CIRCLE
  5
105
330
2
100
AcDbEntity
  8
WHITE
  6
Continuous
100
AcDbCircle
 10
194.0633556672692
 20
157.6275258960759
 30
0.0
 40
3.0
  0
CIRCLE
  5
106
330
2
100
AcDbEntity
  8
WHITE
  6
Continuous
100
AcDbCircle
 10
183.2609832420225
 20
153.6412017826731
 30
0.0
 40
3.0
  0
ARC
  5
107
330
2
100
AcDbEntity
  8
WHITE
  6
Continuous
100
AcDbCircle
 10
182.4862592776403
 20
145.2805987220192
 30
0.0
 40
3.0
100
AcDbArc
 50
0.0
 51
180.0
  0
CIRCLE
  5
108
330
2
100
AcDbEntity
  8
WHITE
  6
Continuous
100
AcDbCircle
 10
192.1303545631563
 20
149.47155292194
 30
0.0
 40
3.0
  0
CIRCLE
  5
109
330
2
100
AcDbEntity
  8
WHITE
  6
Continuous
100
AcDbCircle
 10
185.5587728397422
 20
161.7170945335349
 30
0.0
 40
3.0
  0
CIRCLE
  5
10A
330
2
100
AcDbEntity
  8
WHITE
  6
Continuous
100
AcDbCircle
 10
189.3013796019427
 20
169.233262132939
 30
0.0
 40
3.0
  0
CIRCLE
  5
10B
330
2
100
AcDbEntity
  8
WHITE
  6
Continuous
100
AcDbCircle
 10
194.3613535441004
 20
175.9337505079377
 30
0.0
 40
3.0
  0
LINE
  5
10C
330
2
100
AcDbEntity
  8
BEMASS
100
AcDbLine
 10
166.4862592776403
 20
190.9779867499001
 30
0.0
 11
182.2888712497597
 21
206.7805987220193
 31
0.0
  0
ARC
  5
10D
330
2
100
AcDbEntity
  8
SICHTBAR
100
AcDbCircle
 10
160.9862592776399
 20
212.2805987220192
 30
0.0
 40
1.0
100
AcDbArc
 50
90.0
 51
180.0
  0
ARC
  5
10E
330
2
100
AcDbEntity
  8
SICHTBAR
100
AcDbCircle
 10
154.9862592776398
 20
218.280598722019
 30
0.0
 40
2.0
100
AcDbArc
 50
90.0
 51
180.0
  0
LINE
  5
10F
330
2
100
AcDbEntity
  8
MITTE
100
AcDbLine
 10
102.9862592776403
 20
145.2805987220192
 30
0.0
 11
362.4120163927273
 21
145.2805987220192
 31
0.0
  0
LINE
  5
110
330
2
100
AcDbEntity
  8
VERDECKT
100
AcDbLine
 10
302.9862592776399
 20
161.2805987220192
 30
0.0
 11
329.8064586052315
 21
161.2805987220192
 31
0.0
  0
LINE
  5
111
330
2
100
AcDbEntity
  8
SICHTBAR
100
AcDbLine
 10
295.9862592776399
 20
78.28059872201902
 30
0.0
 11
295.9862592776399
 21
212.280598722019
 31
0.0
  0
LINE
  5
112
330
2
100
AcDbEntity
  8
SICHTBAR
100
AcDbLine
 10
294.4862592776399
 20
98.23644284473516
 30
0.0
 11
294.4862592776399
 21
145.2805987220192
 31
0.0
  0
LINE
  5
113
330
2
100
AcDbEntity
  8
SICHTBAR
100
AcDbLine
 10
302.9862592776399
 20
72.28059872201902
 30
0.0
 11
302.9862592776399
 21
218.280598722019
 31
0.0
  0
LINE
  5
114
330
2
100
AcDbEntity
  8
SICHTBAR
100
AcDbLine
 10
275.0304151549235
 20
78.78059872201925
 30
0.0
 11
227.9862592776399
 21
78.78059872201925
 31
0.0
  0
LINE
  5
115
330
2
100
AcDbEntity
  8
SICHTBAR
100
AcDbLine
 10
275.0304151549244
 20
78.78059872201902
 30
0.0
 11
294.4862592776399
 21
98.23644284473516
 31
0.0
  0
ARC
  5
116
330
2
100
AcDbEntity
  8
SICHTBAR
100
AcDbCircle
 10
294.9862592776399
 20
78.28059872201902
 30
0.0
 40
1.0
100
AcDbArc
 50
270.0
 51
0.0
  0
ARC
  5
117
330
2
100
AcDbEntity
  8
SICHTBAR
100
AcDbCircle
 10
300.9862592776399
 20
72.28059872201902
 30
0.0
 40
2.0
100
AcDbArc
 50
270.0
 51
0.0
  0
CIRCLE
  5
118
330
2
100
AcDbEntity
  8
WHITE
  6
Continuous
100
AcDbCircle
 10
263.1131791055718
 20
153.6058316558212
 30
0.0
 40
3.0
  0
ARC
  5
119
330
2
100
AcDbEntity
  8
WHITE
  6
Continuous
100
AcDbCircle
 10
264.0862592776402
 20
145.2805987220192
 30
0.0
 40
3.0
100
AcDbArc
 50
0.0
 51
180.0
  0
CIRCLE
  5
11A
330
2
100
AcDbEntity
  8
WHITE
  6
Continuous
100
AcDbCircle
 10
266.6711389533375
 20
169.233262132939
 30
0.0
 40
3.0
  0
CIRCLE
  5
11B
330
2
100
AcDbEntity
  8
WHITE
  6
Continuous
100
AcDbCircle
 10
255.4061352328963
 20
181.5903825632702
 30
0.0
 40
3.0
  0
CIRCLE
  5
11C
330
2
100
AcDbEntity
  8
WHITE
  6
Continuous
100
AcDbCircle
 10
234.2549584914163
 20
180.83215860576
 30
0.0
 40
3.0
  0
CIRCLE
  5
11D
330
2
100
AcDbEntity
  8
WHITE
  6
Continuous
100
AcDbCircle
 10
217.6326625767697
 20
179.8640201166083
 30
0.0
 40
3.0
  0
CIRCLE
  5
11E
330
2
100
AcDbEntity
  8
WHITE
  6
Continuous
100
AcDbCircle
 10
225.887230953972
 20
181.319523235612
 30
0.0
 40
3.0
  0
CIRCLE
  5
11F
330
2
100
AcDbEntity
  8
WHITE
  6
Continuous
100
AcDbCircle
 10
242.2847388316541
 20
178.428200180397
 30
0.0
 40
3.0
  0
LINE
  5
120
330
2
100
AcDbEntity
  8
MITTE
100
AcDbLine
 10
234.0391767469309
 20
145.2805987220192
 30
0.0
 11
221.9862592776403
 21
145.2805987220192
 31
0.0
  0
CIRCLE
  5
121
330
2
100
AcDbEntity
  8
WHITE
  6
Continuous
100
AcDbCircle
 10
214.8873211846458
 20
156.8852452412331
 30
0.0
 40
3.0
  0
ARC
  5
122
330
2
100
AcDbEntity
  8
WHITE
  6
Continuous
100
AcDbCircle
 10
223.38506927764
 20
141.8452567220192
 30
0.0
 40
8.255475
100
AcDbArc
 50
126.4231449999942
 51
155.4095691140392
  0
CIRCLE
  5
123
330
2
100
AcDbEntity
  8
WHITE
  6
Continuous
100
AcDbCircle
 10
210.9947774726843
 20
149.4686228470516
 30
0.0
 40
3.0
  0
ARC
  5
124
330
2
100
AcDbEntity
  8
WHITE
  6
Continuous
100
AcDbCircle
 10
223.38506927764
 20
141.8452567220192
 30
0.0
 40
7.223525999999999
100
AcDbArc
 50
132.7316660000028
 51
151.6030823455451
  0
ARC
  5
125
330
2
100
AcDbEntity
  8
WHITE
  6
Continuous
100
AcDbCircle
 10
213.58170227764
 20
141.8452507220193
 30
0.0
 40
7.223595
100
AcDbArc
 50
28.39667587380187
 51
47.26783700000356
  0
ARC
  5
126
330
2
100
AcDbEntity
  8
WHITE
  6
Continuous
100
AcDbCircle
 10
227.9862592776399
 20
145.2805987220192
 30
0.0
 40
2.321862
100
AcDbArc
 50
31.05578300000568
 51
180.0
  0
LINE
  5
127
330
2
100
AcDbEntity
  8
MITTE
100
AcDbLine
 10
227.9862592776399
 20
139.2805987220192
 30
0.0
 11
227.9862592776403
 21
151.2805987220192
 31
0.0
  0
ARC
  5
128
330
2
100
AcDbEntity
  8
WHITE
  6
Continuous
100
AcDbCircle
 10
227.9862592776399
 20
145.2805987220192
 30
0.0
 40
3.353801999999999
100
AcDbArc
 50
30.73095099999739
 51
180.0
  0
ARC
  5
129
330
2
100
AcDbEntity
  8
WHITE
  6
Continuous
100
AcDbCircle
 10
213.58170227764
 20
141.8452507220193
 30
0.0
 40
8.255535
100
AcDbArc
 50
24.59028611456175
 51
53.57637099999937
  0
LINE
  5
12A
330
2
100
AcDbEntity
  8
WHITE
  6
Continuous
100
AcDbLine
 10
229.9753192776402
 20
146.4783847220192
 30
0.0
 11
230.8691092776403
 21
146.9944177220193
 31
0.0
  0
CIRCLE
  5
12B
330
2
100
AcDbEntity
  8
WHITE
  6
Continuous
100
AcDbCircle
 10
219.7046038283915
 20
170.7689133587294
 30
0.0
 40
3.0
  0
CIRCLE
  5
12C
330
2
100
AcDbEntity
  8
WHITE
  6
Continuous
100
AcDbCircle
 10
212.2336145162021
 20
166.9622541712679
 30
0.0
 40
3.0
  0
CIRCLE
  5
12D
330
2
100
AcDbEntity
  8
WHITE
  6
Continuous
100
AcDbCircle
 10
206.3046038283919
 20
161.0332434834574
 30
0.0
 40
3.0
  0
CIRCLE
  5
12E
330
2
100
AcDbEntity
  8
WHITE
  6
Continuous
100
AcDbCircle
 10
209.9362592776401
 20
176.5441157986374
 30
0.0
 40
3.0
  0
CIRCLE
  5
12F
330
2
100
AcDbEntity
  8
WHITE
  6
Continuous
100
AcDbCircle
 10
227.9862592776403
 20
172.0805987220192
 30
0.0
 40
3.0
  0
CIRCLE
  5
130
330
2
100
AcDbEntity
  8
WHITE
  6
Continuous
100
AcDbCircle
 10
221.780673754396
 20
161.6433829690138
 30
0.0
 40
3.0
  0
CIRCLE
  5
131
330
2
100
AcDbEntity
  8
WHITE
  6
Continuous
100
AcDbCircle
 10
230.0956511821087
 20
162.6530040187351
 30
0.0
 40
3.0
  0
LINE
  5
132
330
2
100
AcDbEntity
  8
MITTE
100
AcDbLine
 10
224.9862592776399
 20
175.6944113735105
 30
0.0
 11
224.9862592776394
 21
175.6944113735105
 31
0.0
  0
LINE
  5
133
330
2
100
AcDbEntity
  8
WHITE
  6
Continuous
100
AcDbLine
 10
230.9862592776399
 20
175.6944113735105
 30
0.0
 11
230.9862592776399
 21
175.6944113735105
 31
0.0
  0
CIRCLE
  5
134
330
2
100
AcDbEntity
  8
WHITE
  6
Continuous
100
AcDbCircle
 10
237.9273923454357
 20
159.6828163751581
 30
0.0
 40
3.0
  0
ARC
  5
135
330
2
100
AcDbEntity
  8
WHITE
  6
Continuous
100
AcDbCircle
 10
237.4890802776399
 20
145.2805987220192
 30
0.0
 40
2.321865
100
AcDbArc
 50
0.0
 51
180.0
  0
ARC
  5
136
330
2
100
AcDbEntity
  8
WHITE
  6
Continuous
100
AcDbCircle
 10
237.4890802776399
 20
145.2805987220192
 30
0.0
 40
3.353805
100
AcDbArc
 50
0.0
 51
180.0
  0
ARC
  5
137
330
2
100
AcDbEntity
  8
WHITE
  6
Continuous
100
AcDbCircle
 10
245.4862592776403
 20
145.2805987220192
 30
0.0
 40
3.0
100
AcDbArc
 50
0.0
 51
180.0
  0
CIRCLE
  5
138
330
2
100
AcDbEntity
  8
WHITE
  6
Continuous
100
AcDbCircle
 10
243.4817397265715
 20
153.413254232785
 30
0.0
 40
3.0
  0
LINE
  5
139
330
2
100
AcDbEntity
  8
WHITE
  6
Continuous
100
AcDbLine
 10
242.8551284051814
 20
155.9068271624417
 30
0.0
 11
242.855128405181
 21
155.9068271624417
 31
0.0
  0
ARC
  5
13A
330
2
100
AcDbEntity
  8
WHITE
  6
Continuous
100
AcDbCircle
 10
254.7862592776401
 20
145.2805987220192
 30
0.0
 40
3.0
100
AcDbArc
 50
0.0
 51
180.0
  0
CIRCLE
  5
13B
330
2
100
AcDbEntity
  8
WHITE
  6
Continuous
100
AcDbCircle
 10
253.4745739143505
 20
153.5622541712678
 30
0.0
 40
3.0
  0
LINE
  5
13C
330
2
100
AcDbEntity
  8
BEMASS
100
AcDbLine
 10
258.4000719291307
 20
148.2805987220192
 30
0.0
 11
258.4000719291307
 21
148.2805987220192
 31
0.0
  0
CIRCLE
  5
13D
330
2
100
AcDbEntity
  8
WHITE
  6
Continuous
100
AcDbCircle
 10
249.6679147268888
 20
161.0332434834574
 30
0.0
 40
3.0
  0
CIRCLE
  5
13E
330
2
100
AcDbEntity
  8
WHITE
  6
Continuous
100
AcDbCircle
 10
249.5436844381111
 20
174.2372459804762
 30
0.0
 40
3.0
  0
CIRCLE
  5
13F
330
2
100
AcDbEntity
  8
WHITE
  6
Continuous
100
AcDbCircle
 10
243.7389040390785
 20
166.9622541712679
 30
0.0
 40
3.0
  0
CIRCLE
  5
140
330
2
100
AcDbEntity
  8
WHITE
  6
Continuous
100
AcDbCircle
 10
236.2679147268886
 20
170.7689133587294
 30
0.0
 40
3.0
  0
CIRCLE
  5
141
330
2
100
AcDbEntity
  8
WHITE
  6
Continuous
100
AcDbCircle
 10
255.6404636742354
 20
168.4852314317033
 30
0.0
 40
3.0
  0
CIRCLE
  5
142
330
2
100
AcDbEntity
  8
WHITE
  6
Continuous
100
AcDbCircle
 10
260.2463975933151
 20
161.4822491272559
 30
0.0
 40
3.0
  0
CIRCLE
  5
143
330
2
100
AcDbEntity
  8
WHITE
  6
Continuous
100
AcDbCircle
 10
261.6111650111802
 20
175.9337505079377
 30
0.0
 40
3.0
  0
CIRCLE
  5
144
330
2
100
AcDbEntity
  8
WHITE
  6
Continuous
100
AcDbCircle
 10
232.1844696332205
 20
190.5865037434432
 30
0.0
 40
3.0
  0
CIRCLE
  5
145
330
2
100
AcDbEntity
  8
WHITE
  6
Continuous
100
AcDbCircle
 10
215.5345932293603
 20
189.0436654863824
 30
0.0
 40
3.0
  0
CIRCLE
  5
146
330
2
100
AcDbEntity
  8
WHITE
  6
Continuous
100
AcDbCircle
 10
207.705164089808
 20
186.0105284786746
 30
0.0
 40
3.0
  0
CIRCLE
  5
147
330
2
100
AcDbEntity
  8
WHITE
  6
Continuous
100
AcDbCircle
 10
223.7880489220602
 20
190.5865037434434
 30
0.0
 40
3.0
  0
CIRCLE
  5
148
330
2
100
AcDbEntity
  8
WHITE
  6
Continuous
100
AcDbCircle
 10
248.2673544654726
 20
186.0105284786746
 30
0.0
 40
3.0
  0
CIRCLE
  5
149
330
2
100
AcDbEntity
  8
WHITE
  6
Continuous
100
AcDbCircle
 10
240.4379253259199
 20
189.0436654863824
 30
0.0
 40
3.0
  0
LINE
  5
14A
330
2
100
AcDbEntity
  8
SICHTBAR
100
AcDbLine
 10
294.4862592776399
 20
145.2805987220192
 30
0.0
 11
294.4862592776399
 21
211.780598722019
 31
0.0
  0
LINE
  5
14B
330
2
100
AcDbEntity
  8
BEMASS
100
AcDbLine
 10
289.4862592776399
 20
145.2805987220192
 30
0.0
 11
289.4862592776399
 21
190.9779867499003
 31
0.0
  0
LINE
  5
14C
330
2
100
AcDbEntity
  8
SICHTBAR
100
AcDbLine
 10
294.4862592776399
 20
145.2805987220192
 30
0.0
 11
294.4862592776399
 21
211.780598722019
 31
0.0
  0
ARC
  5
14D
330
2
100
AcDbEntity
  8
WHITE
  6
Continuous
100
AcDbCircle
 10
273.4862592776403
 20
145.2805987220192
 30
0.0
 40
3.0
100
AcDbArc
 50
0.0
 51
180.0
  0
CIRCLE
  5
14E
330
2
100
AcDbEntity
  8
WHITE
  6
Continuous
100
AcDbCircle
 10
272.7115353132576
 20
153.6412017826731
 30
0.0
 40
3.0
  0
CIRCLE
  5
14F
330
2
100
AcDbEntity
  8
WHITE
  6
Continuous
100
AcDbCircle
 10
270.4137457155384
 20
161.7170945335347
 30
0.0
 40
3.0
  0
LINE
  5
150
330
2
100
AcDbEntity
  8
MITTE
100
AcDbLine
 10
288.6222982469617
 20
201.4166376913397
 30
0.0
 11
288.6222982469617
 21
210.4166376913397
 31
0.0
  0
CIRCLE
  5
151
330
2
100
AcDbEntity
  8
SICHTBAR
100
AcDbCircle
 10
288.6222982469617
 20
205.9166376913397
 30
0.0
 40
4.0
  0
LINE
  5
152
330
2
100
AcDbEntity
  8
SICHTBAR
100
AcDbLine
 10
291.2785984243578
 20
208.8635121996222
 30
0.0
 11
285.2589316989097
 21
203.8124120704885
 31
0.0
  0
LINE
  5
153
330
2
100
AcDbEntity
  8
SICHTBAR
100
AcDbLine
 10
291.9856647950128
 20
208.0208633121915
 30
0.0
 11
285.9659980695651
 21
202.9697631830577
 31
0.0
  0
CIRCLE
  5
154
330
2
100
AcDbEntity
  8
0
100
AcDbCircle
 10
288.6560211034457
 20
205.9503605478255
 30
0.0
 40
4.349999999999999
  0
LINE
  5
155
330
2
100
AcDbEntity
  8
BEMASS
100
AcDbLine
 10
289.4862592776403
 20
190.9779867499001
 30
0.0
 11
273.6836473055209
 21
206.7805987220193
 31
0.0
  0
LINE
  5
156
330
2
100
AcDbEntity
  8
MITTE
100
AcDbLine
 10
293.1222982469617
 20
205.9166376913399
 30
0.0
 11
284.1222982469617
 21
205.9166376913397
 31
0.0
  0
ARC
  5
157
330
2
100
AcDbEntity
  8
SICHTBAR
100
AcDbCircle
 10
294.9862592776399
 20
212.280598722019
 30
0.0
 40
1.0
100
AcDbArc
 50
0.0
 51
90.0
  0
ARC
  5
158
330
2
100
AcDbEntity
  8
SICHTBAR
100
AcDbCircle
 10
300.9862592776399
 20
218.280598722019
 30
0.0
 40
2.0
100
AcDbArc
 50
0.0
 51
90.0
  0
LINE
  5
159
330
2
100
AcDbEntity
  8
VERDECKT
100
AcDbLine
 10
333.8064586052311
 20
160.2805987220192
 30
0.0
 11
333.8064586052311
 21
130.2805987220193
 31
0.0
  0
LINE
  5
15A
330
2
100
AcDbEntity
  8
VERDECKT
100
AcDbLine
 10
282.332947309203
 20
129.280598722019
 30
0.0
 11
329.806458605231
 21
129.2805987220193
 31
0.0
  0
LINE
  5
15B
330
2
100
AcDbEntity
  8
VERDECKT
100
AcDbLine
 10
329.806458605231
 20
161.2805987220192
 30
0.0
 11
329.8064586052311
 21
129.2805987220193
 31
0.0
  0
LINE
  5
15C
330
2
100
AcDbEntity
  8
VERDECKT
100
AcDbLine
 10
302.9862592776399
 20
160.2805987220192
 30
0.0
 11
329.6833529796131
 21
160.2805987220192
 31
0.0
  0
LINE
  5
15D
330
2
100
AcDbEntity
  8
VERDECKT
100
AcDbLine
 10
282.0695284096002
 20
130.2805987220192
 30
0.0
 11
329.6833529796129
 21
130.2805987220192
 31
0.0
  0
LINE
  5
15E
330
2
100
AcDbEntity
  8
VERDECKT
100
AcDbLine
 10
329.806458605231
 20
161.2805987220192
 30
0.0
 11
333.8064586052311
 21
160.2805987220192
 31
0.0
  0
LINE
  5
15F
330
2
100
AcDbEntity
  8
VERDECKT
100
AcDbLine
 10
329.8064586052311
 20
129.2805987220193
 30
0.0
 11
333.8064586052311
 21
130.2805987220193
 31
0.0
  0
LINE
  5
160
330
2
100
AcDbEntity
  8
VERDECKT
100
AcDbLine
 10
329.5639229801947
 20
160.3104562218739
 30
0.0
 11
333.806458605231
 21
159.2498223156147
 31
0.0
  0
LINE
  5
161
330
2
100
AcDbEntity
  8
VERDECKT
100
AcDbLine
 10
329.5639229801948
 20
130.2507412221647
 30
0.0
 11
333.8064586052311
 21
131.3113751284237
 31
0.0
  0
ARC
  5
162
330
2
100
AcDbEntity
  8
VERDECKT
100
AcDbCircle
 10
282.332947309203
 20
127.280598722019
 30
0.0
 40
2.0
100
AcDbArc
 50
90.0
 51
161.6747712925369
  0
ARC
  5
163
330
2
100
AcDbEntity
  8
VERDECKT
100
AcDbCircle
 10
282.0695284096002
 20
127.2805987220193
 30
0.0
 40
3.0
100
AcDbArc
 50
90.0
 51
161.5915198294153
  0
CIRCLE
  5
164
330
2
100
AcDbEntity
  8
0
100
AcDbCircle
 10
227.9862592776403
 20
145.2805987220192
 30
0.0
 40
125.0
  0
CIRCLE
  5
165
330
2
100
AcDbEntity
  8
0
100
AcDbCircle
 10
227.9862592776399
 20
145.2805987220192
 30
0.0
 40
121.2135919318798
  0
CIRCLE
  5
166
330
2
100
AcDbEntity
  8
BEMASS
100
AcDbCircle
 10
227.9862592776401
 20
145.2805987220192
 30
0.0
 40
118.3851648071338
  0
CIRCLE
  5
167
330
2
100
AcDbEntity
  8
BEMASS
100
AcDbCircle
 10
227.9862592776401
 20
145.2805987220192
 30
0.0
 40
106.2135919318809
  0
ARC
  5
168
330
2
100
AcDbEntity
  8
0
100
AcDbCircle
 10
227.9862592776401
 20
145.2805987220192
 30
0.0
 40
100.6358447211794
100
AcDbArc
 50
318.1815471336138
 51
41.81845286638623
  0
ARC
  5
169
330
2
100
AcDbEntity
  8
MITTE
100
AcDbCircle
 10
227.9862592776401
 20
145.2805987220192
 30
0.0
 40
112.3135919318809
100
AcDbArc
 50
86.4988258539059
 51
93.50117414609433
  0
CIRCLE
  5
16A
330
2
100
AcDbEntity
  8
BEMASS
100
AcDbCircle
 10
227.9862592776399
 20
257.5941906539002
 30
0.0
 40
2.0
  0
CIRCLE
  5
16B
330
2
100
AcDbEntity
  8
0
100
AcDbCircle
 10
227.9862592776399
 20
257.5941906539002
 30
0.0
 40
5.0
  0
LINE
  5
16C
330
2
100
AcDbEntity
  8
MITTE
100
AcDbLine
 10
227.9862592776399
 20
250.7321098955864
 30
0.0
 11
227.9862592776399
 21
264.4562714122141
 31
0.0
  0
ARC
  5
16D
330
2
100
AcDbEntity
  8
MITTE
100
AcDbCircle
 10
227.9862592776401
 20
145.2805987220195
 30
0.0
 40
112.3135919318809
100
AcDbArc
 50
146.4988258539059
 51
153.5011741460943
  0
CIRCLE
  5
16E
330
2
100
AcDbEntity
  8
0
100
AcDbCircle
 10
130.719835474352
 20
201.4373946879598
 30
0.0
 40
5.0
  0
LINE
  5
16F
330
2
100
AcDbEntity
  8
MITTE
100
AcDbLine
 10
136.6625717338722
 20
198.0063543088026
 30
0.0
 11
124.7770992148319
 21
204.8684350671165
 31
0.0
  0
CIRCLE
  5
170
330
2
100
AcDbEntity
  8
BEMASS
100
AcDbCircle
 10
130.719835474352
 20
201.4373946879598
 30
0.0
 40
2.0
  0
ARC
  5
171
330
2
100
AcDbEntity
  8
MITTE
100
AcDbCircle
 10
227.9862592776401
 20
145.2805987220192
 30
0.0
 40
112.3135919318809
100
AcDbArc
 50
206.4988258539059
 51
213.5011741460943
  0
CIRCLE
  5
172
330
2
100
AcDbEntity
  8
0
100
AcDbCircle
 10
130.7198354743523
 20
89.12380275607848
 30
0.0
 40
5.0
  0
LINE
  5
173
330
2
100
AcDbEntity
  8
MITTE
100
AcDbLine
 10
136.6625717338725
 20
92.55484313523538
 30
0.0
 11
124.7770992148321
 21
85.69276237692156
 31
0.0
  0
CIRCLE
  5
174
330
2
100
AcDbEntity
  8
BEMASS
100
AcDbCircle
 10
130.7198354743523
 20
89.12380275607848
 30
0.0
 40
2.0
  0
ARC
  5
175
330
2
100
AcDbEntity
  8
MITTE
100
AcDbCircle
 10
227.9862592776401
 20
145.2805987220191
 30
0.0
 40
112.3135919318809
100
AcDbArc
 50
266.4988258539059
 51
273.5011741460943
  0
CIRCLE
  5
176
330
2
100
AcDbEntity
  8
0
100
AcDbCircle
 10
227.9862592776403
 20
32.96700679013816
 30
0.0
 40
5.0
  0
LINE
  5
177
330
2
100
AcDbEntity
  8
MITTE
100
AcDbLine
 10
227.9862592776403
 20
39.82908754845198
 30
0.0
 11
227.9862592776403
 21
26.10492603182434
 31
0.0
  0
CIRCLE
  5
178
330
2
100
AcDbEntity
  8
BEMASS
100
AcDbCircle
 10
227.9862592776403
 20
32.96700679013816
 30
0.0
 40
2.0
  0
ARC
  5
179
330
2
100
AcDbEntity
  8
MITTE
100
AcDbCircle
 10
227.9862592776401
 20
145.2805987220192
 30
0.0
 40
112.3135919318809
100
AcDbArc
 50
326.4988258539059
 51
333.5011741460943
  0
CIRCLE
  5
17A
330
2
100
AcDbEntity
  8
0
100
AcDbCircle
 10
325.252683080928
 20
89.12380275607905
 30
0.0
 40
5.0
  0
LINE
  5
17B
330
2
100
AcDbEntity
  8
MITTE
100
AcDbLine
 10
319.309946821408
 20
92.55484313523561
 30
0.0
 11
331.1954193404481
 21
85.69276237692179
 31
0.0
  0
CIRCLE
  5
17C
330
2
100
AcDbEntity
  8
BEMASS
100
AcDbCircle
 10
325.252683080928
 20
89.12380275607905
 30
0.0
 40
2.0
  0
ARC
  5
17D
330
2
100
AcDbEntity
  8
MITTE
100
AcDbCircle
 10
227.9862592776401
 20
145.2805987220192
 30
0.0
 40
112.3135919318809
100
AcDbArc
 50
26.49882585390586
 51
33.50117414609429
  0
CIRCLE
  5
17E
330
2
100
AcDbEntity
  8
0
100
AcDbCircle
 10
325.252683080928
 20
201.4373946879598
 30
0.0
 40
5.0
  0
LINE
  5
17F
330
2
100
AcDbEntity
  8
MITTE
100
AcDbLine
 10
319.3099468214077
 20
198.0063543088031
 30
0.0
 11
331.1954193404481
 21
204.8684350671169
 31
0.0
  0
CIRCLE
  5
180
330
2
100
AcDbEntity
  8
BEMASS
100
AcDbCircle
 10
325.252683080928
 20
201.4373946879598
 30
0.0
 40
2.0
  0
ARC
  5
181
330
2
100
AcDbEntity
  8
BEMASS
100
AcDbCircle
 10
255.6634272322831
 20
145.2805987220192
 30
0.0
 40
25.0
100
AcDbArc
 50
180.0
 51
334.7068233531199
  0
ARC
  5
182
330
2
100
AcDbEntity
  8
BEMASS
100
AcDbCircle
 10
255.2880738277533
 20
127.8930295501136
 30
0.0
 40
23.937310118124
100
AcDbArc
 50
0.8017248653360312
 51
16.2698478393418
  0
HATCH
  5
183
330
2
100
AcDbEntity
  8
BEMASS
100
AcDbHatch
 10
0.0
 20
0.0
 30
0.0
210
0.0
220
0.0
230
1.0
  2
ANSI31
 70
     0
 71
     0
 91
        4
 92
        7
 72
     0
 73
     1
 93
        5
 10
288.6412815465615
 20
324.4358857571378
 10
288.597662159196
 20
323.4368375355562
 10
329.6872772625629
 20
321.6428261963951
 10
329.8089232709109
 20
321.6067092903391
 10
329.8538851062691
 20
322.6365046260063
 97
        0
 92
        7
 72
     0
 73
     1
 93
        4
 10
333.8064586052309
 20
321.4629788549631
 10
329.853885106269
 20
322.6365046260064
 10
329.8089232709111
 20
321.6067092903394
 10
333.7614967698733
 20
320.4331835192962
 97
        0
 92
        7
 72
     0
 73
     1
 93
        4
 10
332.542838819629
 20
292.5213275431742
 10
328.5030265459362
 20
291.6967568710538
 10
328.4580647105784
 20
290.666961535387
 10
332.4978769842711
 20
291.4915322075075
 97
        0
 92
        7
 72
     0
 73
     1
 93
        5
 10
328.503026545936
 20
291.6967568710536
 10
328.3786956416036
 20
291.6713795489393
 10
287.2890805382358
 20
293.4653908881004
 10
287.2454611508708
 20
292.4663426665186
 10
328.4580647105781
 20
290.6669615353868
 97
        0
 75
     0
 76
     1
 52
0.0
 41
12.0
 77
     0
 78
     1
 53
45.0
 43
1336.875025255112
 44
-602.4861018442402
 45
-1.060660171779821
 46
1.060660171779821
 79
     0
 47
0.0792313382750049
 98
        4
 10
313.4121013844485
 20
322.6721738387223
 10
331.9601656703842
 20
321.3252419373684
 10
330.2955961290706
 20
291.6927188478449
 10
320.5459717679021
 20
291.3757914435537
  0
LINE
  5
184
330
2
100
AcDbEntity
  8
BEMASS
100
AcDbLine
 10
288.1521677947512
 20
308.4419979621184
 30
0.0
 11
337.1981892939818
 21
308.4419979621184
 31
0.0
  0
LINE
  5
185
330
2
100
AcDbEntity
  8
BEMASS
100
AcDbLine
 10
335.1502642379147
 20
306.3900167565045
 30
0.0
 11
364.2214042243603
 21
305.1207433732709
 31
0.0
  0
LINE
  5
186
330
2
100
AcDbEntity
  8
BEMASS
100
AcDbLine
 10
337.198189293982
 20
308.4419979621183
 30
0.0
 11
364.2214042243603
 21
308.4419979621183
 31
0.0
  0
ARC
  5
187
330
2
100
AcDbEntity
  8
BEMASS
100
AcDbCircle
 10
288.1521677947514
 20
308.4419979621183
 30
0.0
 40
125.4260793927015
100
AcDbArc
 50
359.0988838702674
 51
5.559504387023279
  0
SOLID
  5
188
330
2
100
AcDbEntity
  8
BEMASS
100
AcDbTrace
 10
414.145811698033
 20
306.4521367300395
 30
0.0
 11
412.9796588650588
 21
306.4867587065498
 31
0.0
 12
413.4588693520146
 22
302.9709892193722
 32
0.0
 13
413.4588693520146
 23
302.9709892193722
 33
0.0
  0
SOLID
  5
189
330
2
100
AcDbEntity
  8
BEMASS
100
AcDbTrace
 10
412.9461370915477
 20
304.9504775763219
 30
0.0
 11
414.1126901948281
 21
304.9341997282335
 31
0.0
 12
413.5782471874527
 22
308.4419979621183
 32
0.0
 13
413.5782471874527
 23
308.4419979621183
 33
0.0
  0
MTEXT
  5
18A
330
2
100
AcDbEntity
  8
BEMASS
100
AcDbMText
 10
409.0494700552246
 20
315.2173192841214
 30
0.0
 40
5.0
 41
0.0
 46
0.0
 71
     5
 72
     1
  1
\A1;2.5%%d
 11
0.0218148850345625
 21
0.9997620270799089
 31
0.0
 73
     1
 44
1.0
  0
ARC
  5
18B
330
2
100
AcDbEntity
  8
BEMASS
100
AcDbCircle
 10
288.1521677947514
 20
308.4419979621183
 30
0.0
 40
125.4260793927015
100
AcDbArc
 50
357.4999999999998
 51
358.4011161297324
  0
DIMENSION
  5
18C
330
2
100
AcDbEntity
  8
BEMASS
100
AcDbDimension
280
     0
  2
*D2
 10
374.7264877978327
 20
320.6773244817334
 30
0.0
 11
369.532860602869
 21
304.8888401795677
 31
0.0
 70
    33
  1
%%c32
 71
     5
 42
32.00000000000006
 73
     0
 74
     0
 75
     0
  3
STANDARD
100
AcDbAlignedDimension
 13
328.4580647105782
 23
290.6669615353867
 33
0.0
 14
329.853885106269
 24
322.6365046260062
 34
0.0
  0
LINE
  5
199
330
2
100
AcDbEntity
  8
BEMASS
100
AcDbLine
 10
377.2866465288668
 20
308.4419979621184
 30
0.0
 11
415.5782471874528
 21
308.4419979621184
 31
0.0
  0
LINE
  5
19A
330
2
100
AcDbEntity
  8
BEMASS
100
AcDbLine
 10
377.2866465288668
 20
304.5503025749279
 30
0.0
 11
415.4569657951783
 21
302.8837504446416
 31
0.0
  0
DIMENSION
  5
19B
330
2
100
AcDbEntity
  8
BEMASS
100
AcDbDimension
280
     0
  2
*D3
 10
352.9862592776385
 20
391.4554806773886
 30
0.0
 11
227.98625927764
 21
395.9554806773886
 31
0.0
 70
    32
  1
%%c250
 71
     5
 42
249.9999999999971
 73
     0
 74
     0
 75
     0
  3
STANDARD
100
AcDbAlignedDimension
 13
102.9862592776414
 23
342.6420681837018
 33
0.0
 14
352.9862592776385
 24
342.6420681837015
 34
0.0
100
AcDbRotatedDimension
  0
DIMENSION
  5
1A8
330
2
100
AcDbEntity
  8
BEMASS
100
AcDbDimension
280
     0
  2
*D4
 10
88.47598137426372
 20
344.6420681837015
 30
0.0
 11
83.97598137426365
 21
318.6420681837003
 31
0.0
 70
    32
 71
     5
 42
52.00000000000222
 73
     0
 74
     0
 75
     0
  3
STANDARD
100
AcDbAlignedDimension
 13
233.0386341954838
 23
292.6420681836992
 33
0.0
 14
109.601094470506
 24
344.6420681837015
 34
0.0
 50
90.0
100
AcDbRotatedDimension
  0
DIMENSION
  5
1B5
330
2
100
AcDbEntity
  8
BEMASS
100
AcDbDimension
280
     0
  2
*D5
 10
75.11355757554134
 20
292.6420681836992
 30
0.0
 11
70.61355757554128
 21
328.6420681836992
 31
0.0
 70
    32
  1
62-72
 71
     5
 42
72.0
 73
     0
 74
     0
 75
     0
  3
STANDARD
100
AcDbAlignedDimension
 13
154.4862592776398
 23
364.6420681836992
 33
0.0
 14
233.0386341954838
 24
292.6420681836992
 34
0.0
 50
90.0
100
AcDbRotatedDimension
  0
ARC
  5
1C2
330
2
100
AcDbEntity
  8
0
100
AcDbCircle
 10
227.9862592776401
 20
145.2805987220192
 30
0.0
 40
100.6358447211794
100
AcDbArc
 50
48.18154713361368
 51
131.8184528663863
  0
ARC
  5
1C3
330
2
100
AcDbEntity
  8
0
100
AcDbCircle
 10
227.9862592776401
 20
145.2805987220192
 30
0.0
 40
100.6358447211794
100
AcDbArc
 50
138.1815471336141
 51
221.8184528663859
  0
ARC
  5
1C4
330
2
100
AcDbEntity
  8
0
100
AcDbCircle
 10
227.9862592776401
 20
145.2805987220192
 30
0.0
 40
100.6358447211794
100
AcDbArc
 50
228.1815471336142
 51
311.8184528663858
  0
DIMENSION
  5
1C5
330
2
100
AcDbEntity
  8
BEMASS
100
AcDbDimension
280
     0
  2
*D6
 10
88.51350930280364
 20
364.6420681836992
 30
0.0
 11
84.01350930280358
 21
354.6420681836999
 31
0.0
 70
    32
  1
10-20
 71
     5
 42
19.9999999999988
 73
     0
 74
     0
 75
     0
  3
STANDARD
100
AcDbAlignedDimension
 13
110.1718725308467
 23
344.6420681837004
 33
0.0
 14
154.4862592776398
 24
364.6420681836992
 34
0.0
 50
90.0
100
AcDbRotatedDimension
  0
DIMENSION
  5
1D3
330
2
100
AcDbEntity
  8
BEMASS
100
AcDbDimension
280
     0
  2
*D7
 10
333.152167794751
 20
279.2906641465452
 30
0.0
 11
280.5692135361955
 21
283.7906641465452
 31
0.0
 70
    32
  1
105
 71
     5
 42
105.1659085171111
 73
     0
 74
     0
 75
     0
  3
STANDARD
100
AcDbAlignedDimension
 13
227.9862592776399
 23
292.6420681836992
 33
0.0
 14
333.152167794751
 24
306.4772555312352
 34
0.0
100
AcDbRotatedDimension
  0
MTEXT
  5
1E0
330
2
100
AcDbEntity
  8
BEMASS
100
AcDbMText
 10
-1185.264184191781
 20
919.7655015283467
 30
0.0
 40
5.0
 41
0.0
 46
0.0
 71
     9
 72
     1
  1

 73
     1
 44
1.0
  0
HATCH
  5
1FB
330
2
100
AcDbEntity
  8
BEMASS
100
AcDbHatch
 10
0.0
 20
0.0
 30
0.0
210
0.0
220
0.0
230
1.0
  2
ANSI31
 70
     0
 71
     0
 91
        2
 92
        7
 72
     0
 73
     1
 93
        4
 10
282.9862592776428
 20
348.9244551396565
 10
281.9862592776429
 20
348.9244551396565
 10
281.9862592776429
 20
333.9296300825209
 10
282.986259277644
 20
333.9296300825209
 97
        0
 92
        7
 72
     0
 73
     1
 93
        5
 10
173.9862592776401
 20
348.9296300825218
 10
172.9862592776401
 20
348.9296300825217
 10
172.9862592776401
 20
348.9244551396571
 10
172.98625927764
 20
333.9296300825214
 10
173.9862592776401
 20
333.9296300825215
 97
        0
 75
     0
 76
     1
 52
90.0
 41
10.0
 77
     0
 78
     1
 53
135.0
 43
878.8393496005173
 44
-602.1486673254944
 45
-0.8838834764831844
 46
-0.8838834764831842
 79
     0
 47
0.119113110877487
 98
        2
 10
282.5857662776723
 20
343.0632098058501
 10
173.9073974525715
 20
341.5147396667673
  0
LINE
  5
40B
102
{ACAD_REACTORS
330
430
102
}
330
2
100
AcDbEntity
  8
0
100
AcDbLine
 10
152.9862592776396
 20
358.6420681836992
 30
0.0
 11
153.9862592776398
 21
358.6420681836992
 31
0.0
  0
LINE
  5
40C
330
2
100
AcDbEntity
  8
0
100
AcDbLine
 10
153.9862592776398
 20
358.6420681836992
 30
0.0
 11
166.2626742546365
 21
358.6420681836992
 31
0.0
  0
LINE
  5
40D
102
{ACAD_REACTORS
330
44C
102
}
330
2
100
AcDbEntity
  8
SICHTBAR
100
AcDbLine
 10
302.9862592776406
 20
358.6420681836989
 30
0.0
 11
301.9862592776403
 21
358.6420681836989
 31
0.0
  0
LINE
  5
40E
330
2
100
AcDbEntity
  8
SICHTBAR
100
AcDbLine
 10
301.9862592776403
 20
358.6420681836989
 30
0.0
 11
289.7098443006438
 21
358.6420681836989
 31
0.0
  0
LINE
  5
40F
102
{ACAD_REACTORS
330
44C
102
}
330
2
100
AcDbEntity
  8
SICHTBAR
100
AcDbLine
 10
297.4862592776403
 20
364.6420681836989
 30
0.0
 11
301.4862592776403
 21
364.6420681836989
 31
0.0
  0
LINE
  5
410
102
{ACAD_REACTORS
330
430
102
}
330
2
100
AcDbEntity
  8
SICHTBAR
100
AcDbLine
 10
154.4862592776398
 20
364.6420681836992
 30
0.0
 11
158.4862592776401
 21
364.6420681836992
 31
0.0
  0
LINE
  5
411
330
2
100
AcDbEntity
  8
SICHTBAR
100
AcDbLine
 10
164.0652051465881
 20
361.6420681836992
 30
0.0
 11
167.9862592776403
 21
361.6420681836992
 31
0.0
  0
LINE
  5
412
330
2
100
AcDbEntity
  8
SICHTBAR
100
AcDbLine
 10
291.9073134086921
 20
361.6420681836988
 30
0.0
 11
287.9862592776411
 21
361.6420681836988
 31
0.0
  0
HATCH
  5
430
330
2
100
AcDbEntity
  8
BEMASS
100
AcDbHatch
 10
0.0
 20
0.0
 30
0.0
210
0.0
220
0.0
230
1.0
  2
ANSI31
 70
     0
 71
     1
 91
        1
 92
        7
 72
     1
 73
     1
 93
       24
 10
153.9862592776401
 20
363.1420681836992
 42
-0.4142135623730951
 10
154.4862592776401
 20
363.6420681836991
 42
0.0
 10
158.4862592776401
 20
363.6420681836991
 42
-0.4142135623730951
 10
158.9862592776401
 20
363.1420681836992
 42
0.0
 10
158.9862592776401
 20
362.1420681836992
 42
0.4142135623730951
 10
160.4862592776401
 20
360.6420681836992
 42
0.0
 10
164.0652051465881
 20
360.6420681836992
 42
-0.2168362746294276
 10
164.8191999781003
 20
360.2989485335751
 42
0.0
 10
172.7402541091523
 20
351.2068301956322
 42
-0.1811105659320764
 10
172.9862592776401
 20
350.5499498457565
 42
0.0
 10
172.9862592776401
 20
348.9296300825217
 42
0.0
 10
173.9862592776401
 20
348.9296300825217
 42
0.0
 10
173.9862592776401
 20
350.5499498457564
 42
0.1811105659321182
 10
173.4942489406644
 20
351.863710545508
 42
0.0
 10
165.5731948096122
 20
360.955828883451
 42
0.2168362746294161
 10
164.065205146588
 20
361.6420681836992
 42
0.0
 10
160.4862592776401
 20
361.6420681836992
 42
-0.4142135623730951
 10
159.9862592776401
 20
362.1420681836992
 42
0.0
 10
159.9862592776401
 20
363.1420681836992
 42
0.4142135623730951
 10
158.4862592776401
 20
364.6420681836992
 42
0.0
 10
154.4862592776398
 20
364.6420681836992
 42
0.4142135623730841
 10
152.9862592776398
 20
363.1420681836992
 42
0.0
 10
152.9862592776396
 20
358.6420681836992
 42
0.0
 10
153.9862592776398
 20
358.6420681836992
 42
0.0
 97
       24
330
5E
330
82
330
5C
330
6A
330
6C
330
68
330
62
330
7F
330
7D
330
7C
330
42
330
7A
330
7B
330
7E
330
64
330
63
330
6D
330
6B
330
5D
330
410
330
5F
330
6E
330
40B
330
69
 75
     0
 76
     1
 52
90.0
 41
10.0
 77
     0
 78
     1
 53
135.0
 43
0.0
 44
0.0
 45
-0.8838834764831844
 46
-0.8838834764831842
 79
     0
 47
0.0722345789253116
 98
        1
 10
153.614413143169
 20
361.5432261165318
  0
HATCH
  5
44C
330
2
100
AcDbEntity
  8
BEMASS
100
AcDbHatch
 10
0.0
 20
0.0
 30
0.0
210
0.0
220
0.0
230
1.0
  2
ANSI31
 70
     0
 71
     1
 91
        1
 92
        7
 72
     1
 73
     1
 93
       24
 10
282.4782696146158
 20
351.863710545508
 42
0.1811105659321167
 10
281.9862592776401
 20
350.5499498457564
 42
0.0
 10
281.9862592776401
 20
348.9244551396566
 42
0.0
 10
282.9862592776401
 20
348.9244551396566
 42
0.0
 10
282.9862592776401
 20
350.5499498457559
 42
-0.1811105659321057
 10
283.2322644461278
 20
351.2068301956317
 42
0.0
 10
291.15331857718
 20
360.298948533575
 42
-0.2168362746293769
 10
291.907313408692
 20
360.6420681836989
 42
0.0
 10
295.4862592776403
 20
360.6420681836989
 42
0.4142135623730951
 10
296.9862592776403
 20
362.142068183699
 42
0.0
 10
296.9862592776403
 20
363.1420681836989
 42
-0.4142135623730951
 10
297.4862592776403
 20
363.6420681836989
 42
0.0
 10
301.4862592776403
 20
363.6420681836989
 42
-0.4142135623730951
 10
301.9862592776403
 20
363.1420681836989
 42
0.0
 10
301.9862592776403
 20
358.6420681836989
 42
0.0
 10
302.9862592776405
 20
358.6420681836989
 42
0.0
 10
302.9862592776404
 20
363.1420681836989
 42
0.4142135623730951
 10
301.4862592776403
 20
364.6420681836989
 42
0.0
 10
297.4862592776403
 20
364.6420681836989
 42
0.4142135623730951
 10
295.9862592776403
 20
363.1420681836989
 42
0.0
 10
295.9862592776403
 20
362.142068183699
 42
-0.4142135623730951
 10
295.4862592776403
 20
361.6420681836989
 42
0.0
 10
291.9073134086921
 20
361.6420681836989
 42
0.2168362746294161
 10
290.3993237456679
 20
360.9558288834507
 42
0.0
 97
       24
330
B6
330
B2
330
BF
330
BE
330
9D
330
C4
330
9F
330
BC
330
40D
330
BB
330
9E
330
40F
330
A0
330
BD
330
C0
330
B3
330
B7
330
92
330
98
330
9C
330
3D
330
B8
330
B9
330
BA
 75
     0
 76
     1
 52
90.0
 41
10.0
 77
     0
 78
     1
 53
135.0
 43
0.0
 44
0.0
 45
-0.8838834764831844
 46
-0.8838834764831842
 79
     0
 47
0.1268996959570703
 98
        1
 10
287.5806952807541
 20
357.0088945462801
  0
VIEWPORT
  5
330
330
32F
100
AcDbEntity
 67
     1
  8
0
100
AcDbViewport
 10
208.5
 20
172.772378516624
 30
0.0
 40
417.0
 41
345.5447570332481
 68
     1
 69
     1
 12
208.5
 22
172.772378516624
 13
0.0
 23
0.0
 14
10.0
 24
10.0
 15
10.0
 25
10.0
 16
0.0
 26
0.0
 36
1.0
 17
0.0
 27
0.0
 37
0.0
 42
50.0
 43
0.0
 44
0.0
 45
345.5447570332481
 50
0.0
 51
0.0
 72
   100
 90
    32800
  1

281
     0
 71
     1
 74
     0
110
0.0
120
0.0
130
0.0
111
1.0
121
0.0
131
0.0
112
0.0
122
1.0
132
0.0
 79
     0
146
0.0
170
     0
 61
     5
348
46F
292
     1
282
     1
141
0.0
142
0.0
 63
   250
421
  3355443
1001
GENIUS_GENSCREG_15
1000
PF
1040
1.0
1000
DF
1040
1.0
1000
MIN
1011
0.0
1021
0.0
1031
0.0
1000
MAX
1011
417.0
1021
345.5447570332481
1031
0.0
1000
FLAGS
1070
     4
1001
GENIUS_GENOBJ-N-SDF_13
1002
{
1000
OWNER
1000
GEN
1002
}
1001
GENIUS_GENODEF_13
1002
{
1000
HIER
1070
     0
1002
}
1002
{
1000
MANEDIT
1070
     0
1002
}
1002
{
1000
NOSEL
1070
     0
1002
}
1002
{
1000
BEHIND
1070
     0
1002
}
1002
{
1000
OTHER
1070
     0
1002
}
1002
{
1000
REACTOR
1002
}
  0
ENDSEC
  0
SECTION
  2
OBJECTS
  0
DICTIONARY
  5
7
330
0
100
AcDbDictionary
281
     1
  3
ACAD_CIP_PREVIOUS_PRODUCT_INFO
350
4A2
  3
ACAD_COLOR
350
349
  3
ACAD_DETAILVIEWSTYLE
350
49A
  3
ACAD_FIELDLIST
350
515
  3
ACAD_GROUP
350
343
  3
ACAD_LAYOUT
350
32E
  3
ACAD_MATERIAL
350
348
  3
ACAD_MLEADERSTYLE
350
496
  3
ACAD_MLINESTYLE
350
344
  3
ACAD_PLOTSETTINGS
350
345
  3
ACAD_PLOTSTYLENAME
350
6
  3
ACAD_SCALELIST
350
484
  3
ACAD_SECTIONVIEWSTYLE
350
498
  3
ACAD_TABLESTYLE
350
482
  3
ACAD_VISUALSTYLE
350
469
  3
ACDB_RECOMPOSE_DATA
350
558
  3
AcDbVariableDictionary
350
548
  3
AcmDictionary
350
4CF
  3
AMG
350
4A3
  3
AMGSNAPSETTINGS
350
523
  0
DICTIONARY
  5
52A
330
28
100
AcDbDictionary
280
     1
281
     1
  3
ADSK_XREC_LAYER_RECONCILED
360
52B
  0
DICTIONARY
  5
52C
330
C
100
AcDbDictionary
280
     1
281
     1
  3
ADSK_XREC_LAYER_RECONCILED
360
52D
  0
DICTIONARY
  5
52E
330
16
100
AcDbDictionary
280
     1
281
     1
  3
ADSK_XREC_LAYER_RECONCILED
360
52F
  0
DICTIONARY
  5
530
330
F3
100
AcDbDictionary
280
     1
281
     1
  3
ADSK_XREC_LAYER_RECONCILED
360
531
  0
DICTIONARY
  5
532
330
4
100
AcDbDictionary
280
     1
281
     1
  3
ADSK_XREC_LAYER_RECONCILED
360
533
  0
DICTIONARY
  5
534
330
44
100
AcDbDictionary
280
     1
281
     1
  3
ADSK_XREC_LAYER_RECONCILED
360
535
  0
DICTIONARY
  5
536
330
E3
100
AcDbDictionary
280
     1
281
     1
  3
ADSK_XREC_LAYER_RECONCILED
360
537
  0
DICTIONARY
  5
538
330
208
100
AcDbDictionary
280
     1
281
     1
  3
ADSK_XREC_LAYER_RECONCILED
360
539
  0
DICTIONARY
  5
53A
330
20B
100
AcDbDictionary
280
     1
281
     1
  3
ADSK_XREC_LAYER_RECONCILED
360
53B
  0
DICTIONARY
  5
53C
330
280
100
AcDbDictionary
280
     1
281
     1
  3
ADSK_XREC_LAYER_RECONCILED
360
53D
  0
DICTIONARY
  5
53E
330
1E2
100
AcDbDictionary
280
     1
281
     1
  3
ADSK_XREC_LAYER_RECONCILED
360
53F
  0
DICTIONARY
  5
540
330
1E4
100
AcDbDictionary
280
     1
281
     1
  3
ADSK_XREC_LAYER_RECONCILED
360
541
  0
DICTIONARY
  5
542
330
259
100
AcDbDictionary
280
     1
281
     1
  3
ADSK_XREC_LAYER_RECONCILED
360
543
  0
DICTIONARY
  5
544
330
34C
100
AcDbDictionary
280
     1
281
     1
  3
ADSK_XREC_LAYER_RECONCILED
360
545
  0
DICTIONARY
  5
546
330
34D
100
AcDbDictionary
280
     1
281
     1
  3
ADSK_XREC_LAYER_RECONCILED
360
547
  0
XRECORD
  5
4A2
102
{ACAD_REACTORS
330
7
102
}
330
7
100
AcDbXrecord
280
     1
300
AMECH_PP
300
2017
300
AMECH_PP_F_S
  0
DICTIONARY
  5
349
102
{ACAD_REACTORS
330
7
102
}
330
7
100
AcDbDictionary
281
     1
  0
DICTIONARY
  5
49A
102
{ACAD_REACTORS
330
7
102
}
330
7
100
AcDbDictionary
281
     1
  3
Imperial24
350
49B
  0
FIELDLIST
  5
515
102
{ACAD_REACTORS
330
7
102
}
330
7
100
AcDbIdSet
 90
        4
330
513
330
514
330
516
330
517
100
AcDbFieldList
  0
DICTIONARY
  5
343
102
{ACAD_REACTORS
330
7
102
}
330
7
100
AcDbDictionary
281
     1
  0
DICTIONARY
  5
32E
102
{ACAD_REACTORS
330
7
102
}
330
7
100
AcDbDictionary
281
     1
  3
Layout1
350
335
  3
Model
350
32D
  0
DICTIONARY
  5
348
102
{ACAD_REACTORS
330
7
102
}
330
7
100
AcDbDictionary
281
     1
  3
ByBlock
350
459
  3
ByLayer
350
451
  3
Global
350
461
  0
DICTIONARY
  5
496
102
{ACAD_REACTORS
330
7
102
}
330
7
100
AcDbDictionary
281
     1
  3
Standard
350
497
  0
DICTIONARY
  5
344
102
{ACAD_REACTORS
330
7
102
}
330
7
100
AcDbDictionary
281
     1
  3
STANDARD
350
346
  0
DICTIONARY
  5
345
102
{ACAD_REACTORS
330
7
102
}
330
7
100
AcDbDictionary
281
     1
  0
ACDBDICTIONARYWDFLT
  5
6
102
{ACAD_REACTORS
330
7
102
}
330
7
100
AcDbDictionary
281
     1
  3
Normal
350
5
100
AcDbDictionaryWithDefault
340
5
  0
DICTIONARY
  5
484
102
{ACAD_REACTORS
330
7
102
}
330
7
100
AcDbDictionary
281
     1
  3
A0
350
485
  3
A1
350
486
  3
A2
350
487
  3
A3
350
488
  3
A4
350
489
  3
A5
350
48A
  3
A6
350
48B
  3
A7
350
48C
  3
A8
350
48D
  3
A9
350
48E
  3
B0
350
48F
  3
B1
350
490
  3
B2
350
491
  3
B3
350
492
  3
B4
350
493
  3
B5
350
494
  3
B6
350
495
  0
DICTIONARY
  5
498
102
{ACAD_REACTORS
330
7
102
}
330
7
100
AcDbDictionary
281
     1
  3
Imperial24
350
499
  0
DICTIONARY
  5
482
102
{ACAD_REACTORS
330
7
102
}
330
7
100
AcDbDictionary
281
     1
  3
Standard
350
483
  0
DICTIONARY
  5
469
102
{ACAD_REACTORS
330
7
102
}
330
7
100
AcDbDictionary
281
     1
  3
2dWireframe
350
46F
  3
Basic
350
46E
  3
Brighten
350
475
  3
ColorChange
350
479
  3
Conceptual
350
472
  3
Dim
350
474
  3
EdgeColorOff
350
481
  3
Facepattern
350
478
  3
Flat
350
46A
  3
FlatWithEdges
350
46B
  3
Gouraud
350
46C
  3
GouraudWithEdges
350
46D
  3
Hidden
350
471
  3
JitterOff
350
47F
  3
Linepattern
350
477
  3
OverhangOff
350
480
  3
Realistic
350
473
  3
Shaded
350
47E
  3
Shaded with edges
350
47D
  3
Shades of Gray
350
47A
  3
Sketchy
350
47B
  3
Thicken
350
476
  3
Wireframe
350
470
  3
X-Ray
350
47C
  0
XRECORD
  5
558
102
{ACAD_REACTORS
330
7
102
}
330
7
100
AcDbXrecord
280
     1
 90
        1
330
483
330
499
330
49B
  0
DICTIONARY
  5
548
102
{ACAD_REACTORS
330
7
102
}
330
7
100
AcDbDictionary
281
     1
  3
CANNOSCALE
350
54E
  3
CMLEADERSTYLE
350
54A
  3
CTABLESTYLE
350
549
  3
CVIEWDETAILSTYLE
350
54B
  3
CVIEWSECTIONSTYLE
350
54C
  3
LAYEREVAL
350
550
  3
LAYERNOTIFY
350
551
  3
LIGHTINGUNITS
350
54F
  3
MSLTSCALE
350
54D
  0
DICTIONARY
  5
4CF
102
{ACAD_REACTORS
330
7
102
}
330
7
100
AcDbDictionary
281
     1
  3
AcmStdDictionary
350
4D8
  0
DICTIONARY
  5
4A3
102
{ACAD_REACTORS
330
7
102
}
330
7
100
AcDbDictionary
281
     1
  0
DICTIONARY
  5
523
102
{ACAD_REACTORS
330
7
102
}
330
7
100
AcDbDictionary
281
     1
  0
XRECORD
  5
52B
102
{ACAD_REACTORS
330
52A
102
}
330
52A
100
AcDbXrecord
280
     1
290
     1
  0
XRECORD
  5
52D
102
{ACAD_REACTORS
330
52C
102
}
330
52C
100
AcDbXrecord
280
     1
290
     1
  0
XRECORD
  5
52F
102
{ACAD_REACTORS
330
52E
102
}
330
52E
100
AcDbXrecord
280
     1
290
     1
  0
XRECORD
  5
531
102
{ACAD_REACTORS
330
530
102
}
330
530
100
AcDbXrecord
280
     1
290
     1
  0
XRECORD
  5
533
102
{ACAD_REACTORS
330
532
102
}
330
532
100
AcDbXrecord
280
     1
290
     1
  0
XRECORD
  5
535
102
{ACAD_REACTORS
330
534
102
}
330
534
100
AcDbXrecord
280
     1
290
     1
  0
XRECORD
  5
537
102
{ACAD_REACTORS
330
536
102
}
330
536
100
AcDbXrecord
280
     1
290
     1
  0
XRECORD
  5
539
102
{ACAD_REACTORS
330
538
102
}
330
538
100
AcDbXrecord
280
     1
290
     1
  0
XRECORD
  5
53B
102
{ACAD_REACTORS
330
53A
102
}
330
53A
100
AcDbXrecord
280
     1
290
     1
  0
XRECORD
  5
53D
102
{ACAD_REACTORS
330
53C
102
}
330
53C
100
AcDbXrecord
280
     1
290
     1
  0
XRECORD
  5
53F
102
{ACAD_REACTORS
330
53E
102
}
330
53E
100
AcDbXrecord
280
     1
290
     1
  0
XRECORD
  5
541
102
{ACAD_REACTORS
330
540
102
}
330
540
100
AcDbXrecord
280
     1
290
     1
  0
XRECORD
  5
543
102
{ACAD_REACTORS
330
542
102
}
330
542
100
AcDbXrecord
280
     1
290
     1
  0
XRECORD
  5
545
102
{ACAD_REACTORS
330
544
102
}
330
544
100
AcDbXrecord
280
     1
290
     1
  0
XRECORD
  5
547
102
{ACAD_REACTORS
330
546
102
}
330
546
100
AcDbXrecord
280
     1
290
     1
  0
ACDBDETAILVIEWSTYLE
  5
49B
102
{ACAD_XDICTIONARY
360
556
102
}
102
{ACAD_REACTORS
330
49A
330
505
102
}
330
49A
100
AcDbModelDocViewStyle
 70
     0
  3
Imperial24
290
     0
100
AcDbDetailViewStyle
 70
     0
 71
     0
 90
        3
 71
     1
340
9
 62
   256
 40
0.24
340
0
 62
   256
 40
0.24
300

 40
0.36
280
     3
 71
     2
340
8
 90
       25
 62
   256
 71
     3
340
9
 62
   256
 40
0.24
 90
        1
 40
0.75
 90
        1
300
%<\AcVar ViewType \f "%tc1">% %<\AcVar ViewDetailId>%\PSCALE %<\AcVar ViewScale \f "%sn">%
 71
     4
340
8
 90
       25
 62
   256
340
8
 90
       25
 62
   256
280
     0
  0
LAYOUT
  5
335
102
{ACAD_REACTORS
330
32E
102
}
330
32E
100
AcDbPlotSettings
  1

  2
C:\Program Files\AutoCAD R14\plotters\DWF Classic.pc3
  4

  6

 40
0.0
 41
0.0
 42
0.0
 43
0.0
 44
0.0
 45
0.0
 46
0.0
 47
0.0
 48
0.0
 49
0.0
140
0.0
141
0.0
142
1.0
143
1.0
 70
   688
 72
     0
 73
     0
 74
     5
  7
monochrome.ctb
 75
    16
147
1.0
 76
     0
 77
     2
 78
   300
148
0.0
149
0.0
100
AcDbLayout
  1
Layout1
 70
     0
 71
     1
 10
0.0
 20
0.0
 11
417.0
 21
288.0
 12
0.0
 22
0.0
 32
0.0
 14
1.000000000000000E+20
 24
1.000000000000000E+20
 34
1.000000000000000E+20
 15
-1.000000000000000E+20
 25
-1.000000000000000E+20
 35
-1.000000000000000E+20
146
0.0
 13
0.0
 23
0.0
 33
0.0
 16
1.0
 26
0.0
 36
0.0
 17
0.0
 27
1.0
 37
0.0
 76
     0
330
32F
331
330
  0
LAYOUT
  5
32D
102
{ACAD_REACTORS
330
32E
102
}
330
32E
100
AcDbPlotSettings
  1

  2
\\ACO_CAD_PRV\HPLJ5000N
  4
A4
  6

 40
6.720416545867919
 41
6.720423221588134
 42
7.694076538085937
 43
4.011077880859375
 44
209.9733276367187
 45
296.9683227539062
 46
0.0
 47
0.0
 48
-873.6624992191943
 49
603.8793593376326
140
-279.6624992191944
141
1023.879359337632
142
1.0
143
2.148334480541278
 70
 11952
 72
     1
 73
     1
 74
     1
  7
monochrome.ctb
 75
     0
147
0.4654768654776921
 76
     0
 77
     2
 78
   300
148
0.1115265823291338
149
0.0620329257753838
100
AcDbLayout
  1
Model
 70
     1
 71
     0
 10
0.0
 20
0.0
 11
12.0
 21
9.0
 12
0.0
 22
0.0
 32
0.0
 14
0.0
 24
0.0
 34
0.0
 15
0.0
 25
0.0
 35
0.0
146
0.0
 13
0.0
 23
0.0
 33
0.0
 16
1.0
 26
0.0
 36
0.0
 17
0.0
 27
1.0
 37
0.0
 76
     0
330
2
331
44F
  0
MATERIAL
  5
459
102
{ACAD_XDICTIONARY
360
45A
102
}
102
{ACAD_REACTORS
330
348
102
}
330
348
100
AcDbMaterial
  1
ByBlock
 72
     0
 43
0.0208333333333333
 43
0.0
 43
0.0
 43
0.0
 43
0.0
 43
0.0208333333333333
 43
0.0
 43
0.0
 43
0.0
 43
0.0
 43
1.0
 43
0.0
 43
0.0
 43
0.0
 43
0.0
 43
1.0
 77
     0
 47
0.0208333333333333
 47
0.0
 47
0.0
 47
0.0
 47
0.0
 47
0.0208333333333333
 47
0.0
 47
0.0
 47
0.0
 47
0.0
 47
1.0
 47
0.0
 47
0.0
 47
0.0
 47
0.0
 47
1.0
171
     0
 49
0.0208333333333333
 49
0.0
 49
0.0
 49
0.0
 49
0.0
 49
0.0208333333333333
 49
0.0
 49
0.0
 49
0.0
 49
0.0
 49
1.0
 49
0.0
 49
0.0
 49
0.0
 49
0.0
 49
1.0
175
     0
142
0.0208333333333333
142
0.0
142
0.0
142
0.0
142
0.0
142
0.0208333333333333
142
0.0
142
0.0
142
0.0
142
0.0
142
1.0
142
0.0
142
0.0
142
0.0
142
0.0
142
1.0
179
     0
144
0.0208333333333333
144
0.0
144
0.0
144
0.0
144
0.0
144
0.0208333333333333
144
0.0
144
0.0
144
0.0
144
0.0
144
1.0
144
0.0
144
0.0
144
0.0
144
0.0
144
1.0
147
0.0208333333333333
147
0.0
147
0.0
147
0.0
147
0.0
147
0.0208333333333333
147
0.0
147
0.0
147
0.0
147
0.0
147
1.0
147
0.0
147
0.0
147
0.0
147
0.0
147
1.0
  0
MATERIAL
  5
451
102
{ACAD_XDICTIONARY
360
452
102
}
102
{ACAD_REACTORS
330
348
102
}
330
348
100
AcDbMaterial
  1
ByLayer
 72
     0
 43
0.0208333333333333
 43
0.0
 43
0.0
 43
0.0
 43
0.0
 43
0.0208333333333333
 43
0.0
 43
0.0
 43
0.0
 43
0.0
 43
1.0
 43
0.0
 43
0.0
 43
0.0
 43
0.0
 43
1.0
 77
     0
 47
0.0208333333333333
 47
0.0
 47
0.0
 47
0.0
 47
0.0
 47
0.0208333333333333
 47
0.0
 47
0.0
 47
0.0
 47
0.0
 47
1.0
 47
0.0
 47
0.0
 47
0.0
 47
0.0
 47
1.0
171
     0
 49
0.0208333333333333
 49
0.0
 49
0.0
 49
0.0
 49
0.0
 49
0.0208333333333333
 49
0.0
 49
0.0
 49
0.0
 49
0.0
 49
1.0
 49
0.0
 49
0.0
 49
0.0
 49
0.0
 49
1.0
175
     0
142
0.0208333333333333
142
0.0
142
0.0
142
0.0
142
0.0
142
0.0208333333333333
142
0.0
142
0.0
142
0.0
142
0.0
142
1.0
142
0.0
142
0.0
142
0.0
142
0.0
142
1.0
179
     0
144
0.0208333333333333
144
0.0
144
0.0
144
0.0
144
0.0
144
0.0208333333333333
144
0.0
144
0.0
144
0.0
144
0.0
144
1.0
144
0.0
144
0.0
144
0.0
144
0.0
144
1.0
147
0.0208333333333333
147
0.0
147
0.0
147
0.0
147
0.0
147
0.0208333333333333
147
0.0
147
0.0
147
0.0
147
0.0
147
1.0
147
0.0
147
0.0
147
0.0
147
0.0
147
1.0
  0
MATERIAL
  5
461
102
{ACAD_XDICTIONARY
360
462
102
}
102
{ACAD_REACTORS
330
348
102
}
330
348
100
AcDbMaterial
  1
Global
 72
     0
 43
0.0208333333333333
 43
0.0
 43
0.0
 43
0.0
 43
0.0
 43
0.0208333333333333
 43
0.0
 43
0.0
 43
0.0
 43
0.0
 43
1.0
 43
0.0
 43
0.0
 43
0.0
 43
0.0
 43
1.0
 77
     0
 47
0.0208333333333333
 47
0.0
 47
0.0
 47
0.0
 47
0.0
 47
0.0208333333333333
 47
0.0
 47
0.0
 47
0.0
 47
0.0
 47
1.0
 47
0.0
 47
0.0
 47
0.0
 47
0.0
 47
1.0
171
     0
 49
0.0208333333333333
 49
0.0
 49
0.0
 49
0.0
 49
0.0
 49
0.0208333333333333
 49
0.0
 49
0.0
 49
0.0
 49
0.0
 49
1.0
 49
0.0
 49
0.0
 49
0.0
 49
0.0
 49
1.0
175
     0
142
0.0208333333333333
142
0.0
142
0.0
142
0.0
142
0.0
142
0.0208333333333333
142
0.0
142
0.0
142
0.0
142
0.0
142
1.0
142
0.0
142
0.0
142
0.0
142
0.0
142
1.0
179
     0
144
0.0208333333333333
144
0.0
144
0.0
144
0.0
144
0.0
144
0.0208333333333333
144
0.0
144
0.0
144
0.0
144
0.0
144
1.0
144
0.0
144
0.0
144
0.0
144
0.0
144
1.0
147
0.0208333333333333
147
0.0
147
0.0
147
0.0
147
0.0
147
0.0208333333333333
147
0.0
147
0.0
147
0.0
147
0.0
147
1.0
147
0.0
147
0.0
147
0.0
147
0.0
147
1.0
  0
MLEADERSTYLE
  5
497
102
{ACAD_REACTORS
330
496
102
}
330
496
100
AcDbMLeaderStyle
179
     2
170
     2
171
     1
172
     0
 90
        2
 40
0.0
 41
0.0
173
     1
 91
-1056964608
340
33A
 92
       -2
290
     1
 42
0.09
291
     1
 43
0.36
  3
Standard
 44
0.18
300

342
9
174
     1
178
     6
175
     1
176
     0
 93
-1056964608
 45
0.18
292
     0
297
     0
 46
0.18
 94
-1056964608
 47
1.0
 49
1.0
140
1.0
293
     1
141
0.0
294
     1
177
     0
142
1.0
295
     1
296
     0
143
0.125
271
     0
272
     9
273
     9
298
     1
  0
MLINESTYLE
  5
346
102
{ACAD_REACTORS
330
344
102
}
330
344
100
AcDbMlineStyle
  2
STANDARD
 70
     0
  3

 62
   256
 51
90.0
 52
90.0
 71
     2
 49
0.5
 62
   256
  6
BYLAYER
 49
-0.5
 62
   256
  6
BYLAYER
  0
ACDBPLACEHOLDER
  5
5
102
{ACAD_REACTORS
330
6
102
}
330
6
  0
SCALE
  5
485
102
{ACAD_REACTORS
330
484
102
}
330
484
100
AcDbScale
 70
     0
300
1:1
140
1.0
141
1.0
290
     1
  0
SCALE
  5
486
102
{ACAD_REACTORS
330
484
102
}
330
484
100
AcDbScale
 70
     0
300
1/128" = 1'-0"
140
0.0078125
141
12.0
290
     0
  0
SCALE
  5
487
102
{ACAD_REACTORS
330
484
102
}
330
484
100
AcDbScale
 70
     0
300
1/64" = 1'-0"
140
0.015625
141
12.0
290
     0
  0
SCALE
  5
488
102
{ACAD_REACTORS
330
484
102
}
330
484
100
AcDbScale
 70
     0
300
1/32" = 1'-0"
140
0.03125
141
12.0
290
     0
  0
SCALE
  5
489
102
{ACAD_REACTORS
330
484
102
}
330
484
100
AcDbScale
 70
     0
300
1/16" = 1'-0"
140
0.0625
141
12.0
290
     0
  0
SCALE
  5
48A
102
{ACAD_REACTORS
330
484
102
}
330
484
100
AcDbScale
 70
     0
300
3/32" = 1'-0"
140
0.09375
141
12.0
290
     0
  0
SCALE
  5
48B
102
{ACAD_REACTORS
330
484
102
}
330
484
100
AcDbScale
 70
     0
300
1/8" = 1'-0"
140
0.125
141
12.0
290
     0
  0
SCALE
  5
48C
102
{ACAD_REACTORS
330
484
102
}
330
484
100
AcDbScale
 70
     0
300
3/16" = 1'-0"
140
0.1875
141
12.0
290
     0
  0
SCALE
  5
48D
102
{ACAD_REACTORS
330
484
102
}
330
484
100
AcDbScale
 70
     0
300
1/4" = 1'-0"
140
0.25
141
12.0
290
     0
  0
SCALE
  5
48E
102
{ACAD_REACTORS
330
484
102
}
330
484
100
AcDbScale
 70
     0
300
3/8" = 1'-0"
140
0.375
141
12.0
290
     0
  0
SCALE
  5
48F
102
{ACAD_REACTORS
330
484
102
}
330
484
100
AcDbScale
 70
     0
300
1/2" = 1'-0"
140
0.5
141
12.0
290
     0
  0
SCALE
  5
490
102
{ACAD_REACTORS
330
484
102
}
330
484
100
AcDbScale
 70
     0
300
3/4" = 1'-0"
140
0.75
141
12.0
290
     0
  0
SCALE
  5
491
102
{ACAD_REACTORS
330
484
102
}
330
484
100
AcDbScale
 70
     0
300
1" = 1'-0"
140
1.0
141
12.0
290
     0
  0
SCALE
  5
492
102
{ACAD_REACTORS
330
484
102
}
330
484
100
AcDbScale
 70
     0
300
1-1/2" = 1'-0"
140
1.5
141
12.0
290
     0
  0
SCALE
  5
493
102
{ACAD_REACTORS
330
484
102
}
330
484
100
AcDbScale
 70
     0
300
3" = 1'-0"
140
3.0
141
12.0
290
     0
  0
SCALE
  5
494
102
{ACAD_REACTORS
330
484
102
}
330
484
100
AcDbScale
 70
     0
300
6" = 1'-0"
140
6.0
141
12.0
290
     0
  0
SCALE
  5
495
102
{ACAD_REACTORS
330
484
102
}
330
484
100
AcDbScale
 70
     0
300
1'-0" = 1'-0"
140
12.0
141
12.0
290
     0
  0
ACDBSECTIONVIEWSTYLE
  5
499
102
{ACAD_XDICTIONARY
360
554
102
}
102
{ACAD_REACTORS
330
498
330
504
102
}
330
498
100
AcDbModelDocViewStyle
 70
     0
  3
Imperial24
290
     0
100
AcDbSectionViewStyle
 70
     0
 71
     0
 90
       78
 71
     1
340
9
 62
   256
 40
0.24
340
0
340
0
 62
   256
 40
0.24
300
I, O, Q, S, X, Z
 40
0.48
 90
        3
 40
0.18
 90
        1
 71
     2
340
8
 90
       25
 62
   256
340
8
 90
       50
 62
   256
 40
0.24
 40
0.0
 40
0.24
 71
     3
340
9
 62
   256
 40
0.24
 90
        1
 40
0.75
 90
        1
300
%<\AcVar ViewType \f "%tc1">% %<\AcVar ViewSectionStartId>%-%<\AcVar ViewSectionEndId>%\PSCALE %<\AcVar ViewScale \f "%sn">%
 71
     4
 62
   256
 62
   257
300
ANSI31
 40
1.0
 90
        0
290
     0
290
     0
 90
        6
 40
0.0
 40
1.570796326794896
 40
0.2617993877991494
 40
1.308996938995747
 40
-0.2617993877991494
 40
1.832595714594046
  0
TABLESTYLE
  5
483
102
{ACAD_XDICTIONARY
360
552
102
}
102
{ACAD_REACTORS
330
482
102
}
330
482
100
AcDbTableStyle
280
     0
  3
Standard
 70
     0
 71
     0
 40
0.06
 41
0.06
280
     0
281
     0
  7
STANDARD
140
0.18
170
     2
 62
     0
 63
     7
283
     0
 90
      512
 91
        0
  1

274
    -2
284
     1
 64
     0
275
    -2
285
     1
 65
     0
276
    -2
286
     1
 66
     0
277
    -2
287
     1
 67
     0
278
    -2
288
     1
 68
     0
279
    -2
289
     1
 69
     0
  7
STANDARD
140
0.25
170
     5
 62
     0
 63
     7
283
     0
 90
      512
 91
        0
  1

274
    -2
284
     1
 64
     0
275
    -2
285
     1
 65
     0
276
    -2
286
     1
 66
     0
277
    -2
287
     1
 67
     0
278
    -2
288
     1
 68
     0
279
    -2
289
     1
 69
     0
  7
STANDARD
140
0.18
170
     5
 62
     0
 63
     7
283
     0
 90
      512
 91
        0
  1

274
    -2
284
     1
 64
     0
275
    -2
285
     1
 65
     0
276
    -2
286
     1
 66
     0
277
    -2
287
     1
 67
     0
278
    -2
288
     1
 68
     0
279
    -2
289
     1
 69
     0
  0
VISUALSTYLE
  5
46F
102
{ACAD_REACTORS
330
469
102
}
330
469
100
AcDbVisualStyle
  2
2dWireframe
 70
     4
177
     3
291
     0
 70
    58
 90
        0
176
     1
 90
        2
176
     1
 90
        0
176
     1
 90
        0
176
     1
 40
0.6
176
     1
 40
30.0
176
     1
 62
     7
420
 16777215
176
     1
 90
        1
176
     1
 90
        4
176
     1
 62
     7
176
     1
 62
   257
176
     1
 90
        1
176
     1
 90
        1
176
     1
 40
1.0
176
     1
 90
        0
176
     1
 62
   257
176
     1
 40
1.0
176
     1
 90
        1
176
     1
 90
        6
176
     1
 90
        2
176
     1
 62
     7
176
     1
 90
        5
176
     1
 90
        0
176
     1
 90
        0
176
     1
290
     0
176
     1
 90
        1
176
     1
 40
0.0
176
     1
 90
        0
176
     1
290
     1
176
     1
290
     1
176
     1
290
     0
176
     1
290
     0
176
     1
290
     0
176
     1
290
     0
176
     1
290
     0
176
     1
290
     0
176
     1
290
     0
176
     1
 90
       50
176
     1
 40
0.0
176
     1
 40
1.0
176
     1
 90
        0
176
     1
 62
    18
420
        0
176
     1
 90
       50
176
     1
 90
        3
176
     1
 62
     5
420
      255
176
     1
290
     0
176
     1
 90
       50
176
     1
 90
       50
176
     1
 90
       50
176
     1
290
     0
176
     1
 90
       50
176
     1
 62
   256
176
     0
 40
1.0
176
     0
 90
        2
176
     1
  1
strokes_ogs.tif
176
     1
290
     0
176
     1
 40
1.0
176
     1
 40
1.0
176
     1
  0
VISUALSTYLE
  5
46E
102
{ACAD_REACTORS
330
469
102
}
330
469
100
AcDbVisualStyle
  2
Basic
 70
     7
177
     3
291
     1
 70
    58
 90
        1
176
     1
 90
        0
176
     1
 90
        1
176
     1
 90
        0
176
     1
 40
0.6
176
     1
 40
30.0
176
     1
 62
     7
420
 16777215
176
     1
 90
        0
176
     1
 90
        4
176
     1
 62
     7
176
     1
 62
   257
176
     1
 90
        1
176
     1
 90
        1
176
     1
 40
1.0
176
     1
 90
        8
176
     1
 62
     7
176
     1
 40
1.0
176
     1
 90
        1
176
     1
 90
        6
176
     1
 90
        2
176
     1
 62
     7
176
     1
 90
        5
176
     1
 90
        0
176
     1
 90
        0
176
     1
290
     0
176
     1
 90
        1
176
     1
 40
0.0
176
     1
 90
        0
176
     1
290
     0
176
     1
290
     1
176
     1
290
     1
176
     1
290
     0
176
     1
290
     0
176
     1
290
     0
176
     1
290
     0
176
     1
290
     0
176
     1
290
     0
176
     1
 90
       50
176
     1
 40
0.0
176
     1
 40
1.0
176
     1
 90
        0
176
     1
 62
    18
420
        0
176
     1
 90
       50
176
     1
 90
        3
176
     1
 62
     5
420
      255
176
     1
290
     0
176
     1
 90
       50
176
     1
 90
       50
176
     1
 90
       50
176
     1
290
     0
176
     1
 90
       50
176
     1
 62
   256
176
     0
 40
1.0
176
     0
 90
        2
176
     1
  1
strokes_ogs.tif
176
     1
290
     0
176
     1
 40
1.0
176
     1
 40
1.0
176
     1
  0
VISUALSTYLE
  5
475
102
{ACAD_REACTORS
330
469
102
}
330
469
100
AcDbVisualStyle
  2
Brighten
 70
    12
177
     3
291
     1
 70
    58
 90
        2
176
     1
 90
        2
176
     1
 90
        0
176
     1
 90
        0
176
     1
 40
0.6
176
     1
 40
30.0
176
     1
 62
     7
420
 16777215
176
     1
 90
        1
176
     1
 90
        4
176
     1
 62
     7
176
     1
 62
   257
176
     1
 90
        1
176
     1
 90
        1
176
     1
 40
1.0
176
     1
 90
        8
176
     1
 62
     7
176
     1
 40
1.0
176
     1
 90
        1
176
     1
 90
        6
176
     1
 90
        2
176
     1
 62
     7
176
     1
 90
        5
176
     1
 90
        0
176
     1
 90
        0
176
     1
290
     0
176
     1
 90
        1
176
     1
 40
50.0
176
     1
 90
        0
176
     1
290
     0
176
     1
290
     1
176
     1
290
     1
176
     1
290
     0
176
     1
290
     0
176
     1
290
     0
176
     1
290
     0
176
     1
290
     0
176
     1
290
     0
176
     1
 90
       50
176
     1
 40
0.0
176
     1
 40
1.0
176
     1
 90
        0
176
     1
 62
    18
420
        0
176
     1
 90
       50
176
     1
 90
        3
176
     1
 62
     5
420
      255
176
     1
290
     0
176
     1
 90
       50
176
     1
 90
       50
176
     1
 90
       50
176
     1
290
     0
176
     1
 90
       50
176
     1
 62
   256
176
     0
 40
1.0
176
     0
 90
        2
176
     1
  1
strokes_ogs.tif
176
     1
290
     0
176
     1
 40
1.0
176
     1
 40
1.0
176
     1
  0
VISUALSTYLE
  5
479
102
{ACAD_REACTORS
330
469
102
}
330
469
100
AcDbVisualStyle
  2
ColorChange
 70
    16
177
     3
291
     1
 70
    58
 90
        2
176
     1
 90
        2
176
     1
 90
        3
176
     1
 90
        0
176
     1
 40
0.6
176
     1
 40
30.0
176
     1
 62
     8
420
  8421504
176
     1
 90
        1
176
     1
 90
        4
176
     1
 62
     7
176
     1
 62
   257
176
     1
 90
        1
176
     1
 90
        1
176
     1
 40
1.0
176
     1
 90
        8
176
     1
 62
     8
420
  8421504
176
     1
 40
1.0
176
     1
 90
        1
176
     1
 90
        6
176
     1
 90
        2
176
     1
 62
     7
176
     1
 90
        5
176
     1
 90
        0
176
     1
 90
        0
176
     1
290
     0
176
     1
 90
        1
176
     1
 40
0.0
176
     1
 90
        0
176
     1
290
     0
176
     1
290
     1
176
     1
290
     1
176
     1
290
     0
176
     1
290
     0
176
     1
290
     0
176
     1
290
     0
176
     1
290
     0
176
     1
290
     0
176
     1
 90
       50
176
     1
 40
0.0
176
     1
 40
1.0
176
     1
 90
        0
176
     1
 62
    18
420
        0
176
     1
 90
       50
176
     1
 90
        3
176
     1
 62
     5
420
      255
176
     1
290
     0
176
     1
 90
       50
176
     1
 90
       50
176
     1
 90
       50
176
     1
290
     0
176
     1
 90
       50
176
     1
 62
   256
176
     0
 40
1.0
176
     0
 90
        2
176
     1
  1
strokes_ogs.tif
176
     1
290
     0
176
     1
 40
1.0
176
     1
 40
1.0
176
     1
  0
VISUALSTYLE
  5
472
102
{ACAD_REACTORS
330
469
102
}
330
469
100
AcDbVisualStyle
  2
Conceptual
 70
     9
177
     3
291
     0
 70
    58
 90
        3
176
     1
 90
        2
176
     1
 90
        0
176
     1
 90
        0
176
     1
 40
0.6
176
     1
 40
30.0
176
     1
 62
     7
420
 16777215
176
     1
 90
        2
176
     1
 90
        2
176
     1
 62
     7
176
     1
 62
   257
176
     1
 90
        1
176
     1
 90
        1
176
     1
 40
179.0
176
     1
 90
        8
176
     1
 62
     7
176
     1
 40
1.0
176
     1
 90
        1
176
     1
 90
        6
176
     1
 90
        2
176
     1
 62
     7
176
     1
 90
        3
176
     1
 90
        0
176
     1
 90
        0
176
     1
290
     0
176
     1
 90
        1
176
     1
 40
0.0
176
     1
 90
        0
176
     1
290
     0
176
     1
290
     1
176
     1
290
     1
176
     1
290
     0
176
     1
290
     0
176
     1
290
     0
176
     1
290
     0
176
     1
290
     0
176
     1
290
     0
176
     1
 90
       50
176
     1
 40
0.0
176
     1
 40
1.0
176
     1
 90
        0
176
     1
 62
    18
420
        0
176
     1
 90
       50
176
     1
 90
        3
176
     1
 62
     5
420
      255
176
     1
290
     0
176
     1
 90
       50
176
     1
 90
       50
176
     1
 90
       50
176
     1
290
     0
176
     1
 90
       50
176
     1
 62
   256
176
     0
 40
1.0
176
     0
 90
        2
176
     1
  1
strokes_ogs.tif
176
     1
290
     0
176
     1
 40
1.0
176
     1
 40
1.0
176
     1
  0
VISUALSTYLE
  5
474
102
{ACAD_REACTORS
330
469
102
}
330
469
100
AcDbVisualStyle
  2
Dim
 70
    11
177
     3
291
     1
 70
    58
 90
        2
176
     1
 90
        2
176
     1
 90
        0
176
     1
 90
        0
176
     1
 40
0.6
176
     1
 40
30.0
176
     1
 62
     7
420
 16777215
176
     1
 90
        1
176
     1
 90
        4
176
     1
 62
     7
176
     1
 62
   257
176
     1
 90
        1
176
     1
 90
        1
176
     1
 40
1.0
176
     1
 90
        8
176
     1
 62
     7
176
     1
 40
1.0
176
     1
 90
        1
176
     1
 90
        6
176
     1
 90
        2
176
     1
 62
     7
176
     1
 90
        5
176
     1
 90
        0
176
     1
 90
        0
176
     1
290
     0
176
     1
 90
        1
176
     1
 40
-50.0
176
     1
 90
        0
176
     1
290
     0
176
     1
290
     1
176
     1
290
     1
176
     1
290
     0
176
     1
290
     0
176
     1
290
     0
176
     1
290
     0
176
     1
290
     0
176
     1
290
     0
176
     1
 90
       50
176
     1
 40
0.0
176
     1
 40
1.0
176
     1
 90
        0
176
     1
 62
    18
420
        0
176
     1
 90
       50
176
     1
 90
        3
176
     1
 62
     5
420
      255
176
     1
290
     0
176
     1
 90
       50
176
     1
 90
       50
176
     1
 90
       50
176
     1
290
     0
176
     1
 90
       50
176
     1
 62
   256
176
     0
 40
1.0
176
     0
 90
        2
176
     1
  1
strokes_ogs.tif
176
     1
290
     0
176
     1
 40
1.0
176
     1
 40
1.0
176
     1
  0
VISUALSTYLE
  5
481
102
{ACAD_REACTORS
330
469
102
}
330
469
100
AcDbVisualStyle
  2
EdgeColorOff
 70
    22
177
     3
291
     1
 70
    58
 90
        2
176
     0
 90
        2
176
     0
 90
        0
176
     0
 90
        0
176
     0
 40
0.6
176
     0
 40
30.0
176
     0
 62
     7
420
 16777215
176
     0
 90
        1
176
     0
 90
        4
176
     0
 62
     7
176
     0
 62
   257
176
     0
 90
        1
176
     0
 90
        1
176
     0
 40
1.0
176
     0
 90
        8
176
     2
 62
     7
176
     0
 40
1.0
176
     0
 90
        1
176
     0
 90
        6
176
     0
 90
        2
176
     0
 62
     7
176
     0
 90
        5
176
     0
 90
        0
176
     0
 90
        0
176
     0
290
     0
176
     0
 90
        1
176
     0
 40
0.0
176
     0
 90
        0
176
     0
290
     0
176
     0
290
     1
176
     0
290
     1
176
     0
290
     0
176
     0
290
     0
176
     0
290
     0
176
     0
290
     0
176
     0
290
     0
176
     0
290
     0
176
     0
 90
       50
176
     0
 40
0.0
176
     0
 40
1.0
176
     0
 90
        0
176
     0
 62
    18
420
        0
176
     0
 90
       50
176
     0
 90
        3
176
     0
 62
     5
420
      255
176
     0
290
     0
176
     0
 90
       50
176
     0
 90
       50
176
     0
 90
       50
176
     0
290
     0
176
     0
 90
       50
176
     0
 62
   256
176
     0
 40
1.0
176
     0
 90
        2
176
     0
  1
strokes_ogs.tif
176
     0
290
     0
176
     0
 40
1.0
176
     0
 40
1.0
176
     0
  0
VISUALSTYLE
  5
478
102
{ACAD_REACTORS
330
469
102
}
330
469
100
AcDbVisualStyle
  2
Facepattern
 70
    15
177
     3
291
     1
 70
    58
 90
        2
176
     1
 90
        2
176
     1
 90
        0
176
     1
 90
        0
176
     1
 40
0.6
176
     1
 40
30.0
176
     1
 62
     7
420
 16777215
176
     1
 90
        1
176
     1
 90
        4
176
     1
 62
     7
176
     1
 62
   257
176
     1
 90
        1
176
     1
 90
        1
176
     1
 40
1.0
176
     1
 90
        8
176
     1
 62
     7
176
     1
 40
1.0
176
     1
 90
        1
176
     1
 90
        6
176
     1
 90
        2
176
     1
 62
     7
176
     1
 90
        5
176
     1
 90
        0
176
     1
 90
        0
176
     1
290
     0
176
     1
 90
        1
176
     1
 40
0.0
176
     1
 90
        0
176
     1
290
     0
176
     1
290
     1
176
     1
290
     1
176
     1
290
     0
176
     1
290
     0
176
     1
290
     0
176
     1
290
     0
176
     1
290
     0
176
     1
290
     0
176
     1
 90
       50
176
     1
 40
0.0
176
     1
 40
1.0
176
     1
 90
        0
176
     1
 62
    18
420
        0
176
     1
 90
       50
176
     1
 90
        3
176
     1
 62
     5
420
      255
176
     1
290
     0
176
     1
 90
       50
176
     1
 90
       50
176
     1
 90
       50
176
     1
290
     0
176
     1
 90
       50
176
     1
 62
   256
176
     0
 40
1.0
176
     0
 90
        2
176
     1
  1
strokes_ogs.tif
176
     1
290
     0
176
     1
 40
1.0
176
     1
 40
1.0
176
     1
  0
VISUALSTYLE
  5
46A
102
{ACAD_REACTORS
330
469
102
}
330
469
100
AcDbVisualStyle
  2
Flat
 70
     0
177
     3
291
     1
 70
    58
 90
        2
176
     1
 90
        1
176
     1
 90
        1
176
     1
 90
        2
176
     1
 40
0.6
176
     1
 40
30.0
176
     1
 62
     7
420
 16777215
176
     1
 90
        0
176
     1
 90
        0
176
     1
 62
     7
176
     1
 62
   257
176
     1
 90
        1
176
     1
 90
        1
176
     1
 40
1.0
176
     1
 90
        8
176
     1
 62
     7
176
     1
 40
1.0
176
     1
 90
        1
176
     1
 90
        6
176
     1
 90
        2
176
     1
 62
     7
176
     1
 90
        5
176
     1
 90
        0
176
     1
 90
        0
176
     1
290
     0
176
     1
 90
       13
176
     1
 40
0.0
176
     1
 90
        0
176
     1
290
     0
176
     1
290
     1
176
     1
290
     1
176
     1
290
     0
176
     1
290
     0
176
     1
290
     0
176
     1
290
     0
176
     1
290
     0
176
     1
290
     0
176
     1
 90
       50
176
     1
 40
0.0
176
     1
 40
1.0
176
     1
 90
        0
176
     1
 62
    18
420
        0
176
     1
 90
       50
176
     1
 90
        3
176
     1
 62
     5
420
      255
176
     1
290
     0
176
     1
 90
       50
176
     1
 90
       50
176
     1
 90
       50
176
     1
290
     0
176
     1
 90
       50
176
     1
 62
   256
176
     0
 40
1.0
176
     0
 90
        2
176
     1
  1
strokes_ogs.tif
176
     1
290
     0
176
     1
 40
1.0
176
     1
 40
1.0
176
     1
  0
VISUALSTYLE
  5
46B
102
{ACAD_REACTORS
330
469
102
}
330
469
100
AcDbVisualStyle
  2
FlatWithEdges
 70
     1
177
     3
291
     1
 70
    58
 90
        2
176
     1
 90
        1
176
     1
 90
        1
176
     1
 90
        2
176
     1
 40
0.6
176
     1
 40
30.0
176
     1
 62
     7
420
 16777215
176
     1
 90
        1
176
     1
 90
        0
176
     1
 62
     7
176
     1
 62
   257
176
     1
 90
        1
176
     1
 90
        1
176
     1
 40
1.0
176
     1
 90
        0
176
     1
 62
   257
176
     1
 40
1.0
176
     1
 90
        1
176
     1
 90
        6
176
     1
 90
        2
176
     1
 62
     7
176
     1
 90
        5
176
     1
 90
        0
176
     1
 90
        0
176
     1
290
     0
176
     1
 90
       13
176
     1
 40
0.0
176
     1
 90
        0
176
     1
290
     0
176
     1
290
     1
176
     1
290
     1
176
     1
290
     0
176
     1
290
     0
176
     1
290
     0
176
     1
290
     0
176
     1
290
     0
176
     1
290
     0
176
     1
 90
       50
176
     1
 40
0.0
176
     1
 40
1.0
176
     1
 90
        0
176
     1
 62
    18
420
        0
176
     1
 90
       50
176
     1
 90
        3
176
     1
 62
     5
420
      255
176
     1
290
     0
176
     1
 90
       50
176
     1
 90
       50
176
     1
 90
       50
176
     1
290
     0
176
     1
 90
       50
176
     1
 62
   256
176
     0
 40
1.0
176
     0
 90
        2
176
     1
  1
strokes_ogs.tif
176
     1
290
     0
176
     1
 40
1.0
176
     1
 40
1.0
176
     1
  0
VISUALSTYLE
  5
46C
102
{ACAD_REACTORS
330
469
102
}
330
469
100
AcDbVisualStyle
  2
Gouraud
 70
     2
177
     3
291
     1
 70
    58
 90
        2
176
     1
 90
        2
176
     1
 90
        1
176
     1
 90
        2
176
     1
 40
0.6
176
     1
 40
30.0
176
     1
 62
     7
420
 16777215
176
     1
 90
        0
176
     1
 90
        0
176
     1
 62
     7
176
     1
 62
   257
176
     1
 90
        1
176
     1
 90
        1
176
     1
 40
1.0
176
     1
 90
        0
176
     1
 62
     7
176
     1
 40
1.0
176
     1
 90
        1
176
     1
 90
        6
176
     1
 90
        2
176
     1
 62
     7
176
     1
 90
        5
176
     1
 90
        0
176
     1
 90
        0
176
     1
290
     0
176
     1
 90
       13
176
     1
 40
0.0
176
     1
 90
        0
176
     1
290
     0
176
     1
290
     1
176
     1
290
     1
176
     1
290
     0
176
     1
290
     0
176
     1
290
     0
176
     1
290
     0
176
     1
290
     0
176
     1
290
     0
176
     1
 90
       50
176
     1
 40
0.0
176
     1
 40
1.0
176
     1
 90
        0
176
     1
 62
    18
420
        0
176
     1
 90
       50
176
     1
 90
        3
176
     1
 62
     5
420
      255
176
     1
290
     0
176
     1
 90
       50
176
     1
 90
       50
176
     1
 90
       50
176
     1
290
     0
176
     1
 90
       50
176
     1
 62
   256
176
     0
 40
1.0
176
     0
 90
        2
176
     1
  1
strokes_ogs.tif
176
     1
290
     0
176
     1
 40
1.0
176
     1
 40
1.0
176
     1
  0
VISUALSTYLE
  5
46D
102
{ACAD_REACTORS
330
469
102
}
330
469
100
AcDbVisualStyle
  2
GouraudWithEdges
 70
     3
177
     3
291
     1
 70
    58
 90
        2
176
     1
 90
        2
176
     1
 90
        1
176
     1
 90
        2
176
     1
 40
0.6
176
     1
 40
30.0
176
     1
 62
     7
420
 16777215
176
     1
 90
        1
176
     1
 90
        0
176
     1
 62
     7
176
     1
 62
   257
176
     1
 90
        1
176
     1
 90
        1
176
     1
 40
1.0
176
     1
 90
        0
176
     1
 62
   257
176
     1
 40
1.0
176
     1
 90
        1
176
     1
 90
        6
176
     1
 90
        2
176
     1
 62
     7
176
     1
 90
        5
176
     1
 90
        0
176
     1
 90
        0
176
     1
290
     0
176
     1
 90
       13
176
     1
 40
0.0
176
     1
 90
        0
176
     1
290
     0
176
     1
290
     1
176
     1
290
     1
176
     1
290
     0
176
     1
290
     0
176
     1
290
     0
176
     1
290
     0
176
     1
290
     0
176
     1
290
     0
176
     1
 90
       50
176
     1
 40
0.0
176
     1
 40
1.0
176
     1
 90
        0
176
     1
 62
    18
420
        0
176
     1
 90
       50
176
     1
 90
        3
176
     1
 62
     5
420
      255
176
     1
290
     0
176
     1
 90
       50
176
     1
 90
       50
176
     1
 90
       50
176
     1
290
     0
176
     1
 90
       50
176
     1
 62
   256
176
     0
 40
1.0
176
     0
 90
        2
176
     1
  1
strokes_ogs.tif
176
     1
290
     0
176
     1
 40
1.0
176
     1
 40
1.0
176
     1
  0
VISUALSTYLE
  5
471
102
{ACAD_REACTORS
330
469
102
}
330
469
100
AcDbVisualStyle
  2
Hidden
 70
     6
177
     3
291
     0
 70
    58
 90
        1
176
     1
 90
        2
176
     1
 90
        2
176
     1
 90
        0
176
     1
 40
0.6
176
     1
 40
30.0
176
     1
 62
     7
420
 16777215
176
     1
 90
        2
176
     1
 90
        2
176
     1
 62
     7
176
     1
 62
   257
176
     1
 90
        2
176
     1
 90
        1
176
     1
 40
40.0
176
     1
 90
        0
176
     1
 62
   257
176
     1
 40
1.0
176
     1
 90
        1
176
     1
 90
        6
176
     1
 90
        2
176
     1
 62
     7
176
     1
 90
        3
176
     1
 90
        0
176
     1
 90
        0
176
     1
290
     0
176
     1
 90
        1
176
     1
 40
0.0
176
     1
 90
        0
176
     1
290
     0
176
     1
290
     1
176
     1
290
     1
176
     1
290
     0
176
     1
290
     0
176
     1
290
     0
176
     1
290
     0
176
     1
290
     0
176
     1
290
     0
176
     1
 90
       50
176
     1
 40
0.0
176
     1
 40
1.0
176
     1
 90
        0
176
     1
 62
    18
420
        0
176
     1
 90
       50
176
     1
 90
        3
176
     1
 62
     5
420
      255
176
     1
290
     0
176
     1
 90
       50
176
     1
 90
       50
176
     1
 90
       50
176
     1
290
     0
176
     1
 90
       50
176
     1
 62
   256
176
     0
 40
1.0
176
     0
 90
        2
176
     1
  1
strokes_ogs.tif
176
     1
290
     0
176
     1
 40
1.0
176
     1
 40
1.0
176
     1
  0
VISUALSTYLE
  5
47F
102
{ACAD_REACTORS
330
469
102
}
330
469
100
AcDbVisualStyle
  2
JitterOff
 70
    20
177
     3
291
     1
 70
    58
 90
        2
176
     0
 90
        2
176
     0
 90
        0
176
     0
 90
        0
176
     0
 40
0.6
176
     0
 40
30.0
176
     0
 62
     7
420
 16777215
176
     0
 90
        1
176
     0
 90
        4
176
     0
 62
     7
176
     0
 62
   257
176
     0
 90
        1
176
     0
 90
        1
176
     0
 40
1.0
176
     0
 90
       10
176
     2
 62
     7
176
     0
 40
1.0
176
     0
 90
        1
176
     0
 90
        6
176
     0
 90
        2
176
     0
 62
     7
176
     0
 90
        5
176
     0
 90
        0
176
     0
 90
        0
176
     0
290
     0
176
     0
 90
        1
176
     0
 40
0.0
176
     0
 90
        0
176
     0
290
     0
176
     0
290
     1
176
     0
290
     1
176
     0
290
     0
176
     0
290
     0
176
     0
290
     0
176
     0
290
     0
176
     0
290
     0
176
     0
290
     0
176
     0
 90
       50
176
     0
 40
0.0
176
     0
 40
1.0
176
     0
 90
        0
176
     0
 62
    18
420
        0
176
     0
 90
       50
176
     0
 90
        3
176
     0
 62
     5
420
      255
176
     0
290
     0
176
     0
 90
       50
176
     0
 90
       50
176
     0
 90
       50
176
     0
290
     0
176
     0
 90
       50
176
     0
 62
   256
176
     0
 40
1.0
176
     0
 90
        2
176
     0
  1
strokes_ogs.tif
176
     0
290
     0
176
     0
 40
1.0
176
     0
 40
1.0
176
     0
  0
VISUALSTYLE
  5
477
102
{ACAD_REACTORS
330
469
102
}
330
469
100
AcDbVisualStyle
  2
Linepattern
 70
    14
177
     3
291
     1
 70
    58
 90
        2
176
     1
 90
        2
176
     1
 90
        0
176
     1
 90
        0
176
     1
 40
0.6
176
     1
 40
30.0
176
     1
 62
     7
420
 16777215
176
     1
 90
        1
176
     1
 90
        4
176
     1
 62
     7
176
     1
 62
   257
176
     1
 90
        7
176
     1
 90
        7
176
     1
 40
1.0
176
     1
 90
        8
176
     1
 62
     7
176
     1
 40
1.0
176
     1
 90
        1
176
     1
 90
        6
176
     1
 90
        2
176
     1
 62
     7
176
     1
 90
        5
176
     1
 90
        0
176
     1
 90
        0
176
     1
290
     0
176
     1
 90
        1
176
     1
 40
0.0
176
     1
 90
        0
176
     1
290
     0
176
     1
290
     1
176
     1
290
     1
176
     1
290
     0
176
     1
290
     0
176
     1
290
     0
176
     1
290
     0
176
     1
290
     0
176
     1
290
     0
176
     1
 90
       50
176
     1
 40
0.0
176
     1
 40
1.0
176
     1
 90
        0
176
     1
 62
    18
420
        0
176
     1
 90
       50
176
     1
 90
        3
176
     1
 62
     5
420
      255
176
     1
290
     0
176
     1
 90
       50
176
     1
 90
       50
176
     1
 90
       50
176
     1
290
     0
176
     1
 90
       50
176
     1
 62
   256
176
     0
 40
1.0
176
     0
 90
        2
176
     1
  1
strokes_ogs.tif
176
     1
290
     0
176
     1
 40
1.0
176
     1
 40
1.0
176
     1
  0
VISUALSTYLE
  5
480
102
{ACAD_REACTORS
330
469
102
}
330
469
100
AcDbVisualStyle
  2
OverhangOff
 70
    21
177
     3
291
     1
 70
    58
 90
        2
176
     0
 90
        2
176
     0
 90
        0
176
     0
 90
        0
176
     0
 40
0.6
176
     0
 40
30.0
176
     0
 62
     7
420
 16777215
176
     0
 90
        1
176
     0
 90
        4
176
     0
 62
     7
176
     0
 62
   257
176
     0
 90
        1
176
     0
 90
        1
176
     0
 40
1.0
176
     0
 90
        9
176
     2
 62
     7
176
     0
 40
1.0
176
     0
 90
        1
176
     0
 90
        6
176
     0
 90
        2
176
     0
 62
     7
176
     0
 90
        5
176
     0
 90
        0
176
     0
 90
        0
176
     0
290
     0
176
     0
 90
        1
176
     0
 40
0.0
176
     0
 90
        0
176
     0
290
     0
176
     0
290
     1
176
     0
290
     1
176
     0
290
     0
176
     0
290
     0
176
     0
290
     0
176
     0
290
     0
176
     0
290
     0
176
     0
290
     0
176
     0
 90
       50
176
     0
 40
0.0
176
     0
 40
1.0
176
     0
 90
        0
176
     0
 62
    18
420
        0
176
     0
 90
       50
176
     0
 90
        3
176
     0
 62
     5
420
      255
176
     0
290
     0
176
     0
 90
       50
176
     0
 90
       50
176
     0
 90
       50
176
     0
290
     0
176
     0
 90
       50
176
     0
 62
   256
176
     0
 40
1.0
176
     0
 90
        2
176
     0
  1
strokes_ogs.tif
176
     0
290
     0
176
     0
 40
1.0
176
     0
 40
1.0
176
     0
  0
VISUALSTYLE
  5
473
102
{ACAD_REACTORS
330
469
102
}
330
469
100
AcDbVisualStyle
  2
Realistic
 70
     8
177
     3
291
     0
 70
    58
 90
        2
176
     1
 90
        3
176
     1
 90
        0
176
     1
 90
        2
176
     1
 40
0.6
176
     1
 40
30.0
176
     1
 62
     7
420
 16777215
176
     1
 90
        0
176
     1
 90
        0
176
     1
 62
     7
176
     1
 62
   257
176
     1
 90
        1
176
     1
 90
        1
176
     1
 40
1.0
176
     1
 90
        8
176
     1
 62
   257
176
     1
 40
1.0
176
     1
 90
        1
176
     1
 90
        6
176
     1
 90
        2
176
     1
 62
     7
176
     1
 90
        3
176
     1
 90
        0
176
     1
 90
        0
176
     1
290
     0
176
     1
 90
       13
176
     1
 40
0.0
176
     1
 90
        0
176
     1
290
     0
176
     1
290
     1
176
     1
290
     1
176
     1
290
     0
176
     1
290
     0
176
     1
290
     0
176
     1
290
     0
176
     1
290
     0
176
     1
290
     0
176
     1
 90
       50
176
     1
 40
0.0
176
     1
 40
1.0
176
     1
 90
        0
176
     1
 62
    18
420
        0
176
     1
 90
       50
176
     1
 90
        3
176
     1
 62
     5
420
      255
176
     1
290
     0
176
     1
 90
       50
176
     1
 90
       50
176
     1
 90
       50
176
     1
290
     0
176
     1
 90
       50
176
     1
 62
   256
176
     0
 40
1.0
176
     0
 90
        2
176
     1
  1
strokes_ogs.tif
176
     1
290
     0
176
     1
 40
1.0
176
     1
 40
1.0
176
     1
  0
VISUALSTYLE
  5
47E
102
{ACAD_REACTORS
330
469
102
}
330
469
100
AcDbVisualStyle
  2
Shaded
 70
    27
177
     3
291
     0
 70
    58
 90
        2
176
     1
 90
        2
176
     1
 90
        1
176
     1
 90
        2
176
     1
 40
0.6
176
     1
 40
30.0
176
     1
 62
     7
420
 16777215
176
     1
 90
        0
176
     1
 90
        4
176
     1
 62
     7
176
     1
 62
   257
176
     1
 90
        1
176
     1
 90
        1
176
     1
 40
1.0
176
     1
 90
        8
176
     1
 62
   257
176
     1
 40
1.0
176
     1
 90
        1
176
     1
 90
        6
176
     1
 90
        2
176
     1
 62
     8
420
  7895160
176
     1
 90
        3
176
     1
 90
        0
176
     1
 90
        0
176
     1
290
     0
176
     1
 90
        5
176
     1
 40
0.0
176
     1
 90
        0
176
     1
290
     0
176
     1
290
     1
176
     1
290
     1
176
     1
290
     0
176
     1
290
     0
176
     1
290
     0
176
     1
290
     0
176
     1
290
     0
176
     1
290
     0
176
     1
 90
       50
176
     1
 40
0.0
176
     1
 40
1.0
176
     1
 90
        0
176
     1
 62
    18
420
        0
176
     1
 90
       50
176
     1
 90
        3
176
     1
 62
     5
420
      255
176
     1
290
     0
176
     1
 90
       50
176
     1
 90
       50
176
     1
 90
       50
176
     1
290
     0
176
     1
 90
       50
176
     1
 62
   256
176
     0
 40
1.0
176
     0
 90
        2
176
     1
  1
strokes_ogs.tif
176
     1
290
     0
176
     1
 40
1.0
176
     1
 40
1.0
176
     1
  0
VISUALSTYLE
  5
47D
102
{ACAD_REACTORS
330
469
102
}
330
469
100
AcDbVisualStyle
  2
Shaded with edges
 70
    26
177
     3
291
     0
 70
    58
 90
        2
176
     1
 90
        2
176
     1
 90
        1
176
     1
 90
        2
176
     1
 40
0.6
176
     1
 40
30.0
176
     1
 62
     7
420
 16777215
176
     1
 90
        1
176
     1
 90
        2
176
     1
 62
     7
176
     1
 62
   257
176
     1
 90
        2
176
     1
 90
        1
176
     1
 40
1.0
176
     1
 90
        8
176
     1
 62
   257
176
     1
 40
1.0
176
     1
 90
        1
176
     1
 90
        6
176
     1
 90
        2
176
     1
 62
     7
176
     1
 90
        3
176
     1
 90
        0
176
     1
 90
        0
176
     1
290
     0
176
     1
 90
        5
176
     1
 40
0.0
176
     1
 90
        0
176
     1
290
     0
176
     1
290
     1
176
     1
290
     1
176
     1
290
     0
176
     1
290
     0
176
     1
290
     0
176
     1
290
     0
176
     1
290
     0
176
     1
290
     0
176
     1
 90
       50
176
     1
 40
0.0
176
     1
 40
1.0
176
     1
 90
        0
176
     1
 62
    18
420
        0
176
     1
 90
       50
176
     1
 90
        3
176
     1
 62
     5
420
      255
176
     1
290
     0
176
     1
 90
       50
176
     1
 90
       50
176
     1
 90
       50
176
     1
290
     0
176
     1
 90
       50
176
     1
 62
   256
176
     0
 40
1.0
176
     0
 90
        2
176
     1
  1
strokes_ogs.tif
176
     1
290
     0
176
     1
 40
1.0
176
     1
 40
1.0
176
     1
  0
VISUALSTYLE
  5
47A
102
{ACAD_REACTORS
330
469
102
}
330
469
100
AcDbVisualStyle
  2
Shades of Gray
 70
    23
177
     3
291
     0
 70
    58
 90
        2
176
     1
 90
        2
176
     1
 90
        3
176
     1
 90
        0
176
     1
 40
0.6
176
     1
 40
30.0
176
     1
 62
     7
420
 16777215
176
     1
 90
        2
176
     1
 90
        2
176
     1
 62
     7
176
     1
 62
     7
176
     1
 90
        1
176
     1
 90
        1
176
     1
 40
40.0
176
     1
 90
        8
176
     1
 62
     7
176
     1
 40
1.0
176
     1
 90
        1
176
     1
 90
        6
176
     1
 90
        2
176
     1
 62
     7
176
     1
 90
        3
176
     1
 90
        0
176
     1
 90
        0
176
     1
290
     0
176
     1
 90
        1
176
     1
 40
0.0
176
     1
 90
        0
176
     1
290
     0
176
     1
290
     1
176
     1
290
     1
176
     1
290
     0
176
     1
290
     0
176
     1
290
     0
176
     1
290
     0
176
     1
290
     0
176
     1
290
     0
176
     1
 90
       50
176
     1
 40
0.0
176
     1
 40
1.0
176
     1
 90
        0
176
     1
 62
    18
420
        0
176
     1
 90
       50
176
     1
 90
        3
176
     1
 62
     5
420
      255
176
     1
290
     0
176
     1
 90
       50
176
     1
 90
       50
176
     1
 90
       50
176
     1
290
     0
176
     1
 90
       50
176
     1
 62
   256
176
     0
 40
1.0
176
     0
 90
        2
176
     1
  1
strokes_ogs.tif
176
     1
290
     0
176
     1
 40
1.0
176
     1
 40
1.0
176
     1
  0
VISUALSTYLE
  5
47B
102
{ACAD_REACTORS
330
469
102
}
330
469
100
AcDbVisualStyle
  2
Sketchy
 70
    24
177
     3
291
     0
 70
    58
 90
        1
176
     1
 90
        2
176
     1
 90
        2
176
     1
 90
        0
176
     1
 40
0.6
176
     1
 40
30.0
176
     1
 62
     7
420
 16777215
176
     1
 90
        2
176
     1
 90
        2
176
     1
 62
     7
176
     1
 62
     7
176
     1
 90
        1
176
     1
 90
        1
176
     1
 40
40.0
176
     1
 90
       11
176
     1
 62
     7
176
     1
 40
1.0
176
     1
 90
        1
176
     1
 90
        6
176
     1
 90
        2
176
     1
 62
     7
176
     1
 90
        6
176
     1
 90
        0
176
     1
 90
        0
176
     1
290
     0
176
     1
 90
        1
176
     1
 40
0.0
176
     1
 90
        0
176
     1
290
     0
176
     1
290
     1
176
     1
290
     1
176
     1
290
     0
176
     1
290
     0
176
     1
290
     0
176
     1
290
     0
176
     1
290
     0
176
     1
290
     0
176
     1
 90
       50
176
     1
 40
0.0
176
     1
 40
1.0
176
     1
 90
        0
176
     1
 62
    18
420
        0
176
     1
 90
       50
176
     1
 90
        3
176
     1
 62
     5
420
      255
176
     1
290
     0
176
     1
 90
       50
176
     1
 90
       50
176
     1
 90
       50
176
     1
290
     0
176
     1
 90
       50
176
     1
 62
   256
176
     0
 40
1.0
176
     0
 90
        2
176
     1
  1
strokes_ogs.tif
176
     1
290
     0
176
     1
 40
1.0
176
     1
 40
1.0
176
     1
  0
VISUALSTYLE
  5
476
102
{ACAD_REACTORS
330
469
102
}
330
469
100
AcDbVisualStyle
  2
Thicken
 70
    13
177
     3
291
     1
 70
    58
 90
        2
176
     1
 90
        2
176
     1
 90
        0
176
     1
 90
        0
176
     1
 40
0.6
176
     1
 40
30.0
176
     1
 62
     7
420
 16777215
176
     1
 90
        1
176
     1
 90
        4
176
     1
 62
     7
176
     1
 62
   257
176
     1
 90
        1
176
     1
 90
        1
176
     1
 40
1.0
176
     1
 90
       12
176
     1
 62
     7
176
     1
 40
1.0
176
     1
 90
        1
176
     1
 90
        6
176
     1
 90
        2
176
     1
 62
     7
176
     1
 90
        5
176
     1
 90
        0
176
     1
 90
        0
176
     1
290
     0
176
     1
 90
        1
176
     1
 40
0.0
176
     1
 90
        0
176
     1
290
     0
176
     1
290
     1
176
     1
290
     1
176
     1
290
     0
176
     1
290
     0
176
     1
290
     0
176
     1
290
     0
176
     1
290
     0
176
     1
290
     0
176
     1
 90
       50
176
     1
 40
0.0
176
     1
 40
1.0
176
     1
 90
        0
176
     1
 62
    18
420
        0
176
     1
 90
       50
176
     1
 90
        3
176
     1
 62
     5
420
      255
176
     1
290
     0
176
     1
 90
       50
176
     1
 90
       50
176
     1
 90
       50
176
     1
290
     0
176
     1
 90
       50
176
     1
 62
   256
176
     0
 40
1.0
176
     0
 90
        2
176
     1
  1
strokes_ogs.tif
176
     1
290
     0
176
     1
 40
1.0
176
     1
 40
1.0
176
     1
  0
VISUALSTYLE
  5
470
102
{ACAD_REACTORS
330
469
102
}
330
469
100
AcDbVisualStyle
  2
Wireframe
 70
     5
177
     3
291
     0
 70
    58
 90
        0
176
     1
 90
        2
176
     1
 90
        0
176
     1
 90
        0
176
     1
 40
0.6
176
     1
 40
30.0
176
     1
 62
     7
420
 16777215
176
     1
 90
        1
176
     1
 90
        4
176
     1
 62
     7
176
     1
 62
   257
176
     1
 90
        1
176
     1
 90
        1
176
     1
 40
1.0
176
     1
 90
        0
176
     1
 62
   257
176
     1
 40
1.0
176
     1
 90
        1
176
     1
 90
        6
176
     1
 90
        2
176
     1
 62
     7
176
     1
 90
        3
176
     1
 90
        0
176
     1
 90
        0
176
     1
290
     0
176
     1
 90
        1
176
     1
 40
0.0
176
     1
 90
        0
176
     1
290
     0
176
     1
290
     1
176
     1
290
     1
176
     1
290
     0
176
     1
290
     0
176
     1
290
     0
176
     1
290
     0
176
     1
290
     0
176
     1
290
     0
176
     1
 90
       50
176
     1
 40
0.0
176
     1
 40
1.0
176
     1
 90
        0
176
     1
 62
    18
420
        0
176
     1
 90
       50
176
     1
 90
        3
176
     1
 62
     5
420
      255
176
     1
290
     0
176
     1
 90
       50
176
     1
 90
       50
176
     1
 90
       50
176
     1
290
     0
176
     1
 90
       50
176
     1
 62
   256
176
     0
 40
1.0
176
     0
 90
        2
176
     1
  1
strokes_ogs.tif
176
     1
290
     0
176
     1
 40
1.0
176
     1
 40
1.0
176
     1
  0
VISUALSTYLE
  5
47C
102
{ACAD_REACTORS
330
469
102
}
330
469
100
AcDbVisualStyle
  2
X-Ray
 70
    25
177
     3
291
     0
 70
    58
 90
        2
176
     1
 90
        2
176
     1
 90
        1
176
     1
 90
        1
176
     1
 40
0.5
176
     1
 40
30.0
176
     1
 62
     7
420
 16777215
176
     1
 90
        1
176
     1
 90
        0
176
     1
 62
     7
176
     1
 62
   257
176
     1
 90
        1
176
     1
 90
        1
176
     1
 40
1.0
176
     1
 90
        8
176
     1
 62
     7
176
     1
 40
1.0
176
     1
 90
        1
176
     1
 90
        6
176
     1
 90
        2
176
     1
 62
     7
176
     1
 90
        3
176
     1
 90
        0
176
     1
 90
        0
176
     1
290
     0
176
     1
 90
       13
176
     1
 40
0.0
176
     1
 90
        0
176
     1
290
     0
176
     1
290
     1
176
     1
290
     1
176
     1
290
     0
176
     1
290
     0
176
     1
290
     0
176
     1
290
     0
176
     1
290
     0
176
     1
290
     0
176
     1
 90
       50
176
     1
 40
0.0
176
     1
 40
1.0
176
     1
 90
        0
176
     1
 62
    18
420
        0
176
     1
 90
       50
176
     1
 90
        3
176
     1
 62
     5
420
      255
176
     1
290
     0
176
     1
 90
       50
176
     1
 90
       50
176
     1
 90
       50
176
     1
290
     0
176
     1
 90
       50
176
     1
 62
   256
176
     0
 40
1.0
176
     0
 90
        2
176
     1
  1
strokes_ogs.tif
176
     1
290
     0
176
     1
 40
1.0
176
     1
 40
1.0
176
     1
  0
DICTIONARYVAR
  5
54E
102
{ACAD_REACTORS
330
548
102
}
330
548
100
DictionaryVariables
280
     0
  1
1:1
  0
DICTIONARYVAR
  5
54A
102
{ACAD_REACTORS
330
548
102
}
330
548
100
DictionaryVariables
280
     0
  1
STANDARD
  0
DICTIONARYVAR
  5
549
102
{ACAD_REACTORS
330
548
102
}
330
548
100
DictionaryVariables
280
     0
  1
STANDARD
  0
DICTIONARYVAR
  5
54B
102
{ACAD_REACTORS
330
548
102
}
330
548
100
DictionaryVariables
280
     0
  1
Imperial24
  0
DICTIONARYVAR
  5
54C
102
{ACAD_REACTORS
330
548
102
}
330
548
100
DictionaryVariables
280
     0
  1
Imperial24
  0
DICTIONARYVAR
  5
550
102
{ACAD_REACTORS
330
548
102
}
330
548
100
DictionaryVariables
280
     0
  1
1
  0
DICTIONARYVAR
  5
551
102
{ACAD_REACTORS
330
548
102
}
330
548
100
DictionaryVariables
280
     0
  1
15
  0
DICTIONARYVAR
  5
54F
102
{ACAD_REACTORS
330
548
102
}
330
548
100
DictionaryVariables
280
     0
  1
0
  0
DICTIONARYVAR
  5
54D
102
{ACAD_REACTORS
330
548
102
}
330
548
100
DictionaryVariables
280
     0
  1
0
  0
DICTIONARY
  5
4D8
102
{ACAD_REACTORS
330
4CF
102
}
330
4CF
100
AcDbDictionary
281
     1
  0
DICTIONARY
  5
556
330
49B
100
AcDbDictionary
280
     1
281
     1
  3
ACAD_XREC_ROUNDTRIP
360
557
  0
DICTIONARY
  5
45A
330
459
100
AcDbDictionary
280
     1
281
     1
  3
BUMPTILE
360
45C
  3
DIFFUSETILE
360
45B
  3
OPACITYTILE
360
45F
  3
REFLECTIONTILE
360
45E
  3
REFRACTIONTILE
360
460
  3
SPECULARTILE
360
45D
  0
DICTIONARY
  5
452
330
451
100
AcDbDictionary
280
     1
281
     1
  3
BUMPTILE
360
454
  3
DIFFUSETILE
360
453
  3
OPACITYTILE
360
457
  3
REFLECTIONTILE
360
456
  3
REFRACTIONTILE
360
458
  3
SPECULARTILE
360
455
  0
DICTIONARY
  5
462
330
461
100
AcDbDictionary
280
     1
281
     1
  3
BUMPTILE
360
464
  3
DIFFUSETILE
360
463
  3
OPACITYTILE
360
467
  3
REFLECTIONTILE
360
466
  3
REFRACTIONTILE
360
468
  3
SPECULARTILE
360
465
  0
DICTIONARY
  5
554
330
499
100
AcDbDictionary
280
     1
281
     1
  3
ACAD_XREC_ROUNDTRIP
360
555
  0
DICTIONARY
  5
552
330
483
100
AcDbDictionary
280
     1
281
     1
  3
ACAD_ROUNDTRIP_2008_TABLESTYLE_CELLSTYLEMAP
360
553
  0
XRECORD
  5
557
102
{ACAD_REACTORS
330
556
102
}
330
556
100
AcDbXrecord
280
     1
102
DISPLAYNAME
  1
Imperial24
102
FLAGS
 90
        0
  0
XRECORD
  5
45C
102
{ACAD_REACTORS
330
45A
102
}
330
45A
100
AcDbXrecord
280
     1
270
     1
271
     1
  0
XRECORD
  5
45B
102
{ACAD_REACTORS
330
45A
102
}
330
45A
100
AcDbXrecord
280
     1
270
     1
271
     1
  0
XRECORD
  5
45F
102
{ACAD_REACTORS
330
45A
102
}
330
45A
100
AcDbXrecord
280
     1
270
     1
271
     1
  0
XRECORD
  5
45E
102
{ACAD_REACTORS
330
45A
102
}
330
45A
100
AcDbXrecord
280
     1
270
     1
271
     1
  0
XRECORD
  5
460
102
{ACAD_REACTORS
330
45A
102
}
330
45A
100
AcDbXrecord
280
     1
270
     1
271
     1
  0
XRECORD
  5
45D
102
{ACAD_REACTORS
330
45A
102
}
330
45A
100
AcDbXrecord
280
     1
270
     1
271
     1
  0
XRECORD
  5
454
102
{ACAD_REACTORS
330
452
102
}
330
452
100
AcDbXrecord
280
     1
270
     1
271
     1
  0
XRECORD
  5
453
102
{ACAD_REACTORS
330
452
102
}
330
452
100
AcDbXrecord
280
     1
270
     1
271
     1
  0
XRECORD
  5
457
102
{ACAD_REACTORS
330
452
102
}
330
452
100
AcDbXrecord
280
     1
270
     1
271
     1
  0
XRECORD
  5
456
102
{ACAD_REACTORS
330
452
102
}
330
452
100
AcDbXrecord
280
     1
270
     1
271
     1
  0
XRECORD
  5
458
102
{ACAD_REACTORS
330
452
102
}
330
452
100
AcDbXrecord
280
     1
270
     1
271
     1
  0
XRECORD
  5
455
102
{ACAD_REACTORS
330
452
102
}
330
452
100
AcDbXrecord
280
     1
270
     1
271
     1
  0
XRECORD
  5
464
102
{ACAD_REACTORS
330
462
102
}
330
462
100
AcDbXrecord
280
     1
270
     1
271
     1
  0
XRECORD
  5
463
102
{ACAD_REACTORS
330
462
102
}
330
462
100
AcDbXrecord
280
     1
270
     1
271
     1
  0
XRECORD
  5
467
102
{ACAD_REACTORS
330
462
102
}
330
462
100
AcDbXrecord
280
     1
270
     1
271
     1
  0
XRECORD
  5
466
102
{ACAD_REACTORS
330
462
102
}
330
462
100
AcDbXrecord
280
     1
270
     1
271
     1
  0
XRECORD
  5
468
102
{ACAD_REACTORS
330
462
102
}
330
462
100
AcDbXrecord
280
     1
270
     1
271
     1
  0
XRECORD
  5
465
102
{ACAD_REACTORS
330
462
102
}
330
462
100
AcDbXrecord
280
     1
270
     1
271
     1
  0
XRECORD
  5
555
102
{ACAD_REACTORS
330
554
102
}
330
554
100
AcDbXrecord
280
     1
102
DISPLAYNAME
  1
Imperial24
102
FLAGS
 90
        0
  0
CELLSTYLEMAP
  5
553
102
{ACAD_REACTORS
330
552
102
}
330
552
100
AcDbCellStyleMap
 90
        3
300
CELLSTYLE
  1
TABLEFORMAT_BEGIN
 90
        5
170
     1
 91
        0
 92
    32768
 62
   257
 93
        1
300
CONTENTFORMAT
  1
CONTENTFORMAT_BEGIN
 90
        0
 91
        0
 92
      512
 93
        0
300

 40
0.0
140
1.0
 94
        5
 62
     0
340
9
144
0.25
309
CONTENTFORMAT_END
171
     0
 94
        0
309
TABLEFORMAT_END
  1
CELLSTYLE_BEGIN
 90
        1
 91
        1
300
_TITLE
309
CELLSTYLE_END
300
CELLSTYLE
  1
TABLEFORMAT_BEGIN
 90
        5
170
     1
 91
        0
 92
        0
 62
   257
 93
        1
300
CONTENTFORMAT
  1
CONTENTFORMAT_BEGIN
 90
        0
 91
        0
 92
      512
 93
        0
300

 40
0.0
140
1.0
 94
        5
 62
     0
340
9
144
0.18
309
CONTENTFORMAT_END
171
     0
 94
        0
309
TABLEFORMAT_END
  1
CELLSTYLE_BEGIN
 90
        2
 91
        1
300
_HEADER
309
CELLSTYLE_END
300
CELLSTYLE
  1
TABLEFORMAT_BEGIN
 90
        5
170
     1
 91
        0
 92
        0
 62
   257
 93
        1
300
CONTENTFORMAT
  1
CONTENTFORMAT_BEGIN
 90
        0
 91
        0
 92
      512
 93
        0
300

 40
0.0
140
1.0
 94
        2
 62
     0
340
9
144
0.18
309
CONTENTFORMAT_END
171
     0
 94
        0
309
TABLEFORMAT_END
  1
CELLSTYLE_BEGIN
 90
        3
 91
        2
300
_DATA
309
CELLSTYLE_END
  0
ENDSEC
  0
EOF
