  0
SECTION
  2
HEADER
  9
$ACADVER
  1
AC1027
  9
$ACADMAINTVER
 70
   125
  9
$DWGCODEPAGE
  3
ANSI_1250
  9
$LASTSAVEDBY
  1
jprorok
  9
$REQUIREDVERSIONS
160
                 0
  9
$INSBASE
 10
0.0
 20
0.0
 30
0.0
  9
$EXTMIN
 10
84.00256495736835
 20
59.01123151533681
 30
-0.0015258207003583
  9
$EXTMAX
 10
393.3020336200739
 20
356.0540780518834
 30
0.0000000349246037
  9
$LIMMIN
 10
0.0
 20
0.0
  9
$LIMMAX
 10
594.0
 20
420.0
  9
$ORTHOMODE
 70
     1
  9
$REGENMODE
 70
     1
  9
$FILLMODE
 70
     1
  9
$QTEXTMODE
 70
     0
  9
$MIRRTEXT
 70
     1
  9
$LTSCALE
 40
7.0
  9
$ATTMODE
 70
     1
  9
$TEXTSIZE
 40
2.5
  9
$TRACEWID
 40
0.05
  9
$TEXTSTYLE
  7
STANDARD
  9
$CLAYER
  8
SCHRAFF
  9
$CELTYPE
  6
BYLAYER
  9
$CECOLOR
 62
   256
  9
$CELTSCALE
 40
1.0
  9
$DISPSILH
 70
     0
  9
$DIMSCALE
 40
1.0
  9
$DIMASZ
 40
0.12
  9
$DIMEXO
 40
0.05
  9
$DIMDLI
 40
0.5
  9
$DIMRND
 40
0.0
  9
$DIMDLE
 40
0.0
  9
$DIMEXE
 40
0.1
  9
$DIMTP
 40
0.1
  9
$DIMTM
 40
0.1
  9
$DIMTXT
 40
0.12
  9
$DIMCEN
 40
0.0
  9
$DIMTSZ
 40
0.0
  9
$DIMTOL
 70
     0
  9
$DIMLIM
 70
     0
  9
$DIMTIH
 70
     1
  9
$DIMTOH
 70
     1
  9
$DIMSE1
 70
     0
  9
$DIMSE2
 70
     0
  9
$DIMTAD
 70
     0
  9
$DIMZIN
 70
     7
  9
$DIMBLK
  1

  9
$DIMASO
 70
     1
  9
$DIMSHO
 70
     1
  9
$DIMPOST
  1

  9
$DIMAPOST
  1
mm
  9
$DIMALT
 70
     0
  9
$DIMALTD
 70
     2
  9
$DIMALTF
 40
25.4
  9
$DIMLFAC
 40
1.0
  9
$DIMTOFL
 70
     0
  9
$DIMTVP
 40
0.0
  9
$DIMTIX
 70
     0
  9
$DIMSOXD
 70
     0
  9
$DIMSAH
 70
     0
  9
$DIMBLK1
  1

  9
$DIMBLK2
  1

  9
$DIMSTYLE
  2
AM_ANSI
  9
$DIMCLRD
 70
   256
  9
$DIMCLRE
 70
   256
  9
$DIMCLRT
 70
     2
  9
$DIMTFAC
 40
0.71
  9
$DIMGAP
 40
0.06
  9
$DIMJUST
 70
     0
  9
$DIMSD1
 70
     0
  9
$DIMSD2
 70
     0
  9
$DIMTOLJ
 70
     1
  9
$DIMTZIN
 70
     7
  9
$DIMALTZ
 70
     0
  9
$DIMALTTZ
 70
     0
  9
$DIMUPT
 70
     0
  9
$DIMDEC
 70
     4
  9
$DIMTDEC
 70
     4
  9
$DIMALTU
 70
     2
  9
$DIMALTTD
 70
     4
  9
$DIMTXSTY
  7
STANDARD
  9
$DIMAUNIT
 70
     0
  9
$DIMADEC
 70
     0
  9
$DIMALTRND
 40
0.0
  9
$DIMAZIN
 70
     2
  9
$DIMDSEP
 70
    46
  9
$DIMATFIT
 70
     3
  9
$DIMFRAC
 70
     0
  9
$DIMLDRBLK
  1

  9
$DIMLUNIT
 70
     2
  9
$DIMLWD
 70
    -1
  9
$DIMLWE
 70
    -1
  9
$DIMTMOVE
 70
     0
  9
$DIMFXL
 40
1.0
  9
$DIMFXLON
 70
     0
  9
$DIMJOGANG
 40
0.7853981633974483
  9
$DIMTFILL
 70
     0
  9
$DIMTFILLCLR
 70
     0
  9
$DIMARCSYM
 70
     1
  9
$DIMLTYPE
  6
BYBLOCK
  9
$DIMLTEX1
  6
BYBLOCK
  9
$DIMLTEX2
  6
BYBLOCK
  9
$DIMTXTDIRECTION
 70
     0
  9
$LUNITS
 70
     2
  9
$LUPREC
 70
     1
  9
$SKETCHINC
 40
0.1
  9
$FILLETRAD
 40
0.0
  9
$AUNITS
 70
     0
  9
$AUPREC
 70
     0
  9
$MENU
  1
ACAD
  9
$ELEVATION
 40
0.0
  9
$PELEVATION
 40
0.0
  9
$THICKNESS
 40
0.0
  9
$LIMCHECK
 70
     0
  9
$CHAMFERA
 40
0.0
  9
$CHAMFERB
 40
0.0
  9
$CHAMFERC
 40
0.0
  9
$CHAMFERD
 40
0.0
  9
$SKPOLY
 70
     0
  9
$TDCREATE
 40
2451432.464722222
  9
$TDUCREATE
 40
2451432.381393970
  9
$TDUPDATE
 40
2458564.564027778
  9
$TDUUPDATE
 40
2458564.522361111
  9
$TDINDWG
 40
0.3653692245
  9
$TDUSRTIMER
 40
0.3653692245
  9
$USRTIMER
 70
     1
  9
$ANGBASE
 50
0.0
  9
$ANGDIR
 70
     0
  9
$PDMODE
 70
     0
  9
$PDSIZE
 40
0.0
  9
$PLINEWID
 40
0.0
  9
$SPLFRAME
 70
     0
  9
$SPLINETYPE
 70
     6
  9
$SPLINESEGS
 70
     8
  9
$HANDSEED
  5
8A0
  9
$SURFTAB1
 70
     6
  9
$SURFTAB2
 70
     6
  9
$SURFTYPE
 70
     6
  9
$SURFU
 70
     6
  9
$SURFV
 70
     6
  9
$UCSBASE
  2

  9
$UCSNAME
  2

  9
$UCSORG
 10
0.0
 20
0.0
 30
0.0
  9
$UCSXDIR
 10
1.0
 20
0.0
 30
0.0
  9
$UCSYDIR
 10
0.0
 20
1.0
 30
0.0
  9
$UCSORTHOREF
  2

  9
$UCSORTHOVIEW
 70
     0
  9
$UCSORGTOP
 10
0.0
 20
0.0
 30
0.0
  9
$UCSORGBOTTOM
 10
0.0
 20
0.0
 30
0.0
  9
$UCSORGLEFT
 10
0.0
 20
0.0
 30
0.0
  9
$UCSORGRIGHT
 10
0.0
 20
0.0
 30
0.0
  9
$UCSORGFRONT
 10
0.0
 20
0.0
 30
0.0
  9
$UCSORGBACK
 10
0.0
 20
0.0
 30
0.0
  9
$PUCSBASE
  2

  9
$PUCSNAME
  2

  9
$PUCSORG
 10
0.0
 20
0.0
 30
0.0
  9
$PUCSXDIR
 10
1.0
 20
0.0
 30
0.0
  9
$PUCSYDIR
 10
0.0
 20
1.0
 30
0.0
  9
$PUCSORTHOREF
  2

  9
$PUCSORTHOVIEW
 70
     0
  9
$PUCSORGTOP
 10
0.0
 20
0.0
 30
0.0
  9
$PUCSORGBOTTOM
 10
0.0
 20
0.0
 30
0.0
  9
$PUCSORGLEFT
 10
0.0
 20
0.0
 30
0.0
  9
$PUCSORGRIGHT
 10
0.0
 20
0.0
 30
0.0
  9
$PUCSORGFRONT
 10
0.0
 20
0.0
 30
0.0
  9
$PUCSORGBACK
 10
0.0
 20
0.0
 30
0.0
  9
$USERI1
 70
     0
  9
$USERI2
 70
     0
  9
$USERI3
 70
     0
  9
$USERI4
 70
     0
  9
$USERI5
 70
     0
  9
$USERR1
 40
0.0
  9
$USERR2
 40
0.0
  9
$USERR3
 40
0.0
  9
$USERR4
 40
0.0
  9
$USERR5
 40
0.0
  9
$WORLDVIEW
 70
     1
  9
$SHADEDGE
 70
     3
  9
$SHADEDIF
 70
    70
  9
$TILEMODE
 70
     1
  9
$MAXACTVP
 70
    16
  9
$PINSBASE
 10
0.0
 20
0.0
 30
0.0
  9
$PLIMCHECK
 70
     0
  9
$PEXTMIN
 10
1.000000000000000E+20
 20
1.000000000000000E+20
 30
1.000000000000000E+20
  9
$PEXTMAX
 10
-1.000000000000000E+20
 20
-1.000000000000000E+20
 30
-1.000000000000000E+20
  9
$PLIMMIN
 10
0.0
 20
0.0
  9
$PLIMMAX
 10
417.0
 20
288.0
  9
$UNITMODE
 70
     0
  9
$VISRETAIN
 70
     0
  9
$PLINEGEN
 70
     0
  9
$PSLTSCALE
 70
     0
  9
$TREEDEPTH
 70
  3020
  9
$CMLSTYLE
  2
STANDARD
  9
$CMLJUST
 70
     0
  9
$CMLSCALE
 40
1.0
  9
$PROXYGRAPHICS
 70
     1
  9
$MEASUREMENT
 70
     0
  9
$CELWEIGHT
370
    -1
  9
$ENDCAPS
280
     0
  9
$JOINSTYLE
280
     0
  9
$LWDISPLAY
290
     0
  9
$INSUNITS
 70
     0
  9
$HYPERLINKBASE
  1

  9
$STYLESHEET
  1
monochrome.ctb
  9
$XEDIT
290
     1
  9
$CEPSNTYPE
380
     0
  9
$PSTYLEMODE
290
     1
  9
$FINGERPRINTGUID
  2

  9
$VERSIONGUID
  2
{24B6768C-2A7F-2D47-B656-DED76F3D68A7}
  9
$EXTNAMES
290
     1
  9
$PSVPSCALE
 40
0.0
  9
$OLESTARTUP
290
     0
  9
$SORTENTS
280
   127
  9
$INDEXCTL
280
     0
  9
$HIDETEXT
280
     0
  9
$XCLIPFRAME
280
     0
  9
$HALOGAP
280
     0
  9
$OBSCOLOR
 70
   257
  9
$OBSLTYPE
280
     0
  9
$INTERSECTIONDISPLAY
280
     0
  9
$INTERSECTIONCOLOR
 70
   257
  9
$DIMASSOC
280
     1
  9
$PROJECTNAME
  1

  9
$CAMERADISPLAY
290
     0
  9
$LENSLENGTH
 40
50.0
  9
$CAMERAHEIGHT
 40
0.0
  9
$STEPSPERSEC
 40
2.0
  9
$STEPSIZE
 40
6.0
  9
$3DDWFPREC
 40
2.0
  9
$PSOLWIDTH
 40
0.25
  9
$PSOLHEIGHT
 40
4.0
  9
$LOFTANG1
 40
1.570796326794896
  9
$LOFTANG2
 40
1.570796326794896
  9
$LOFTMAG1
 40
0.0
  9
$LOFTMAG2
 40
0.0
  9
$LOFTPARAM
 70
     7
  9
$LOFTNORMALS
280
     1
  9
$LATITUDE
 40
37.795
  9
$LONGITUDE
 40
-122.394
  9
$NORTHDIRECTION
 40
0.0
  9
$TIMEZONE
 70
 -8000
  9
$LIGHTGLYPHDISPLAY
280
     1
  9
$TILEMODELIGHTSYNCH
280
     1
  9
$CMATERIAL
347
2CD
  9
$SOLIDHIST
280
     1
  9
$SHOWHIST
280
     1
  9
$DWFFRAME
280
     2
  9
$DGNFRAME
280
     0
  9
$REALWORLDSCALE
290
     1
  9
$INTERFERECOLOR
 62
     1
  9
$INTERFEREOBJVS
345
2EF
  9
$INTERFEREVPVS
346
2EC
  9
$CSHADOW
280
     0
  9
$SHADOWPLANELOCATION
 40
0.0
  0
ENDSEC
  0
SECTION
  2
CLASSES
  0
CLASS
  1
DICTIONARYVAR
  2
AcDbDictionaryVar
  3
ObjectDBX Classes
 90
        0
 91
        9
280
     0
281
     0
  0
CLASS
  1
LWPOLYLINE
  2
AcDbPolyline
  3
ObjectDBX Classes
 90
        0
 91
       26
280
     0
281
     1
  0
CLASS
  1
HATCH
  2
AcDbHatch
  3
ObjectDBX Classes
 90
        0
 91
        4
280
     0
281
     1
  0
CLASS
  1
ACDBDICTIONARYWDFLT
  2
AcDbDictionaryWithDefault
  3
ObjectDBX Classes
 90
        0
 91
        1
280
     0
281
     0
  0
CLASS
  1
ACDBPLACEHOLDER
  2
AcDbPlaceHolder
  3
ObjectDBX Classes
 90
        0
 91
        1
280
     0
281
     0
  0
CLASS
  1
LAYOUT
  2
AcDbLayout
  3
ObjectDBX Classes
 90
        0
 91
        2
280
     0
281
     0
  0
CLASS
  1
MATERIAL
  2
AcDbMaterial
  3
ObjectDBX Classes
 90
     1153
 91
        3
280
     0
281
     0
  0
CLASS
  1
VISUALSTYLE
  2
AcDbVisualStyle
  3
ObjectDBX Classes
 90
     4095
 91
       26
280
     0
281
     0
  0
CLASS
  1
TABLESTYLE
  2
AcDbTableStyle
  3
ObjectDBX Classes
 90
     4095
 91
        1
280
     0
281
     0
  0
CLASS
  1
SCALE
  2
AcDbScale
  3
ObjectDBX Classes
 90
     1153
 91
       33
280
     0
281
     0
  0
CLASS
  1
MLEADERSTYLE
  2
AcDbMLeaderStyle
  3
ACDB_MLEADERSTYLE_CLASS
 90
     4095
 91
        1
280
     0
281
     0
  0
CLASS
  1
ACME_DOCUMENT
  2
AcMeDbDoc
  3
AcMeServices
 90
     1024
 91
        2
280
     0
281
     0
  0
CLASS
  1
AMGSETTINGSOBJ
  2
AmgSettingsObj
  3
"AcadM|Product Description: AutoCAD Mechanical|Company: Autodesk, Inc."
 90
     1024
 91
        2
280
     0
281
     0
  0
CLASS
  1
AMGOBJPROPCFG
  2
AmgObjPropCfg
  3
"AmgLay|Product Description: AutoCAD Mechanical|Company: Autodesk, Inc."
 90
     1024
 91
        1
280
     0
281
     0
  0
CLASS
  1
ACMESCOPE
  2
AcMeScope
  3
AcMeServices
 90
     1024
 91
        1
280
     0
281
     0
  0
CLASS
  1
ACMECOMMANDHISTORY
  2
AcMeCommandHistory
  3
AcMeServices
 90
     1024
 91
        1
280
     0
281
     0
  0
CLASS
  1
ACIMSYSVARMAN
  2
AcImSysVarManager
  3
AcMeServices
 90
     1024
 91
        5
280
     0
281
     0
  0
CLASS
  1
ACIMINTSYSVAR
  2
AcImIntSysVar
  3
AcMeServices
 90
     1024
 91
       27
280
     0
281
     0
  0
CLASS
  1
ACMEDRAWINGMAN
  2
AcMeDrawingMan
  3
AcMeServices
 90
     1024
 91
        2
280
     0
281
     0
  0
CLASS
  1
ACMEVIEW
  2
AcMeView
  3
AcMeServices
 90
     1024
 91
        2
280
     0
281
     0
  0
CLASS
  1
ACDBENTITYCACHE
  2
AcMeEntityCache
  3
AcMeServices
 90
     1024
 91
        1
280
     0
281
     0
  0
CLASS
  1
GSMANAGER
  2
AcMeGSManager
  3
AcMeServices
 90
     1024
 91
        0
280
     0
281
     0
  0
CLASS
  1
AMDTINTERNALREACTOR
  2
AmdtInternalReactor
  3
AcMeServices
 90
     1024
 91
        1
280
     0
281
     0
  0
CLASS
  1
ACMESTATEMGR
  2
AcMeStateMgr
  3
AcMeServices
 90
     1024
 91
        1
280
     0
281
     0
  0
CLASS
  1
ACGREFMASTER
  2
AcGrefMaster
  3
AcAttribServices
 90
     1024
 91
        1
280
     0
281
     0
  0
CLASS
  1
AM_DRAWING_MGR
  2
AcDmDwgMgr
  3
AcMechDwgViewMgmt
 90
     1024
 91
        1
280
     0
281
     0
  0
CLASS
  1
AM_DWG_DOCUMENT
  2
AcDmDwgDocument
  3
AcMechDwgViewMgmt
 90
     1024
 91
        1
280
     0
281
     0
  0
CLASS
  1
AM_DWG_SHEET
  2
AcDmSheet
  3
AcMechDwgViewMgmt
 90
     1024
 91
        1
280
     0
281
     0
  0
CLASS
  1
AM_VIEWDIMPARMAP
  2
AcDmViewDimParMap
  3
AcMechDwgViewMgmt
 90
     1024
 91
        1
280
     0
281
     0
  0
CLASS
  1
ACIMREALSYSVAR
  2
AcImRealSysVar
  3
AcMeServices
 90
     1024
 91
        1
280
     0
281
     0
  0
CLASS
  1
AM_DWGMGR_NAME
  2
AcDmDwgMgrName
  3
AcMechDwgViewMgmt
 90
     1024
 91
        1
280
     0
281
     0
  0
CLASS
  1
ACME_DATABASE
  2
AcMeDbDatabase
  3
AcMeServices
 90
     1024
 91
        2
280
     0
281
     0
  0
CLASS
  1
ACRFINSADJUSTERMGR
  2
AcRfInsAdjusterMgr
  3
AcMeServices
 90
     1024
 91
        1
280
     0
281
     0
  0
CLASS
  1
ACGREFACADMASTER
  2
AcGrefacadMaster
  3
AcGrefServices
 90
     1024
 91
        1
280
     0
281
     0
  0
CLASS
  1
AMDTMENUSTATEMGR
  2
AmdtMenuStateMgr
  3
McadcomServices
 90
     1024
 91
        1
280
     0
281
     0
  0
CLASS
  1
AMDTMCOMMENUSTATE
  2
AmdtMcomMenuState
  3
McadcomServices
 90
     1024
 91
        1
280
     0
281
     0
  0
CLASS
  1
AMIMASTER
  2
AmiMaster
  3
AmiServices
 90
     1024
 91
        1
280
     0
281
     0
  0
CLASS
  1
MAPIAMMOUDLE
  2
MApiAmModule
  3
MApiAmServices
 90
     1024
 91
        1
280
     0
281
     0
  0
CLASS
  1
ACIMSTRSYSVAR
  2
AcImStrSysVar
  3
AcMeServices
 90
     1024
 91
        5
280
     0
281
     0
  0
CLASS
  1
AMDTADMENUSTATE
  2
AmdtAdMenuState
  3
DesignerServices
 90
     1024
 91
        0
280
     0
281
     0
  0
CLASS
  1
ADAPPL
  2
AcAdAppl
  3
DesignerAssemblies
 90
     1024
 91
        2
280
     0
281
     0
  0
CLASS
  1
DEPMGR
  2
AcAdDepMgr
  3
DesignerAssemblies
 90
     1024
 91
        2
280
     0
281
     0
  0
CLASS
  1
PARAMMGR
  2
AcAdParamMgr
  3
DesignerAssemblies
 90
     1024
 91
        2
280
     0
281
     0
  0
CLASS
  1
PARAMSCOPE
  2
AcAdParamScope
  3
DesignerAssemblies
 90
     1024
 91
        2
280
     0
281
     0
  0
CLASS
  1
NAMEDAPPL
  2
AcAdNamedAppl
  3
DesignerAssemblies
 90
     1024
 91
        2
280
     0
281
     0
  0
CLASS
  1
AMDTDMMENUSTATE
  2
AmdtDmMenuState
  3
AcMechDwgViewMgmt
 90
     1024
 91
        0
280
     0
281
     0
  0
CLASS
  1
AMDTAMMENUSTATE
  2
AmdtAmMenuState
  3
DesignerAssemblies
 90
     1024
 91
        1
280
     0
281
     0
  0
CLASS
  1
ACAMPROJECT
  2
AcAmProject
  3
DesignerAssemblies
 90
     1024
 91
        1
280
     0
281
     0
  0
CLASS
  1
ACAMGRCOMPDEF
  2
AcAmGrCompDef
  3
DesignerAssemblies
 90
     1024
 91
        1
280
     0
281
     0
  0
CLASS
  1
ACCMCONTEXT
  2
AcCmContext
  3
DesignerAssemblies
 90
     1024
 91
        1
280
     0
281
     0
  0
CLASS
  1
ACAMCOMPDEF
  2
AcAmCompDef
  3
DesignerAssemblies
 90
     1024
 91
        1
280
     0
281
     0
  0
CLASS
  1
ACAMCOMPDEFMGR
  2
AcAmCompDefMgr
  3
DesignerAssemblies
 90
     1024
 91
        1
280
     0
281
     0
  0
CLASS
  1
AMCONTEXTMGR
  2
AcAmContextMgr
  3
DesignerAssemblies
 90
     1024
 91
        1
280
     0
281
     0
  0
CLASS
  1
ACAMCONTEXTMODELER
  2
AcAmContextModeler
  3
DesignerAssemblies
 90
     1024
 91
        1
280
     0
281
     0
  0
CLASS
  1
ACMDATADICTIONARY
  2
AcmDataDictionary
  3
"AcmSymBB|Product Description: AutoCAD Mechanical|Company: Autodesk, Inc."
 90
     1024
 91
        1
280
     0
281
     0
  0
CLASS
  1
CATALOGSTATE
  2
AcAmCatalogState
  3
DesignerAssemblies
 90
     1024
 91
        1
280
     0
281
     0
  0
CLASS
  1
ACAMGRCOMPDEFSET
  2
AcAmGrCompDefSet
  3
DesignerAssemblies
 90
     1024
 91
        1
280
     0
281
     0
  0
CLASS
  1
AMDTBROWSERDBTAB
  2
AmdtBrowserDbTab
  3
McadcomServices
 90
     1024
 91
        1
280
     0
281
     0
  0
CLASS
  1
CBROWSERAPPOBJECT
  2
CBrowserAppObject
  3
McadcomServices
 90
     1024
 91
        2
280
     0
281
     0
  0
CLASS
  1
DM_PLACEHOLDER
  2
AcDmSelsetPlaceholder
  3
McadcomServices
 90
     1024
 91
        1
280
     0
281
     0
  0
CLASS
  1
ACMSTANDARDANSI
  2
AcmStandardANSI
  3
"Amdt_StdImp|Product Description: AutoCAD Mechanical|Company: Autodesk, Inc."
 90
     1024
 91
        1
280
     0
281
     0
  0
CLASS
  1
ACMSURFSTANDARDANSI
  2
AcmSurfTextStdANSI
  3
"Amdt_StdImp|Product Description: AutoCAD Mechanical|Company: Autodesk, Inc."
 90
     1024
 91
        1
280
     0
281
     0
  0
CLASS
  1
ACMFCFSTANDARDANSI
  2
AcmFCFStdANSI
  3
"Amdt_StdImp|Product Description: AutoCAD Mechanical|Company: Autodesk, Inc."
 90
     1024
 91
        1
280
     0
281
     0
  0
CLASS
  1
ACMWELDSTANDARDANSI
  2
AcmWeldingStdANSI
  3
"Amdt_StdImp|Product Description: AutoCAD Mechanical|Company: Autodesk, Inc."
 90
     1024
 91
        1
280
     0
281
     0
  0
CLASS
  1
ACMIDSTANDARDANSI
  2
AcmIdStdANSI
  3
"Amdt_StdImp|Product Description: AutoCAD Mechanical|Company: Autodesk, Inc."
 90
     1024
 91
        1
280
     0
281
     0
  0
CLASS
  1
ACMDATUMSTANDARDANSI
  2
AcmDatumStdANSI
  3
"Amdt_StdImp|Product Description: AutoCAD Mechanical|Company: Autodesk, Inc."
 90
     1024
 91
        1
280
     0
281
     0
  0
CLASS
  1
ACMBOMSTANDARDANSI
  2
AcmBOMStdANSI
  3
"Amdt_StdImp|Product Description: AutoCAD Mechanical|Company: Autodesk, Inc."
 90
     1024
 91
        1
280
     0
281
     0
  0
CLASS
  1
ACMDETAILSTANDARDANSI
  2
AmdtDetailSymStdANSI
  3
"Amdt_StdImp|Product Description: AutoCAD Mechanical|Company: Autodesk, Inc."
 90
     1024
 91
        1
280
     0
281
     0
  0
CLASS
  1
ACMSECTIONSTANDARDANSI
  2
AmdtSectionSymStdANSI
  3
"Amdt_StdImp|Product Description: AutoCAD Mechanical|Company: Autodesk, Inc."
 90
     1024
 91
        1
280
     0
281
     0
  0
CLASS
  1
ACMCENTERLINESTANDARDANSI
  2
AmdtCenterLineStdANSI
  3
"Amdt_StdImp|Product Description: AutoCAD Mechanical|Company: Autodesk, Inc."
 90
     1024
 91
        1
280
     0
281
     0
  0
CLASS
  1
ACMTHREADLINESTANDARDANSI
  2
AmdtThreadLineStdANSI
  3
"Amdt_StdImp|Product Description: AutoCAD Mechanical|Company: Autodesk, Inc."
 90
     1024
 91
        1
280
     0
281
     0
  0
CLASS
  1
ACMNOTESTANDARDANSI
  2
AmdtNoteStdANSI
  3
"Amdt_StdImp|Product Description: AutoCAD Mechanical|Company: Autodesk, Inc."
 90
     1024
 91
        1
280
     0
281
     0
  0
CLASS
  1
ACMTAPERSTANDARDANSI
  2
AcmTaperStdANSI
  3
"Amdt_StdImp|Product Description: AutoCAD Mechanical|Company: Autodesk, Inc."
 90
     1024
 91
        1
280
     0
281
     0
  0
CLASS
  1
ACMANOOTATIONVIEWSTANDARDANSI
  2
AmdtAnViewStdANSI
  3
"Amdt_StdImp|Product Description: AutoCAD Mechanical|Company: Autodesk, Inc."
 90
     1024
 91
        1
280
     0
281
     0
  0
CLASS
  1
ACAMGLAYSTD
  2
AcAmgLayStd
  3
"AmgLay|Product Description: AutoCAD Mechanical|Company: Autodesk, Inc."
 90
     1024
 91
        1
280
     0
281
     0
  0
CLASS
  1
ACAMGDIMSTD
  2
AcAmgDimStd
  3
"AmgDim|Product Description: AutoCAD Mechanical|Company: Autodesk, Inc."
 90
     1024
 91
        1
280
     0
281
     0
  0
CLASS
  1
ACAMGHOLECHARTSTDANSI
  2
AcAmgHoleChartStdANSI
  3
AmgDim|Product Description: AutoCAD Mechanical|Company: Autodesk, Inc.
 90
     1024
 91
        1
280
     0
281
     0
  0
CLASS
  1
ACAMGTITLESTD
  2
AcAmgTitleStd
  3
"AmgTitle|Product Description: AutoCAD Mechanical|Company: Autodesk, Inc."
 90
     1024
 91
        1
280
     0
281
     0
  0
CLASS
  1
AMDTNOTETEMPLATEDB
  2
AmdtNoteTemplateDB
  3
AcmSymBB|Product Description: AutoCAD Mechanical|Company: Autodesk, Inc.
 90
     1024
 91
        6
280
     0
281
     0
  0
CLASS
  1
ACAMGFILTERDAT
  2
AcAmgFilterDat
  3
"AcadM|Product Description: AutoCAD Mechanical|Company: Autodesk, Inc."
 90
     1024
 91
        6
280
     0
281
     0
  0
CLASS
  1
AEC_REFEDIT_STATUS_TRACKER
  2
AecDbRefEditStatusTracker
  3
AecArchBase70|Product Desc: Autodesk Architectural Desktop 2007 |Company: Autodesk,Inc. |WEB Address: www.autodesk.com
 90
      129
 91
        0
280
     0
281
     0
  0
CLASS
  1
NPOCOLLECTION
  2
AcDbImpNonPersistentObjectsCollection
  3
ObjectDBX Classes
 90
     1153
 91
        1
280
     0
281
     0
  0
CLASS
  1
SORTENTSTABLE
  2
AcDbSortentsTable
  3
ObjectDBX Classes
 90
        0
 91
        2
280
     0
281
     0
  0
CLASS
  1
CAMSSTRUCTBTNSTATE
  2
StructBtnState
  3
DesignerAssemblies
 90
     1024
 91
        1
280
     0
281
     0
  0
CLASS
  1
CELLSTYLEMAP
  2
AcDbCellStyleMap
  3
ObjectDBX Classes
 90
     1152
 91
        2
280
     0
281
     0
  0
CLASS
  1
ACDBSECTIONVIEWSTYLE
  2
AcDbSectionViewStyle
  3
ObjectDBX Classes
 90
     1025
 91
        2
280
     0
281
     0
  0
CLASS
  1
ACDBDETAILVIEWSTYLE
  2
AcDbDetailViewStyle
  3
ObjectDBX Classes
 90
     1025
 91
        2
280
     0
281
     0
  0
CLASS
  1
ACMSECTIONSTANDARDCUSTOM
  2
AmdtSectionSymStdCustom
  3
"Amdt_StdImp|Product Description: AutoCAD Mechanical|Company: Autodesk, Inc."
 90
     1024
 91
        1
280
     0
281
     0
  0
CLASS
  1
ACMDETAILTANDARDCUSTOM
  2
AmdtDetailSymStdCustom
  3
"Amdt_StdImp|Product Description: AutoCAD Mechanical|Company: Autodesk, Inc."
 90
     1024
 91
        1
280
     0
281
     0
  0
CLASS
  1
FIELD
  2
AcDbField
  3
ObjectDBX Classes
 90
     1152
 91
        4
280
     0
281
     0
  0
CLASS
  1
FIELDLIST
  2
AcDbFieldList
  3
ObjectDBX Classes
 90
     1152
 91
        1
280
     0
281
     0
  0
CLASS
  1
EXACXREFPANELOBJECT
  2
ExAcXREFPanelObject
  3
EXAC_ESW
 90
     1025
 91
        1
280
     0
281
     0
  0
ENDSEC
  0
SECTION
  2
TABLES
  0
TABLE
  2
VPORT
  5
2C2
330
0
100
AcDbSymbolTable
 70
     1
1001
ACAD
1000
DbSaveVer
1071
        8
  0
VPORT
  5
2C3
330
2C2
100
AcDbSymbolTableRecord
100
AcDbViewportTableRecord
  2
*Active
 70
     0
 10
0.0
 20
0.0
 11
1.0
 21
1.0
 12
253.778943277644
 22
196.7164966830789
 13
0.0
 23
0.0
 14
10.0
 24
10.0
 15
20.0
 25
20.0
 16
0.0
 26
0.0
 36
1.0
 17
0.0
 27
0.0
 37
0.0
 40
477.8219532161223
 41
2.358195211786371
 42
50.0
 43
0.0
 44
0.0
 50
0.0
 51
0.0
 71
     0
 72
   100
 73
     1
 74
     1
 75
     0
 76
     0
 77
     0
 78
     0
281
     0
 65
     1
110
0.0
120
0.0
130
0.0
111
1.0
121
0.0
131
0.0
112
0.0
122
1.0
132
0.0
 79
     0
146
0.0
348
2EB
 60
     3
 61
     5
292
     1
282
     1
141
0.0
142
0.0
 63
   250
421
  3355443
1001
ACAD_NAV_VCDISPLAY
1070
     3
  0
ENDTAB
  0
TABLE
  2
LTYPE
  5
2BD
330
0
100
AcDbSymbolTable
 70
    20
  0
LTYPE
  5
2BE
330
2BD
100
AcDbSymbolTableRecord
100
AcDbLinetypeTableRecord
  2
BYBLOCK
 70
     0
  3

 72
    65
 73
     0
 40
0.0
  0
LTYPE
  5
2BF
330
2BD
100
AcDbSymbolTableRecord
100
AcDbLinetypeTableRecord
  2
BYLAYER
 70
     0
  3

 72
    65
 73
     0
 40
0.0
  0
LTYPE
  5
8
330
2BD
100
AcDbSymbolTableRecord
100
AcDbLinetypeTableRecord
  2
CONTINUOUS
 70
     0
  3
Solid line
 72
    65
 73
     0
 40
0.0
  0
LTYPE
  5
12
330
2BD
100
AcDbSymbolTableRecord
100
AcDbLinetypeTableRecord
  2
STRICHPUNKT
 70
     0
  3
__ . __ . __ . __ . __ . __ . __ . __ . __ . __
 72
    65
 73
     4
 40
1.0
 49
0.5
 74
     0
 49
-0.25
 74
     0
 49
0.0
 74
     0
 49
-0.25
 74
     0
  0
LTYPE
  5
A6
330
2BD
100
AcDbSymbolTableRecord
100
AcDbLinetypeTableRecord
  2
GESTRICHELT
 70
     0
  3
__ __ __ __ __ __ __ __ __ __ __ __ __ __ __ __
 72
    65
 73
     2
 40
0.75
 49
0.5
 74
     0
 49
-0.25
 74
     0
  0
LTYPE
  5
190
330
2BD
100
AcDbSymbolTableRecord
100
AcDbLinetypeTableRecord
  2
AUSGEZOGEN
 70
     0
  3
Ausgezogene Linie
 72
    65
 73
     0
 40
0.0
  0
LTYPE
  5
325
330
2BD
100
AcDbSymbolTableRecord
100
AcDbLinetypeTableRecord
  2
AM_ISO02W050
 70
     0
  3
__ __ __ __ __ __ __ __ __ __ __ __ __ __ __
 72
    65
 73
     2
 40
7.5
 49
6.0
 74
     0
 49
-1.5
 74
     0
  0
LTYPE
  5
326
330
2BD
100
AcDbSymbolTableRecord
100
AcDbLinetypeTableRecord
  2
AM_ISO08W050
 70
     0
  3
____ . ____ . ____ . ____ . ____ . ____ . ____
 72
    65
 73
     4
 40
18.0
 49
12.0
 74
     0
 49
-1.5
 74
     0
 49
3.0
 74
     0
 49
-1.5
 74
     0
  0
LTYPE
  5
327
330
2BD
100
AcDbSymbolTableRecord
100
AcDbLinetypeTableRecord
  2
AM_ISO09W050
 70
     0
  3
_____ . . _____ . . _____ . . ____ .. ____
 72
    65
 73
     6
 40
22.5
 49
12.0
 74
     0
 49
-1.5
 74
     0
 49
3.0
 74
     0
 49
-1.5
 74
     0
 49
3.0
 74
     0
 49
-1.5
 74
     0
  0
LTYPE
  5
328
330
2BD
100
AcDbSymbolTableRecord
100
AcDbLinetypeTableRecord
  2
Amconstr
 70
     0
  3
_______________________
 72
    65
 73
     2
 40
9999.0
 49
9999.0
 74
     0
 49
0.0
 74
     0
  0
LTYPE
  5
329
330
2BD
100
AcDbSymbolTableRecord
100
AcDbLinetypeTableRecord
  2
AM_ISO08W050x2
 70
     0
  3
__ . __ . __ . __ . __ . __
 72
    65
 73
     4
 40
9.0
 49
6.0
 74
     0
 49
-0.75
 74
     0
 49
1.5
 74
     0
 49
-0.75
 74
     0
  0
LTYPE
  5
32A
330
2BD
100
AcDbSymbolTableRecord
100
AcDbLinetypeTableRecord
  2
AM_ISO02W050x2
 70
     0
  3
 _ _ _ _ _ _ _ _ _ _ _ _
 72
    65
 73
     2
 40
3.75
 49
3.0
 74
     0
 49
-0.75
 74
     0
  0
LTYPE
  5
32D
330
2BD
100
AcDbSymbolTableRecord
100
AcDbLinetypeTableRecord
  2
Amzigzag
 70
     0
  3
/\/-/\/-/\/-/\/-/\/-/\/
 72
    65
 73
     2
 40
11.0001
 49
0.0001
 74
     4
 75
   136
340
32C
 46
0.04
 50
0.0
 44
0.0
 45
0.0
 49
-11.0
 74
     0
  0
LTYPE
  5
35D
330
2BD
100
AcDbSymbolTableRecord
100
AcDbLinetypeTableRecord
  2
HIDDEN
 70
     0
  3
Skrytá __ __ __ __ __ __ __ __ __ __ __ __ __ __
 72
    65
 73
     2
 40
0.375
 49
0.25
 74
     0
 49
-0.125
 74
     0
  0
LTYPE
  5
35E
330
2BD
100
AcDbSymbolTableRecord
100
AcDbLinetypeTableRecord
  2
PHANTOM2
 70
     0
  3
Sdružená (.5x) ___ _ _ ___ _ _ ___ _ _ ___ _ _
 72
    65
 73
     6
 40
1.25
 49
0.625
 74
     0
 49
-0.125
 74
     0
 49
0.125
 74
     0
 49
-0.125
 74
     0
 49
0.125
 74
     0
 49
-0.125
 74
     0
  0
LTYPE
  5
35F
330
2BD
100
AcDbSymbolTableRecord
100
AcDbLinetypeTableRecord
  2
CENTER
 70
     0
  3
Středová ____ _ ____ _ ____ _ ____ _ ____ _ ____
 72
    65
 73
     4
 40
2.0
 49
1.25
 74
     0
 49
-0.25
 74
     0
 49
0.25
 74
     0
 49
-0.25
 74
     0
  0
LTYPE
  5
3AF
330
2BD
100
AcDbSymbolTableRecord
100
AcDbLinetypeTableRecord
  2
CENTER2
 70
     0
  3
Center (.5x) ___ _ ___ _ ___ _ ___ _ ___ _ ___
 72
    65
 73
     4
 40
1.125
 49
0.75
 74
     0
 49
-0.125
 74
     0
 49
0.125
 74
     0
 49
-0.125
 74
     0
  0
LTYPE
  5
3B0
330
2BD
100
AcDbSymbolTableRecord
100
AcDbLinetypeTableRecord
  2
HIDDEN2
 70
     0
  3
Hidden (.5x) _ _ _ _ _ _ _ _ _ _ _ _ _ _ _ _ _
 72
    65
 73
     2
 40
0.1875
 49
0.125
 74
     0
 49
-0.0625
 74
     0
  0
LTYPE
  5
3B1
330
2BD
100
AcDbSymbolTableRecord
100
AcDbLinetypeTableRecord
  2
Amzigzag2
 70
     0
  3
/\/-/\/-/\/-/\/-/\/-/\/
 72
    65
 73
     2
 40
0.4401
 49
0.0001
 74
     4
 75
   136
340
32C
 46
0.0016
 50
0.0
 44
0.0
 45
0.0
 49
-0.4400000000000001
 74
     0
  0
LTYPE
  5
3B3
330
2BD
100
AcDbSymbolTableRecord
100
AcDbLinetypeTableRecord
  2
ACANSTGB
 70
     0
  3
__ . . __ . .
 72
    65
 73
     6
 40
0.35433070866
 49
0.15748031496
 74
     0
 49
-0.03937007874
 74
     0
 49
0.03937007874
 74
     0
 49
-0.03937007874
 74
     0
 49
0.03937007874
 74
     0
 49
-0.03937007874
 74
     0
  0
LTYPE
  5
3B4
330
2BD
100
AcDbSymbolTableRecord
100
AcDbLinetypeTableRecord
  2
ACANSTGL
 70
     0
  3
_ _ _ _ _
 72
    65
 73
     2
 40
0.11811023622
 49
0.07874015748
 74
     0
 49
-0.03937007874
 74
     0
  0
ENDTAB
  0
TABLE
  2
LAYER
  5
2BA
330
0
100
AcDbSymbolTable
 70
    15
  0
LAYER
  5
22
102
{ACAD_XDICTIONARY
360
6E9
102
}
330
2BA
100
AcDbSymbolTableRecord
100
AcDbLayerTableRecord
  2
0
 70
     0
 62
     7
  6
CONTINUOUS
370
    -3
390
5
347
2DD
348
0
  0
LAYER
  5
C
102
{ACAD_XDICTIONARY
360
6EB
102
}
330
2BA
100
AcDbSymbolTableRecord
100
AcDbLayerTableRecord
  2
SICHTBAR
 70
     0
 62
     7
  6
CONTINUOUS
370
    -3
390
5
347
2DD
348
0
  0
LAYER
  5
11
102
{ACAD_XDICTIONARY
360
6ED
102
}
330
2BA
100
AcDbSymbolTableRecord
100
AcDbLayerTableRecord
  2
MITTE
 70
     0
 62
     1
  6
STRICHPUNKT
370
    -3
390
5
347
2DD
348
0
  0
LAYER
  5
A5
102
{ACAD_XDICTIONARY
360
6EF
102
}
330
2BA
100
AcDbSymbolTableRecord
100
AcDbLayerTableRecord
  2
VERDECKT
 70
     0
 62
     2
  6
GESTRICHELT
370
    -3
390
5
347
2DD
348
0
  0
LAYER
  5
4
102
{ACAD_XDICTIONARY
360
6F1
102
}
330
2BA
100
AcDbSymbolTableRecord
100
AcDbLayerTableRecord
  2
BEMASS
 70
     0
 62
     3
  6
CONTINUOUS
370
    -3
390
5
347
2DD
348
0
  0
LAYER
  5
1E
330
2BA
100
AcDbSymbolTableRecord
100
AcDbLayerTableRecord
  2
DEFPOINTS
 70
     0
 62
     7
  6
CONTINUOUS
290
     0
370
    -3
390
5
347
2DD
348
0
  0
LAYER
  5
29
102
{ACAD_XDICTIONARY
360
6F3
102
}
330
2BA
100
AcDbSymbolTableRecord
100
AcDbLayerTableRecord
  2
SCHRAFF
 70
     0
 62
     6
  6
CONTINUOUS
370
    -3
390
5
347
2DD
348
0
  0
LAYER
  5
95
102
{ACAD_XDICTIONARY
360
6F5
102
}
330
2BA
100
AcDbSymbolTableRecord
100
AcDbLayerTableRecord
  2
WHITE
 70
     0
 62
     7
  6
CONTINUOUS
370
    -3
390
5
347
2DD
348
0
  0
LAYER
  5
18C
102
{ACAD_XDICTIONARY
360
6F7
102
}
330
2BA
100
AcDbSymbolTableRecord
100
AcDbLayerTableRecord
  2
GAIN_ZRA
 70
     0
 62
     7
  6
CONTINUOUS
370
    -3
390
5
347
2DD
348
0
  0
LAYER
  5
18F
102
{ACAD_XDICTIONARY
360
6F9
102
}
330
2BA
100
AcDbSymbolTableRecord
100
AcDbLayerTableRecord
  2
KOPF
 70
     0
 62
    22
  6
AUSGEZOGEN
370
    -3
390
5
347
2DD
348
0
  0
LAYER
  5
204
102
{ACAD_XDICTIONARY
360
6FB
102
}
330
2BA
100
AcDbSymbolTableRecord
100
AcDbLayerTableRecord
  2
GAIN_ZSF
 70
     0
 62
     7
  6
CONTINUOUS
370
    -3
390
5
347
2DD
348
0
  0
LAYER
  5
164
102
{ACAD_XDICTIONARY
360
6FD
102
}
330
2BA
100
AcDbSymbolTableRecord
100
AcDbLayerTableRecord
  2
TEXT50
 70
     0
 62
     7
  6
CONTINUOUS
370
    -3
390
5
347
2DD
348
0
  0
LAYER
  5
166
102
{ACAD_XDICTIONARY
360
6FF
102
}
330
2BA
100
AcDbSymbolTableRecord
100
AcDbLayerTableRecord
  2
TEXT35
 70
     0
 62
   132
  6
CONTINUOUS
370
    -3
390
5
347
2DD
348
0
  0
LAYER
  5
1DD
102
{ACAD_XDICTIONARY
360
701
102
}
330
2BA
100
AcDbSymbolTableRecord
100
AcDbLayerTableRecord
  2
TEXT25
 70
     0
 62
     3
  6
CONTINUOUS
370
    -3
390
5
347
2DD
348
0
  0
LAYER
  5
3C2
102
{ACAD_XDICTIONARY
360
3C3
102
}
330
2BA
100
AcDbSymbolTableRecord
100
AcDbLayerTableRecord
  2
Sperrlayer
 70
     1
 62
     7
  6
CONTINUOUS
370
    50
390
5
347
2DD
348
0
  0
ENDTAB
  0
TABLE
  2
STYLE
  5
2BB
330
0
100
AcDbSymbolTable
 70
    11
  0
STYLE
  5
9
330
2BB
100
AcDbSymbolTableRecord
100
AcDbTextStyleTableRecord
  2
STANDARD
 70
     0
 40
0.0
 41
0.8
 50
0.0
 71
     0
 42
2.5
  3
SIMPLEX.SHX
  4

  0
STYLE
  5
195
330
2BB
100
AcDbSymbolTableRecord
100
AcDbTextStyleTableRecord
  2
TEXT25
 70
     0
 40
2.5
 41
0.8
 50
0.0
 71
     0
 42
2.5
  3
din
  4

  0
STYLE
  5
1B7
330
2BB
100
AcDbSymbolTableRecord
100
AcDbTextStyleTableRecord
  2
BEMSTIL
 70
     0
 40
3.5
 41
0.8
 50
0.0
 71
     0
 42
3.5
  3
simplex
  4

  0
STYLE
  5
2A0
330
2BB
100
AcDbSymbolTableRecord
100
AcDbTextStyleTableRecord
  2
ROMANS8
 70
     0
 40
2.1
 41
0.7
 50
0.0
 71
     0
 42
2.1
  3
ROMANS8.SHX
  4

  0
STYLE
  5
1DE
330
2BB
100
AcDbSymbolTableRecord
100
AcDbTextStyleTableRecord
  2
TEXT20
 70
     0
 40
2.0
 41
0.8
 50
0.0
 71
     0
 42
2.0
  3
isocp3.shx
  4

  0
STYLE
  5
1DB
330
2BB
100
AcDbSymbolTableRecord
100
AcDbTextStyleTableRecord
  2
TEXT35
 70
     0
 40
3.5
 41
0.8
 50
0.0
 71
     0
 42
3.5
  3
isocp3.shx
  4

  0
STYLE
  5
1ED
330
2BB
100
AcDbSymbolTableRecord
100
AcDbTextStyleTableRecord
  2
TEXT50
 70
     0
 40
5.0
 41
0.8
 50
0.0
 71
     0
 42
5.0
  3
isocp3.shx
  4

  0
STYLE
  5
2A6
330
2BB
100
AcDbSymbolTableRecord
100
AcDbTextStyleTableRecord
  2
ITALICC8
 70
     0
 40
3.0
 41
0.8
 50
0.0
 71
     0
 42
3.0
  3
italicc8
  4

  0
STYLE
  5
32C
330
2BB
100
AcDbSymbolTableRecord
100
AcDbTextStyleTableRecord
  2

 70
     1
 40
0.0
 41
1.0
 50
0.0
 71
     0
 42
2.5
  3
genltshp.shx
  4

  0
STYLE
  5
3AE
330
2BB
100
AcDbSymbolTableRecord
100
AcDbTextStyleTableRecord
  2
ACANSTS
 70
     0
 40
1.0
 41
1.0
 50
0.0
 71
     0
 42
2.5
  3
romans.shx
  4

  0
STYLE
  5
3B2
330
2BB
100
AcDbSymbolTableRecord
100
AcDbTextStyleTableRecord
  2
ACANSGDT
 70
     0
 40
0.0
 41
1.0
 50
0.0
 71
     0
 42
2.5
  3
amgdt.shx
  4

  0
ENDTAB
  0
TABLE
  2
VIEW
  5
2C0
330
0
100
AcDbSymbolTable
 70
     0
  0
ENDTAB
  0
TABLE
  2
UCS
  5
2C1
330
0
100
AcDbSymbolTable
 70
     0
  0
ENDTAB
  0
TABLE
  2
APPID
  5
2C4
330
0
100
AcDbSymbolTable
 70
    22
  0
APPID
  5
159
330
2C4
100
AcDbSymbolTableRecord
100
AcDbRegAppTableRecord
  2
ACAD
 70
     0
  0
APPID
  5
31D
330
2C4
100
AcDbSymbolTableRecord
100
AcDbRegAppTableRecord
  2
ACAD_MLEADERVER
 70
     0
  0
APPID
  5
330
330
2C4
100
AcDbSymbolTableRecord
100
AcDbRegAppTableRecord
  2
MCAD_NO_VIS
 70
     0
  0
APPID
  5
331
330
2C4
100
AcDbSymbolTableRecord
100
AcDbRegAppTableRecord
  2
ACAD_TEMP_GRAPHIC
 70
     0
  0
APPID
  5
361
330
2C4
100
AcDbSymbolTableRecord
100
AcDbRegAppTableRecord
  2
AD_DRAW
 70
     0
  0
APPID
  5
364
330
2C4
100
AcDbSymbolTableRecord
100
AcDbRegAppTableRecord
  2
ACATTRIBSERVICES
 70
     0
  0
APPID
  5
385
330
2C4
100
AcDbSymbolTableRecord
100
AcDbRegAppTableRecord
  2
DESIGNERASSEMBLIES
 70
     0
  0
APPID
  5
38B
330
2C4
100
AcDbSymbolTableRecord
100
AcDbRegAppTableRecord
  2
ACADM_DIM_EDIT
 70
     0
  0
APPID
  5
38C
330
2C4
100
AcDbSymbolTableRecord
100
AcDbRegAppTableRecord
  2
AMDT_DM_ADJ
 70
     0
  0
APPID
  5
3BB
330
2C4
100
AcDbSymbolTableRecord
100
AcDbRegAppTableRecord
  2
GENIUS_GENSCREG_15
 70
     0
  0
APPID
  5
3BC
330
2C4
100
AcDbSymbolTableRecord
100
AcDbRegAppTableRecord
  2
GENIUS_GENODEF_13
 70
     0
  0
APPID
  5
3BD
330
2C4
100
AcDbSymbolTableRecord
100
AcDbRegAppTableRecord
  2
GENIUS_GENOBJ-N-SDF_13
 70
     0
  0
APPID
  5
3C4
330
2C4
100
AcDbSymbolTableRecord
100
AcDbRegAppTableRecord
  2
ACAD_DSTYLE_DIMARC_LENGTH_SYMBOL
 70
     0
  0
APPID
  5
3C5
330
2C4
100
AcDbSymbolTableRecord
100
AcDbRegAppTableRecord
  2
ACAD_DSTYLE_DIMJOGGED_JOGANGLE_SYMBOL
 70
     0
  0
APPID
  5
4B1
330
2C4
100
AcDbSymbolTableRecord
100
AcDbRegAppTableRecord
  2
ACAD_DSTYLE_DIMJAG
 70
     0
  0
APPID
  5
4B2
330
2C4
100
AcDbSymbolTableRecord
100
AcDbRegAppTableRecord
  2
ACAD_DSTYLE_DIMTALN
 70
     0
  0
APPID
  5
4B3
330
2C4
100
AcDbSymbolTableRecord
100
AcDbRegAppTableRecord
  2
ACAD_DSTYLE_DIMINSPECT
 70
     0
  0
APPID
  5
4B4
330
2C4
100
AcDbSymbolTableRecord
100
AcDbRegAppTableRecord
  2
ACAD_DSTYLE_DIMBREAK
 70
     0
  0
APPID
  5
610
330
2C4
100
AcDbSymbolTableRecord
100
AcDbRegAppTableRecord
  2
GENIUS_GENDTOL_13
 70
     0
  0
APPID
  5
769
330
2C4
100
AcDbSymbolTableRecord
100
AcDbRegAppTableRecord
  2
ACAD_NAV_VCDISPLAY
 70
     0
  0
APPID
  5
7BD
330
2C4
100
AcDbSymbolTableRecord
100
AcDbRegAppTableRecord
  2
AcadAnnoMonitorAlertIconDisabled
 70
     0
  0
APPID
  5
7BE
330
2C4
100
AcDbSymbolTableRecord
100
AcDbRegAppTableRecord
  2
ACAD_EXEMPT_FROM_CAD_STANDARDS
 70
     0
  0
ENDTAB
  0
TABLE
  2
DIMSTYLE
  5
2C5
330
0
100
AcDbSymbolTable
 70
     8
100
AcDbDimStyleTable
 71
     2
340
3A2
340
14
  0
DIMSTYLE
105
14
102
{ACAD_REACTORS
330
2A
330
13
330
121
330
130
330
157
330
180
330
181
330
182
330
189
330
78A
102
}
330
2C5
100
AcDbSymbolTableRecord
100
AcDbDimStyleTableRecord
  2
STANDARD
 70
     0
 41
3.5
 42
0.0
 43
7.0
 44
2.0
 73
     0
 74
     0
 77
     1
 78
     8
140
5.0
141
3.0
146
0.875
147
2.0
174
     1
176
   256
177
   256
178
   256
271
     1
272
     1
284
     8
285
     8
286
     8
289
     0
340
9
  0
DIMSTYLE
105
3A2
102
{ACAD_REACTORS
330
392
102
}
330
2C5
100
AcDbSymbolTableRecord
100
AcDbDimStyleTableRecord
  2
AM_ANSI
 70
     0
  4
mm
 41
0.12
 42
0.05
 43
0.5
 44
0.1
 47
0.1
 48
0.1
 78
     7
 79
     2
 90
     1
140
0.12
141
0.0
146
0.71
147
0.06
176
   256
177
   256
178
     2
274
     4
284
     7
340
9
345
2BE
346
2BE
347
2BE
371
    -1
372
    -1
  0
DIMSTYLE
105
3A3
330
2C5
100
AcDbSymbolTableRecord
100
AcDbDimStyleTableRecord
  2
AM_ANSI$3
 70
     0
  4
mm
 41
0.12
 42
0.05
 43
0.5
 44
0.1
 47
0.1
 48
0.1
 78
     7
 79
     2
 90
     1
140
0.12
141
0.0
146
0.71
147
0.06
176
   256
177
   256
178
     2
274
     4
284
     7
288
     1
289
     0
340
9
345
2BE
346
2BE
347
2BE
371
    -1
372
    -1
  0
DIMSTYLE
105
3A4
330
2C5
100
AcDbSymbolTableRecord
100
AcDbDimStyleTableRecord
  2
AM_ANSI$4
 70
     0
  4
mm
 41
0.12
 42
0.05
 43
0.5
 44
0.1
 47
0.1
 48
0.1
 78
     7
 79
     2
 90
     1
140
0.12
141
0.0
146
0.71
147
0.06
176
   256
177
   256
178
     2
274
     4
284
     7
340
9
345
2BE
346
2BE
347
2BE
371
    -1
372
    -1
  0
DIMSTYLE
105
3A5
330
2C5
100
AcDbSymbolTableRecord
100
AcDbDimStyleTableRecord
  2
AM_ANSI$7
 70
     0
  4
mm
 41
0.12
 42
0.05
 43
0.5
 44
0.1
 47
0.1
 48
0.1
 78
     7
 79
     2
 90
     1
140
0.12
141
0.0
146
0.71
147
0.06
176
   256
177
   256
178
     2
274
     4
284
     7
340
9
345
2BE
346
2BE
347
2BE
371
    -1
372
    -1
  0
DIMSTYLE
105
3A6
330
2C5
100
AcDbSymbolTableRecord
100
AcDbDimStyleTableRecord
  2
AM_ANSI$SF
 70
     0
  4
mm
 41
0.12
 42
0.05
 43
0.5
 44
0.1
 47
0.1
 48
0.1
 75
     1
 76
     1
 78
     7
 79
     2
 90
     1
140
0.12
141
0.0
146
0.71
147
0.06
176
   256
177
   256
178
     2
274
     4
284
     7
340
9
345
2BE
346
2BE
347
2BE
371
    -1
372
    -1
  0
DIMSTYLE
105
3AB
330
2C5
100
AcDbSymbolTableRecord
100
AcDbDimStyleTableRecord
  2
AM_ANSI$SH
 70
     0
  4
mm
 41
0.12
 42
0.05
 43
0.5
 44
0.1
 47
0.1
 48
0.1
 75
     1
 76
     1
 78
     7
 79
     2
 90
     1
140
0.12
141
0.0
146
0.71
147
0.06
173
     1
176
   256
177
   256
178
     2
274
     4
284
     7
340
9
343
3A7
345
2BE
346
2BE
347
2BE
371
    -1
372
    -1
  0
DIMSTYLE
105
4B0
330
2C5
100
AcDbSymbolTableRecord
100
AcDbDimStyleTableRecord
  2
SK5
 70
     0
 41
2.5
 42
0.0
 43
7.0
 44
2.0
 73
     0
 74
     0
 77
     1
 78
     8
140
5.0
141
3.0
144
0.2
146
0.875
147
2.0
172
     1
176
   256
177
   256
178
   256
271
     1
272
     1
284
     8
285
     8
286
     8
340
9
1001
ACAD_DSTYLE_DIMBREAK
1070
   391
1040
0.125
1001
ACAD_DSTYLE_DIMJAG
1070
   388
1040
1.5
1001
ACAD_DSTYLE_DIMTALN
1070
   392
1070
     0
  0
ENDTAB
  0
TABLE
  2
BLOCK_RECORD
  5
1
330
0
100
AcDbSymbolTable
 70
    26
  0
BLOCK_RECORD
  5
2
102
{ACAD_XDICTIONARY
360
6E7
102
}
330
1
100
AcDbSymbolTableRecord
100
AcDbBlockTableRecord
  2
*MODEL_SPACE
340
2B1
 70
     0
280
     1
281
     0
  0
BLOCK_RECORD
  5
2B3
330
1
100
AcDbSymbolTableRecord
100
AcDbBlockTableRecord
  2
*PAPER_SPACE
340
2B9
 70
     0
280
     1
281
     0
  0
BLOCK_RECORD
  5
2B
330
1
100
AcDbSymbolTableRecord
100
AcDbBlockTableRecord
  2
*D0
340
0
 70
     0
280
     1
281
     0
  0
BLOCK_RECORD
  5
15
330
1
100
AcDbSymbolTableRecord
100
AcDbBlockTableRecord
  2
*D1
340
0
 70
     0
280
     1
281
     0
  0
BLOCK_RECORD
  5
122
330
1
100
AcDbSymbolTableRecord
100
AcDbBlockTableRecord
  2
*D2
340
0
 70
     0
280
     1
281
     0
  0
BLOCK_RECORD
  5
131
330
1
100
AcDbSymbolTableRecord
100
AcDbBlockTableRecord
  2
*D3
340
0
 70
     0
280
     1
281
     0
  0
BLOCK_RECORD
  5
18D
330
1
100
AcDbSymbolTableRecord
100
AcDbBlockTableRecord
  2
RA_A2_Pr
340
0
 70
     0
280
     1
281
     0
  0
BLOCK_RECORD
  5
298
330
1
100
AcDbSymbolTableRecord
100
AcDbBlockTableRecord
  2
A$C17D61B2D
340
0
102
{BLKREFS
331
297
102
}
 70
     0
280
     1
281
     0
  0
BLOCK_RECORD
  5
205
330
1
100
AcDbSymbolTableRecord
100
AcDbBlockTableRecord
  2
SF_PRI
340
0
 70
     0
280
     1
281
     0
  0
BLOCK_RECORD
  5
14B
330
1
100
AcDbSymbolTableRecord
100
AcDbBlockTableRecord
  2
*D7
340
0
 70
     0
280
     1
281
     0
  0
BLOCK_RECORD
  5
3A7
330
1
100
AcDbSymbolTableRecord
100
AcDbBlockTableRecord
  2
GENAXEH
340
0
 70
     0
280
     1
281
     0
  0
BLOCK_RECORD
  5
3C6
330
1
100
AcDbSymbolTableRecord
100
AcDbBlockTableRecord
  2
ACO-SF
340
0
 70
     0
280
     1
281
     0
  0
BLOCK_RECORD
  5
755
330
1
100
AcDbSymbolTableRecord
100
AcDbBlockTableRecord
  2
_ACMFILLEDHALF
340
0
 70
     0
280
     1
281
     0
  0
BLOCK_RECORD
  5
776
330
1
100
AcDbSymbolTableRecord
100
AcDbBlockTableRecord
  2
*D23
340
0
 70
     0
280
     1
281
     0
  0
BLOCK_RECORD
  5
78B
330
1
100
AcDbSymbolTableRecord
100
AcDbBlockTableRecord
  2
*D25
340
0
 70
     0
280
     1
281
     0
  0
ENDTAB
  0
ENDSEC
  0
SECTION
  2
BLOCKS
  0
BLOCK
  5
2AF
330
2
100
AcDbEntity
  8
0
100
AcDbBlockBegin
  2
*MODEL_SPACE
 70
     0
 10
0.0
 20
0.0
 30
0.0
  3
*MODEL_SPACE
  1

  0
ENDBLK
  5
2B0
330
2
100
AcDbEntity
  8
0
100
AcDbBlockEnd
  0
BLOCK
  5
2B7
330
2B3
100
AcDbEntity
 67
     1
  8
0
100
AcDbBlockBegin
  2
*PAPER_SPACE
 70
     0
 10
0.0
 20
0.0
 30
0.0
  3
*PAPER_SPACE
  1

  0
ENDBLK
  5
2B8
330
2B3
100
AcDbEntity
 67
     1
  8
0
100
AcDbBlockEnd
  0
BLOCK
  5
35
330
2B
100
AcDbEntity
  8
0
100
AcDbBlockBegin
  2
*D0
 70
     1
 10
0.0
 20
0.0
 30
0.0
  3
*D0
  1

  0
LINE
  5
2C
330
2B
100
AcDbEntity
  8
BEMASS
440
 16777216
370
    -2
100
AcDbLine
 10
130.6714514703883
 20
331.7682005044412
 30
0.0
 11
130.6714514703883
 21
351.030328761075
 31
0.0
  0
LINE
  5
2D
330
2B
100
AcDbEntity
  8
BEMASS
440
 16777216
370
    -2
100
AcDbLine
 10
280.6714514703888
 20
332.5303287610745
 30
0.0
 11
280.6714514703888
 21
351.030328761075
 31
0.0
  0
LINE
  5
2E
330
2B
100
AcDbEntity
  8
BEMASS
440
 16777216
370
    -2
100
AcDbLine
 10
134.1714514703883
 20
349.030328761075
 30
0.0
 11
277.1714514703888
 21
349.030328761075
 31
0.0
  0
SOLID
  5
2F
330
2B
100
AcDbEntity
  8
BEMASS
440
 16777216
100
AcDbTrace
 10
134.1714514703883
 20
349.6136620944083
 30
0.0
 11
134.1714514703883
 21
348.4469954277417
 31
0.0
 12
130.6714514703883
 22
349.030328761075
 32
0.0
 13
130.6714514703883
 23
349.030328761075
 33
0.0
  0
SOLID
  5
30
330
2B
100
AcDbEntity
  8
BEMASS
440
 16777216
100
AcDbTrace
 10
277.1714514703888
 20
349.6136620944083
 30
0.0
 11
277.1714514703888
 21
348.4469954277417
 31
0.0
 12
280.6714514703888
 22
349.030328761075
 32
0.0
 13
280.6714514703888
 23
349.030328761075
 33
0.0
  0
MTEXT
  5
31
330
2B
100
AcDbEntity
  8
BEMASS
440
 16777216
100
AcDbMText
 10
205.6714514703886
 20
353.530328761075
 30
0.0
 40
5.0
 41
0.0
 46
0.0
 71
     5
 72
     1
  1
\A1;150x150
 73
     1
 44
1.0
  0
POINT
  5
32
330
2B
100
AcDbEntity
  8
DEFPOINTS
 62
     0
440
 16777216
100
AcDbPoint
 10
130.6714514703883
 20
331.7682005044412
 30
0.0
  0
POINT
  5
33
330
2B
100
AcDbEntity
  8
DEFPOINTS
 62
     0
440
 16777216
100
AcDbPoint
 10
280.6714514703888
 20
332.5303287610745
 30
0.0
  0
POINT
  5
34
330
2B
100
AcDbEntity
  8
DEFPOINTS
 62
     0
440
 16777216
100
AcDbPoint
 10
280.6714514703888
 20
349.030328761075
 30
0.0
  0
ENDBLK
  5
36
330
2B
100
AcDbEntity
  8
0
100
AcDbBlockEnd
  0
BLOCK
  5
21
330
15
100
AcDbEntity
  8
0
100
AcDbBlockBegin
  2
*D1
 70
     1
 10
0.0
 20
0.0
 30
0.0
  3
*D1
  1

  0
LINE
  5
623
330
15
100
AcDbEntity
  8
BEMASS
440
 16777216
370
    -2
100
AcDbLine
 10
130.6714514703881
 20
328.030328761075
 30
0.0
 11
113.6714514703881
 21
328.0303287610751
 31
0.0
  0
LINE
  5
624
330
15
100
AcDbEntity
  8
BEMASS
440
 16777216
370
    -2
100
AcDbLine
 10
132.1714514703883
 20
334.030328761075
 30
0.0
 11
113.6714514703881
 21
334.0303287610751
 31
0.0
  0
LINE
  5
625
330
15
100
AcDbEntity
  8
BEMASS
440
 16777216
370
    -2
100
AcDbLine
 10
115.6714514703881
 20
324.5303287610751
 30
0.0
 11
115.6714514703881
 21
321.030328761075
 31
0.0
  0
LINE
  5
626
330
15
100
AcDbEntity
  8
BEMASS
440
 16777216
370
    -2
100
AcDbLine
 10
115.6714514703881
 20
337.530328761075
 30
0.0
 11
115.6714514703881
 21
341.0303287610751
 31
0.0
  0
SOLID
  5
627
330
15
100
AcDbEntity
  8
BEMASS
440
 16777216
100
AcDbTrace
 10
115.0881181370547
 20
324.5303287610751
 30
0.0
 11
116.2547848037214
 21
324.5303287610751
 31
0.0
 12
115.6714514703881
 22
328.0303287610751
 32
0.0
 13
115.6714514703881
 23
328.0303287610751
 33
0.0
  0
SOLID
  5
628
330
15
100
AcDbEntity
  8
BEMASS
440
 16777216
100
AcDbTrace
 10
115.0881181370547
 20
337.530328761075
 30
0.0
 11
116.2547848037214
 21
337.530328761075
 31
0.0
 12
115.6714514703881
 22
334.0303287610751
 32
0.0
 13
115.6714514703881
 23
334.0303287610751
 33
0.0
  0
MTEXT
  5
629
330
15
100
AcDbEntity
  8
BEMASS
440
 16777216
100
AcDbMText
 10
111.171451470388
 20
331.030328761075
 30
0.0
 40
5.0
 41
0.0
 46
0.0
 71
     5
 72
     1
  1
\A1;6
 11
0.0000000000000001
 21
1.0
 31
0.0
 73
     1
 44
1.0
  0
POINT
  5
62A
330
15
100
AcDbEntity
  8
DEFPOINTS
 62
     0
440
 16777216
100
AcDbPoint
 10
130.6714514703881
 20
328.030328761075
 30
0.0
  0
POINT
  5
62B
330
15
100
AcDbEntity
  8
DEFPOINTS
 62
     0
440
 16777216
100
AcDbPoint
 10
132.1714514703883
 20
334.030328761075
 30
0.0
  0
POINT
  5
62C
330
15
100
AcDbEntity
  8
DEFPOINTS
 62
     0
440
 16777216
100
AcDbPoint
 10
115.6714514703881
 20
334.0303287610751
 30
0.0
  0
ENDBLK
  5
23
330
15
100
AcDbEntity
  8
0
100
AcDbBlockEnd
  0
BLOCK
  5
12C
330
122
100
AcDbEntity
  8
0
100
AcDbBlockBegin
  2
*D2
 70
     1
 10
0.0
 20
0.0
 30
0.0
  3
*D2
  1

  0
LINE
  5
123
330
122
100
AcDbEntity
  8
BEMASS
440
 16777216
370
    -2
100
AcDbLine
 10
306.1432569033267
 20
279.4161035864433
 30
0.0
 11
353.0139560380542
 21
277.3696846674399
 31
0.0
  0
LINE
  5
124
330
122
100
AcDbEntity
  8
BEMASS
440
 16777216
370
    -2
100
AcDbLine
 10
307.5390772990175
 20
311.3856466770628
 30
0.0
 11
354.409776433745
 21
309.3392277580594
 31
0.0
  0
LINE
  5
125
330
122
100
AcDbEntity
  8
BEMASS
440
 16777216
370
    -2
100
AcDbLine
 10
351.1685274506692
 20
280.9535922177071
 30
0.0
 11
352.2590121348026
 21
305.9297977572535
 31
0.0
  0
SOLID
  5
126
330
122
100
AcDbEntity
  8
BEMASS
440
 16777216
100
AcDbTrace
 10
350.5857493214132
 20
280.9790368603369
 30
0.0
 11
351.7513055799253
 21
280.9281475750773
 31
0.0
 12
351.0158595948905
 22
277.4569234421706
 32
0.0
 13
351.0158595948905
 23
277.4569234421706
 33
0.0
  0
SOLID
  5
127
330
122
100
AcDbEntity
  8
BEMASS
440
 16777216
100
AcDbTrace
 10
351.6762340055466
 20
305.9552423998833
 30
0.0
 11
352.8417902640587
 21
305.9043531146238
 31
0.0
 12
352.4116799905812
 22
309.4264665327901
 32
0.0
 13
352.4116799905812
 23
309.4264665327901
 33
0.0
  0
MTEXT
  5
128
330
122
100
AcDbEntity
  8
BEMASS
440
 16777216
100
AcDbMText
 10
347.2180527956176
 20
293.6379822306244
 30
0.0
 40
5.0
 41
0.0
 46
0.0
 71
     5
 72
     1
  1
\A1;%%c32
 11
0.0436193873653358
 21
0.9990482215818577
 31
0.0
 73
     1
 44
1.0
  0
POINT
  5
129
330
122
100
AcDbEntity
  8
DEFPOINTS
 62
     0
440
 16777216
100
AcDbPoint
 10
306.1432569033267
 20
279.4161035864433
 30
0.0
  0
POINT
  5
12A
330
122
100
AcDbEntity
  8
DEFPOINTS
 62
     0
440
 16777216
100
AcDbPoint
 10
307.5390772990175
 20
311.3856466770628
 30
0.0
  0
POINT
  5
12B
330
122
100
AcDbEntity
  8
DEFPOINTS
 62
     0
440
 16777216
100
AcDbPoint
 10
352.4116799905812
 20
309.4264665327901
 30
0.0
  0
ENDBLK
  5
12D
330
122
100
AcDbEntity
  8
0
100
AcDbBlockEnd
  0
BLOCK
  5
13B
330
131
100
AcDbEntity
  8
0
100
AcDbBlockBegin
  2
*D3
 70
     1
 10
0.0
 20
0.0
 30
0.0
  3
*D3
  1

  0
LINE
  5
132
330
131
100
AcDbEntity
  8
BEMASS
440
 16777216
370
    -2
100
AcDbLine
 10
205.6714514703884
 20
281.3912102347558
 30
0.0
 11
205.6714514703884
 21
266.0398061976018
 31
0.0
  0
LINE
  5
133
330
131
100
AcDbEntity
  8
BEMASS
440
 16777216
370
    -2
100
AcDbLine
 10
310.8373599874996
 20
295.2263975822918
 30
0.0
 11
310.8373599874996
 21
266.0398061976018
 31
0.0
  0
LINE
  5
134
330
131
100
AcDbEntity
  8
BEMASS
440
 16777216
370
    -2
100
AcDbLine
 10
209.1714514703884
 20
268.0398061976018
 30
0.0
 11
307.3373599874996
 21
268.0398061976018
 31
0.0
  0
SOLID
  5
135
330
131
100
AcDbEntity
  8
BEMASS
440
 16777216
100
AcDbTrace
 10
209.1714514703884
 20
268.6231395309351
 30
0.0
 11
209.1714514703884
 21
267.4564728642685
 31
0.0
 12
205.6714514703884
 22
268.0398061976018
 32
0.0
 13
205.6714514703884
 23
268.0398061976018
 33
0.0
  0
SOLID
  5
136
330
131
100
AcDbEntity
  8
BEMASS
440
 16777216
100
AcDbTrace
 10
307.3373599874996
 20
268.6231395309351
 30
0.0
 11
307.3373599874996
 21
267.4564728642685
 31
0.0
 12
310.8373599874996
 22
268.0398061976018
 32
0.0
 13
310.8373599874996
 23
268.0398061976018
 33
0.0
  0
MTEXT
  5
137
330
131
100
AcDbEntity
  8
BEMASS
440
 16777216
100
AcDbMText
 10
258.254405728944
 20
272.5398061976018
 30
0.0
 40
5.0
 41
0.0
 46
0.0
 71
     5
 72
     1
  1
\A1;105
 73
     1
 44
1.0
  0
POINT
  5
138
330
131
100
AcDbEntity
  8
DEFPOINTS
 62
     0
440
 16777216
100
AcDbPoint
 10
205.6714514703884
 20
281.3912102347558
 30
0.0
  0
POINT
  5
139
330
131
100
AcDbEntity
  8
DEFPOINTS
 62
     0
440
 16777216
100
AcDbPoint
 10
310.8373599874996
 20
295.2263975822918
 30
0.0
  0
POINT
  5
13A
330
131
100
AcDbEntity
  8
DEFPOINTS
 62
     0
440
 16777216
100
AcDbPoint
 10
310.8373599874996
 20
268.0398061976018
 30
0.0
  0
ENDBLK
  5
13C
330
131
100
AcDbEntity
  8
0
100
AcDbBlockEnd
  0
BLOCK
  5
1D7
330
18D
100
AcDbEntity
  8
0
100
AcDbBlockBegin
  2
RA_A2_Pr
 70
     0
 10
0.0
 20
0.0
 30
0.0
  3
RA_A2_Pr
  1

  0
LWPOLYLINE
  5
18E
330
18D
100
AcDbEntity
  8
KOPF
 62
    22
100
AcDbPolyline
 90
        4
 70
     1
 43
0.7
 10
588.0
 20
414.0
 10
588.0
 20
6.0
 10
21.0
 20
6.0
 10
21.0
 20
414.0
  0
LINE
  5
191
330
18D
100
AcDbEntity
  8
KOPF
 62
    22
100
AcDbLine
 10
0.0
 20
420.0
 30
0.0
 11
594.0
 21
420.0
 31
0.0
  0
LINE
  5
192
330
18D
100
AcDbEntity
  8
KOPF
 62
    22
100
AcDbLine
 10
594.0
 20
0.0
 30
0.0
 11
0.0
 21
0.0
 31
0.0
  0
LINE
  5
193
330
18D
100
AcDbEntity
  8
KOPF
 62
    22
100
AcDbLine
 10
0.0
 20
0.0
 30
0.0
 11
0.0
 21
420.0
 31
0.0
  0
TEXT
  5
194
330
18D
100
AcDbEntity
  8
KOPF
 62
    22
100
AcDbText
 10
16.12763230177199
 20
41.42224686135696
 30
0.0
 40
2.5
  1
A
 41
0.8
  7
TEXT25
100
AcDbText
  0
LINE
  5
196
330
18D
100
AcDbEntity
  8
KOPF
 62
    22
100
AcDbLine
 10
21.0
 20
79.00000000000002
 30
0.0
 11
18.0
 21
79.00000000000002
 31
0.0
  0
TEXT
  5
197
330
18D
100
AcDbEntity
  8
KOPF
 62
    22
100
AcDbText
 10
16.12763230177199
 20
114.422246861357
 30
0.0
 40
2.5
  1
B
 41
0.8
  7
TEXT25
100
AcDbText
  0
TEXT
  5
198
330
18D
100
AcDbEntity
  8
KOPF
 62
    22
100
AcDbText
 10
56.29677316682592
 20
1.370968748636755
 30
0.0
 40
2.5
  1
1
 41
0.8
  7
TEXT25
100
AcDbText
  0
LINE
  5
199
330
18D
100
AcDbEntity
  8
KOPF
 62
    22
100
AcDbLine
 10
93.0
 20
6.0
 30
0.0
 11
93.0
 21
3.0
 31
0.0
  0
TEXT
  5
19A
330
18D
100
AcDbEntity
  8
KOPF
 62
    22
100
AcDbText
 10
128.2967731668259
 20
1.370968748636755
 30
0.0
 40
2.5
  1
2
 41
0.8
  7
TEXT25
100
AcDbText
  0
LINE
  5
19B
330
18D
100
AcDbEntity
  8
KOPF
 62
    22
100
AcDbLine
 10
165.0
 20
6.0
 30
0.0
 11
165.0
 21
3.0
 31
0.0
  0
TEXT
  5
19C
330
18D
100
AcDbEntity
  8
KOPF
 62
    22
100
AcDbText
 10
200.2967731668259
 20
1.370968748636755
 30
0.0
 40
2.5
  1
3
 41
0.8
  7
TEXT25
100
AcDbText
  0
LINE
  5
19D
330
18D
100
AcDbEntity
  8
KOPF
 62
    22
100
AcDbLine
 10
210.0
 20
0.0
 30
0.0
 11
210.0
 21
6.0
 31
0.0
  0
LINE
  5
19E
330
18D
100
AcDbEntity
  8
KOPF
 62
    22
100
AcDbLine
 10
0.0
 20
148.5
 30
0.0
 11
10.54770188609711
 21
148.5
 31
0.0
  0
LINE
  5
19F
330
18D
100
AcDbEntity
  8
KOPF
 62
    22
100
AcDbLine
 10
21.0
 20
152.0
 30
0.0
 11
18.0
 21
152.0
 31
0.0
  0
TEXT
  5
1A0
330
18D
100
AcDbEntity
  8
KOPF
 62
    22
100
AcDbText
 10
16.12763230177199
 20
187.4222468613569
 30
0.0
 40
2.5
  1
C
 41
0.8
  7
TEXT25
100
AcDbText
  0
LINE
  5
1A1
330
18D
100
AcDbEntity
  8
KOPF
 62
    22
100
AcDbLine
 10
21.0
 20
225.0
 30
0.0
 11
18.0
 21
225.0
 31
0.0
  0
TEXT
  5
1A2
330
18D
100
AcDbEntity
  8
KOPF
 62
    22
100
AcDbText
 10
16.12763230177199
 20
260.422246861357
 30
0.0
 40
2.5
  1
D
 41
0.8
  7
TEXT25
100
AcDbText
  0
LINE
  5
1A3
330
18D
100
AcDbEntity
  8
KOPF
 62
    22
100
AcDbLine
 10
12.33785021057986
 20
296.9999999999999
 30
0.0
 11
21.0
 21
296.9999999999999
 31
0.0
  0
LINE
  5
1A4
330
18D
100
AcDbEntity
  8
KOPF
 62
    22
100
AcDbLine
 10
21.0
 20
298.0
 30
0.0
 11
18.0
 21
298.0
 31
0.0
  0
TEXT
  5
1A5
330
18D
100
AcDbEntity
  8
KOPF
 62
    22
100
AcDbText
 10
16.12763230177199
 20
333.422246861357
 30
0.0
 40
2.5
  1
E
 41
0.8
  7
TEXT25
100
AcDbText
  0
LINE
  5
1A6
330
18D
100
AcDbEntity
  8
KOPF
 62
    22
100
AcDbLine
 10
21.0
 20
371.0
 30
0.0
 11
18.0
 21
371.0
 31
0.0
  0
TEXT
  5
1A7
330
18D
100
AcDbEntity
  8
KOPF
 62
    22
100
AcDbText
 10
16.12763230177199
 20
393.4920404627393
 30
0.0
 40
2.5
  1
F
 41
0.8
  7
TEXT25
100
AcDbText
  0
TEXT
  5
1A8
330
18D
100
AcDbEntity
  8
KOPF
 62
    22
100
AcDbText
 10
56.29677316682592
 20
415.6290312513632
 30
0.0
 40
2.5
  1
1
 41
0.8
  7
TEXT25
100
AcDbText
  0
LINE
  5
1A9
330
18D
100
AcDbEntity
  8
KOPF
 62
    22
100
AcDbLine
 10
93.0
 20
414.0
 30
0.0
 11
93.0
 21
417.0
 31
0.0
  0
TEXT
  5
1AA
330
18D
100
AcDbEntity
  8
KOPF
 62
    22
100
AcDbText
 10
128.2967731668259
 20
415.6290312513632
 30
0.0
 40
2.5
  1
2
 41
0.8
  7
TEXT25
100
AcDbText
  0
LINE
  5
1AB
330
18D
100
AcDbEntity
  8
KOPF
 62
    22
100
AcDbLine
 10
165.0
 20
414.0
 30
0.0
 11
165.0
 21
417.0
 31
0.0
  0
TEXT
  5
1AC
330
18D
100
AcDbEntity
  8
KOPF
 62
    22
100
AcDbText
 10
200.2967731668259
 20
415.6290312513632
 30
0.0
 40
2.5
  1
3
 41
0.8
  7
TEXT25
100
AcDbText
  0
LINE
  5
1AD
330
18D
100
AcDbEntity
  8
KOPF
 62
    22
100
AcDbLine
 10
594.0
 20
420.0
 30
0.0
 11
594.0
 21
0.0
 31
0.0
  0
LINE
  5
1AE
330
18D
100
AcDbEntity
  8
KOPF
 62
    22
100
AcDbLine
 10
237.0
 20
6.0
 30
0.0
 11
237.0
 21
3.0
 31
0.0
  0
TEXT
  5
1AF
330
18D
100
AcDbEntity
  8
KOPF
 62
    22
100
AcDbText
 10
272.2967731668259
 20
1.370968748636755
 30
0.0
 40
2.5
  1
4
 41
0.8
  7
TEXT25
100
AcDbText
  0
LINE
  5
1B0
330
18D
100
AcDbEntity
  8
KOPF
 62
    22
100
AcDbLine
 10
309.0
 20
6.0
 30
0.0
 11
309.0
 21
3.0
 31
0.0
  0
TEXT
  5
1B1
330
18D
100
AcDbEntity
  8
KOPF
 62
    22
100
AcDbText
 10
345.2967731668259
 20
1.370968748636755
 30
0.0
 40
2.5
  1
5
 41
0.8
  7
TEXT25
100
AcDbText
  0
LINE
  5
1B2
330
18D
100
AcDbEntity
  8
KOPF
 62
    22
100
AcDbLine
 10
381.0
 20
6.0
 30
0.0
 11
381.0
 21
3.0
 31
0.0
  0
LINE
  5
1B3
330
18D
100
AcDbEntity
  8
KOPF
 62
    22
100
AcDbLine
 10
398.0
 20
6.0
 30
0.0
 11
398.0
 21
0.0
 31
0.0
  0
TEXT
  5
1B4
330
18D
100
AcDbEntity
  8
KOPF
 62
    22
100
AcDbText
 10
416.2967731668259
 20
1.370968748636755
 30
0.0
 40
2.5
  1
6
 41
0.8
  7
TEXT25
100
AcDbText
  0
LINE
  5
1B5
330
18D
100
AcDbEntity
  8
KOPF
 62
    22
100
AcDbLine
 10
525.0699601119618
 20
6.0
 30
0.0
 11
525.0699601119618
 21
3.0
 31
0.0
  0
TEXT
  5
1B6
330
18D
100
AcDbEntity
  8
KOPF
 62
    22
100
AcDbText
 10
580.8263465050426
 20
1.370968748636755
 30
0.0
 40
3.0
  1
A2
 41
0.8
  7
BEMSTIL
100
AcDbText
  0
TEXT
  5
1B8
330
18D
100
AcDbEntity
  8
KOPF
 62
    22
100
AcDbText
 10
589.5361572162235
 20
41.42224686135693
 30
0.0
 40
2.5
  1
A
 41
0.8
  7
TEXT25
100
AcDbText
  0
LINE
  5
1B9
330
18D
100
AcDbEntity
  8
KOPF
 62
    22
100
AcDbLine
 10
588.0
 20
79.00000000000002
 30
0.0
 11
591.0
 21
79.00000000000002
 31
0.0
  0
TEXT
  5
1BA
330
18D
100
AcDbEntity
  8
KOPF
 62
    22
100
AcDbText
 10
589.8161572162234
 20
114.422246861357
 30
0.0
 40
2.5
  1
B
 41
0.8
  7
TEXT25
100
AcDbText
  0
LINE
  5
1BB
330
18D
100
AcDbEntity
  8
KOPF
 62
    22
100
AcDbLine
 10
237.0
 20
414.0
 30
0.0
 11
237.0
 21
417.0
 31
0.0
  0
TEXT
  5
1BC
330
18D
100
AcDbEntity
  8
KOPF
 62
    22
100
AcDbText
 10
272.2967731668259
 20
415.6290312513632
 30
0.0
 40
3.0
  1
4
 41
0.8
  7
BEMSTIL
100
AcDbText
  0
LINE
  5
1BD
330
18D
100
AcDbEntity
  8
KOPF
 62
    22
100
AcDbLine
 10
309.0
 20
414.0
 30
0.0
 11
309.0
 21
417.0
 31
0.0
  0
TEXT
  5
1BE
330
18D
100
AcDbEntity
  8
KOPF
 62
    22
100
AcDbText
 10
345.2967731668259
 20
415.6290312513632
 30
0.0
 40
2.5
  1
5
 41
0.8
  7
TEXT25
100
AcDbText
  0
LINE
  5
1BF
330
18D
100
AcDbEntity
  8
KOPF
 62
    22
100
AcDbLine
 10
381.0
 20
414.0
 30
0.0
 11
381.0
 21
417.0
 31
0.0
  0
LINE
  5
1C0
330
18D
100
AcDbEntity
  8
KOPF
 62
    22
100
AcDbLine
 10
588.0
 20
152.0
 30
0.0
 11
591.0
 21
152.0
 31
0.0
  0
TEXT
  5
1C1
330
18D
100
AcDbEntity
  8
KOPF
 62
    22
100
AcDbText
 10
589.9421173281852
 20
187.4222468613569
 30
0.0
 40
2.5
  1
C
 41
0.8
  7
TEXT25
100
AcDbText
  0
TEXT
  5
1C2
330
18D
100
AcDbEntity
  8
KOPF
 62
    22
100
AcDbText
 10
589.9421173281852
 20
187.4222468613569
 30
0.0
 40
2.5
  1
C
 41
0.8
  7
TEXT25
100
AcDbText
  0
TEXT
  5
1C3
330
18D
100
AcDbEntity
  8
KOPF
 62
    22
100
AcDbText
 10
589.8721572162234
 20
187.4222468613569
 30
0.0
 40
2.5
  1
C
 41
0.8
  7
TEXT25
100
AcDbText
  0
LINE
  5
1C4
330
18D
100
AcDbEntity
  8
KOPF
 62
    22
100
AcDbLine
 10
588.0699601119617
 20
225.0
 30
0.0
 11
591.0699601119618
 21
225.0
 31
0.0
  0
LINE
  5
1C5
330
18D
100
AcDbEntity
  8
KOPF
 62
    22
100
AcDbLine
 10
588.0699601119617
 20
225.0
 30
0.0
 11
591.0699601119618
 21
225.0
 31
0.0
  0
LINE
  5
1C6
330
18D
100
AcDbEntity
  8
KOPF
 62
    22
100
AcDbLine
 10
588.0
 20
225.0
 30
0.0
 11
591.0
 21
225.0
 31
0.0
  0
TEXT
  5
1C7
330
18D
100
AcDbEntity
  8
KOPF
 62
    22
100
AcDbText
 10
589.8861173281852
 20
260.422246861357
 30
0.0
 40
2.5
  1
D
 41
0.8
  7
TEXT25
100
AcDbText
  0
TEXT
  5
1C8
330
18D
100
AcDbEntity
  8
KOPF
 62
    22
100
AcDbText
 10
589.8861173281852
 20
260.422246861357
 30
0.0
 40
2.5
  1
D
 41
0.8
  7
TEXT25
100
AcDbText
  0
TEXT
  5
1C9
330
18D
100
AcDbEntity
  8
KOPF
 62
    22
100
AcDbText
 10
589.8161572162234
 20
260.422246861357
 30
0.0
 40
2.5
  1
D
 41
0.8
  7
TEXT25
100
AcDbText
  0
TEXT
  5
1CA
330
18D
100
AcDbEntity
  8
KOPF
 62
    22
100
AcDbText
 10
416.2967731668259
 20
415.6290312513632
 30
0.0
 40
2.5
  1
6
 41
0.8
  7
TEXT25
100
AcDbText
  0
LINE
  5
1CB
330
18D
100
AcDbEntity
  8
KOPF
 62
    22
100
AcDbLine
 10
453.0
 20
414.0
 30
0.0
 11
453.0
 21
417.0
 31
0.0
  0
TEXT
  5
1CC
330
18D
100
AcDbEntity
  8
KOPF
 62
    22
100
AcDbText
 10
488.2967731668259
 20
415.6290312513632
 30
0.0
 40
2.5
  1
7
 41
0.8
  7
TEXT25
100
AcDbText
  0
LINE
  5
1CD
330
18D
100
AcDbEntity
  8
KOPF
 62
    22
100
AcDbLine
 10
588.0699601119617
 20
298.0
 30
0.0
 11
591.0699601119618
 21
298.0
 31
0.0
  0
LINE
  5
1CE
330
18D
100
AcDbEntity
  8
KOPF
 62
    22
100
AcDbLine
 10
588.0699601119617
 20
298.0
 30
0.0
 11
591.0699601119618
 21
298.0
 31
0.0
  0
LINE
  5
1CF
330
18D
100
AcDbEntity
  8
KOPF
 62
    22
100
AcDbLine
 10
588.0
 20
298.0
 30
0.0
 11
591.0
 21
298.0
 31
0.0
  0
TEXT
  5
1D0
330
18D
100
AcDbEntity
  8
KOPF
 62
    22
100
AcDbText
 10
589.8861173281852
 20
333.422246861357
 30
0.0
 40
2.5
  1
E
 41
0.8
  7
TEXT25
100
AcDbText
  0
TEXT
  5
1D1
330
18D
100
AcDbEntity
  8
KOPF
 62
    22
100
AcDbText
 10
589.8861173281852
 20
333.422246861357
 30
0.0
 40
2.5
  1
E
 41
0.8
  7
TEXT25
100
AcDbText
  0
TEXT
  5
1D2
330
18D
100
AcDbEntity
  8
KOPF
 62
    22
100
AcDbText
 10
589.8161572162234
 20
333.422246861357
 30
0.0
 40
2.5
  1
E
 41
0.8
  7
TEXT25
100
AcDbText
  0
LINE
  5
1D3
330
18D
100
AcDbEntity
  8
KOPF
 62
    22
100
AcDbLine
 10
525.0
 20
414.0
 30
0.0
 11
525.0
 21
417.0
 31
0.0
  0
LINE
  5
1D4
330
18D
100
AcDbEntity
  8
KOPF
 62
    22
100
AcDbLine
 10
588.0
 20
371.0
 30
0.0
 11
591.0
 21
371.0
 31
0.0
  0
TEXT
  5
1D5
330
18D
100
AcDbEntity
  8
KOPF
 62
    22
100
AcDbText
 10
560.2967731668258
 20
415.6290312513632
 30
0.0
 40
2.5
  1
8
 41
0.8
  7
TEXT25
100
AcDbText
  0
TEXT
  5
1D6
330
18D
100
AcDbEntity
  8
KOPF
 62
    22
100
AcDbText
 10
589.8161572162234
 20
393.4920404627393
 30
0.0
 40
2.5
  1
F
 41
0.8
  7
TEXT25
100
AcDbText
  0
ENDBLK
  5
1D8
330
18D
100
AcDbEntity
  8
0
100
AcDbBlockEnd
  0
BLOCK
  5
2AA
330
298
100
AcDbEntity
  8
0
100
AcDbBlockBegin
  2
A$C17D61B2D
 70
     0
 10
0.0
 20
0.0
 30
0.0
  3
A$C17D61B2D
  1

  0
TEXT
  5
299
330
298
100
AcDbEntity
  8
TEXT25
100
AcDbText
 10
30.87850901831645
 20
0.9382700750549801
 30
0.0
 40
2.0
  1
582 22 Pribyslav
 41
0.8
  7
TEXT25
100
AcDbText
  0
CIRCLE
  5
29A
330
298
100
AcDbEntity
  8
TEXT35
100
AcDbCircle
 10
15.72339699741562
 20
3.469033628030828
 30
0.0
 40
2.281499999999998
  0
CIRCLE
  5
29B
330
298
100
AcDbEntity
  8
TEXT35
100
AcDbCircle
 10
15.72339699741562
 20
3.469033628030828
 30
0.0
 40
1.579499999999999
  0
LWPOLYLINE
  5
29C
330
298
100
AcDbEntity
  8
TEXT35
100
AcDbPolyline
 90
        4
 70
     1
 43
0.0
 10
10.62677788559575
 20
2.679283628030795
 42
-3.664441495333134
 10
10.61199359762702
 20
4.283854443711881
 10
11.2200148949108
 20
4.634895703371711
 42
3.685001202565794
 10
11.23472771905243
 20
2.328283628030796
  0
LWPOLYLINE
  5
29D
330
298
100
AcDbEntity
  8
TEXT35
100
AcDbPolyline
 90
        4
 70
     1
 43
0.0
 10
6.464506005892886
 20
13.23480232842506
 10
6.464506005892886
 20
0.0000000074210078
 10
12.05327551474352
 20
0.0000000074210078
 10
12.05327551474352
 20
13.23480232842506
  0
LWPOLYLINE
  5
29E
330
298
100
AcDbEntity
  8
TEXT35
100
AcDbPolyline
 90
        4
 70
     1
 43
0.0
 10
18.51778175184091
 20
13.23480232842506
 10
18.51778175184091
 20
0.0000000074210078
 10
12.92901224299031
 20
0.0000000074210078
 10
12.92901224299031
 20
13.23480232842506
  0
TEXT
  5
29F
330
298
100
AcDbEntity
  8
TEXT25
100
AcDbText
 10
56.32815580692983
 20
1.133682847130231
 30
0.0
 40
2.1
  1
Fax: 0451 / 482529
 41
0.7
  7
ROMANS8
100
AcDbText
  0
LWPOLYLINE
  5
2A1
330
298
100
AcDbEntity
  8
TEXT35
100
AcDbPolyline
 90
        7
 70
     1
 43
0.0
 10
1.214946902987747
 20
1.156826878358494
 42
-0.0323236910300514
 10
1.259126029445354
 20
1.78997874937292
 10
4.329643016996229
 20
1.78997874937292
 42
-0.0323236910300515
 10
4.373822143453722
 20
1.156826878358494
 10
5.075829941005736
 20
1.156826878358494
 42
0.2369604974400691
 10
2.794384523220728
 20
5.650978749372697
 42
0.2369604974400691
 10
0.5129391054357058
 20
1.156826878358494
  0
LWPOLYLINE
  5
2A2
330
298
100
AcDbEntity
  8
TEXT35
100
AcDbPolyline
 90
        4
 70
     1
 43
0.0
 10
-0.0000002312045524
 20
13.23480232842506
 10
-0.0000002312045524
 20
0.0000000074210078
 10
5.588769277646022
 20
0.0000000074210078
 10
5.588769277646022
 20
13.23480232842506
  0
LWPOLYLINE
  5
2A3
330
298
100
AcDbEntity
  8
TEXT25
100
AcDbPolyline
 90
        3
 70
     0
 43
0.0
 10
35.97331500896064
 20
6.576413418349517
 10
36.28329402847027
 20
6.233280786482978
 10
36.56006185210757
 20
6.598551176006488
  0
TEXT
  5
2A4
330
298
100
AcDbEntity
  8
TEXT25
100
AcDbText
 10
31.16484510745873
 20
4.564567807056448
 30
0.0
 40
2.0
  1
Havlickova 260
 41
0.8
  7
TEXT25
100
AcDbText
  0
TEXT
  5
2A5
330
298
100
AcDbEntity
  8
TEXT35
100
AcDbText
 10
30.60986516410871
 20
9.757637146467189
 30
0.0
 40
3.0
  1
ACO Stavebni prvky k.s
 41
0.8
  7
ITALICC8
100
AcDbText
  0
LWPOLYLINE
  5
2A7
330
298
100
AcDbEntity
  8
TEXT35
100
AcDbPolyline
 90
        3
 70
     1
 43
0.0
 10
2.794384523220813
 20
4.741568886939916
 42
-0.1369919174131033
 10
4.181964078490665
 20
2.491978749372925
 10
1.406804967950819
 20
2.491978749372925
 42
-0.136991917413112
  0
TEXT
  5
2A8
330
298
100
AcDbEntity
  8
TEXT25
100
AcDbText
 10
56.27541966991671
 20
4.462289744237651
 30
0.0
 40
2.1
  1
Tel.: 0451 / 491660
 41
0.7
  7
ROMANS8
100
AcDbText
  0
LWPOLYLINE
  5
2A9
330
298
100
AcDbEntity
  8
TEXT25
100
AcDbPolyline
 90
        3
 70
     0
 43
0.0
 10
39.25755894031892
 20
3.085395868142015
 10
39.56753795982848
 20
2.742263236275476
 10
39.84430578346579
 20
3.107533625798993
  0
ENDBLK
  5
2AB
330
298
100
AcDbEntity
  8
0
100
AcDbBlockEnd
  0
BLOCK
  5
2AC
330
205
100
AcDbEntity
  8
0
100
AcDbBlockBegin
  2
SF_PRI
 70
     2
 10
0.0
 20
0.0
 30
0.0
  3
SF_PRI
  1

  0
LINE
  5
206
330
205
100
AcDbEntity
  8
KOPF
100
AcDbLine
 10
-162.682677
 20
78.49999999999997
 30
0.0
 11
0.0
 21
78.49999999999997
 31
0.0
  0
TEXT
  5
207
330
205
100
AcDbEntity
  8
KOPF
100
AcDbText
 10
-94.40535829344497
 20
70.39773773357916
 30
0.0
 40
2.0
  1
Benennung
 41
0.8
  7
TEXT20
100
AcDbText
  0
LINE
  5
208
330
205
100
AcDbEntity
  8
KOPF
100
AcDbLine
 10
0.0
 20
73.49999999999997
 30
0.0
 11
-182.0
 21
73.49999999999997
 31
0.0
  0
LINE
  5
209
330
205
100
AcDbEntity
  8
KOPF
100
AcDbLine
 10
-182.0
 20
83.49999999999997
 30
0.0
 11
0.0
 21
83.49999999999997
 31
0.0
  0
LINE
  5
20A
330
205
100
AcDbEntity
  8
KOPF
100
AcDbLine
 10
0.0
 20
88.49999999999996
 30
0.0
 11
-182.0
 21
88.49999999999996
 31
0.0
  0
LINE
  5
20B
330
205
100
AcDbEntity
  8
KOPF
100
AcDbLine
 10
0.0
 20
68.49999999999997
 30
0.0
 11
-182.0
 21
68.49999999999997
 31
0.0
  0
LINE
  5
20C
330
205
100
AcDbEntity
  8
KOPF
 62
     9
100
AcDbLine
 10
0.0
 20
27.0
 30
0.0
 11
-182.0
 21
27.0
 31
0.0
  0
LINE
  5
20D
330
205
100
AcDbEntity
  8
KOPF
 62
    12
100
AcDbLine
 10
-162.682677
 20
78.49999999999997
 30
0.0
 11
0.0
 21
78.49999999999997
 31
0.0
  0
LINE
  5
20E
330
205
100
AcDbEntity
  8
KOPF
 62
    12
100
AcDbLine
 10
0.0
 20
73.49999999999997
 30
0.0
 11
-182.0
 21
73.49999999999997
 31
0.0
  0
LINE
  5
20F
330
205
100
AcDbEntity
  8
KOPF
 62
    12
100
AcDbLine
 10
-182.0
 20
83.49999999999997
 30
0.0
 11
0.0
 21
83.49999999999997
 31
0.0
  0
LINE
  5
210
330
205
100
AcDbEntity
  8
KOPF
 62
    12
100
AcDbLine
 10
0.0
 20
88.49999999999996
 30
0.0
 11
-182.0
 21
88.49999999999996
 31
0.0
  0
LWPOLYLINE
  5
211
330
205
100
AcDbEntity
  8
KOPF
 62
    12
100
AcDbPolyline
 90
        2
 70
     0
 43
0.5
 10
0.0
 20
27.0
 10
-182.0
 20
27.0
  0
LWPOLYLINE
  5
212
330
205
100
AcDbEntity
  8
KOPF
 62
    12
100
AcDbPolyline
 90
        2
 70
     0
 43
0.5
 10
0.0
 20
46.99999999999997
 10
-182.0
 20
46.99999999999997
  0
LWPOLYLINE
  5
213
330
205
100
AcDbEntity
  8
KOPF
 62
    12
100
AcDbPolyline
 90
        2
 70
     0
 43
0.5
 10
0.0
 20
68.49999999999997
 10
-182.0
 20
68.49999999999997
  0
LINE
  5
214
330
205
100
AcDbEntity
  8
KOPF
100
AcDbLine
 10
-113.4
 20
38.18891161795127
 30
0.0
 11
-182.0
 21
38.18891161795127
 31
0.0
  0
LINE
  5
215
330
205
100
AcDbEntity
  8
KOPF
100
AcDbLine
 10
-182.0
 20
41.99999999999996
 30
0.0
 11
-113.4
 21
41.99999999999996
 31
0.0
  0
LINE
  5
216
330
205
100
AcDbEntity
  8
KOPF
100
AcDbLine
 10
-182.0
 20
57.74999999999997
 30
0.0
 11
-100.0
 21
57.74999999999997
 31
0.0
  0
LINE
  5
217
330
205
100
AcDbEntity
  8
KOPF
 62
    12
100
AcDbLine
 10
-182.0
 20
41.99999999999996
 30
0.0
 11
-113.4
 21
41.99999999999996
 31
0.0
  0
LINE
  5
218
330
205
100
AcDbEntity
  8
KOPF
 62
    12
100
AcDbLine
 10
-182.0
 20
57.74999999999997
 30
0.0
 11
-100.0
 21
57.74999999999997
 31
0.0
  0
LINE
  5
219
330
205
100
AcDbEntity
  8
KOPF
 62
    12
100
AcDbLine
 10
-182.0
 20
34.17599418553943
 30
0.0
 11
-113.4
 21
34.17599418553943
 31
0.0
  0
ATTDEF
  5
21A
330
205
100
AcDbEntity
  8
TEXT35
100
AcDbText
 10
-179.7
 20
49.7
 30
0.0
 40
3.5
  1

 41
0.8
  7
TEXT35
100
AcDbAttributeDefinition
280
     0
  3
zul. Abweichung
  2
F62
 70
     0
280
     0
  0
LINE
  5
21B
330
205
100
AcDbEntity
  8
KOPF
100
AcDbLine
 10
-182.0
 20
88.49999999999996
 30
0.0
 11
-182.0
 21
0.0
 31
0.0
  0
LWPOLYLINE
  5
21C
330
205
100
AcDbEntity
  8
KOPF
 62
    12
100
AcDbPolyline
 90
        2
 70
     0
 43
0.7
 10
-182.0
 20
88.49999999999996
 10
-182.0
 20
0.0
  0
TEXT
  5
21D
330
205
100
AcDbEntity
  8
KOPF
100
AcDbText
 10
-179.738589
 20
35.31866212537803
 30
0.0
 40
2.0
  1
Geprüft
 41
0.8
  7
TEXT20
100
AcDbText
  0
TEXT
  5
21E
330
205
100
AcDbEntity
  8
KOPF
100
AcDbText
 10
-179.738589
 20
39.09466554638483
 30
0.0
 40
2.0
  1
Gezeichnet:
 41
0.8
  7
TEXT20
100
AcDbText
  0
TEXT
  5
21F
330
205
100
AcDbEntity
  8
KOPF
100
AcDbText
 10
-179.738589
 20
31.60503909815258
 30
0.0
 40
2.0
  1
Update:
 41
0.8
  7
TEXT20
100
AcDbText
  0
LINE
  5
220
330
205
100
AcDbEntity
  8
KOPF
100
AcDbLine
 10
-163.0
 20
46.99999999999997
 30
0.0
 11
-163.0
 21
27.0
 31
0.0
  0
LINE
  5
221
330
205
100
AcDbEntity
  8
KOPF
 62
    12
100
AcDbLine
 10
-163.0
 20
46.99999999999997
 30
0.0
 11
-163.0
 21
27.0
 31
0.0
  0
TEXT
  5
222
330
205
100
AcDbEntity
  8
KOPF
100
AcDbText
 10
-155.964455
 20
43.13467299999999
 30
0.0
 40
2.0
  1
Datum
 41
0.8
  7
TEXT20
100
AcDbText
  0
TEXT
  5
223
330
205
100
AcDbEntity
  8
KOPF
100
AcDbText
 10
-155.964455
 20
43.13467299999999
 30
0.0
 40
2.0
  1
Datum
 41
0.8
  7
TEXT20
100
AcDbText
  0
ATTDEF
  5
224
330
205
100
AcDbEntity
  8
TEXT25
100
AcDbText
 10
-161.5207141482394
 20
39.11011087449218
 30
0.0
 40
2.0
  1

 41
0.8
  7
TEXT20
100
AcDbAttributeDefinition
280
     0
  3
Gezeichnet am:
  2
F9
 70
     0
280
     0
  0
ATTDEF
  5
225
330
205
100
AcDbEntity
  8
TEXT25
100
AcDbText
 10
-161.5009557098303
 20
31.40199757513767
 30
0.0
 40
2.0
  1

 41
0.8
  7
TEXT20
100
AcDbAttributeDefinition
280
     0
  3
Update am:
  2
F53
 70
     0
280
     0
  0
ATTDEF
  5
226
330
205
100
AcDbEntity
  8
TEXT25
100
AcDbText
 10
-161.5539333606331
 20
35.00516559301049
 30
0.0
 40
2.0
  1

 41
0.8
  7
TEXT20
100
AcDbAttributeDefinition
280
     0
  3
Geprüft am:
  2
F22
 70
     0
280
     0
  0
ATTDEF
  5
227
330
205
100
AcDbEntity
  8
TEXT25
100
AcDbText
 10
-174.360415155955
 20
74.59999999999999
 30
0.0
 40
2.0
  1

 41
0.8
  7
TEXT20
100
AcDbAttributeDefinition
280
     0
  3
Index vv.:
  2
F72
 70
     0
280
     0
  0
ATTDEF
  5
228
330
205
100
AcDbEntity
  8
TEXT25
100
AcDbText
 10
-174.4435409453564
 20
79.47378932523601
 30
0.0
 40
2.0
  1

 41
0.8
  7
TEXT20
100
AcDbAttributeDefinition
280
     0
  3
Index v.:
  2
F68
 70
     0
280
     0
  0
ATTDEF
  5
229
330
205
100
AcDbEntity
  8
TEXT25
100
AcDbText
 10
-174.3700408782365
 20
84.63034186138365
 30
0.0
 40
2.0
  1

 41
0.8
  7
TEXT20
100
AcDbAttributeDefinition
280
     0
  3
Index l.:
  2
F64
 70
     0
280
     0
  0
ATTDEF
  5
22A
330
205
100
AcDbEntity
  8
TEXT35
100
AcDbText
 10
-179.7
 20
59.6
 30
0.0
 40
3.5
  1

 41
0.8
  7
TEXT35
100
AcDbAttributeDefinition
280
     0
  3
Werkstoff:
  2
F61
 70
     0
280
     0
  0
TEXT
  5
22B
330
205
100
AcDbEntity
  8
KOPF
100
AcDbText
 10
-181.0
 20
54.49999999999997
 30
0.0
 40
2.0
  1
zul. Abweich.:
 41
0.8
  7
TEXT20
100
AcDbText
  0
TEXT
  5
22C
330
205
100
AcDbEntity
  8
KOPF
100
AcDbText
 10
-180.0
 20
65.166273
 30
0.0
 40
2.0
  1
Werkstoff:
 41
0.8
  7
TEXT20
100
AcDbText
  0
LINE
  5
22D
330
205
100
AcDbEntity
  8
KOPF
100
AcDbLine
 10
-182.0
 20
78.49999999999997
 30
0.0
 11
-162.682677
 21
78.49999999999997
 31
0.0
  0
TEXT
  5
22E
330
205
100
AcDbEntity
  8
KOPF
100
AcDbText
 10
-181.0
 20
54.49999999999997
 30
0.0
 40
2.0
  1
zul. Abweich.:
 41
0.8
  7
TEXT20
100
AcDbText
  0
TEXT
  5
22F
330
205
100
AcDbEntity
  8
KOPF
100
AcDbText
 10
-180.0
 20
65.166273
 30
0.0
 40
2.0
  1
Werkstoff:
 41
0.8
  7
TEXT20
100
AcDbText
  0
LINE
  5
230
330
205
100
AcDbEntity
  8
KOPF
100
AcDbLine
 10
-182.0
 20
78.49999999999997
 30
0.0
 11
-162.682677
 21
78.49999999999997
 31
0.0
  0
LINE
  5
231
330
205
100
AcDbEntity
  8
KOPF
100
AcDbLine
 10
-162.682677
 20
88.49999999999996
 30
0.0
 11
-162.682677
 21
68.49999999999997
 31
0.0
  0
LINE
  5
232
330
205
100
AcDbEntity
  8
KOPF
100
AcDbLine
 10
-162.682677
 20
88.49999999999996
 30
0.0
 11
-162.682677
 21
68.49999999999997
 31
0.0
  0
TEXT
  5
233
330
205
100
AcDbEntity
  8
KOPF
100
AcDbText
 10
-174.6925639999999
 20
69.53813999999997
 30
0.0
 40
2.0
  1
Index
 41
0.8
  7
TEXT20
100
AcDbText
  0
TEXT
  5
234
330
205
100
AcDbEntity
  8
KOPF
100
AcDbText
 10
-174.6925639999999
 20
69.53813999999997
 30
0.0
 40
2.0
  1
Index
 41
0.8
  7
TEXT20
100
AcDbText
  0
TEXT
  5
235
330
205
100
AcDbEntity
  8
KOPF
100
AcDbText
 10
-156.706568
 20
69.53813999999997
 30
0.0
 40
2.0
  1
Datum
 41
0.8
  7
TEXT20
100
AcDbText
  0
TEXT
  5
236
330
205
100
AcDbEntity
  8
KOPF
100
AcDbText
 10
-156.706568
 20
69.53813999999997
 30
0.0
 40
2.0
  1
Datum
 41
0.8
  7
TEXT20
100
AcDbText
  0
ATTDEF
  5
237
330
205
100
AcDbEntity
  8
TEXT25
100
AcDbText
 10
-160.9
 20
75.09999999999999
 30
0.0
 40
2.0
  1

 41
0.8
  7
TEXT20
100
AcDbAttributeDefinition
280
     0
  3
Datum vv.:
  2
F73
 70
     0
280
     0
  0
ATTDEF
  5
238
330
205
100
AcDbEntity
  8
TEXT25
100
AcDbText
 10
-160.9
 20
79.40000000000001
 30
0.0
 40
2.0
  1

 41
0.8
  7
TEXT20
100
AcDbAttributeDefinition
280
     0
  3
Datum v.:
  2
F69
 70
     0
280
     0
  0
ATTDEF
  5
239
330
205
100
AcDbEntity
  8
TEXT25
100
AcDbText
 10
-160.6
 20
84.50000000000001
 30
0.0
 40
2.0
  1

 41
0.8
  7
TEXT20
100
AcDbAttributeDefinition
280
     0
  3
Datum l.:
  2
F65
 70
     0
280
     0
  0
ATTDEF
  5
23A
330
205
100
AcDbEntity
  8
TEXT35
100
AcDbText
 10
-140.2
 20
49.4
 30
0.0
 40
3.5
  1

 41
0.8
  7
TEXT35
100
AcDbAttributeDefinition
280
     0
  3
Oberfläche:
  2
F63
 70
     0
280
     0
  0
LINE
  5
23B
330
205
100
AcDbEntity
  8
KOPF
 62
    12
100
AcDbLine
 10
-100.0
 20
68.49999999999997
 30
0.0
 11
-100.0
 21
46.99999999999997
 31
0.0
  0
LINE
  5
23C
330
205
100
AcDbEntity
  8
KOPF
 62
    12
100
AcDbLine
 10
-142.0
 20
68.49999999999997
 30
0.0
 11
-142.0
 21
46.99999999999997
 31
0.0
  0
LINE
  5
23D
330
205
100
AcDbEntity
  8
KOPF
 62
    12
100
AcDbLine
 10
-100.0
 20
68.49999999999997
 30
0.0
 11
-100.0
 21
46.99999999999997
 31
0.0
  0
LINE
  5
23E
330
205
100
AcDbEntity
  8
KOPF
 62
    12
100
AcDbLine
 10
-142.0
 20
68.49999999999997
 30
0.0
 11
-142.0
 21
46.99999999999997
 31
0.0
  0
ATTDEF
  5
23F
330
205
100
AcDbEntity
  8
TEXT25
100
AcDbText
 10
-136.3996291720711
 20
31.31210389537199
 30
0.0
 40
2.0
  1

 41
0.8
  7
TEXT20
100
AcDbAttributeDefinition
280
     0
  3
Update von:
  2
F52
 70
     0
280
     0
  0
LINE
  5
240
330
205
100
AcDbEntity
  8
KOPF
100
AcDbLine
 10
-138.4
 20
46.99999999999997
 30
0.0
 11
-138.4
 21
27.0
 31
0.0
  0
LINE
  5
241
330
205
100
AcDbEntity
  8
KOPF
 62
    12
100
AcDbLine
 10
-138.4
 20
46.99999999999997
 30
0.0
 11
-138.4
 21
27.0
 31
0.0
  0
ATTDEF
  5
242
330
205
100
AcDbEntity
  8
TEXT25
100
AcDbText
 10
-136.1922113552417
 20
39.25199730580077
 30
0.0
 40
2.0
  1

 41
0.8
  7
TEXT20
100
AcDbAttributeDefinition
280
     0
  3
Gezeichnet von
  2
F8
 70
     0
280
     0
  0
ATTDEF
  5
243
330
205
100
AcDbEntity
  8
TEXT25
100
AcDbText
 10
-136.2746977811447
 20
35.16759793113587
 30
0.0
 40
2.0
  1

 41
0.8
  7
TEXT20
100
AcDbAttributeDefinition
280
     0
  3
Geprüft von:
  2
F21
 70
     0
280
     0
  0
TEXT
  5
244
330
205
100
AcDbEntity
  8
KOPF
100
AcDbText
 10
-130.065072
 20
43.14125800000002
 30
0.0
 40
2.0
  1
Name
 41
0.8
  7
TEXT20
100
AcDbText
  0
TEXT
  5
245
330
205
100
AcDbEntity
  8
KOPF
100
AcDbText
 10
-130.065072
 20
43.14125800000002
 30
0.0
 40
2.0
  1
Name
 41
0.8
  7
TEXT20
100
AcDbText
  0
ATTDEF
  5
246
330
205
100
AcDbEntity
  8
TEXT50
100
AcDbText
 10
-106.6
 20
37.8
 30
0.0
 40
5.0
  1

 41
0.8
  7
TEXT50
100
AcDbAttributeDefinition
280
     0
  3
Maßstab 1:
  2
F25
 70
     0
280
     0
  0
TEXT
  5
247
330
205
100
AcDbEntity
  8
KOPF
100
AcDbText
 10
-112.263457
 20
43.88678899999999
 30
0.0
 40
2.0
  1
Massstab:
 41
0.8
  7
TEXT20
100
AcDbText
  0
LINE
  5
248
330
205
100
AcDbEntity
  8
KOPF
100
AcDbLine
 10
-113.4
 20
27.0
 30
0.0
 11
-113.4
 21
46.99999999999997
 31
0.0
  0
LINE
  5
249
330
205
100
AcDbEntity
  8
KOPF
100
AcDbLine
 10
-113.4
 20
27.0
 30
0.0
 11
-113.4
 21
46.99999999999997
 31
0.0
  0
LWPOLYLINE
  5
24A
330
205
100
AcDbEntity
  8
KOPF
100
AcDbPolyline
 90
        2
 70
     0
 43
0.5
 10
-113.4
 20
27.0
 10
-113.4
 20
46.99999999999997
  0
LINE
  5
24B
330
205
100
AcDbEntity
  8
KOPF
 62
    12
100
AcDbLine
 10
-113.4
 20
27.0
 30
0.0
 11
-113.4
 21
46.99999999999997
 31
0.0
  0
ATTDEF
  5
24C
330
205
100
AcDbEntity
  8
TEXT35
100
AcDbText
 10
-104.487948258847
 20
28.6
 30
0.0
 40
3.5
  1

 41
0.8
  7
TEXT35
100
AcDbAttributeDefinition
280
     0
  3
Maßstab 3:
  2
F55
 70
     0
280
     0
  0
ATTDEF
  5
24D
330
205
100
AcDbEntity
  8
TEXT35
100
AcDbText
 10
-104.4935632823758
 20
33.13408015176805
 30
0.0
 40
3.5
  1

 41
0.8
  7
TEXT35
100
AcDbAttributeDefinition
280
     0
  3
Maßstab 2:
  2
F54
 70
     0
280
     0
  0
ATTDEF
  5
24E
330
205
100
AcDbEntity
  8
TEXT35
100
AcDbText
 10
-139.9
 20
59.29999999999999
 30
0.0
 40
3.5
  1

 41
0.8
  7
TEXT35
100
AcDbAttributeDefinition
280
     0
  3
Gewicht:
  2
F60
 70
     0
280
     0
  0
TEXT
  5
24F
330
205
100
AcDbEntity
  8
KOPF
100
AcDbText
 10
-140.1020469999999
 20
65.166273
 30
0.0
 40
2.0
  1
Gewicht:
 41
0.8
  7
TEXT20
100
AcDbText
  0
TEXT
  5
250
330
205
100
AcDbEntity
  8
KOPF
100
AcDbText
 10
-140.387393
 20
54.54752599999996
 30
0.0
 40
2.0
  1
Oberfläche
 41
0.8
  7
TEXT20
100
AcDbText
  0
TEXT
  5
251
330
205
100
AcDbEntity
  8
KOPF
100
AcDbText
 10
-140.1020469999999
 20
65.166273
 30
0.0
 40
2.0
  1
Gewicht:
 41
0.8
  7
TEXT20
100
AcDbText
  0
LINE
  5
252
330
205
100
AcDbEntity
  8
KOPF
100
AcDbLine
 10
-142.0
 20
68.49999999999997
 30
0.0
 11
-142.0
 21
88.49999999999996
 31
0.0
  0
LINE
  5
253
330
205
100
AcDbEntity
  8
KOPF
 62
    12
100
AcDbLine
 10
-142.0
 20
68.49999999999997
 30
0.0
 11
-142.0
 21
88.49999999999996
 31
0.0
  0
ATTDEF
  5
254
330
205
100
AcDbEntity
  8
TEXT25
100
AcDbText
 10
-140.4
 20
74.59999999999999
 30
0.0
 40
2.0
  1

 41
0.8
  7
TEXT20
100
AcDbAttributeDefinition
280
     0
  3
Bennenung vv.:
  2
F74
 70
     0
280
     0
  0
ATTDEF
  5
255
330
205
100
AcDbEntity
  8
TEXT25
100
AcDbText
 10
-140.5063960262479
 20
79.64480359078786
 30
0.0
 40
2.0
  1

 41
0.8
  7
TEXT20
100
AcDbAttributeDefinition
280
     0
  3
Benennung v.:
  2
F70
 70
     0
280
     0
  0
ATTDEF
  5
256
330
205
100
AcDbEntity
  8
TEXT25
100
AcDbText
 10
-140.390233442385
 20
84.56120109651198
 30
0.0
 40
2.0
  1

 41
0.8
  7
TEXT20
100
AcDbAttributeDefinition
280
     0
  3
Bennenung l.:
  2
F66
 70
     0
280
     0
  0
TEXT
  5
257
330
205
100
AcDbEntity
  8
KOPF
100
AcDbText
 10
-33.7904806989385
 20
30.30982488917614
 30
0.0
 40
1.54
  1
Schutzvermerk nach DIN 34 beachten
 41
0.75
  7
TEXT20
100
AcDbText
  0
LINE
  5
258
330
205
100
AcDbEntity
  8
KOPF
100
AcDbLine
 10
0.0
 20
5.0
 30
0.0
 11
-83.0
 21
5.0
 31
0.0
  0
LINE
  5
259
330
205
100
AcDbEntity
  8
KOPF
100
AcDbLine
 10
-83.0
 20
10.0
 30
0.0
 11
0.0
 21
10.0
 31
0.0
  0
LWPOLYLINE
  5
25A
330
205
100
AcDbEntity
  8
KOPF
 62
    12
100
AcDbPolyline
 90
        2
 70
     0
 43
0.5
 10
-83.0
 20
10.0
 10
0.0
 20
10.0
  0
LINE
  5
25B
330
205
100
AcDbEntity
  8
KOPF
 62
    12
100
AcDbLine
 10
0.0
 20
5.0
 30
0.0
 11
-83.0
 21
5.0
 31
0.0
  0
TEXT
  5
25C
330
205
100
AcDbEntity
  8
KOPF
100
AcDbText
 10
-33.57569784693112
 20
37.97994933403727
 30
0.0
 40
1.54
  1
zum Zweck anderweitiger Benutzung
 41
0.8
  7
TEXT20
100
AcDbText
  0
TEXT
  5
25D
330
205
100
AcDbEntity
  8
KOPF
100
AcDbText
 10
-33.57569784693112
 20
33.37532604459598
 30
0.0
 40
1.54
  1
Eigentum.
 41
0.8
  7
TEXT20
100
AcDbText
  0
TEXT
  5
25E
330
205
100
AcDbEntity
  8
KOPF
100
AcDbText
 10
-33.57569784693112
 20
35.63814072439632
 30
0.0
 40
1.54
  1
mitgeteilt werden und bleibt unser
 41
0.8
  7
TEXT20
100
AcDbText
  0
TEXT
  5
25F
330
205
100
AcDbEntity
  8
KOPF
100
AcDbText
 10
-33.57569784693112
 20
40.26106040199917
 30
0.0
 40
1.54
  1
noch dritten Personen, insbesondere
 41
0.8
  7
TEXT20
100
AcDbText
  0
TEXT
  5
260
330
205
100
AcDbEntity
  8
KOPF
100
AcDbText
 10
-33.57569784693112
 20
42.62823225872138
 30
0.0
 40
1.54
  1
Diese Zeichnung darf weder kopiert
 41
0.8
  7
TEXT20
100
AcDbText
  0
ATTDEF
  5
261
330
205
100
AcDbEntity
  8
TEXT25
100
AcDbText
 10
-62.5
 20
1.6
 30
0.0
 40
2.5
  1

 41
0.8
  7
TEXT25
100
AcDbAttributeDefinition
280
     0
  3
Ersetz durch:
  2
F12
 70
     0
280
     0
  0
ATTDEF
  5
262
330
205
100
AcDbEntity
  8
TEXT25
100
AcDbText
 10
-62.35900683211929
 20
5.946350224884298
 30
0.0
 40
2.5
  1

 41
0.8
  7
TEXT25
100
AcDbAttributeDefinition
280
     0
  3
Ersatz für:
  2
F11
 70
     0
280
     0
  0
ATTDEF
  5
263
330
205
100
AcDbEntity
  8
TEXT50
100
AcDbText
 10
-63.83064645486058
 20
14.53725216120369
 30
0.0
 40
5.0
  1

 41
0.8
  7
TEXT50
100
AcDbAttributeDefinition
280
     0
  3
Zeichnungsnummer
  2
F1A
 70
     0
280
     0
  0
LINE
  5
264
330
205
100
AcDbEntity
  8
KOPF
100
AcDbLine
 10
-57.80813400000011
 20
36.213444
 30
0.0
 11
-83.0
 21
36.213444
 31
0.0
  0
LINE
  5
265
330
205
100
AcDbEntity
  8
KOPF
 62
    12
100
AcDbLine
 10
-57.80813400000011
 20
36.213444
 30
0.0
 11
-83.0
 21
36.213444
 31
0.0
  0
LINE
  5
266
330
205
100
AcDbEntity
  8
KOPF
100
AcDbLine
 10
-83.0
 20
46.99999999999997
 30
0.0
 11
-83.0
 21
0.0
 31
0.0
  0
LWPOLYLINE
  5
267
330
205
100
AcDbEntity
  8
KOPF
 62
    12
100
AcDbPolyline
 90
        2
 70
     0
 43
0.5
 10
-83.0
 20
46.99999999999997
 10
-83.0
 20
0.0
  0
TEXT
  5
268
330
205
100
AcDbEntity
  8
KOPF
100
AcDbText
 10
-81.0
 20
1.714285999999985
 30
0.0
 40
2.0
  1
Ersetzt durch:
 41
0.8
  7
TEXT20
100
AcDbText
  0
TEXT
  5
269
330
205
100
AcDbEntity
  8
KOPF
100
AcDbText
 10
-81.0
 20
1.714285999999985
 30
0.0
 40
2.0
  1
Ersetzt durch:
 41
0.8
  7
TEXT20
100
AcDbText
  0
ATTDEF
  5
26A
330
205
100
AcDbEntity
  8
TEXT50
100
AcDbText
 10
-78.29193986361122
 20
14.50587824180555
 30
0.0
 40
5.0
  1

 41
0.8
  7
TEXT50
100
AcDbAttributeDefinition
280
     0
  3
Standart:
  2
F1
 70
     0
280
     0
  0
ATTDEF
  5
26B
330
205
100
AcDbEntity
  8
TEXT35
100
AcDbText
 10
-79.40896486611496
 20
38.08722024605356
 30
0.0
 40
3.5
  1

 41
0.8
  7
TEXT35
100
AcDbAttributeDefinition
280
     0
  3
Maßeinheit:
  2
F56
 70
     0
280
     0
  0
TEXT
  5
26C
330
205
100
AcDbEntity
  8
KOPF
100
AcDbText
 10
-81.59296000000006
 20
23.69783599999999
 30
0.0
 40
2.0
  1
Zeichnung Nr.:
 41
0.8
  7
TEXT20
100
AcDbText
  0
TEXT
  5
26D
330
205
100
AcDbEntity
  8
KOPF
100
AcDbText
 10
-81.48889200000008
 20
43.86057200000001
 30
0.0
 40
2.0
  1
Masseinheit:
 41
0.8
  7
TEXT20
100
AcDbText
  0
TEXT
  5
26E
330
205
100
AcDbEntity
  8
KOPF
100
AcDbText
 10
-81.00375700000006
 20
5.924711999999997
 30
0.0
 40
2.0
  1
Ersatz für:
 41
0.8
  7
TEXT20
100
AcDbText
  0
TEXT
  5
26F
330
205
100
AcDbEntity
  8
KOPF
100
AcDbText
 10
-81.59296000000006
 20
23.69783599999999
 30
0.0
 40
2.0
  1
Zeichnung Nr.:
 41
0.8
  7
TEXT20
100
AcDbText
  0
LINE
  5
270
330
205
100
AcDbEntity
  8
KOPF
100
AcDbLine
 10
-68.51451399999996
 20
10.0
 30
0.0
 11
-68.51451399999996
 21
19.56467499999998
 31
0.0
  0
LINE
  5
271
330
205
100
AcDbEntity
  8
KOPF
100
AcDbLine
 10
-68.51451399999996
 20
10.0
 30
0.0
 11
-68.51451399999996
 21
19.56467499999998
 31
0.0
  0
TEXT
  5
272
330
205
100
AcDbEntity
  8
KOPF
100
AcDbText
 10
-57.12244047883302
 20
43.82431699999997
 30
0.0
 40
2.0
  1
Projektion: ISO-E
 41
0.8
  7
TEXT20
100
AcDbText
  0
LINE
  5
273
330
205
100
AcDbEntity
  8
MITTE
100
AcDbLine
 10
-56.48631039339966
 20
36.04852954632858
 30
0.0
 11
-46.50279089147699
 21
36.04852954632858
 31
0.0
  0
LINE
  5
274
330
205
100
AcDbEntity
  8
KOPF
100
AcDbLine
 10
-57.80813400000011
 20
27.0
 30
0.0
 11
-57.80813400000011
 21
46.99999999999997
 31
0.0
  0
LINE
  5
275
330
205
100
AcDbEntity
  8
KOPF
 62
    12
100
AcDbLine
 10
-57.80813400000011
 20
27.0
 30
0.0
 11
-57.80813400000011
 21
46.99999999999997
 31
0.0
  0
CIRCLE
  5
276
330
205
100
AcDbEntity
  8
TEXT50
100
AcDbCircle
 10
-51.4945506424383
 20
36.04852954632858
 30
0.0
 40
4.022933351625178
  0
LINE
  5
277
330
205
100
AcDbEntity
  8
MITTE
100
AcDbLine
 10
-51.4945506424383
 20
40.07146289795374
 30
0.0
 11
-51.4945506424383
 21
30.76413131482123
 31
0.0
  0
CIRCLE
  5
278
330
205
100
AcDbEntity
  8
TEXT50
100
AcDbCircle
 10
-51.4945506424383
 20
36.04852954632858
 30
0.0
 40
1.979948192651899
  0
LINE
  5
279
330
205
100
AcDbEntity
  8
KOPF
100
AcDbLine
 10
-34.94281200000012
 20
47.01203199999999
 30
0.0
 11
-34.94281200000012
 21
27.0
 31
0.0
  0
LINE
  5
27A
330
205
100
AcDbEntity
  8
KOPF
100
AcDbLine
 10
-34.94281200000012
 20
47.01203199999999
 30
0.0
 11
-34.94281200000012
 21
27.0
 31
0.0
  0
LINE
  5
27B
330
205
100
AcDbEntity
  8
TEXT50
100
AcDbLine
 10
-36.50894043783512
 20
38.02847773898061
 30
0.0
 11
-45.05865660703466
 21
40.07146289795374
 31
0.0
  0
LINE
  5
27C
330
205
100
AcDbEntity
  8
TEXT50
100
AcDbLine
 10
-45.05865660703466
 20
32.02559619470341
 30
0.0
 11
-36.50894043783512
 21
34.06858135367652
 31
0.0
  0
LINE
  5
27D
330
205
100
AcDbEntity
  8
MITTE
100
AcDbLine
 10
-45.85521401410289
 20
36.04852954632858
 30
0.0
 11
-35.23444858652556
 21
36.04852954632858
 31
0.0
  0
LINE
  5
27E
330
205
100
AcDbEntity
  8
TEXT50
100
AcDbLine
 10
-45.05865660703466
 20
40.07146289795374
 30
0.0
 11
-45.05865660703466
 21
32.02559619470346
 31
0.0
  0
LINE
  5
27F
330
205
100
AcDbEntity
  8
TEXT50
100
AcDbLine
 10
-36.50894043783512
 20
38.02847773898061
 30
0.0
 11
-36.50894043783512
 21
34.06858135367652
 31
0.0
  0
ATTDEF
  5
280
330
205
100
AcDbEntity
  8
TEXT50
100
AcDbText
 10
-8.161293408750509
 20
15.05881749525164
 30
0.0
 40
5.0
  1

 41
0.8
  7
TEXT50
100
AcDbAttributeDefinition
280
     0
  3
Index:
  2
F1B
 70
     0
280
     0
  0
TEXT
  5
281
330
205
100
AcDbEntity
  8
KOPF
100
AcDbText
 10
-8.353129999999964
 20
23.330072
 30
0.0
 40
2.0
  1
Index
 41
0.8
  7
TEXT20
100
AcDbText
  0
TEXT
  5
282
330
205
100
AcDbEntity
  8
KOPF
100
AcDbText
 10
-8.353129999999964
 20
23.330072
 30
0.0
 40
2.0
  1
Index
 41
0.8
  7
TEXT20
100
AcDbText
  0
LINE
  5
283
330
205
100
AcDbEntity
  8
KOPF
100
AcDbLine
 10
-12.0
 20
27.0
 30
0.0
 11
-12.0
 21
10.0
 31
0.0
  0
LWPOLYLINE
  5
284
330
205
100
AcDbEntity
  8
KOPF
 62
    12
100
AcDbPolyline
 90
        2
 70
     0
 43
0.5
 10
-12.0
 20
27.0
 10
-12.0
 20
10.0
  0
LINE
  5
285
330
205
100
AcDbEntity
  8
KOPF
100
AcDbLine
 10
-15.0
 20
88.49999999999996
 30
0.0
 11
-15.0
 21
68.49999999999997
 31
0.0
  0
LINE
  5
286
330
205
100
AcDbEntity
  8
KOPF
100
AcDbLine
 10
-15.0
 20
88.49999999999996
 30
0.0
 11
-15.0
 21
68.49999999999997
 31
0.0
  0
TEXT
  5
287
330
205
100
AcDbEntity
  8
KOPF
100
AcDbText
 10
-11.65833600000008
 20
69.53813999999997
 30
0.0
 40
2.0
  1
Name
 41
0.8
  7
TEXT20
100
AcDbText
  0
TEXT
  5
288
330
205
100
AcDbEntity
  8
KOPF
100
AcDbText
 10
-11.65833600000008
 20
69.53813999999997
 30
0.0
 40
2.0
  1
Name
 41
0.8
  7
TEXT20
100
AcDbText
  0
ATTDEF
  5
289
330
205
100
AcDbEntity
  8
TEXT25
100
AcDbText
 10
-13.39999999999998
 20
74.90000000000001
 30
0.0
 40
2.0
  1

 41
0.8
  7
TEXT20
100
AcDbAttributeDefinition
280
     0
  3
Name vv.:
  2
F75
 70
     0
280
     0
  0
ATTDEF
  5
28A
330
205
100
AcDbEntity
  8
TEXT25
100
AcDbText
 10
-13.39999999999998
 20
79.7
 30
0.0
 40
2.0
  1

 41
0.8
  7
TEXT20
100
AcDbAttributeDefinition
280
     0
  3
Name v.:
  2
F71
 70
     0
280
     0
  0
ATTDEF
  5
28B
330
205
100
AcDbEntity
  8
TEXT25
100
AcDbText
 10
-13.31006638105163
 20
84.29999999999999
 30
0.0
 40
2.0
  1

 41
0.8
  7
TEXT20
100
AcDbAttributeDefinition
280
     0
  3
Name l.:
  2
F67
 70
     0
280
     0
  0
ATTDEF
  5
28C
330
205
100
AcDbEntity
  8
TEXT50
100
AcDbText
 10
-176.6
 20
18.56318324460701
 30
0.0
 40
5.0
  1

 41
0.8
  7
TEXT50
100
AcDbAttributeDefinition
280
     0
  3
Z-Titel 1
  2
F2
 70
     0
280
     0
  0
ATTDEF
  5
28D
330
205
100
AcDbEntity
  8
TEXT50
100
AcDbText
 10
-176.6
 20
10.63250279796295
 30
0.0
 40
5.0
  1

 41
0.8
  7
TEXT50
100
AcDbAttributeDefinition
280
     0
  3
Z-Titel 2
  2
F3
 70
     0
280
     0
  0
ATTDEF
  5
28E
330
205
100
AcDbEntity
  8
TEXT35
100
AcDbText
 10
-176.6
 20
3.399999999999999
 30
0.0
 40
3.5
  1

 41
0.8
  7
TEXT35
100
AcDbAttributeDefinition
280
     0
  3
Z-Titel 3
  2
F13
 70
     0
280
     0
  0
TEXT
  5
28F
330
205
100
AcDbEntity
  8
KOPF
100
AcDbText
 10
-81.2168100232509
 20
-4.904930646817639
 30
0.0
 40
2.0
  1
St 1:  
 41
0.8
  7
TEXT20
100
AcDbText
  0
TEXT
  5
290
330
205
100
AcDbEntity
  8
KOPF
100
AcDbText
 10
-55.57636971189049
 20
-5.051087285630934
 30
0.0
 40
2.0
  1
St 2:  
 41
0.8
  7
TEXT20
100
AcDbText
  0
LINE
  5
291
330
205
100
AcDbEntity
  8
KOPF
 62
    12
100
AcDbLine
 10
-182.0
 20
30.3922591784613
 30
0.0
 11
-113.4
 21
30.3922591784613
 31
0.0
  0
TEXT
  5
292
330
205
100
AcDbEntity
  8
KOPF
100
AcDbText
 10
-179.738589
 20
27.91139328475685
 30
0.0
 40
2.0
  1
SF /  FM
 41
0.8
  7
TEXT20
100
AcDbText
  0
ATTDEF
  5
293
330
205
100
AcDbEntity
  8
TEXT25
100
AcDbText
 10
-161.5009557098303
 20
27.70835176174194
 30
0.0
 40
2.0
  1

 41
0.8
  7
TEXT20
100
AcDbAttributeDefinition
280
     0
  3
Update am:
  2
F30
 70
     0
280
     0
  0
ATTDEF
  5
294
330
205
100
AcDbEntity
  8
TEXT25
100
AcDbText
 10
-136.3996291720711
 20
27.61845808197626
 30
0.0
 40
2.0
  1

 41
0.8
  7
TEXT20
100
AcDbAttributeDefinition
280
     0
  3
Update von:
  2
F23
 70
     0
280
     0
  0
ATTDEF
  5
295
330
205
100
AcDbEntity
  8
KOPF
100
AcDbText
 10
-76.14196676074652
 20
-4.909327569934726
 30
0.0
 40
2.0
  1

 41
0.8
  7
TEXT20
100
AcDbAttributeDefinition
280
     0
  3
Ersetz durch:
  2
F19
 70
     0
280
     0
  0
ATTDEF
  5
296
330
205
100
AcDbEntity
  8
KOPF
100
AcDbText
 10
-50.33283836985083
 20
-5.032145431237973
 30
0.0
 40
2.0
  1

 41
0.8
  7
TEXT20
100
AcDbAttributeDefinition
280
     0
  3
Ersetz durch:
  2
F20
 70
     0
280
     0
  0
INSERT
  5
297
330
205
100
AcDbEntity
  8
KOPF
100
AcDbBlockReference
  2
A$C17D61B2D
 10
-93.62972968665189
 20
51.4441636028745
 30
0.0
  0
ENDBLK
  5
2AD
330
205
100
AcDbEntity
  8
0
100
AcDbBlockEnd
  0
BLOCK
  5
155
330
14B
100
AcDbEntity
  8
0
100
AcDbBlockBegin
  2
*D7
 70
     1
 10
0.0
 20
0.0
 30
0.0
  3
*D7
  1

  0
LINE
  5
76C
330
14B
100
AcDbEntity
  8
BEMASS
440
 16777216
370
    -2
100
AcDbLine
 10
210.7238263882326
 20
281.3912102347559
 30
0.0
 11
102.445853448416
 21
281.3912102347559
 31
0.0
  0
LINE
  5
76D
330
14B
100
AcDbEntity
  8
BEMASS
440
 16777216
370
    -2
100
AcDbLine
 10
130.6714514703884
 20
334.0303287610751
 30
0.0
 11
102.445853448416
 21
334.0303287610751
 31
0.0
  0
LINE
  5
76E
330
14B
100
AcDbEntity
  8
BEMASS
440
 16777216
370
    -2
100
AcDbLine
 10
104.445853448416
 20
284.8912102347559
 30
0.0
 11
104.445853448416
 21
330.5303287610751
 31
0.0
  0
SOLID
  5
76F
330
14B
100
AcDbEntity
  8
BEMASS
440
 16777216
100
AcDbTrace
 10
103.8625201150827
 20
284.8912102347559
 30
0.0
 11
105.0291867817493
 21
284.8912102347559
 31
0.0
 12
104.445853448416
 22
281.3912102347559
 32
0.0
 13
104.445853448416
 23
281.3912102347559
 33
0.0
  0
SOLID
  5
770
330
14B
100
AcDbEntity
  8
BEMASS
440
 16777216
100
AcDbTrace
 10
103.8625201150827
 20
330.5303287610751
 30
0.0
 11
105.0291867817493
 21
330.5303287610751
 31
0.0
 12
104.445853448416
 22
334.0303287610751
 32
0.0
 13
104.445853448416
 23
334.0303287610751
 33
0.0
  0
MTEXT
  5
771
330
14B
100
AcDbEntity
  8
BEMASS
440
 16777216
100
AcDbMText
 10
99.94585344841608
 20
307.7107694979154
 30
0.0
 40
5.0
 41
0.0
 46
0.0
 71
     5
 72
     1
  1
\A1;52
 11
0.0000000000000001
 21
1.0
 31
0.0
 73
     1
 44
1.0
  0
POINT
  5
772
330
14B
100
AcDbEntity
  8
DEFPOINTS
 62
     0
440
 16777216
100
AcDbPoint
 10
210.7238263882326
 20
281.3912102347559
 30
0.0
  0
POINT
  5
773
330
14B
100
AcDbEntity
  8
DEFPOINTS
 62
     0
440
 16777216
100
AcDbPoint
 10
130.6714514703884
 20
334.0303287610751
 30
0.0
  0
POINT
  5
774
330
14B
100
AcDbEntity
  8
DEFPOINTS
 62
     0
440
 16777216
100
AcDbPoint
 10
104.445853448416
 20
334.0303287610751
 30
0.0
  0
ENDBLK
  5
156
330
14B
100
AcDbEntity
  8
0
100
AcDbBlockEnd
  0
BLOCK
  5
3A9
330
3A7
100
AcDbEntity
  8
0
100
AcDbBlockBegin
  2
GENAXEH
 70
     0
 10
0.0
 20
0.0
 30
0.0
  3
GENAXEH
  1

  0
LINE
  5
3A8
330
3A7
100
AcDbEntity
  8
0
100
AcDbLine
 10
-1.0
 20
0.0
 30
0.0
 11
1.0
 21
0.0
 31
0.0
  0
ENDBLK
  5
3AA
330
3A7
100
AcDbEntity
  8
0
100
AcDbBlockEnd
  0
BLOCK
  5
442
330
3C6
100
AcDbEntity
  8
0
100
AcDbBlockBegin
  2
ACO-SF
 70
     2
 10
0.0
 20
0.0
 30
0.0
  3
ACO-SF
  1

  0
LINE
  5
3C7
330
3C6
100
AcDbEntity
  8
KOPF
 62
    12
100
AcDbLine
 10
0.0
 20
5.0
 30
0.0
 11
-83.0
 21
5.0
 31
0.0
  0
LWPOLYLINE
  5
3C8
330
3C6
100
AcDbEntity
  8
KOPF
 62
    12
100
AcDbPolyline
 90
        2
 70
     0
 43
0.5
 10
-83.0
 20
10.0
 10
0.0
 20
10.0
  0
LINE
  5
3C9
330
3C6
100
AcDbEntity
  8
KOPF
100
AcDbLine
 10
-83.0
 20
10.0
 30
0.0
 11
0.0
 21
10.0
 31
0.0
  0
LINE
  5
3CA
330
3C6
100
AcDbEntity
  8
KOPF
100
AcDbLine
 10
0.0
 20
5.0
 30
0.0
 11
-83.0
 21
5.0
 31
0.0
  0
LWPOLYLINE
  5
3CB
330
3C6
100
AcDbEntity
  8
KOPF
 62
    12
100
AcDbPolyline
 90
        2
 70
     0
 43
0.5
 10
0.0
 20
68.49999999999997
 10
-182.0
 20
68.49999999999997
  0
LWPOLYLINE
  5
3CC
330
3C6
100
AcDbEntity
  8
KOPF
 62
    12
100
AcDbPolyline
 90
        2
 70
     0
 43
0.5
 10
0.0
 20
46.99999999999997
 10
-182.0
 20
46.99999999999997
  0
LWPOLYLINE
  5
3CD
330
3C6
100
AcDbEntity
  8
KOPF
 62
    12
100
AcDbPolyline
 90
        2
 70
     0
 43
0.5
 10
-0.2154115848244373
 20
27.23910754630094
 10
-182.1882840408789
 20
27.23910754630094
  0
LINE
  5
3CE
330
3C6
100
AcDbEntity
  8
KOPF
 62
    12
100
AcDbLine
 10
0.0
 20
88.49999999999996
 30
0.0
 11
-182.0
 21
88.49999999999996
 31
0.0
  0
LINE
  5
3CF
330
3C6
100
AcDbEntity
  8
KOPF
 62
    12
100
AcDbLine
 10
-182.0
 20
83.49999999999997
 30
0.0
 11
0.0
 21
83.49999999999997
 31
0.0
  0
LINE
  5
3D0
330
3C6
100
AcDbEntity
  8
KOPF
 62
    12
100
AcDbLine
 10
0.0
 20
73.49999999999997
 30
0.0
 11
-182.0
 21
73.49999999999997
 31
0.0
  0
LINE
  5
3D1
330
3C6
100
AcDbEntity
  8
KOPF
 62
    12
100
AcDbLine
 10
-162.682677
 20
78.49999999999997
 30
0.0
 11
0.0
 21
78.49999999999997
 31
0.0
  0
LINE
  5
3D2
330
3C6
100
AcDbEntity
  8
KOPF
100
AcDbLine
 10
0.0
 20
68.49999999999997
 30
0.0
 11
-182.0
 21
68.49999999999997
 31
0.0
  0
LINE
  5
3D3
330
3C6
100
AcDbEntity
  8
KOPF
100
AcDbLine
 10
0.0
 20
88.49999999999996
 30
0.0
 11
-182.0
 21
88.49999999999996
 31
0.0
  0
LINE
  5
3D4
330
3C6
100
AcDbEntity
  8
KOPF
100
AcDbLine
 10
-182.0
 20
83.49999999999997
 30
0.0
 11
0.0
 21
83.49999999999997
 31
0.0
  0
LINE
  5
3D5
330
3C6
100
AcDbEntity
  8
KOPF
100
AcDbLine
 10
0.0
 20
73.49999999999997
 30
0.0
 11
-182.0
 21
73.49999999999997
 31
0.0
  0
LINE
  5
3D6
330
3C6
100
AcDbEntity
  8
KOPF
100
AcDbLine
 10
-162.682677
 20
78.49999999999997
 30
0.0
 11
0.0
 21
78.49999999999997
 31
0.0
  0
LINE
  5
3D7
330
3C6
100
AcDbEntity
  8
KOPF
 62
    12
100
AcDbLine
 10
-182.0
 20
57.74999999999997
 30
0.0
 11
-100.0
 21
57.74999999999997
 31
0.0
  0
LINE
  5
3D8
330
3C6
100
AcDbEntity
  8
KOPF
 62
    12
100
AcDbLine
 10
-182.0
 20
41.99999999999996
 30
0.0
 11
-113.4
 21
41.99999999999996
 31
0.0
  0
LINE
  5
3D9
330
3C6
100
AcDbEntity
  8
KOPF
100
AcDbLine
 10
-182.0
 20
57.74999999999997
 30
0.0
 11
-100.0
 21
57.74999999999997
 31
0.0
  0
LINE
  5
3DA
330
3C6
100
AcDbEntity
  8
KOPF
100
AcDbLine
 10
-182.0
 20
41.99999999999996
 30
0.0
 11
-113.4
 21
41.99999999999996
 31
0.0
  0
LINE
  5
3DB
330
3C6
100
AcDbEntity
  8
KOPF
 62
    12
100
AcDbLine
 10
-142.0
 20
68.49999999999997
 30
0.0
 11
-142.0
 21
46.99999999999997
 31
0.0
  0
LINE
  5
3DC
330
3C6
100
AcDbEntity
  8
KOPF
 62
    12
100
AcDbLine
 10
-142.0
 20
68.49999999999997
 30
0.0
 11
-142.0
 21
46.99999999999997
 31
0.0
  0
ATTDEF
  5
3DD
330
3C6
100
AcDbEntity
  8
TEXT35
100
AcDbText
 10
-140.2
 20
49.4
 30
0.0
 40
3.5
  1

 41
0.8
  7
TEXT35
100
AcDbAttributeDefinition
280
     0
  3
Oberfläche:
  2
F63
 70
     0
280
     0
  0
LWPOLYLINE
  5
3DE
330
3C6
100
AcDbEntity
  8
KOPF
 62
    12
100
AcDbPolyline
 90
        2
 70
     0
 43
0.7
 10
-182.0
 20
88.49999999999996
 10
-182.0
 20
0.0
  0
LINE
  5
3DF
330
3C6
100
AcDbEntity
  8
KOPF
100
AcDbLine
 10
-182.0
 20
88.49999999999996
 30
0.0
 11
-182.0
 21
0.0
 31
0.0
  0
TEXT
  5
3E0
330
3C6
100
AcDbEntity
  8
KOPF
100
AcDbText
 10
-179.738589
 20
38.32439403633659
 30
0.0
 40
2.0
  1
Gezeichnet:
 41
0.8
  7
TEXT20
100
AcDbText
  0
ATTDEF
  5
3E1
330
3C6
100
AcDbEntity
  8
TEXT35
100
AcDbText
 10
-176.6
 20
3.399999999999999
 30
0.0
 40
3.5
  1

 41
0.8
  7
TEXT35
100
AcDbAttributeDefinition
280
     0
  3
Z-Titel 3
  2
F13
 70
     0
280
     0
  0
ATTDEF
  5
3E2
330
3C6
100
AcDbEntity
  8
TEXT50
100
AcDbText
 10
-176.6
 20
10.63250279796295
 30
0.0
 40
5.0
  1

 41
0.8
  7
TEXT50
100
AcDbAttributeDefinition
280
     0
  3
Z-Titel 2
  2
F3
 70
     0
280
     0
  0
ATTDEF
  5
3E3
330
3C6
100
AcDbEntity
  8
TEXT50
100
AcDbText
 10
-176.6
 20
18.56318324460701
 30
0.0
 40
5.0
  1

 41
0.8
  7
TEXT50
100
AcDbAttributeDefinition
280
     0
  3
Z-Titel 1
  2
F2
 70
     0
280
     0
  0
TEXT
  5
3E4
330
3C6
100
AcDbEntity
  8
KOPF
100
AcDbText
 10
-179.738589
 20
28.52395361420514
 30
0.0
 40
2.0
  1
Update:
 41
0.8
  7
TEXT20
100
AcDbText
  0
TEXT
  5
3E5
330
3C6
100
AcDbEntity
  8
KOPF
100
AcDbText
 10
-179.738589
 20
33.43577642824449
 30
0.0
 40
2.0
  1
Geprüft
 41
0.8
  7
TEXT20
100
AcDbText
  0
LINE
  5
3E6
330
3C6
100
AcDbEntity
  8
KOPF
 62
    12
100
AcDbLine
 10
-163.0
 20
46.99999999999997
 30
0.0
 11
-163.0
 21
27.0
 31
0.0
  0
LINE
  5
3E7
330
3C6
100
AcDbEntity
  8
KOPF
100
AcDbLine
 10
-163.0
 20
46.99999999999997
 30
0.0
 11
-163.0
 21
27.0
 31
0.0
  0
ATTDEF
  5
3E8
330
3C6
100
AcDbEntity
  8
TEXT25
100
AcDbText
 10
-161.5009557098303
 20
28.32091209119023
 30
0.0
 40
2.0
  1

 41
0.8
  7
TEXT20
100
AcDbAttributeDefinition
280
     0
  3
Update am:
  2
F53
 70
     0
280
     0
  0
ATTDEF
  5
3E9
330
3C6
100
AcDbEntity
  8
TEXT25
100
AcDbText
 10
-161.5539333606331
 20
33.12227989587696
 30
0.0
 40
2.0
  1

 41
0.8
  7
TEXT20
100
AcDbAttributeDefinition
280
     0
  3
Geprüft am:
  2
F22
 70
     0
280
     0
  0
ATTDEF
  5
3EA
330
3C6
100
AcDbEntity
  8
TEXT25
100
AcDbText
 10
-161.5207141482394
 20
38.33983936444393
 30
0.0
 40
2.0
  1

 41
0.8
  7
TEXT20
100
AcDbAttributeDefinition
280
     0
  3
Gezeichnet am:
  2
F9
 70
     0
280
     0
  0
TEXT
  5
3EB
330
3C6
100
AcDbEntity
  8
KOPF
100
AcDbText
 10
-155.964455
 20
43.13467299999999
 30
0.0
 40
2.0
  1
Datum
 41
0.8
  7
TEXT20
100
AcDbText
  0
LINE
  5
3EC
330
3C6
100
AcDbEntity
  8
KOPF
 62
    12
100
AcDbLine
 10
-138.4
 20
46.99999999999997
 30
0.0
 11
-138.4
 21
27.0
 31
0.0
  0
LINE
  5
3ED
330
3C6
100
AcDbEntity
  8
KOPF
100
AcDbLine
 10
-138.4
 20
46.99999999999997
 30
0.0
 11
-138.4
 21
27.0
 31
0.0
  0
TEXT
  5
3EE
330
3C6
100
AcDbEntity
  8
KOPF
100
AcDbText
 10
-130.065072
 20
43.14125800000002
 30
0.0
 40
2.0
  1
Name
 41
0.8
  7
TEXT20
100
AcDbText
  0
ATTDEF
  5
3EF
330
3C6
100
AcDbEntity
  8
TEXT25
100
AcDbText
 10
-136.2746977811447
 20
33.28471223400234
 30
0.0
 40
2.0
  1

 41
0.8
  7
TEXT20
100
AcDbAttributeDefinition
280
     0
  3
Geprüft von:
  2
F21
 70
     0
280
     0
  0
ATTDEF
  5
3F0
330
3C6
100
AcDbEntity
  8
TEXT25
100
AcDbText
 10
-136.3996291720711
 20
28.23101841142455
 30
0.0
 40
2.0
  1

 41
0.8
  7
TEXT20
100
AcDbAttributeDefinition
280
     0
  3
Update von:
  2
F52
 70
     0
280
     0
  0
ATTDEF
  5
3F1
330
3C6
100
AcDbEntity
  8
TEXT25
100
AcDbText
 10
-136.1922113552417
 20
38.48172579575253
 30
0.0
 40
2.0
  1

 41
0.8
  7
TEXT20
100
AcDbAttributeDefinition
280
     0
  3
Gezeichnet von
  2
F8
 70
     0
280
     0
  0
TEXT
  5
3F2
330
3C6
100
AcDbEntity
  8
KOPF
100
AcDbText
 10
-174.6925639999999
 20
69.53813999999997
 30
0.0
 40
2.0
  1
Index
 41
0.8
  7
TEXT20
100
AcDbText
  0
LINE
  5
3F3
330
3C6
100
AcDbEntity
  8
KOPF
100
AcDbLine
 10
-182.0
 20
78.49999999999997
 30
0.0
 11
-162.682677
 21
78.49999999999997
 31
0.0
  0
LINE
  5
3F4
330
3C6
100
AcDbEntity
  8
KOPF
100
AcDbLine
 10
-182.0
 20
78.49999999999997
 30
0.0
 11
-162.682677
 21
78.49999999999997
 31
0.0
  0
TEXT
  5
3F5
330
3C6
100
AcDbEntity
  8
KOPF
100
AcDbText
 10
-180.0
 20
65.166273
 30
0.0
 40
2.0
  1
Werkstoff:
 41
0.8
  7
TEXT20
100
AcDbText
  0
TEXT
  5
3F6
330
3C6
100
AcDbEntity
  8
KOPF
100
AcDbText
 10
-181.0
 20
54.49999999999997
 30
0.0
 40
2.0
  1
zul. Abweich.:
 41
0.8
  7
TEXT20
100
AcDbText
  0
ATTDEF
  5
3F7
330
3C6
100
AcDbEntity
  8
TEXT35
100
AcDbText
 10
-179.7
 20
59.6
 30
0.0
 40
3.5
  1

 41
0.8
  7
TEXT35
100
AcDbAttributeDefinition
280
     0
  3
Werkstoff:
  2
F61
 70
     0
280
     0
  0
ATTDEF
  5
3F8
330
3C6
100
AcDbEntity
  8
TEXT35
100
AcDbText
 10
-179.7
 20
49.7
 30
0.0
 40
3.5
  1

 41
0.8
  7
TEXT35
100
AcDbAttributeDefinition
280
     0
  3
zul. Abweichung
  2
F62
 70
     0
280
     0
  0
ATTDEF
  5
3F9
330
3C6
100
AcDbEntity
  8
TEXT25
100
AcDbText
 10
-174.360415155955
 20
74.59999999999999
 30
0.0
 40
2.0
  1

 41
0.8
  7
TEXT20
100
AcDbAttributeDefinition
280
     0
  3
Index vv.:
  2
F72
 70
     0
280
     0
  0
ATTDEF
  5
3FA
330
3C6
100
AcDbEntity
  8
TEXT25
100
AcDbText
 10
-174.4435409453564
 20
79.47378932523601
 30
0.0
 40
2.0
  1

 41
0.8
  7
TEXT20
100
AcDbAttributeDefinition
280
     0
  3
Index v.:
  2
F68
 70
     0
280
     0
  0
ATTDEF
  5
3FB
330
3C6
100
AcDbEntity
  8
TEXT25
100
AcDbText
 10
-174.3700408782365
 20
84.63034186138365
 30
0.0
 40
2.0
  1

 41
0.8
  7
TEXT20
100
AcDbAttributeDefinition
280
     0
  3
Index l.:
  2
F64
 70
     0
280
     0
  0
LINE
  5
3FC
330
3C6
100
AcDbEntity
  8
KOPF
100
AcDbLine
 10
-162.682677
 20
88.49999999999996
 30
0.0
 11
-162.682677
 21
68.49999999999997
 31
0.0
  0
LINE
  5
3FD
330
3C6
100
AcDbEntity
  8
KOPF
100
AcDbLine
 10
-162.682677
 20
88.49999999999996
 30
0.0
 11
-162.682677
 21
68.49999999999997
 31
0.0
  0
TEXT
  5
3FE
330
3C6
100
AcDbEntity
  8
KOPF
100
AcDbText
 10
-156.706568
 20
69.53813999999997
 30
0.0
 40
2.0
  1
Datum
 41
0.8
  7
TEXT20
100
AcDbText
  0
ATTDEF
  5
3FF
330
3C6
100
AcDbEntity
  8
TEXT25
100
AcDbText
 10
-160.9
 20
75.09999999999999
 30
0.0
 40
2.0
  1

 41
0.8
  7
TEXT20
100
AcDbAttributeDefinition
280
     0
  3
Datum vv.:
  2
F73
 70
     0
280
     0
  0
ATTDEF
  5
400
330
3C6
100
AcDbEntity
  8
TEXT25
100
AcDbText
 10
-160.9
 20
79.40000000000001
 30
0.0
 40
2.0
  1

 41
0.8
  7
TEXT20
100
AcDbAttributeDefinition
280
     0
  3
Datum v.:
  2
F69
 70
     0
280
     0
  0
ATTDEF
  5
401
330
3C6
100
AcDbEntity
  8
TEXT25
100
AcDbText
 10
-160.6
 20
84.50000000000001
 30
0.0
 40
2.0
  1

 41
0.8
  7
TEXT20
100
AcDbAttributeDefinition
280
     0
  3
Datum l.:
  2
F65
 70
     0
280
     0
  0
LINE
  5
402
330
3C6
100
AcDbEntity
  8
KOPF
 62
    12
100
AcDbLine
 10
-142.0
 20
68.49999999999997
 30
0.0
 11
-142.0
 21
88.49999999999996
 31
0.0
  0
LINE
  5
403
330
3C6
100
AcDbEntity
  8
KOPF
100
AcDbLine
 10
-142.0
 20
68.49999999999997
 30
0.0
 11
-142.0
 21
88.49999999999996
 31
0.0
  0
ATTDEF
  5
404
330
3C6
100
AcDbEntity
  8
TEXT35
100
AcDbText
 10
-139.9
 20
59.29999999999999
 30
0.0
 40
3.5
  1

 41
0.8
  7
TEXT35
100
AcDbAttributeDefinition
280
     0
  3
Gewicht:
  2
F60
 70
     0
280
     0
  0
TEXT
  5
405
330
3C6
100
AcDbEntity
  8
KOPF
100
AcDbText
 10
-140.387393
 20
54.54752599999996
 30
0.0
 40
2.0
  1
Oberfläche
 41
0.8
  7
TEXT20
100
AcDbText
  0
TEXT
  5
406
330
3C6
100
AcDbEntity
  8
KOPF
100
AcDbText
 10
-140.1020469999999
 20
65.166273
 30
0.0
 40
2.0
  1
Gewicht:
 41
0.8
  7
TEXT20
100
AcDbText
  0
TEXT
  5
407
330
3C6
100
AcDbEntity
  8
KOPF
100
AcDbText
 10
-140.1020469999999
 20
65.166273
 30
0.0
 40
2.0
  1
Gewicht:
 41
0.8
  7
TEXT20
100
AcDbText
  0
ATTDEF
  5
408
330
3C6
100
AcDbEntity
  8
TEXT25
100
AcDbText
 10
-140.4
 20
74.59999999999999
 30
0.0
 40
2.0
  1

 41
0.8
  7
TEXT20
100
AcDbAttributeDefinition
280
     0
  3
Bennenung vv.:
  2
F74
 70
     0
280
     0
  0
ATTDEF
  5
409
330
3C6
100
AcDbEntity
  8
TEXT25
100
AcDbText
 10
-140.5063960262479
 20
79.64480359078786
 30
0.0
 40
2.0
  1

 41
0.8
  7
TEXT20
100
AcDbAttributeDefinition
280
     0
  3
Benennung v.:
  2
F70
 70
     0
280
     0
  0
ATTDEF
  5
40A
330
3C6
100
AcDbEntity
  8
TEXT25
100
AcDbText
 10
-140.390233442385
 20
84.56120109651198
 30
0.0
 40
2.0
  1

 41
0.8
  7
TEXT20
100
AcDbAttributeDefinition
280
     0
  3
Bennenung l.:
  2
F66
 70
     0
280
     0
  0
LINE
  5
40B
330
3C6
100
AcDbEntity
  8
KOPF
 62
    12
100
AcDbLine
 10
-100.0
 20
68.49999999999997
 30
0.0
 11
-100.0
 21
46.99999999999997
 31
0.0
  0
LWPOLYLINE
  5
40C
330
3C6
100
AcDbEntity
  8
KOPF
 62
    12
100
AcDbPolyline
 90
        2
 70
     0
 43
0.5
 10
-83.0
 20
46.99999999999997
 10
-83.0
 20
0.0
  0
LINE
  5
40D
330
3C6
100
AcDbEntity
  8
KOPF
100
AcDbLine
 10
-83.0
 20
46.99999999999997
 30
0.0
 11
-83.0
 21
0.0
 31
0.0
  0
TEXT
  5
40E
330
3C6
100
AcDbEntity
  8
KOPF
100
AcDbText
 10
-81.0
 20
1.714285999999985
 30
0.0
 40
2.0
  1
Ersetzt durch:
 41
0.8
  7
TEXT20
100
AcDbText
  0
LINE
  5
40F
330
3C6
100
AcDbEntity
  8
KOPF
 62
    12
100
AcDbLine
 10
-113.4
 20
27.0
 30
0.0
 11
-113.4
 21
46.99999999999997
 31
0.0
  0
LWPOLYLINE
  5
410
330
3C6
100
AcDbEntity
  8
KOPF
100
AcDbPolyline
 90
        2
 70
     0
 43
0.5
 10
-113.4
 20
27.0
 10
-113.4
 20
46.99999999999997
  0
LINE
  5
411
330
3C6
100
AcDbEntity
  8
KOPF
100
AcDbLine
 10
-113.4
 20
27.0
 30
0.0
 11
-113.4
 21
46.99999999999997
 31
0.0
  0
LINE
  5
412
330
3C6
100
AcDbEntity
  8
KOPF
100
AcDbLine
 10
-113.4
 20
27.0
 30
0.0
 11
-113.4
 21
46.99999999999997
 31
0.0
  0
ATTDEF
  5
413
330
3C6
100
AcDbEntity
  8
TEXT35
100
AcDbText
 10
-104.4935632823758
 20
33.13408015176805
 30
0.0
 40
3.5
  1

 41
0.8
  7
TEXT35
100
AcDbAttributeDefinition
280
     0
  3
Maßstab 2:
  2
F54
 70
     0
280
     0
  0
ATTDEF
  5
414
330
3C6
100
AcDbEntity
  8
TEXT35
100
AcDbText
 10
-104.487948258847
 20
28.6
 30
0.0
 40
3.5
  1

 41
0.8
  7
TEXT35
100
AcDbAttributeDefinition
280
     0
  3
Maßstab 3:
  2
F55
 70
     0
280
     0
  0
ATTDEF
  5
415
330
3C6
100
AcDbEntity
  8
TEXT50
100
AcDbText
 10
-106.6
 20
37.8
 30
0.0
 40
5.0
  1

 41
0.8
  7
TEXT50
100
AcDbAttributeDefinition
280
     0
  3
Maßstab 1:
  2
F25
 70
     0
280
     0
  0
TEXT
  5
416
330
3C6
100
AcDbEntity
  8
KOPF
100
AcDbText
 10
-112.263457
 20
43.88678899999999
 30
0.0
 40
2.0
  1
Massstab:
 41
0.8
  7
TEXT20
100
AcDbText
  0
LINE
  5
417
330
3C6
100
AcDbEntity
  8
KOPF
 62
    12
100
AcDbLine
 10
-57.80813400000011
 20
27.0
 30
0.0
 11
-57.80813400000011
 21
46.99999999999997
 31
0.0
  0
LINE
  5
418
330
3C6
100
AcDbEntity
  8
KOPF
100
AcDbLine
 10
-57.80813400000011
 20
27.0
 30
0.0
 11
-57.80813400000011
 21
46.99999999999997
 31
0.0
  0
TEXT
  5
419
330
3C6
100
AcDbEntity
  8
KOPF
100
AcDbText
 10
-81.59296000000006
 20
23.69783599999999
 30
0.0
 40
2.0
  1
Zeichnung Nr.:
 41
0.8
  7
TEXT20
100
AcDbText
  0
TEXT
  5
41A
330
3C6
100
AcDbEntity
  8
KOPF
100
AcDbText
 10
-81.00375700000006
 20
5.924711999999997
 30
0.0
 40
2.0
  1
Ersatz für:
 41
0.8
  7
TEXT20
100
AcDbText
  0
TEXT
  5
41B
330
3C6
100
AcDbEntity
  8
KOPF
100
AcDbText
 10
-81.59296000000006
 20
23.69783599999999
 30
0.0
 40
2.0
  1
Zeichnung Nr.:
 41
0.8
  7
TEXT20
100
AcDbText
  0
ATTDEF
  5
41C
330
3C6
100
AcDbEntity
  8
TEXT50
100
AcDbText
 10
-78.29193986361122
 20
14.50587824180555
 30
0.0
 40
5.0
  1

 41
0.8
  7
TEXT50
100
AcDbAttributeDefinition
280
     0
  3
Standart:
  2
F1
 70
     0
280
     0
  0
TEXT
  5
41D
330
3C6
100
AcDbEntity
  8
KOPF
100
AcDbText
 10
-81.48889200000008
 20
43.86057200000001
 30
0.0
 40
2.0
  1
Masseinheit:
 41
0.8
  7
TEXT20
100
AcDbText
  0
LINE
  5
41E
330
3C6
100
AcDbEntity
  8
KOPF
 62
    12
100
AcDbLine
 10
-57.80813400000011
 20
36.213444
 30
0.0
 11
-83.0
 21
36.213444
 31
0.0
  0
LINE
  5
41F
330
3C6
100
AcDbEntity
  8
KOPF
100
AcDbLine
 10
-57.80813400000011
 20
36.213444
 30
0.0
 11
-83.0
 21
36.213444
 31
0.0
  0
ATTDEF
  5
420
330
3C6
100
AcDbEntity
  8
TEXT35
100
AcDbText
 10
-79.40896486611496
 20
38.08722024605356
 30
0.0
 40
3.5
  1

 41
0.8
  7
TEXT35
100
AcDbAttributeDefinition
280
     0
  3
Maßeinheit:
  2
F56
 70
     0
280
     0
  0
TEXT
  5
421
330
3C6
100
AcDbEntity
  8
KOPF
100
AcDbText
 10
-33.57569784693112
 20
42.62823225872138
 30
0.0
 40
1.54
  1
Diese Zeichnung darf weder kopiert
 41
0.8
  7
TEXT20
100
AcDbText
  0
TEXT
  5
422
330
3C6
100
AcDbEntity
  8
KOPF
100
AcDbText
 10
-33.57569784693112
 20
40.26106040199917
 30
0.0
 40
1.54
  1
noch dritten Personen, insbesondere
 41
0.8
  7
TEXT20
100
AcDbText
  0
TEXT
  5
423
330
3C6
100
AcDbEntity
  8
KOPF
100
AcDbText
 10
-33.57569784693112
 20
35.63814072439632
 30
0.0
 40
1.54
  1
mitgeteilt werden und bleibt unser
 41
0.8
  7
TEXT20
100
AcDbText
  0
TEXT
  5
424
330
3C6
100
AcDbEntity
  8
KOPF
100
AcDbText
 10
-33.57569784693112
 20
33.37532604459598
 30
0.0
 40
1.54
  1
Eigentum.
 41
0.8
  7
TEXT20
100
AcDbText
  0
TEXT
  5
425
330
3C6
100
AcDbEntity
  8
KOPF
100
AcDbText
 10
-33.57569784693112
 20
37.97994933403727
 30
0.0
 40
1.54
  1
zum Zweck anderweitiger Benutzung
 41
0.8
  7
TEXT20
100
AcDbText
  0
TEXT
  5
426
330
3C6
100
AcDbEntity
  8
KOPF
100
AcDbText
 10
-33.7904806989385
 20
30.30982488917614
 30
0.0
 40
1.54
  1
Schutzvermerk nach DIN 34 beachten
 41
0.75
  7
TEXT20
100
AcDbText
  0
LINE
  5
427
330
3C6
100
AcDbEntity
  8
KOPF
100
AcDbLine
 10
-34.94281200000012
 20
47.01203199999999
 30
0.0
 11
-34.94281200000012
 21
27.0
 31
0.0
  0
LINE
  5
428
330
3C6
100
AcDbEntity
  8
KOPF
100
AcDbLine
 10
-34.94281200000012
 20
47.01203199999999
 30
0.0
 11
-34.94281200000012
 21
27.0
 31
0.0
  0
LINE
  5
429
330
3C6
100
AcDbEntity
  8
MITTE
100
AcDbLine
 10
-45.85521401410289
 20
36.04852954632858
 30
0.0
 11
-35.23444858652556
 21
36.04852954632858
 31
0.0
  0
LINE
  5
42A
330
3C6
100
AcDbEntity
  8
TEXT50
100
AcDbLine
 10
-45.05865660703466
 20
32.02559619470341
 30
0.0
 11
-36.50894043783512
 21
34.06858135367652
 31
0.0
  0
LINE
  5
42B
330
3C6
100
AcDbEntity
  8
TEXT50
100
AcDbLine
 10
-36.50894043783512
 20
38.02847773898061
 30
0.0
 11
-45.05865660703466
 21
40.07146289795374
 31
0.0
  0
TEXT
  5
42C
330
3C6
100
AcDbEntity
  8
KOPF
100
AcDbText
 10
-57.12244047883302
 20
43.82431699999997
 30
0.0
 40
2.0
  1
Projektion: ISO-E
 41
0.8
  7
TEXT20
100
AcDbText
  0
LINE
  5
42D
330
3C6
100
AcDbEntity
  8
TEXT50
100
AcDbLine
 10
-45.05865660703466
 20
40.07146289795374
 30
0.0
 11
-45.05865660703466
 21
32.02559619470346
 31
0.0
  0
LINE
  5
42E
330
3C6
100
AcDbEntity
  8
MITTE
100
AcDbLine
 10
-51.4945506424383
 20
40.07146289795374
 30
0.0
 11
-51.4945506424383
 21
30.76413131482123
 31
0.0
  0
CIRCLE
  5
42F
330
3C6
100
AcDbEntity
  8
TEXT50
100
AcDbCircle
 10
-51.4945506424383
 20
36.04852954632858
 30
0.0
 40
4.022933351625178
  0
CIRCLE
  5
430
330
3C6
100
AcDbEntity
  8
TEXT50
100
AcDbCircle
 10
-51.4945506424383
 20
36.04852954632858
 30
0.0
 40
1.979948192651899
  0
LINE
  5
431
330
3C6
100
AcDbEntity
  8
MITTE
100
AcDbLine
 10
-56.48631039339966
 20
36.04852954632858
 30
0.0
 11
-46.50279089147699
 21
36.04852954632858
 31
0.0
  0
LINE
  5
432
330
3C6
100
AcDbEntity
  8
TEXT50
100
AcDbLine
 10
-36.50894043783512
 20
38.02847773898061
 30
0.0
 11
-36.50894043783512
 21
34.06858135367652
 31
0.0
  0
LWPOLYLINE
  5
433
330
3C6
100
AcDbEntity
  8
KOPF
 62
    12
100
AcDbPolyline
 90
        2
 70
     0
 43
0.5
 10
-12.0
 20
27.0
 10
-12.0
 20
10.0
  0
LINE
  5
434
330
3C6
100
AcDbEntity
  8
KOPF
100
AcDbLine
 10
-12.0
 20
27.0
 30
0.0
 11
-12.0
 21
10.0
 31
0.0
  0
ATTDEF
  5
435
330
3C6
100
AcDbEntity
  8
TEXT50
100
AcDbText
 10
-5.58570360403041
 20
17.00587824180555
 30
0.0
 40
5.0
  1

 41
0.8
  7
TEXT50
 72
     4
 11
-5.58570360403041
 21
17.00587824180555
 31
0.0
100
AcDbAttributeDefinition
280
     0
  3
Index:
  2
F1B
 70
     0
280
     0
  0
TEXT
  5
436
330
3C6
100
AcDbEntity
  8
KOPF
100
AcDbText
 10
-8.353129999999964
 20
23.330072
 30
0.0
 40
2.0
  1
Index
 41
0.8
  7
TEXT20
100
AcDbText
  0
TEXT
  5
437
330
3C6
100
AcDbEntity
  8
KOPF
100
AcDbText
 10
-94.40535829344497
 20
70.39773773357916
 30
0.0
 40
2.0
  1
Benennung
 41
0.8
  7
TEXT20
100
AcDbText
  0
LINE
  5
438
330
3C6
100
AcDbEntity
  8
KOPF
100
AcDbLine
 10
-15.0
 20
88.49999999999996
 30
0.0
 11
-15.0
 21
68.49999999999997
 31
0.0
  0
LINE
  5
439
330
3C6
100
AcDbEntity
  8
KOPF
100
AcDbLine
 10
-15.0
 20
88.49999999999996
 30
0.0
 11
-15.0
 21
68.49999999999997
 31
0.0
  0
TEXT
  5
43A
330
3C6
100
AcDbEntity
  8
KOPF
100
AcDbText
 10
-11.65833600000008
 20
69.53813999999997
 30
0.0
 40
2.0
  1
Name
 41
0.8
  7
TEXT20
100
AcDbText
  0
TEXT
  5
43B
330
3C6
100
AcDbEntity
  8
KOPF
100
AcDbText
 10
-11.65833600000008
 20
69.53813999999997
 30
0.0
 40
2.0
  1
Name
 41
0.8
  7
TEXT20
100
AcDbText
  0
ATTDEF
  5
43C
330
3C6
100
AcDbEntity
  8
TEXT25
100
AcDbText
 10
-13.39999999999998
 20
74.90000000000001
 30
0.0
 40
2.0
  1

 41
0.8
  7
TEXT20
100
AcDbAttributeDefinition
280
     0
  3
Name vv.:
  2
F75
 70
     0
280
     0
  0
ATTDEF
  5
43D
330
3C6
100
AcDbEntity
  8
TEXT25
100
AcDbText
 10
-13.39999999999998
 20
79.7
 30
0.0
 40
2.0
  1

 41
0.8
  7
TEXT20
100
AcDbAttributeDefinition
280
     0
  3
Name v.:
  2
F71
 70
     0
280
     0
  0
ATTDEF
  5
43E
330
3C6
100
AcDbEntity
  8
TEXT25
100
AcDbText
 10
-13.31006638105163
 20
84.29999999999999
 30
0.0
 40
2.0
  1

 41
0.8
  7
TEXT20
100
AcDbAttributeDefinition
280
     0
  3
Name l.:
  2
F67
 70
     0
280
     0
  0
LINE
  5
43F
330
3C6
100
AcDbEntity
  8
KOPF
100
AcDbLine
 10
-182.0
 20
36.99999999999997
 30
0.0
 11
-113.4
 21
36.99999999999997
 31
0.0
  0
LINE
  5
440
330
3C6
100
AcDbEntity
  8
KOPF
100
AcDbLine
 10
-182.0
 20
31.99999999999997
 30
0.0
 11
-113.4
 21
31.99999999999997
 31
0.0
  0
MTEXT
  5
441
330
3C6
100
AcDbEntity
  8
Sperrlayer
 62
     1
100
AcDbMText
 10
-166.0749851709908
 20
9.027899370527848
 30
0.0
 40
10.0
 41
771.0
 46
0.0
 71
     1
 72
     5
  1
VORABZUG - nicht FREIGEGEBEN !
  7
TEXT20
 11
0.8660254037844387
 21
0.5
 31
0.0
 73
     1
 44
1.0
  0
ENDBLK
  5
443
330
3C6
100
AcDbEntity
  8
0
100
AcDbBlockEnd
  0
BLOCK
  5
756
330
755
100
AcDbEntity
  8
0
100
AcDbBlockBegin
  2
_ACMFILLEDHALF
 70
     0
 10
0.0
 20
0.0
 30
0.0
  3
_ACMFILLEDHALF
  1

  0
TRACE
  5
758
330
755
100
AcDbEntity
  8
SCHRAFF
 62
     0
100
AcDbTrace
 10
-0.8
 20
0.0
 30
0.0
 11
-1.0
 21
0.166666666
 31
0.0
 12
0.0
 22
0.0
 32
0.0
 13
0.0
 23
0.0
 33
0.0
  0
LINE
  5
759
330
755
100
AcDbEntity
  8
SCHRAFF
 62
     0
100
AcDbLine
 10
-1.0
 20
0.0
 30
0.0
 11
-0.8
 21
0.0
 31
0.0
  0
ENDBLK
  5
757
330
755
100
AcDbEntity
  8
0
100
AcDbBlockEnd
  0
BLOCK
  5
777
330
776
100
AcDbEntity
  8
0
100
AcDbBlockBegin
  2
*D23
 70
     1
 10
0.0
 20
0.0
 30
0.0
  3
*D23
  1

  0
LINE
  5
778
330
776
100
AcDbEntity
  8
BEMASS
440
 16777216
370
    -2
100
AcDbLine
 10
130.6714514703881
 20
328.030328761075
 30
0.0
 11
113.6714514703881
 21
328.0303287610751
 31
0.0
  0
LINE
  5
779
330
776
100
AcDbEntity
  8
BEMASS
440
 16777216
370
    -2
100
AcDbLine
 10
132.1714514703883
 20
334.030328761075
 30
0.0
 11
113.6714514703881
 21
334.0303287610751
 31
0.0
  0
LINE
  5
77A
330
776
100
AcDbEntity
  8
BEMASS
440
 16777216
370
    -2
100
AcDbLine
 10
115.6714514703881
 20
324.5303287610751
 30
0.0
 11
115.6714514703881
 21
321.030328761075
 31
0.0
  0
LINE
  5
77B
330
776
100
AcDbEntity
  8
BEMASS
440
 16777216
370
    -2
100
AcDbLine
 10
115.6714514703881
 20
337.530328761075
 30
0.0
 11
115.6714514703881
 21
341.0303287610751
 31
0.0
  0
SOLID
  5
77C
330
776
100
AcDbEntity
  8
BEMASS
440
 16777216
100
AcDbTrace
 10
115.0881181370547
 20
324.5303287610751
 30
0.0
 11
116.2547848037214
 21
324.5303287610751
 31
0.0
 12
115.6714514703881
 22
328.0303287610751
 32
0.0
 13
115.6714514703881
 23
328.0303287610751
 33
0.0
  0
SOLID
  5
77D
330
776
100
AcDbEntity
  8
BEMASS
440
 16777216
100
AcDbTrace
 10
115.0881181370547
 20
337.530328761075
 30
0.0
 11
116.2547848037214
 21
337.530328761075
 31
0.0
 12
115.6714514703881
 22
334.0303287610751
 32
0.0
 13
115.6714514703881
 23
334.0303287610751
 33
0.0
  0
MTEXT
  5
77E
330
776
100
AcDbEntity
  8
BEMASS
440
 16777216
100
AcDbMText
 10
111.171451470388
 20
331.030328761075
 30
0.0
 40
5.0
 41
0.0
 46
0.0
 71
     5
 72
     1
  1
\A1;6
 11
0.0000000000000001
 21
1.0
 31
0.0
 73
     1
 44
1.0
  0
POINT
  5
77F
330
776
100
AcDbEntity
  8
DEFPOINTS
 62
     0
440
 16777216
100
AcDbPoint
 10
130.6714514703881
 20
328.030328761075
 30
0.0
  0
POINT
  5
780
330
776
100
AcDbEntity
  8
DEFPOINTS
 62
     0
440
 16777216
100
AcDbPoint
 10
132.1714514703883
 20
334.030328761075
 30
0.0
  0
POINT
  5
781
330
776
100
AcDbEntity
  8
DEFPOINTS
 62
     0
440
 16777216
100
AcDbPoint
 10
115.6714514703881
 20
334.0303287610751
 30
0.0
  0
ENDBLK
  5
782
330
776
100
AcDbEntity
  8
0
100
AcDbBlockEnd
  0
BLOCK
  5
78C
330
78B
100
AcDbEntity
  8
0
100
AcDbBlockBegin
  2
*D25
 70
     1
 10
0.0
 20
0.0
 30
0.0
  3
*D25
  1

  0
LINE
  5
88F
330
78B
100
AcDbEntity
  8
BEMASS
440
 16777216
370
    -2
100
AcDbLine
 10
306.1432569033269
 20
279.4161035864437
 30
0.0
 11
89.00287174424091
 21
279.4161035864436
 31
0.0
  0
LINE
  5
890
330
78B
100
AcDbEntity
  8
BEMASS
440
 16777216
370
    -2
100
AcDbLine
 10
132.1714514703884
 20
334.0303287610751
 30
0.0
 11
89.00287174424091
 21
334.0303287610751
 31
0.0
  0
LINE
  5
891
330
78B
100
AcDbEntity
  8
BEMASS
440
 16777216
370
    -2
100
AcDbLine
 10
91.00287174424092
 20
282.9161035864436
 30
0.0
 11
91.0028717442409
 21
330.5303287610751
 31
0.0
  0
SOLID
  5
892
330
78B
100
AcDbEntity
  8
BEMASS
440
 16777216
100
AcDbTrace
 10
90.41953841090759
 20
282.9161035864436
 30
0.0
 11
91.58620507757424
 21
282.9161035864436
 31
0.0
 12
91.00287174424092
 22
279.4161035864436
 32
0.0
 13
91.00287174424092
 23
279.4161035864436
 33
0.0
  0
SOLID
  5
893
330
78B
100
AcDbEntity
  8
BEMASS
440
 16777216
100
AcDbTrace
 10
90.41953841090757
 20
330.5303287610751
 30
0.0
 11
91.58620507757424
 21
330.5303287610751
 31
0.0
 12
91.0028717442409
 22
334.0303287610751
 32
0.0
 13
91.0028717442409
 23
334.0303287610751
 33
0.0
  0
MTEXT
  5
894
330
78B
100
AcDbEntity
  8
BEMASS
440
 16777216
100
AcDbMText
 10
86.50287174424098
 20
306.7232161737593
 30
0.0
 40
5.0
 41
0.0
 46
0.0
 71
     5
 72
     1
  1
\A1;55
 11
0.0000000000000001
 21
1.0
 31
0.0
 73
     1
 44
1.0
  0
POINT
  5
895
330
78B
100
AcDbEntity
  8
DEFPOINTS
 62
     0
440
 16777216
100
AcDbPoint
 10
306.1432569033269
 20
279.4161035864437
 30
0.0
  0
POINT
  5
896
330
78B
100
AcDbEntity
  8
DEFPOINTS
 62
     0
440
 16777216
100
AcDbPoint
 10
132.1714514703884
 20
334.0303287610751
 30
0.0
  0
POINT
  5
897
330
78B
100
AcDbEntity
  8
DEFPOINTS
 62
     0
440
 16777216
100
AcDbPoint
 10
91.0028717442409
 20
334.0303287610751
 30
0.0
  0
ENDBLK
  5
78D
330
78B
100
AcDbEntity
  8
0
100
AcDbBlockEnd
  0
ENDSEC
  0
SECTION
  2
ENTITIES
  0
MTEXT
  5
3
330
2
100
AcDbEntity
  8
BEMASS
100
AcDbMText
 10
-47.73523245021823
 20
836.4692453873351
 30
0.0
 40
5.0
 41
0.0
 46
0.0
 71
     1
 72
     1
  1

 73
     1
 44
1.0
  0
MTEXT
  5
A
330
2
100
AcDbEntity
  8
BEMASS
100
AcDbMText
 10
-52.15464983263416
 20
832.7573096157982
 30
0.0
 40
5.0
 41
0.0
 46
0.0
 71
     1
 72
     1
  1

 73
     1
 44
1.0
  0
LINE
  5
B
330
2
100
AcDbEntity
  8
SICHTBAR
100
AcDbLine
 10
305.9432691399774
 20
280.3959019812731
 30
0.0
 11
310.2280310123775
 21
281.2704695942309
 31
0.0
  0
LINE
  5
D
330
2
100
AcDbEntity
  8
SICHTBAR
100
AcDbLine
 10
307.2544554926413
 20
310.4270067929901
 30
0.0
 11
311.4466889626216
 21
309.1823255703531
 31
0.0
  0
LINE
  5
E
330
2
100
AcDbEntity
  8
SICHTBAR
100
AcDbLine
 10
306.1432569033268
 20
279.4161035864436
 30
0.0
 11
310.1830691770195
 21
280.240674258564
 31
0.0
  0
LINE
  5
F
330
2
100
AcDbEntity
  8
SICHTBAR
100
AcDbLine
 10
307.5390772990175
 20
311.3856466770629
 30
0.0
 11
311.4916507979797
 21
310.2121209060198
 31
0.0
  0
LINE
  5
10
330
2
100
AcDbEntity
  8
MITTE
100
AcDbLine
 10
265.8373599874998
 20
297.1911400131751
 30
0.0
 11
312.8354564306631
 21
295.1391588075612
 31
0.0
  0
DIMENSION
  5
13
330
2
100
AcDbEntity
  8
BEMASS
100
AcDbDimension
280
     0
  2
*D1
 10
115.6714514703881
 20
334.0303287610751
 30
0.0
 11
111.171451470388
 21
331.030328761075
 31
0.0
 70
    32
 71
     5
 42
6.0
 73
     0
 74
     0
 75
     0
  3
STANDARD
100
AcDbAlignedDimension
 13
130.6714514703881
 23
328.030328761075
 33
0.0
 14
132.1714514703883
 24
334.030328761075
 34
0.0
 50
90.0
100
AcDbRotatedDimension
  0
LINE
  5
24
330
2
100
AcDbEntity
  8
SICHTBAR
100
AcDbLine
 10
205.6714514703888
 20
333.030328761075
 30
0.0
 11
272.171451470389
 21
333.0303287610746
 31
0.0
  0
LINE
  5
25
330
2
100
AcDbEntity
  8
SICHTBAR
100
AcDbLine
 10
205.6714514703888
 20
331.530328761075
 30
0.0
 11
255.671451470389
 21
331.5303287610745
 31
0.0
  0
LINE
  5
26
330
2
100
AcDbEntity
  8
SICHTBAR
100
AcDbLine
 10
205.6714514703888
 20
329.530328761075
 30
0.0
 11
255.6714514703888
 21
329.5303287610745
 31
0.0
  0
LINE
  5
27
102
{ACAD_REACTORS
330
6E6
102
}
330
2
100
AcDbEntity
  8
SICHTBAR
100
AcDbLine
 10
205.6714514703886
 20
334.030328761075
 30
0.0
 11
279.1714514703888
 21
334.0303287610745
 31
0.0
  0
HATCH
  5
28
330
2
100
AcDbEntity
  8
SCHRAFF
100
AcDbHatch
 10
0.0
 20
0.0
 30
0.0
210
0.0
220
0.0
230
1.0
  2
ANSI31
 70
     0
 71
     0
 91
        6
 92
        7
 72
     0
 73
     1
 93
        8
 10
155.6714514703888
 20
329.530328761075
 10
159.6714514703881
 20
329.530328761075
 10
159.6714514703881
 20
331.530328761075
 10
155.6714514703881
 20
331.530328761075
 10
145.6714514703885
 20
333.030328761075
 10
139.1714514703885
 20
333.030328761075
 10
139.1714514703885
 20
331.030328761075
 10
145.6714514703885
 20
331.030328761075
 97
        0
 92
        7
 72
     0
 73
     1
 93
        4
 10
183.6714514703878
 20
329.530328761075
 10
183.6714514703878
 20
331.530328761075
 10
165.6714514703881
 20
331.530328761075
 10
165.6714514703881
 20
329.530328761075
 97
        0
 92
        7
 72
     0
 73
     1
 93
        4
 10
205.6714514703886
 20
329.530328761075
 10
205.6714514703886
 20
331.530328761075
 10
189.671451470388
 20
331.530328761075
 10
189.671451470388
 20
329.530328761075
 97
        0
 92
        7
 72
     0
 73
     1
 93
        4
 10
221.6714514703895
 20
329.530328761075
 10
221.6714514703895
 20
331.530328761075
 10
205.6714514703888
 20
331.530328761075
 10
205.6714514703888
 20
329.530328761075
 97
        0
 92
        7
 72
     0
 73
     1
 93
        4
 10
245.6714514703894
 20
329.5303287610745
 10
245.6714514703894
 20
331.5303287610745
 10
227.6714514703895
 20
331.530328761075
 10
227.6714514703895
 20
329.530328761075
 97
        0
 92
        7
 72
     0
 73
     1
 93
        8
 10
265.671451470389
 20
331.0303287610746
 10
272.171451470389
 20
331.0303287610746
 10
272.171451470389
 20
333.0303287610746
 10
265.6714514703885
 20
333.0303287610746
 10
255.671451470389
 20
331.5303287610745
 10
251.6714514703894
 20
331.5303287610745
 10
251.6714514703894
 20
329.5303287610745
 10
255.6714514703886
 20
329.5303287610745
 97
        0
 75
     0
 76
     1
 52
90.0
 41
25.0
 77
     0
 78
     1
 53
135.0
 43
-23.27326836140401
 44
-70.50444715438982
 45
-2.209708691207961
 46
-2.20970869120796
 79
     0
 47
0.138524483993227
 98
        6
 10
146.370165236759
 20
331.3415634076887
 10
170.6220644672653
 20
330.0948428401552
 10
200.2786674619724
 20
329.9563201716942
 10
209.4250970580783
 20
329.9563201716942
 10
234.0927415439082
 20
329.9563201716942
 10
258.4832225261894
 20
330.3718923149236
  0
DIMENSION
  5
2A
330
2
100
AcDbEntity
  8
BEMASS
100
AcDbDimension
280
     0
  2
*D0
 10
280.6714514703888
 20
349.030328761075
 30
0.0
 11
205.6714514703886
 21
353.530328761075
 31
0.0
 70
    32
  1
150x150
 71
     5
 42
150.0000000000004
 73
     0
 74
     0
 75
     0
  3
STANDARD
100
AcDbAlignedDimension
 13
130.6714514703883
 23
331.7682005044412
 33
0.0
 14
280.6714514703888
 24
332.5303287610745
 34
0.0
100
AcDbRotatedDimension
  0
LINE
  5
37
330
2
100
AcDbEntity
  8
SICHTBAR
100
AcDbLine
 10
205.6714514703886
 20
334.030328761075
 30
0.0
 11
255.9734124618317
 21
334.0303287610741
 31
0.0
  0
LINE
  5
38
330
2
100
AcDbEntity
  8
SICHTBAR
100
AcDbLine
 10
210.7238263882322
 20
282.3912102347556
 30
0.0
 11
256.247912627913
 21
282.3912102347549
 31
0.0
  0
LINE
  5
39
330
2
100
AcDbEntity
  8
SICHTBAR
100
AcDbLine
 10
210.7238263882324
 20
281.3912102347558
 30
0.0
 11
255.9734124618304
 21
281.3912102347549
 31
0.0
  0
LINE
  5
3A
330
2
100
AcDbEntity
  8
MITTE
100
AcDbLine
 10
205.6714514703886
 20
334.030328761075
 30
0.0
 11
205.6714514703884
 21
294.2485969116796
 31
0.0
  0
LINE
  5
3B
330
2
100
AcDbEntity
  8
SICHTBAR
100
AcDbLine
 10
205.6714514703888
 20
329.530328761075
 30
0.0
 11
155.6714514703888
 21
329.530328761075
 31
0.0
  0
LINE
  5
3C
330
2
100
AcDbEntity
  8
SICHTBAR
100
AcDbLine
 10
205.6714514703888
 20
331.530328761075
 30
0.0
 11
155.6714514703885
 21
331.530328761075
 31
0.0
  0
LINE
  5
3D
330
2
100
AcDbEntity
  8
SICHTBAR
100
AcDbLine
 10
205.6714514703888
 20
333.030328761075
 30
0.0
 11
139.1714514703885
 21
333.030328761075
 31
0.0
  0
LINE
  5
3E
102
{ACAD_REACTORS
330
6E6
102
}
330
2
100
AcDbEntity
  8
SICHTBAR
100
AcDbLine
 10
205.6714514703886
 20
334.030328761075
 30
0.0
 11
132.1714514703883
 21
334.030328761075
 31
0.0
  0
LINE
  5
3F
330
2
100
AcDbEntity
  8
SICHTBAR
100
AcDbLine
 10
139.1714514703885
 20
331.030328761075
 30
0.0
 11
139.1714514703885
 21
333.030328761075
 31
0.0
  0
ARC
  5
40
102
{ACAD_REACTORS
330
6E6
102
}
330
2
100
AcDbEntity
  8
SICHTBAR
100
AcDbCircle
 10
136.1714514703885
 20
332.530328761075
 30
0.0
 40
0.5
100
AcDbArc
 50
0.0
 51
90.0
  0
ARC
  5
41
102
{ACAD_REACTORS
330
6E6
102
}
330
2
100
AcDbEntity
  8
SICHTBAR
100
AcDbCircle
 10
136.1714514703885
 20
332.530328761075
 30
0.0
 40
1.5
100
AcDbArc
 50
0.0
 51
90.0
  0
ARC
  5
42
102
{ACAD_REACTORS
330
6E6
102
}
330
2
100
AcDbEntity
  8
SICHTBAR
100
AcDbCircle
 10
132.1714514703885
 20
332.530328761075
 30
0.0
 40
0.5
100
AcDbArc
 50
90.0
 51
180.0
  0
ARC
  5
43
102
{ACAD_REACTORS
330
6E6
102
}
330
2
100
AcDbEntity
  8
SICHTBAR
100
AcDbCircle
 10
132.1714514703883
 20
332.530328761075
 30
0.0
 40
1.5
100
AcDbArc
 50
90.0
 51
180.0
  0
LINE
  5
44
330
2
100
AcDbEntity
  8
SICHTBAR
100
AcDbLine
 10
145.6714514703888
 20
333.030328761075
 30
0.0
 11
155.6714514703888
 21
331.530328761075
 31
0.0
  0
ARC
  5
45
102
{ACAD_REACTORS
330
6E6
102
}
330
2
100
AcDbEntity
  8
SICHTBAR
100
AcDbCircle
 10
141.7503973393366
 20
329.030328761075
 30
0.0
 40
1.0
100
AcDbArc
 50
41.06238228687488
 51
90.0
  0
LINE
  5
46
102
{ACAD_REACTORS
330
6E6
102
}
330
2
100
AcDbEntity
  8
SICHTBAR
100
AcDbLine
 10
145.6714514703881
 20
331.030328761075
 30
0.0
 11
138.1714514703885
 21
331.030328761075
 31
0.0
  0
ARC
  5
47
102
{ACAD_REACTORS
330
6E6
102
}
330
2
100
AcDbEntity
  8
SICHTBAR
100
AcDbCircle
 10
141.7503973393366
 20
329.030328761075
 30
0.0
 40
2.0
100
AcDbArc
 50
41.06238228687488
 51
90.0
  0
LINE
  5
49
102
{ACAD_REACTORS
330
6E6
102
}
330
2
100
AcDbEntity
  8
SICHTBAR
100
AcDbLine
 10
141.7503973393366
 20
330.030328761075
 30
0.0
 11
138.1714514703885
 21
330.030328761075
 31
0.0
  0
LINE
  5
4A
102
{ACAD_REACTORS
330
6E6
102
}
330
2
100
AcDbEntity
  8
SICHTBAR
100
AcDbLine
 10
131.6714514703885
 20
332.530328761075
 30
0.0
 11
131.6714514703883
 21
328.030328761075
 31
0.0
  0
LINE
  5
4B
102
{ACAD_REACTORS
330
6E6
102
}
330
2
100
AcDbEntity
  8
SICHTBAR
100
AcDbLine
 10
136.6714514703885
 20
332.530328761075
 30
0.0
 11
136.6714514703885
 21
331.530328761075
 31
0.0
  0
LINE
  5
4C
102
{ACAD_REACTORS
330
6E6
102
}
330
2
100
AcDbEntity
  8
SICHTBAR
100
AcDbLine
 10
137.6714514703885
 20
332.530328761075
 30
0.0
 11
137.6714514703885
 21
331.530328761075
 31
0.0
  0
ARC
  5
4D
102
{ACAD_REACTORS
330
6E6
102
}
330
2
100
AcDbEntity
  8
SICHTBAR
100
AcDbCircle
 10
138.1714514703885
 20
331.530328761075
 30
0.0
 40
1.5
100
AcDbArc
 50
180.0
 51
270.0
  0
ARC
  5
4E
102
{ACAD_REACTORS
330
6E6
102
}
330
2
100
AcDbEntity
  8
SICHTBAR
100
AcDbCircle
 10
138.1714514703885
 20
331.530328761075
 30
0.0
 40
0.5
100
AcDbArc
 50
180.0
 51
270.0
  0
LINE
  5
4F
102
{ACAD_REACTORS
330
6E6
102
}
330
2
100
AcDbEntity
  8
SICHTBAR
100
AcDbLine
 10
130.6714514703883
 20
332.530328761075
 30
0.0
 11
130.6714514703881
 21
328.030328761075
 31
0.0
  0
LINE
  5
50
330
2
100
AcDbEntity
  8
SICHTBAR
100
AcDbLine
 10
145.6714514703888
 20
331.030328761075
 30
0.0
 11
155.6714514703888
 21
329.530328761075
 31
0.0
  0
LINE
  5
54
330
2
100
AcDbEntity
  8
SICHTBAR
100
AcDbLine
 10
159.6714514703881
 20
329.530328761075
 30
0.0
 11
159.6714514703881
 21
331.530328761075
 31
0.0
  0
LINE
  5
55
330
2
100
AcDbEntity
  8
SICHTBAR
100
AcDbLine
 10
165.6714514703881
 20
329.530328761075
 30
0.0
 11
165.6714514703881
 21
331.530328761075
 31
0.0
  0
LINE
  5
56
102
{ACAD_REACTORS
330
6E6
102
}
330
2
100
AcDbEntity
  8
SICHTBAR
100
AcDbLine
 10
136.1714514703885
 20
333.030328761075
 30
0.0
 11
132.1714514703885
 21
333.030328761075
 31
0.0
  0
LINE
  5
57
330
2
100
AcDbEntity
  8
SICHTBAR
100
AcDbLine
 10
183.6714514703878
 20
329.530328761075
 30
0.0
 11
183.6714514703878
 21
331.530328761075
 31
0.0
  0
LINE
  5
58
330
2
100
AcDbEntity
  8
SICHTBAR
100
AcDbLine
 10
189.671451470388
 20
329.530328761075
 30
0.0
 11
189.671451470388
 21
331.530328761075
 31
0.0
  0
POINT
  5
59
330
2
100
AcDbEntity
  8
SICHTBAR
100
AcDbPoint
 10
204.1714514703885
 20
334.030328761075
 30
0.0
  0
ARC
  5
5A
330
2
100
AcDbEntity
  8
BEMASS
100
AcDbCircle
 10
391.1237951524798
 20
293.5772696415408
 30
0.0
 40
131.4095310196863
100
AcDbArc
 50
170.8817072319247
 51
183.6377217181437
  0
LINE
  5
5B
330
2
100
AcDbEntity
  8
SICHTBAR
100
AcDbLine
 10
266.2828543519448
 20
312.1859795866128
 30
0.0
 11
307.3724694553124
 21
310.3919682474518
 31
0.0
  0
LINE
  5
5C
330
2
100
AcDbEntity
  8
SICHTBAR
100
AcDbLine
 10
266.32647373931
 20
313.1850278081944
 30
0.0
 11
264.9306533436192
 21
281.2154847175751
 31
0.0
  0
LINE
  5
5D
330
2
100
AcDbEntity
  8
SICHTBAR
100
AcDbLine
 10
266.32647373931
 20
313.1850278081946
 30
0.0
 11
307.5390772990183
 21
311.3856466770628
 31
0.0
  0
LINE
  5
5E
330
2
100
AcDbEntity
  8
SICHTBAR
100
AcDbLine
 10
264.9742727309846
 20
282.214532939157
 30
0.0
 11
257.271080496737
 21
282.5508615755099
 31
0.0
  0
LINE
  5
5F
330
2
100
AcDbEntity
  8
SICHTBAR
100
AcDbLine
 10
264.9306533436192
 20
281.2154847175752
 30
0.0
 11
257.3834619953942
 21
281.5450022081499
 31
0.0
  0
ARC
  5
60
330
2
100
AcDbEntity
  8
BEMASS
100
AcDbCircle
 10
256.1480017460175
 20
286.3899622670368
 30
0.0
 40
4.0
100
AcDbArc
 50
269.9999999999988
 51
343.2870396692236
  0
ARC
  5
61
330
2
100
AcDbEntity
  8
SICHTBAR
100
AcDbCircle
 10
255.9734124618304
 20
286.3912102347549
 30
0.0
 40
5.0
100
AcDbArc
 50
269.9999999999988
 51
284.3055011505493
  0
LINE
  5
62
330
2
100
AcDbEntity
  8
SICHTBAR
100
AcDbLine
 10
264.9742727309846
 20
282.214532939157
 30
0.0
 11
306.0638878343515
 21
280.420521599996
 31
0.0
  0
LINE
  5
63
330
2
100
AcDbEntity
  8
SICHTBAR
100
AcDbLine
 10
264.9306533436192
 20
281.2154847175752
 30
0.0
 11
306.1432569033267
 21
279.4161035864433
 31
0.0
  0
LINE
  5
64
330
2
100
AcDbEntity
  8
BEMASS
100
AcDbLine
 10
307.5390772990175
 20
311.3856466770629
 30
0.0
 11
306.1432569033268
 21
279.4161035864436
 31
0.0
  0
LINE
  5
65
330
2
100
AcDbEntity
  8
SICHTBAR
100
AcDbLine
 10
265.6714514703888
 20
331.0303287610746
 30
0.0
 11
255.6714514703888
 21
329.5303287610745
 31
0.0
  0
LINE
  5
67
330
2
100
AcDbEntity
  8
SICHTBAR
100
AcDbLine
 10
265.6714514703888
 20
333.0303287610746
 30
0.0
 11
255.6714514703888
 21
331.5303287610745
 31
0.0
  0
LINE
  5
68
330
2
100
AcDbEntity
  8
SICHTBAR
100
AcDbLine
 10
221.6714514703895
 20
329.530328761075
 30
0.0
 11
221.6714514703895
 21
331.530328761075
 31
0.0
  0
LINE
  5
69
330
2
100
AcDbEntity
  8
SICHTBAR
100
AcDbLine
 10
227.6714514703895
 20
329.530328761075
 30
0.0
 11
227.6714514703895
 21
331.5303287610748
 31
0.0
  0
LINE
  5
6A
330
2
100
AcDbEntity
  8
SICHTBAR
100
AcDbLine
 10
245.6714514703894
 20
329.5303287610745
 30
0.0
 11
245.6714514703894
 21
331.5303287610745
 31
0.0
  0
LINE
  5
6C
330
2
100
AcDbEntity
  8
SICHTBAR
100
AcDbLine
 10
251.6714514703894
 20
329.5303287610745
 30
0.0
 11
251.6714514703894
 21
331.5303287610745
 31
0.0
  0
ARC
  5
6D
102
{ACAD_REACTORS
330
6E6
102
}
330
2
100
AcDbEntity
  8
SICHTBAR
100
AcDbCircle
 10
275.1714514703888
 20
332.5303287610745
 30
0.0
 40
0.5
100
AcDbArc
 50
90.0
 51
180.0
  0
ARC
  5
6E
102
{ACAD_REACTORS
330
6E6
102
}
330
2
100
AcDbEntity
  8
SICHTBAR
100
AcDbCircle
 10
279.1714514703888
 20
332.5303287610745
 30
0.0
 40
1.5
100
AcDbArc
 50
0.0
 51
90.0
  0
ARC
  5
6F
102
{ACAD_REACTORS
330
6E6
102
}
330
2
100
AcDbEntity
  8
SICHTBAR
100
AcDbCircle
 10
279.1714514703888
 20
332.5303287610745
 30
0.0
 40
0.5
100
AcDbArc
 50
0.0
 51
90.0
  0
ARC
  5
70
102
{ACAD_REACTORS
330
6E6
102
}
330
2
100
AcDbEntity
  8
SICHTBAR
100
AcDbCircle
 10
275.1714514703888
 20
332.5303287610745
 30
0.0
 40
1.5
100
AcDbArc
 50
90.0
 51
180.0
  0
LINE
  5
71
330
2
100
AcDbEntity
  8
SICHTBAR
100
AcDbLine
 10
272.171451470389
 20
331.0303287610746
 30
0.0
 11
272.171451470389
 21
333.0303287610746
 31
0.0
  0
ARC
  5
72
330
2
100
AcDbEntity
  8
SICHTBAR
100
AcDbCircle
 10
263.3729484619297
 20
314.3149341918725
 30
0.0
 40
2.0
100
AcDbArc
 50
177.4999999999999
 51
267.4999999999998
  0
LINE
  5
73
330
2
100
AcDbEntity
  8
SICHTBAR
100
AcDbLine
 10
266.2828543519446
 20
312.1859795866128
 30
0.0
 11
263.2857096871991
 21
312.316837748709
 31
0.0
  0
ARC
  5
74
330
2
100
AcDbEntity
  8
SICHTBAR
100
AcDbCircle
 10
263.3729484619297
 20
314.3149341918725
 30
0.0
 40
1.0
100
AcDbArc
 50
177.4999999999999
 51
267.4999999999998
  0
LINE
  5
75
330
2
100
AcDbEntity
  8
SICHTBAR
100
AcDbLine
 10
266.32647373931
 20
313.1850278081946
 30
0.0
 11
263.3293290745645
 21
313.3158859702908
 31
0.0
  0
LINE
  5
76
330
2
100
AcDbEntity
  8
SICHTBAR
100
AcDbLine
 10
265.6714514703895
 20
331.0303287610746
 30
0.0
 11
273.171451470389
 21
331.0303287610746
 31
0.0
  0
LINE
  5
77
102
{ACAD_REACTORS
330
6E6
102
}
330
2
100
AcDbEntity
  8
SICHTBAR
100
AcDbLine
 10
269.5925056014407
 20
330.0303287610745
 30
0.0
 11
273.1714514703888
 21
330.0303287610745
 31
0.0
  0
LINE
  5
78
102
{ACAD_REACTORS
330
6E6
102
}
330
2
100
AcDbEntity
  8
SICHTBAR
100
AcDbLine
 10
269.5925056014405
 20
331.0303287610746
 30
0.0
 11
273.1714514703888
 21
331.0303287610746
 31
0.0
  0
ARC
  5
7A
102
{ACAD_REACTORS
330
6E6
102
}
330
2
100
AcDbEntity
  8
SICHTBAR
100
AcDbCircle
 10
269.5925056014407
 20
329.0303287610746
 30
0.0
 40
1.0
100
AcDbArc
 50
90.0
 51
138.9376177131251
  0
ARC
  5
7B
102
{ACAD_REACTORS
330
6E6
102
}
330
2
100
AcDbEntity
  8
SICHTBAR
100
AcDbCircle
 10
269.5925056014405
 20
329.0303287610746
 30
0.0
 40
2.0
100
AcDbArc
 50
90.0
 51
138.9376177131251
  0
LINE
  5
7D
102
{ACAD_REACTORS
330
6E6
102
}
330
2
100
AcDbEntity
  8
SICHTBAR
100
AcDbLine
 10
280.6714514703888
 20
332.5303287610745
 30
0.0
 11
280.671451470389
 21
328.0303287610745
 31
0.0
  0
LINE
  5
7E
102
{ACAD_REACTORS
330
6E6
102
}
330
2
100
AcDbEntity
  8
SICHTBAR
100
AcDbLine
 10
279.6714514703888
 20
332.5303287610745
 30
0.0
 11
279.6714514703888
 21
328.0303287610745
 31
0.0
  0
LINE
  5
7F
102
{ACAD_REACTORS
330
6E6
102
}
330
2
100
AcDbEntity
  8
SICHTBAR
100
AcDbLine
 10
273.6714514703888
 20
332.5303287610745
 30
0.0
 11
273.6714514703888
 21
331.5303287610745
 31
0.0
  0
LINE
  5
80
102
{ACAD_REACTORS
330
6E6
102
}
330
2
100
AcDbEntity
  8
SICHTBAR
100
AcDbLine
 10
274.6714514703888
 20
332.5303287610745
 30
0.0
 11
274.6714514703888
 21
331.5303287610745
 31
0.0
  0
ARC
  5
81
102
{ACAD_REACTORS
330
6E6
102
}
330
2
100
AcDbEntity
  8
SICHTBAR
100
AcDbCircle
 10
273.1714514703888
 20
331.5303287610745
 30
0.0
 40
1.5
100
AcDbArc
 50
270.0
 51
0.0
  0
ARC
  5
82
102
{ACAD_REACTORS
330
6E6
102
}
330
2
100
AcDbEntity
  8
SICHTBAR
100
AcDbCircle
 10
273.1714514703888
 20
331.5303287610745
 30
0.0
 40
0.5
100
AcDbArc
 50
270.0
 51
0.0
  0
LINE
  5
83
102
{ACAD_REACTORS
330
6E6
102
}
330
2
100
AcDbEntity
  8
SICHTBAR
100
AcDbLine
 10
275.1714514703888
 20
333.0303287610746
 30
0.0
 11
279.1714514703888
 21
333.0303287610746
 31
0.0
  0
LINE
  5
84
330
2
100
AcDbEntity
  8
SICHTBAR
100
AcDbLine
 10
311.4916507979796
 20
310.2121209060198
 30
0.0
 11
310.1830691770195
 21
280.240674258564
 31
0.0
  0
LINE
  5
85
330
2
100
AcDbEntity
  8
SICHTBAR
100
AcDbLine
 10
210.7238263882324
 20
281.3912102347559
 30
0.0
 11
255.9734124618304
 21
281.3912102347549
 31
0.0
  0
LINE
  5
86
330
2
100
AcDbEntity
  8
SICHTBAR
100
AcDbLine
 10
205.6714514703886
 20
334.030328761075
 30
0.0
 11
255.9734124618317
 21
334.0303287610741
 31
0.0
  0
LINE
  5
87
330
2
100
AcDbEntity
  8
SICHTBAR
100
AcDbLine
 10
148.6714514703905
 20
321.1735971907152
 30
0.0
 11
148.9799870964208
 21
314.1069695487781
 31
0.0
  0
LINE
  5
88
330
2
100
AcDbEntity
  8
SICHTBAR
100
AcDbLine
 10
262.6714514703875
 20
321.1735971907152
 30
0.0
 11
262.3739002403478
 21
314.3585535792379
 31
0.0
  0
LINE
  5
89
330
2
100
AcDbEntity
  8
SICHTBAR
100
AcDbLine
 10
207.342880294307
 20
282.1407479384626
 30
0.0
 11
153.5914267751501
 21
307.2054623514076
 31
0.0
  0
LINE
  5
8A
330
2
100
AcDbEntity
  8
SICHTBAR
100
AcDbLine
 10
261.6724032488056
 20
321.2172165780805
 30
0.0
 11
261.3748520187659
 21
314.4021729666032
 31
0.0
  0
LINE
  5
8B
330
2
100
AcDbEntity
  8
SICHTBAR
100
AcDbLine
 10
149.6704996919724
 20
321.2172165780805
 30
0.0
 11
149.9790353180029
 21
314.1505889361436
 31
0.0
  0
LINE
  5
8C
330
2
100
AcDbEntity
  8
SICHTBAR
100
AcDbLine
 10
207.7654985560474
 20
283.047055725499
 30
0.0
 11
154.0140450368909
 21
308.1117701384445
 31
0.0
  0
ARC
  5
8D
330
2
100
AcDbEntity
  8
SICHTBAR
100
AcDbCircle
 10
156.9723728690759
 20
314.4559246477011
 30
0.0
 40
7.0
100
AcDbArc
 50
182.5000000000009
 51
244.9999999999998
  0
ARC
  5
8E
330
2
100
AcDbEntity
  8
SICHTBAR
100
AcDbCircle
 10
210.7238263882324
 20
289.3912102347556
 30
0.0
 40
7.0
100
AcDbArc
 50
244.9999999999998
 51
269.999999999999
  0
ARC
  5
8F
330
2
100
AcDbEntity
  8
SICHTBAR
100
AcDbCircle
 10
156.9723728690757
 20
314.4559246477009
 30
0.0
 40
8.0
100
AcDbArc
 50
182.5000000000002
 51
244.9999999999999
  0
ARC
  5
90
330
2
100
AcDbEntity
  8
SICHTBAR
100
AcDbCircle
 10
210.7238263882326
 20
289.3912102347558
 30
0.0
 40
8.0
100
AcDbArc
 50
245.0000000000001
 51
269.9999999999989
  0
LINE
  5
91
330
2
100
AcDbEntity
  8
BEMASS
100
AcDbLine
 10
257.2088727112074
 20
281.546250175868
 30
0.0
 11
257.3834619953942
 21
281.5450022081499
 31
0.0
  0
HATCH
  5
92
330
2
100
AcDbEntity
  8
BEMASS
100
AcDbHatch
 10
0.0
 20
0.0
 30
0.0
210
0.0
220
0.0
230
1.0
  2
ANSI31
 70
     0
 71
     0
 91
        6
 92
        7
 72
     1
 73
     1
 93
        8
 10
149.9790353180029
 20
314.1505889361436
 42
0.0
 10
149.6724041555536
 20
321.1735971907154
 42
0.0
 10
148.6714514703905
 20
321.1735971907151
 42
0.0
 10
148.9799870964208
 20
314.1069695487781
 42
0.2796754208987364
 10
153.5914267751501
 20
307.2054623514076
 42
0.0
 10
205.6714514703884
 20
282.9201479991169
 42
0.0
 10
205.6714514703884
 20
284.0235259180789
 42
0.0
 10
154.0140450368909
 20
308.1117701384445
 42
-0.2796754208987327
 97
        0
 92
        7
 72
     0
 73
     1
 93
        4
 10
207.2675446004322
 20
283.279255468411
 10
205.6714514703884
 20
284.0235259180789
 10
205.6714514703884
 20
282.9201479991168
 10
207.2675446004322
 20
282.1758775494489
 97
        0
 92
        7
 72
     1
 73
     1
 93
        8
 10
211.3534282393394
 20
282.3912102347557
 42
0.0
 10
210.7238263882335
 20
282.3912102347556
 42
-0.1095178116832873
 10
207.7654985560474
 20
283.047055725499
 42
0.0
 10
207.2675446004324
 20
283.2792554684108
 42
0.0
 10
207.2675446004324
 20
282.1758775494489
 42
0.0
 10
207.3428802942918
 20
282.1407479384697
 42
0.1095178116837591
 10
210.7238263882322
 20
281.3912102347559
 42
0.0
 10
211.3534282393394
 20
281.391210234756
 42
0.0
 97
        0
 92
        7
 72
     0
 73
     1
 93
        4
 10
253.4980594048621
 20
282.3912102347551
 10
211.3534282393394
 20
282.3912102347556
 10
211.3534282393394
 20
281.3912102347559
 10
253.4980594048621
 20
281.3912102347549
 97
        0
 92
        7
 72
     1
 73
     1
 93
        9
 10
264.9742727309841
 20
282.2145329391572
 42
0.0
 10
257.271080496737
 20
282.5508615755099
 42
-0.0649952007781304
 10
256.2479126279141
 20
282.3912102347549
 42
0.0
 10
253.4980594048624
 20
282.391210234755
 42
0.0
 10
253.4980594048624
 20
281.391210234755
 42
0.0
 10
255.9734124618304
 20
281.3912102347549
 42
0.0625007168496198
 10
257.2088727112076
 20
281.546250175868
 42
0.0
 10
257.3834619953922
 20
281.54500220815
 42
0.0
 10
264.9306533436194
 20
281.215484717575
 42
0.0
 97
        0
 92
        7
 72
     1
 73
     1
 93
        8
 10
266.3264737393102
 20
313.1850278081946
 42
0.0
 10
263.3293290745643
 20
313.3158859702908
 42
-0.4142135623730942
 10
262.3739002403478
 20
314.3585535792379
 42
0.0
 10
262.6714514703877
 20
321.1735971907151
 42
0.0
 10
261.6704987852241
 20
321.1735971907149
 42
0.0
 10
261.3748520187659
 20
314.4021729666032
 42
0.4142135623730769
 10
263.2857096871989
 20
312.316837748709
 42
0.0
 10
266.2828543519446
 20
312.1859795866128
 42
0.0
 97
        0
 75
     0
 76
     1
 52
90.0
 41
15.0
 77
     0
 78
     1
 53
135.0
 43
1314.560217447861
 44
-613.7369597931836
 45
-1.325825214724776
 46
-1.325825214724776
 79
     0
 47
0.1554164120192555
 98
        6
 10
149.7909793256832
 20
312.9590549220631
 10
206.6977164790261
 20
282.9636841854701
 10
209.4964093961299
 20
282.0311875993405
 10
213.2279972625866
 20
281.875771501652
 10
255.6748223557316
 20
281.7203554039636
 10
263.9154186154857
 20
312.8036388243747
  0
LINE
  5
93
330
2
100
AcDbEntity
  8
SICHTBAR
100
AcDbLine
 10
132.6714514703884
 20
209.0297407730757
 30
0.0
 11
278.6714514703884
 21
209.0297407730757
 31
0.0
  0
CIRCLE
  5
94
330
2
100
AcDbEntity
  8
WHITE
  6
Continuous
100
AcDbCircle
 10
178.2515755151329
 20
170.3395246143268
 30
0.0
 40
3.0
  0
CIRCLE
  5
96
330
2
100
AcDbEntity
  8
WHITE
  6
Continuous
100
AcDbCircle
 10
175.5103414783819
 20
153.8670148814319
 30
0.0
 40
3.0
  0
CIRCLE
  5
97
330
2
100
AcDbEntity
  8
WHITE
  6
Continuous
100
AcDbCircle
 10
180.1831368336787
 20
142.3113962223244
 30
0.0
 40
3.0
  0
ARC
  5
98
330
2
100
AcDbEntity
  8
WHITE
  6
Continuous
100
AcDbCircle
 10
178.8714514703887
 20
134.0297407730759
 30
0.0
 40
3.0
100
AcDbArc
 50
0.0
 51
180.0
  0
CIRCLE
  5
99
330
2
100
AcDbEntity
  8
WHITE
  6
Continuous
100
AcDbCircle
 10
180.8981283433276
 20
160.287929233863
 30
0.0
 40
3.0
  0
LINE
  5
9A
330
2
100
AcDbEntity
  8
SICHTBAR
100
AcDbLine
 10
138.6714514703884
 20
66.0297407730759
 30
0.0
 11
272.6714514703884
 21
66.02974077307568
 31
0.0
  0
LINE
  5
9B
330
2
100
AcDbEntity
  8
SICHTBAR
100
AcDbLine
 10
132.6714514703884
 20
59.02974077307567
 30
0.0
 11
278.6714514703884
 21
59.02974077307567
 31
0.0
  0
LINE
  5
9C
330
2
100
AcDbEntity
  8
SICHTBAR
100
AcDbLine
 10
138.6714514703884
 20
202.0297407730759
 30
0.0
 11
272.6714514703884
 21
202.0297407730757
 31
0.0
  0
LINE
  5
9D
330
2
100
AcDbEntity
  8
SICHTBAR
100
AcDbLine
 10
162.1628294990372
 20
67.5297407730759
 30
0.0
 11
205.6714514703884
 21
67.5297407730759
 31
0.0
  0
LINE
  5
9E
330
2
100
AcDbEntity
  8
SICHTBAR
100
AcDbLine
 10
139.1714514703889
 20
200.5297407730759
 30
0.0
 11
272.1714514703884
 21
200.5297407730757
 31
0.0
  0
ARC
  5
9F
330
2
100
AcDbEntity
  8
BEMASS
100
AcDbCircle
 10
205.6714514703889
 20
134.0297407730759
 30
0.0
 40
49.99999999999994
100
AcDbArc
 50
0.0
 51
180.0
  0
LINE
  5
A0
330
2
100
AcDbEntity
  8
SICHTBAR
100
AcDbLine
 10
139.1714514703889
 20
200.5297407730759
 30
0.0
 11
272.1714514703884
 21
200.5297407730757
 31
0.0
  0
LINE
  5
A1
330
2
100
AcDbEntity
  8
0
100
AcDbLine
 10
139.1714514703884
 20
200.5297407730759
 30
0.0
 11
272.171451470388
 21
200.5297407730761
 31
0.0
  0
LINE
  5
A2
330
2
100
AcDbEntity
  8
BEMASS
100
AcDbLine
 10
159.9740634425083
 20
195.5297407730759
 30
0.0
 11
251.3688394982695
 21
195.5297407730759
 31
0.0
  0
ARC
  5
A3
330
2
100
AcDbEntity
  8
0
100
AcDbCircle
 10
205.6714514703889
 20
134.0297407730759
 30
0.0
 40
54.0
100
AcDbArc
 50
180.0
 51
0.0
  0
ARC
  5
A4
330
2
100
AcDbEntity
  8
VERDECKT
100
AcDbCircle
 10
205.6714514703889
 20
134.0297407730759
 30
0.0
 40
55.25
100
AcDbArc
 50
180.0
 51
0.0
  0
LINE
  5
A7
330
2
100
AcDbEntity
  8
SICHTBAR
100
AcDbLine
 10
137.6714514703884
 20
67.0297407730759
 30
0.0
 11
137.6714514703884
 21
201.0297407730759
 31
0.0
  0
LINE
  5
A8
330
2
100
AcDbEntity
  8
SICHTBAR
100
AcDbLine
 10
139.1714514703884
 20
90.5211188017247
 30
0.0
 11
139.1714514703884
 21
134.0297407730759
 31
0.0
  0
LINE
  5
A9
330
2
100
AcDbEntity
  8
SICHTBAR
100
AcDbLine
 10
130.6714514703884
 20
61.02974077307568
 30
0.0
 11
130.6714514703884
 21
207.0297407730757
 31
0.0
  0
LINE
  5
AA
330
2
100
AcDbEntity
  8
MITTE
100
AcDbLine
 10
145.0354125010675
 20
69.19370180375494
 30
0.0
 11
145.0354125010675
 21
77.59370180375504
 31
0.0
  0
LWPOLYLINE
  5
AB
330
2
100
AcDbEntity
  8
SICHTBAR
100
AcDbPolyline
 90
        6
 70
     1
 43
0.0
 10
143.0146865589039
 20
76.89370180375499
 10
140.9939606167403
 20
73.393701803755
 10
143.0146865589039
 20
69.89370180375499
 10
147.0561384432316
 20
69.89370180375499
 10
149.0768643853947
 20
73.393701803755
 10
147.0561384432316
 20
76.89370180375499
  0
CIRCLE
  5
AC
330
2
100
AcDbEntity
  8
SICHTBAR
100
AcDbCircle
 10
145.0354125010675
 20
73.393701803755
 30
0.0
 40
4.2
  0
LINE
  5
AD
330
2
100
AcDbEntity
  8
SICHTBAR
100
AcDbLine
 10
162.1628294990372
 20
67.5297407730759
 30
0.0
 11
139.1714514703884
 21
90.5211188017247
 31
0.0
  0
ARC
  5
AE
330
2
100
AcDbEntity
  8
BEMASS
100
AcDbCircle
 10
145.0354125010675
 20
73.393701803755
 30
0.0
 40
2.0
100
AcDbArc
 50
156.2275580154768
 51
106.5206475200847
  0
CIRCLE
  5
AF
330
2
100
AcDbEntity
  8
SICHTBAR
100
AcDbCircle
 10
145.0354125010675
 20
73.393701803755
 30
0.0
 40
1.5
  0
LINE
  5
B0
330
2
100
AcDbEntity
  8
MITTE
100
AcDbLine
 10
149.2354125010673
 20
73.393701803755
 30
0.0
 11
140.8354125010677
 21
73.393701803755
 31
0.0
  0
ARC
  5
B1
330
2
100
AcDbEntity
  8
SICHTBAR
100
AcDbCircle
 10
132.6714514703884
 20
61.02974077307568
 30
0.0
 40
2.0
100
AcDbArc
 50
180.0
 51
270.0
  0
ARC
  5
B2
330
2
100
AcDbEntity
  8
SICHTBAR
100
AcDbCircle
 10
138.6714514703884
 20
67.0297407730759
 30
0.0
 40
1.0
100
AcDbArc
 50
180.0
 51
270.0
  0
LINE
  5
B3
330
2
100
AcDbEntity
  8
SICHTBAR
100
AcDbLine
 10
139.1714514703884
 20
134.0297407730759
 30
0.0
 11
139.1714514703889
 21
200.5297407730759
 31
0.0
  0
LINE
  5
B4
330
2
100
AcDbEntity
  8
BEMASS
100
AcDbLine
 10
144.1714514703884
 20
134.0297407730759
 30
0.0
 11
144.1714514703889
 21
179.7271288009567
 31
0.0
  0
LINE
  5
B5
330
2
100
AcDbEntity
  8
SICHTBAR
100
AcDbLine
 10
139.1714514703884
 20
134.0297407730759
 30
0.0
 11
139.1714514703889
 21
200.5297407730759
 31
0.0
  0
LINE
  5
B6
330
2
100
AcDbEntity
  8
0
100
AcDbLine
 10
139.171451470388
 20
200.5297407730761
 30
0.0
 11
139.171451470388
 21
134.0297407730759
 31
0.0
  0
CIRCLE
  5
B7
330
2
100
AcDbEntity
  8
WHITE
  6
Continuous
100
AcDbCircle
 10
171.7485478600177
 20
146.3766679471325
 30
0.0
 40
3.0
  0
CIRCLE
  5
B8
330
2
100
AcDbEntity
  8
WHITE
  6
Continuous
100
AcDbCircle
 10
160.9461754347711
 20
142.3903438337297
 30
0.0
 40
3.0
  0
ARC
  5
B9
330
2
100
AcDbEntity
  8
WHITE
  6
Continuous
100
AcDbCircle
 10
160.1714514703889
 20
134.0297407730759
 30
0.0
 40
3.0
100
AcDbArc
 50
0.0
 51
180.0
  0
CIRCLE
  5
BA
330
2
100
AcDbEntity
  8
WHITE
  6
Continuous
100
AcDbCircle
 10
169.8155467559048
 20
138.2206949729966
 30
0.0
 40
3.0
  0
CIRCLE
  5
BB
330
2
100
AcDbEntity
  8
WHITE
  6
Continuous
100
AcDbCircle
 10
163.2439650324908
 20
150.4662365845915
 30
0.0
 40
3.0
  0
CIRCLE
  5
BC
330
2
100
AcDbEntity
  8
WHITE
  6
Continuous
100
AcDbCircle
 10
166.9865717946912
 20
157.9824041839956
 30
0.0
 40
3.0
  0
CIRCLE
  5
BD
330
2
100
AcDbEntity
  8
WHITE
  6
Continuous
100
AcDbCircle
 10
172.046545736849
 20
164.6828925589943
 30
0.0
 40
3.0
  0
LINE
  5
BE
330
2
100
AcDbEntity
  8
BEMASS
100
AcDbLine
 10
144.1714514703889
 20
179.7271288009567
 30
0.0
 11
159.9740634425083
 21
195.5297407730759
 31
0.0
  0
ARC
  5
BF
330
2
100
AcDbEntity
  8
SICHTBAR
100
AcDbCircle
 10
138.6714514703884
 20
201.0297407730759
 30
0.0
 40
1.0
100
AcDbArc
 50
90.0
 51
180.0
  0
ARC
  5
C0
330
2
100
AcDbEntity
  8
SICHTBAR
100
AcDbCircle
 10
132.6714514703884
 20
207.0297407730757
 30
0.0
 40
2.0
100
AcDbArc
 50
90.0
 51
180.0
  0
LINE
  5
C1
330
2
100
AcDbEntity
  8
MITTE
100
AcDbLine
 10
130.6714514703884
 20
134.0297407730759
 30
0.0
 11
311.4916507979797
 21
134.0297407730759
 31
0.0
  0
LINE
  5
C2
330
2
100
AcDbEntity
  8
SICHTBAR
100
AcDbLine
 10
280.6714514703884
 20
150.0297407730759
 30
0.0
 11
307.49165079798
 21
150.0297407730759
 31
0.0
  0
LINE
  5
C3
330
2
100
AcDbEntity
  8
SICHTBAR
100
AcDbLine
 10
273.6714514703884
 20
67.02974077307567
 30
0.0
 11
273.6714514703884
 21
201.0297407730757
 31
0.0
  0
LINE
  5
C4
330
2
100
AcDbEntity
  8
SICHTBAR
100
AcDbLine
 10
272.1714514703884
 20
86.98558489579182
 30
0.0
 11
272.1714514703884
 21
134.0297407730759
 31
0.0
  0
LINE
  5
C5
330
2
100
AcDbEntity
  8
SICHTBAR
100
AcDbLine
 10
280.6714514703884
 20
61.02974077307568
 30
0.0
 11
280.6714514703884
 21
207.0297407730757
 31
0.0
  0
LINE
  5
C6
330
2
100
AcDbEntity
  8
SICHTBAR
100
AcDbLine
 10
252.7156073476721
 20
67.5297407730759
 30
0.0
 11
205.6714514703884
 21
67.5297407730759
 31
0.0
  0
LINE
  5
C7
330
2
100
AcDbEntity
  8
SICHTBAR
100
AcDbLine
 10
252.715607347673
 20
67.52974077307567
 30
0.0
 11
272.1714514703884
 21
86.98558489579182
 31
0.0
  0
ARC
  5
C8
330
2
100
AcDbEntity
  8
SICHTBAR
100
AcDbCircle
 10
272.6714514703884
 20
67.02974077307567
 30
0.0
 40
1.0
100
AcDbArc
 50
270.0
 51
0.0
  0
ARC
  5
C9
330
2
100
AcDbEntity
  8
SICHTBAR
100
AcDbCircle
 10
278.6714514703884
 20
61.02974077307568
 30
0.0
 40
2.0
100
AcDbArc
 50
270.0
 51
0.0
  0
CIRCLE
  5
CA
330
2
100
AcDbEntity
  8
WHITE
  6
Continuous
100
AcDbCircle
 10
240.7983712983204
 20
142.3549737068779
 30
0.0
 40
3.0
  0
ARC
  5
CB
330
2
100
AcDbEntity
  8
WHITE
  6
Continuous
100
AcDbCircle
 10
241.7714514703888
 20
134.0297407730759
 30
0.0
 40
3.0
100
AcDbArc
 50
0.0
 51
180.0
  0
CIRCLE
  5
CC
330
2
100
AcDbEntity
  8
WHITE
  6
Continuous
100
AcDbCircle
 10
244.3563311460861
 20
157.9824041839956
 30
0.0
 40
3.0
  0
CIRCLE
  5
CD
330
2
100
AcDbEntity
  8
WHITE
  6
Continuous
100
AcDbCircle
 10
233.0913274256449
 20
170.3395246143268
 30
0.0
 40
3.0
  0
CIRCLE
  5
CE
330
2
100
AcDbEntity
  8
WHITE
  6
Continuous
100
AcDbCircle
 10
211.9401506841649
 20
169.5813006568166
 30
0.0
 40
3.0
  0
CIRCLE
  5
CF
330
2
100
AcDbEntity
  8
WHITE
  6
Continuous
100
AcDbCircle
 10
195.3178547695182
 20
168.613162167665
 30
0.0
 40
3.0
  0
CIRCLE
  5
D0
330
2
100
AcDbEntity
  8
WHITE
  6
Continuous
100
AcDbCircle
 10
203.5724231467205
 20
170.0686652866686
 30
0.0
 40
3.0
  0
CIRCLE
  5
D1
330
2
100
AcDbEntity
  8
WHITE
  6
Continuous
100
AcDbCircle
 10
219.9699310244026
 20
167.1773422314536
 30
0.0
 40
3.0
  0
LINE
  5
D2
330
2
100
AcDbEntity
  8
MITTE
100
AcDbLine
 10
211.7243689396795
 20
134.0297407730759
 30
0.0
 11
199.6714514703889
 21
134.0297407730759
 31
0.0
  0
CIRCLE
  5
D3
330
2
100
AcDbEntity
  8
WHITE
  6
Continuous
100
AcDbCircle
 10
192.5725133773943
 20
145.6343872922898
 30
0.0
 40
3.0
  0
ARC
  5
D4
330
2
100
AcDbEntity
  8
WHITE
  6
Continuous
100
AcDbCircle
 10
201.0702614703886
 20
130.5943987730759
 30
0.0
 40
8.255475
100
AcDbArc
 50
126.4231449999942
 51
155.4095691140392
  0
CIRCLE
  5
D5
330
2
100
AcDbEntity
  8
WHITE
  6
Continuous
100
AcDbCircle
 10
188.6799696654328
 20
138.2177648981082
 30
0.0
 40
3.0
  0
ARC
  5
D6
330
2
100
AcDbEntity
  8
WHITE
  6
Continuous
100
AcDbCircle
 10
201.0702614703886
 20
130.5943987730759
 30
0.0
 40
7.223525999999999
100
AcDbArc
 50
132.7316660000028
 51
151.6030823455451
  0
ARC
  5
D7
330
2
100
AcDbEntity
  8
WHITE
  6
Continuous
100
AcDbCircle
 10
191.2668944703886
 20
130.5943927730759
 30
0.0
 40
7.223595
100
AcDbArc
 50
28.39667587380187
 51
47.26783700000356
  0
ARC
  5
D8
330
2
100
AcDbEntity
  8
WHITE
  6
Continuous
100
AcDbCircle
 10
205.6714514703884
 20
134.0297407730759
 30
0.0
 40
2.321862
100
AcDbArc
 50
31.05578300000568
 51
180.0
  0
LINE
  5
D9
330
2
100
AcDbEntity
  8
MITTE
100
AcDbLine
 10
205.6714514703858
 20
59.02974077307567
 30
0.0
 11
205.6714514703915
 21
209.0297407730758
 31
0.0
  0
ARC
  5
DA
330
2
100
AcDbEntity
  8
WHITE
  6
Continuous
100
AcDbCircle
 10
205.6714514703884
 20
134.0297407730759
 30
0.0
 40
3.353801999999999
100
AcDbArc
 50
30.73095099999739
 51
180.0
  0
ARC
  5
DB
330
2
100
AcDbEntity
  8
WHITE
  6
Continuous
100
AcDbCircle
 10
191.2668944703886
 20
130.5943927730759
 30
0.0
 40
8.255535
100
AcDbArc
 50
24.59028611456175
 51
53.57637099999937
  0
LINE
  5
DC
330
2
100
AcDbEntity
  8
WHITE
  6
Continuous
100
AcDbLine
 10
207.6605114703887
 20
135.2275267730758
 30
0.0
 11
208.5543014703889
 21
135.7435597730759
 31
0.0
  0
CIRCLE
  5
DD
330
2
100
AcDbEntity
  8
WHITE
  6
Continuous
100
AcDbCircle
 10
197.3897960211401
 20
159.518055409786
 30
0.0
 40
3.0
  0
CIRCLE
  5
DE
330
2
100
AcDbEntity
  8
WHITE
  6
Continuous
100
AcDbCircle
 10
189.9188067089507
 20
155.7113962223245
 30
0.0
 40
3.0
  0
CIRCLE
  5
DF
330
2
100
AcDbEntity
  8
WHITE
  6
Continuous
100
AcDbCircle
 10
183.9897960211404
 20
149.7823855345141
 30
0.0
 40
3.0
  0
CIRCLE
  5
E0
330
2
100
AcDbEntity
  8
WHITE
  6
Continuous
100
AcDbCircle
 10
187.6214514703887
 20
165.2932578496941
 30
0.0
 40
3.0
  0
CIRCLE
  5
E1
330
2
100
AcDbEntity
  8
WHITE
  6
Continuous
100
AcDbCircle
 10
205.6714514703889
 20
160.8297407730758
 30
0.0
 40
3.0
  0
CIRCLE
  5
E2
330
2
100
AcDbEntity
  8
WHITE
  6
Continuous
100
AcDbCircle
 10
199.4658659471446
 20
150.3925250200705
 30
0.0
 40
3.0
  0
CIRCLE
  5
E3
330
2
100
AcDbEntity
  8
WHITE
  6
Continuous
100
AcDbCircle
 10
207.7808433748572
 20
151.4021460697918
 30
0.0
 40
3.0
  0
LINE
  5
E4
330
2
100
AcDbEntity
  8
MITTE
100
AcDbLine
 10
202.6714514703884
 20
164.4435534245672
 30
0.0
 11
202.671451470388
 21
164.4435534245672
 31
0.0
  0
LINE
  5
E5
330
2
100
AcDbEntity
  8
WHITE
  6
Continuous
100
AcDbLine
 10
208.6714514703885
 20
164.4435534245672
 30
0.0
 11
208.6714514703885
 21
164.4435534245672
 31
0.0
  0
CIRCLE
  5
E6
330
2
100
AcDbEntity
  8
WHITE
  6
Continuous
100
AcDbCircle
 10
215.6125845381843
 20
148.4319584262148
 30
0.0
 40
3.0
  0
ARC
  5
E7
330
2
100
AcDbEntity
  8
WHITE
  6
Continuous
100
AcDbCircle
 10
215.1742724703885
 20
134.0297407730759
 30
0.0
 40
2.321865
100
AcDbArc
 50
0.0
 51
180.0
  0
ARC
  5
E8
330
2
100
AcDbEntity
  8
WHITE
  6
Continuous
100
AcDbCircle
 10
215.1742724703885
 20
134.0297407730759
 30
0.0
 40
3.353805
100
AcDbArc
 50
0.0
 51
180.0
  0
ARC
  5
E9
330
2
100
AcDbEntity
  8
WHITE
  6
Continuous
100
AcDbCircle
 10
223.1714514703889
 20
134.0297407730759
 30
0.0
 40
3.0
100
AcDbArc
 50
0.0
 51
180.0
  0
CIRCLE
  5
EA
330
2
100
AcDbEntity
  8
WHITE
  6
Continuous
100
AcDbCircle
 10
221.1669319193201
 20
142.1623962838416
 30
0.0
 40
3.0
  0
LINE
  5
EB
330
2
100
AcDbEntity
  8
WHITE
  6
Continuous
100
AcDbLine
 10
220.54032059793
 20
144.6559692134983
 30
0.0
 11
220.5403205979295
 21
144.6559692134983
 31
0.0
  0
ARC
  5
EC
330
2
100
AcDbEntity
  8
WHITE
  6
Continuous
100
AcDbCircle
 10
232.4714514703886
 20
134.0297407730759
 30
0.0
 40
3.0
100
AcDbArc
 50
0.0
 51
180.0
  0
CIRCLE
  5
ED
330
2
100
AcDbEntity
  8
WHITE
  6
Continuous
100
AcDbCircle
 10
231.159766107099
 20
142.3113962223244
 30
0.0
 40
3.0
  0
LINE
  5
EE
330
2
100
AcDbEntity
  8
BEMASS
100
AcDbLine
 10
236.0852641218793
 20
137.0297407730759
 30
0.0
 11
236.0852641218793
 21
137.0297407730759
 31
0.0
  0
CIRCLE
  5
EF
330
2
100
AcDbEntity
  8
WHITE
  6
Continuous
100
AcDbCircle
 10
227.3531069196373
 20
149.7823855345141
 30
0.0
 40
3.0
  0
CIRCLE
  5
F0
330
2
100
AcDbEntity
  8
WHITE
  6
Continuous
100
AcDbCircle
 10
227.2288766308597
 20
162.9863880315329
 30
0.0
 40
3.0
  0
CIRCLE
  5
F1
330
2
100
AcDbEntity
  8
WHITE
  6
Continuous
100
AcDbCircle
 10
221.4240962318271
 20
155.7113962223245
 30
0.0
 40
3.0
  0
CIRCLE
  5
F2
330
2
100
AcDbEntity
  8
WHITE
  6
Continuous
100
AcDbCircle
 10
213.9531069196372
 20
159.518055409786
 30
0.0
 40
3.0
  0
CIRCLE
  5
F3
330
2
100
AcDbEntity
  8
WHITE
  6
Continuous
100
AcDbCircle
 10
233.325655866984
 20
157.23437348276
 30
0.0
 40
3.0
  0
CIRCLE
  5
F4
330
2
100
AcDbEntity
  8
WHITE
  6
Continuous
100
AcDbCircle
 10
237.9315897860637
 20
150.2313911783126
 30
0.0
 40
3.0
  0
CIRCLE
  5
F5
330
2
100
AcDbEntity
  8
WHITE
  6
Continuous
100
AcDbCircle
 10
239.2963572039288
 20
164.6828925589943
 30
0.0
 40
3.0
  0
CIRCLE
  5
F6
330
2
100
AcDbEntity
  8
WHITE
  6
Continuous
100
AcDbCircle
 10
209.869661825969
 20
179.3356457944999
 30
0.0
 40
3.0
  0
CIRCLE
  5
F7
330
2
100
AcDbEntity
  8
WHITE
  6
Continuous
100
AcDbCircle
 10
193.2197854221089
 20
177.7928075374391
 30
0.0
 40
3.0
  0
CIRCLE
  5
F8
330
2
100
AcDbEntity
  8
WHITE
  6
Continuous
100
AcDbCircle
 10
185.3903562825566
 20
174.7596705297312
 30
0.0
 40
3.0
  0
CIRCLE
  5
F9
330
2
100
AcDbEntity
  8
WHITE
  6
Continuous
100
AcDbCircle
 10
201.4732411148087
 20
179.3356457945001
 30
0.0
 40
3.0
  0
CIRCLE
  5
FA
330
2
100
AcDbEntity
  8
WHITE
  6
Continuous
100
AcDbCircle
 10
225.9525466582212
 20
174.7596705297312
 30
0.0
 40
3.0
  0
CIRCLE
  5
FB
330
2
100
AcDbEntity
  8
WHITE
  6
Continuous
100
AcDbCircle
 10
218.1231175186685
 20
177.7928075374391
 30
0.0
 40
3.0
  0
LINE
  5
FC
330
2
100
AcDbEntity
  8
SICHTBAR
100
AcDbLine
 10
272.1714514703884
 20
134.0297407730759
 30
0.0
 11
272.1714514703884
 21
200.5297407730757
 31
0.0
  0
LINE
  5
FD
330
2
100
AcDbEntity
  8
BEMASS
100
AcDbLine
 10
267.1714514703884
 20
134.0297407730759
 30
0.0
 11
267.1714514703884
 21
179.7271288009569
 31
0.0
  0
LINE
  5
FE
330
2
100
AcDbEntity
  8
SICHTBAR
100
AcDbLine
 10
272.1714514703884
 20
134.0297407730759
 30
0.0
 11
272.1714514703884
 21
200.5297407730757
 31
0.0
  0
ARC
  5
FF
330
2
100
AcDbEntity
  8
WHITE
  6
Continuous
100
AcDbCircle
 10
251.1714514703889
 20
134.0297407730759
 30
0.0
 40
3.0
100
AcDbArc
 50
0.0
 51
180.0
  0
CIRCLE
  5
100
330
2
100
AcDbEntity
  8
WHITE
  6
Continuous
100
AcDbCircle
 10
250.3967275060062
 20
142.3903438337297
 30
0.0
 40
3.0
  0
CIRCLE
  5
101
330
2
100
AcDbEntity
  8
WHITE
  6
Continuous
100
AcDbCircle
 10
248.098937908287
 20
150.4662365845913
 30
0.0
 40
3.0
  0
LINE
  5
102
330
2
100
AcDbEntity
  8
MITTE
100
AcDbLine
 10
266.3074904397102
 20
190.1657797423963
 30
0.0
 11
266.3074904397102
 21
199.1657797423963
 31
0.0
  0
CIRCLE
  5
103
330
2
100
AcDbEntity
  8
SICHTBAR
100
AcDbCircle
 10
266.3074904397102
 20
194.6657797423963
 30
0.0
 40
4.0
  0
LINE
  5
104
330
2
100
AcDbEntity
  8
SICHTBAR
100
AcDbLine
 10
268.9637906171064
 20
197.6126542506788
 30
0.0
 11
262.9441238916582
 21
192.5615541215452
 31
0.0
  0
LINE
  5
105
330
2
100
AcDbEntity
  8
SICHTBAR
100
AcDbLine
 10
269.6708569877614
 20
196.7700053632482
 30
0.0
 11
263.6511902623137
 21
191.7189052341143
 31
0.0
  0
CIRCLE
  5
106
330
2
100
AcDbEntity
  8
0
100
AcDbCircle
 10
266.3412132961943
 20
194.6995025988822
 30
0.0
 40
4.349999999999999
  0
LINE
  5
107
330
2
100
AcDbEntity
  8
BEMASS
100
AcDbLine
 10
267.1714514703889
 20
179.7271288009567
 30
0.0
 11
251.3688394982695
 21
195.5297407730759
 31
0.0
  0
LINE
  5
108
330
2
100
AcDbEntity
  8
MITTE
100
AcDbLine
 10
270.8074904397102
 20
194.6657797423966
 30
0.0
 11
261.8074904397102
 21
194.6657797423963
 31
0.0
  0
ARC
  5
109
330
2
100
AcDbEntity
  8
SICHTBAR
100
AcDbCircle
 10
272.6714514703884
 20
201.0297407730757
 30
0.0
 40
1.0
100
AcDbArc
 50
0.0
 51
90.0
  0
ARC
  5
10A
330
2
100
AcDbEntity
  8
SICHTBAR
100
AcDbCircle
 10
278.6714514703884
 20
207.0297407730757
 30
0.0
 40
2.0
100
AcDbArc
 50
0.0
 51
90.0
  0
LINE
  5
10B
330
2
100
AcDbEntity
  8
SICHTBAR
100
AcDbLine
 10
311.4916507979797
 20
149.0297407730759
 30
0.0
 11
311.4916507979797
 21
119.029740773076
 31
0.0
  0
LINE
  5
10C
330
2
100
AcDbEntity
  8
VERDECKT
100
AcDbLine
 10
260.0181395019516
 20
118.0297407730757
 30
0.0
 11
279.7535637306126
 21
118.0297407730758
 31
0.0
  0
LINE
  5
10D
330
2
100
AcDbEntity
  8
BEMASS
100
AcDbLine
 10
307.4916507979795
 20
150.0297407730759
 30
0.0
 11
307.4916507979797
 21
118.029740773076
 31
0.0
  0
LINE
  5
10E
330
2
100
AcDbEntity
  8
VERDECKT
100
AcDbLine
 10
280.6714514703884
 20
149.0297407730759
 30
0.0
 11
307.3685451723617
 21
149.0297407730759
 31
0.0
  0
LINE
  5
10F
330
2
100
AcDbEntity
  8
VERDECKT
100
AcDbLine
 10
259.7547206023488
 20
119.0297407730759
 30
0.0
 11
279.7535637306126
 21
119.0297407730759
 31
0.0
  0
LINE
  5
110
330
2
100
AcDbEntity
  8
SICHTBAR
100
AcDbLine
 10
307.4916507979795
 20
150.0297407730759
 30
0.0
 11
311.4916507979797
 21
149.0297407730759
 31
0.0
  0
LINE
  5
111
330
2
100
AcDbEntity
  8
SICHTBAR
100
AcDbLine
 10
307.4916507979797
 20
118.029740773076
 30
0.0
 11
311.4916507979797
 21
119.029740773076
 31
0.0
  0
LINE
  5
112
330
2
100
AcDbEntity
  8
VERDECKT
100
AcDbLine
 10
307.2491151729432
 20
149.0595982729305
 30
0.0
 11
311.4916507979796
 21
147.9989643666714
 31
0.0
  0
LINE
  5
113
330
2
100
AcDbEntity
  8
VERDECKT
100
AcDbLine
 10
307.2491151729433
 20
118.9998832732213
 30
0.0
 11
311.4916507979797
 21
120.0605171794803
 31
0.0
  0
ARC
  5
114
330
2
100
AcDbEntity
  8
VERDECKT
100
AcDbCircle
 10
260.0181395019516
 20
116.0297407730757
 30
0.0
 40
2.0
100
AcDbArc
 50
90.0
 51
161.6747712925369
  0
ARC
  5
115
330
2
100
AcDbEntity
  8
VERDECKT
100
AcDbCircle
 10
259.7547206023488
 20
116.029740773076
 30
0.0
 40
3.0
100
AcDbArc
 50
90.0
 51
161.5915198294153
  0
ARC
  5
116
330
2
100
AcDbEntity
  8
BEMASS
100
AcDbCircle
 10
233.3486194250316
 20
134.0297407730759
 30
0.0
 40
25.0
100
AcDbArc
 50
180.0
 51
334.7068233531199
  0
ARC
  5
117
330
2
100
AcDbEntity
  8
BEMASS
100
AcDbCircle
 10
232.9732660205019
 20
116.6421716011702
 30
0.0
 40
23.937310118124
100
AcDbArc
 50
0.8017248653360312
 51
16.2698478393418
  0
HATCH
  5
118
330
2
100
AcDbEntity
  8
BEMASS
100
AcDbHatch
 10
0.0
 20
0.0
 30
0.0
210
0.0
220
0.0
230
1.0
  2
ANSI31
 70
     0
 71
     0
 91
        4
 92
        7
 72
     0
 73
     1
 93
        5
 10
266.32647373931
 20
313.1850278081945
 10
266.2828543519446
 20
312.1859795866128
 10
307.3724694553115
 20
310.3919682474518
 10
307.4941154636595
 20
310.3558513413958
 10
307.5390772990177
 20
311.3856466770629
 97
        0
 92
        7
 72
     0
 73
     1
 93
        4
 10
311.4916507979795
 20
310.2121209060198
 10
307.5390772990175
 20
311.3856466770631
 10
307.4941154636597
 20
310.355851341396
 10
311.4466889626218
 20
309.1823255703529
 97
        0
 92
        7
 72
     0
 73
     1
 93
        4
 10
310.2280310123775
 20
281.2704695942309
 10
306.1882187386848
 20
280.4458989221105
 10
306.1432569033269
 20
279.4161035864437
 10
310.1830691770197
 20
280.2406742585641
 97
        0
 92
        7
 72
     0
 73
     1
 93
        5
 10
306.1882187386846
 20
280.4458989221103
 10
306.0638878343521
 20
280.4205215999959
 10
264.9742727309844
 20
282.214532939157
 10
264.9306533436194
 20
281.2154847175752
 10
306.1432569033267
 20
279.4161035864434
 97
        0
 75
     0
 76
     1
 52
0.0
 41
12.0
 77
     0
 78
     1
 53
45.0
 43
1314.560217447861
 44
-613.7369597931836
 45
-1.060660171779821
 46
1.060660171779821
 79
     0
 47
0.0792313382750049
 98
        4
 10
291.0972935771971
 20
311.4213158897789
 10
309.6453578631328
 20
310.0743839884251
 10
307.9807883218192
 20
280.4418608989015
 10
298.2311639606507
 20
280.1249334946103
  0
LINE
  5
119
330
2
100
AcDbEntity
  8
BEMASS
100
AcDbLine
 10
265.8373599874998
 20
297.1911400131751
 30
0.0
 11
314.8833814867304
 21
297.1911400131751
 31
0.0
  0
LINE
  5
11A
330
2
100
AcDbEntity
  8
BEMASS
100
AcDbLine
 10
312.8354564306633
 20
295.1391588075611
 30
0.0
 11
341.9065964171088
 21
293.8698854243276
 31
0.0
  0
LINE
  5
11B
330
2
100
AcDbEntity
  8
BEMASS
100
AcDbLine
 10
314.8833814867305
 20
297.191140013175
 30
0.0
 11
341.9065964171088
 21
297.191140013175
 31
0.0
  0
ARC
  5
11C
330
2
100
AcDbEntity
  8
BEMASS
100
AcDbCircle
 10
265.8373599875
 20
297.191140013175
 30
0.0
 40
125.4260793927015
100
AcDbArc
 50
359.0988838702674
 51
5.559504387023279
  0
SOLID
  5
11D
330
2
100
AcDbEntity
  8
BEMASS
100
AcDbTrace
 10
391.8310038907817
 20
295.2012787810961
 30
0.0
 11
390.6648510578074
 21
295.2359007576065
 31
0.0
 12
391.1440615447632
 22
291.7201312704289
 32
0.0
 13
391.1440615447632
 23
291.7201312704289
 33
0.0
  0
SOLID
  5
11E
330
2
100
AcDbEntity
  8
BEMASS
100
AcDbTrace
 10
390.6313292842964
 20
293.6996196273785
 30
0.0
 11
391.7978823875767
 21
293.6833417792901
 31
0.0
 12
391.2634393802014
 22
297.191140013175
 32
0.0
 13
391.2634393802014
 23
297.191140013175
 33
0.0
  0
MTEXT
  5
11F
330
2
100
AcDbEntity
  8
BEMASS
100
AcDbMText
 10
386.7346622479731
 20
303.966461335178
 30
0.0
 40
5.0
 41
0.0
 46
0.0
 71
     5
 72
     1
  1
\A1;2.5%%d
 11
0.0218148850345625
 21
0.9997620270799089
 31
0.0
 73
     1
 44
1.0
  0
ARC
  5
120
330
2
100
AcDbEntity
  8
BEMASS
100
AcDbCircle
 10
265.8373599875
 20
297.191140013175
 30
0.0
 40
125.4260793927015
100
AcDbArc
 50
357.4999999999998
 51
358.4011161297324
  0
DIMENSION
  5
121
330
2
100
AcDbEntity
  8
BEMASS
100
AcDbDimension
280
     0
  2
*D2
 10
352.4116799905812
 20
309.4264665327901
 30
0.0
 11
347.2180527956176
 21
293.6379822306244
 31
0.0
 70
    33
  1
%%c32
 71
     5
 42
32.00000000000006
 73
     0
 74
     0
 75
     0
  3
STANDARD
100
AcDbAlignedDimension
 13
306.1432569033268
 23
279.4161035864433
 33
0.0
 14
307.5390772990175
 24
311.3856466770628
 34
0.0
  0
LINE
  5
12E
330
2
100
AcDbEntity
  8
BEMASS
100
AcDbLine
 10
354.9718387216153
 20
297.1911400131751
 30
0.0
 11
393.2634393802014
 21
297.1911400131751
 31
0.0
  0
LINE
  5
12F
330
2
100
AcDbEntity
  8
BEMASS
100
AcDbLine
 10
354.9718387216153
 20
293.2994446259845
 30
0.0
 11
393.1421579879269
 21
291.6328924956982
 31
0.0
  0
DIMENSION
  5
130
330
2
100
AcDbEntity
  8
BEMASS
100
AcDbDimension
280
     0
  2
*D3
 10
310.8373599874996
 20
268.0398061976018
 30
0.0
 11
258.254405728944
 21
272.5398061976018
 31
0.0
 70
    32
  1
105
 71
     5
 42
105.1659085171111
 73
     0
 74
     0
 75
     0
  3
STANDARD
100
AcDbAlignedDimension
 13
205.6714514703884
 23
281.3912102347558
 33
0.0
 14
310.8373599874996
 24
295.2263975822918
 34
0.0
100
AcDbRotatedDimension
  0
MTEXT
  5
13D
330
2
100
AcDbEntity
  8
BEMASS
100
AcDbMText
 10
-1185.264184191781
 20
919.7655015283467
 30
0.0
 40
5.0
 41
0.0
 46
0.0
 71
     9
 72
     1
  1

 73
     1
 44
1.0
  0
LINE
  5
13E
330
2
100
AcDbEntity
  8
VERDECKT
100
AcDbLine
 10
280.6714514703884
 20
119.0297407730759
 30
0.0
 11
307.3685451723615
 21
119.0297407730759
 31
0.0
  0
LINE
  5
13F
330
2
100
AcDbEntity
  8
SICHTBAR
100
AcDbLine
 10
280.6714514703884
 20
118.0297407730759
 30
0.0
 11
307.4916507979795
 21
118.029740773076
 31
0.0
  0
LINE
  5
140
330
2
100
AcDbEntity
  8
MITTE
100
AcDbLine
 10
205.6714514703886
 20
307.5585446587121
 30
0.0
 11
205.6714514703884
 21
277.3912102347555
 31
0.0
  0
LINE
  5
144
102
{ACAD_REACTORS
330
6E6
102
}
330
2
100
AcDbEntity
  8
SICHTBAR
100
AcDbLine
 10
148.6714514703905
 20
321.1735971907152
 30
0.0
 11
149.6704996919724
 21
321.2172165780805
 31
0.0
  0
LINE
  5
148
102
{ACAD_REACTORS
330
6E6
102
}
330
2
100
AcDbEntity
  8
SICHTBAR
100
AcDbLine
 10
261.6724032488056
 20
321.2172165780805
 30
0.0
 11
262.6714514703875
 21
321.1735971907152
 31
0.0
  0
MTEXT
  5
158
330
2
100
AcDbEntity
  8
BEMASS
100
AcDbMText
 10
-556.8480572928447
 20
953.5547144518414
 30
0.0
 40
5.0
 41
0.0
 46
0.0
 71
     1
 72
     1
  1

 73
     1
 44
1.0
  0
TEXT
  5
16F
330
2
100
AcDbEntity
  8
TEXT35
100
AcDbText
 10
-453.6181535423784
 20
808.0386906275194
 30
0.0
 40
4.0
  1

 41
0.8
100
AcDbText
  0
MTEXT
  5
17D
330
2
100
AcDbEntity
  8
BEMASS
100
AcDbMText
 10
-681.6789367808048
 20
875.431212942153
 30
0.0
 40
5.0
 41
0.0
 46
0.0
 71
     1
 72
     1
  1

 73
     1
 44
1.0
  0
MTEXT
  5
17E
330
2
100
AcDbEntity
  8
BEMASS
100
AcDbMText
 10
-686.0983541632207
 20
871.7192771706161
 30
0.0
 40
5.0
 41
0.0
 46
0.0
 71
     1
 72
     1
  1

 73
     1
 44
1.0
  0
MTEXT
  5
17F
330
2
100
AcDbEntity
  8
BEMASS
100
AcDbMText
 10
-1819.207888522367
 20
958.7274690831646
 30
0.0
 40
5.0
 41
0.0
 46
0.0
 71
     9
 72
     1
  1

 73
     1
 44
1.0
  0
LINE
  5
62D
102
{ACAD_REACTORS
330
6E6
102
}
330
2
100
AcDbEntity
  8
SICHTBAR
100
AcDbLine
 10
280.671451470389
 20
328.0303287610745
 30
0.0
 11
267.395036493392
 21
328.0303287610745
 31
0.0
  0
LINE
  5
645
102
{ACAD_REACTORS
330
6E6
102
}
330
2
100
AcDbEntity
  8
SICHTBAR
100
AcDbLine
 10
130.6714514703881
 20
328.030328761075
 30
0.0
 11
143.9478664473847
 21
328.0303287610751
 31
0.0
  0
ARC
  5
65D
102
{ACAD_REACTORS
330
6E6
102
}
330
2
100
AcDbEntity
  8
SICHTBAR
100
AcDbCircle
 10
148.0976616410336
 20
320.9818298104974
 30
0.0
 40
2.0
100
AcDbArc
 50
38.14788810065554
 51
41.06238228687422
  0
LINE
  5
65E
102
{ACAD_REACTORS
330
6E6
102
}
330
2
100
AcDbEntity
  8
SICHTBAR
100
AcDbLine
 10
143.2583870023607
 20
330.3440894608267
 30
0.0
 11
149.6056513040578
 21
322.2955905102493
 31
0.0
  0
LINE
  5
65F
102
{ACAD_REACTORS
330
6E6
102
}
330
2
100
AcDbEntity
  8
SICHTBAR
100
AcDbLine
 10
142.5043921708486
 20
329.6872091109509
 30
0.0
 11
148.6714514703903
 21
322.1735971907153
 31
0.0
  0
LINE
  5
660
102
{ACAD_REACTORS
330
6E6
102
}
330
2
100
AcDbEntity
  8
SICHTBAR
100
AcDbLine
 10
148.6714514703903
 20
322.1735971907153
 30
0.0
 11
148.6714514703905
 21
321.1735971907153
 31
0.0
  0
LINE
  5
661
102
{ACAD_REACTORS
330
6E6
102
}
330
2
100
AcDbEntity
  8
SICHTBAR
100
AcDbLine
 10
149.6704996919721
 20
322.2172165780806
 30
0.0
 11
149.6704996919723
 21
321.2172165780807
 31
0.0
  0
ARC
  5
662
102
{ACAD_REACTORS
330
6E6
102
}
330
2
100
AcDbEntity
  8
SICHTBAR
100
AcDbCircle
 10
263.2452412997434
 20
320.9818298104974
 30
0.0
 40
2.0
100
AcDbArc
 50
138.937617713125
 51
141.8521118993444
  0
LINE
  5
663
102
{ACAD_REACTORS
330
6E6
102
}
330
2
100
AcDbEntity
  8
SICHTBAR
100
AcDbLine
 10
268.0845159384164
 20
330.3440894608267
 30
0.0
 11
261.7372516367193
 21
322.2955905102493
 31
0.0
  0
LINE
  5
664
102
{ACAD_REACTORS
330
6E6
102
}
330
2
100
AcDbEntity
  8
SICHTBAR
100
AcDbLine
 10
268.8385107699284
 20
329.6872091109509
 30
0.0
 11
262.6714514703867
 21
322.1735971907153
 31
0.0
  0
LINE
  5
665
102
{ACAD_REACTORS
330
6E6
102
}
330
2
100
AcDbEntity
  8
SICHTBAR
100
AcDbLine
 10
262.6714514703867
 20
322.1735971907153
 30
0.0
 11
262.6714514703865
 21
321.1735971907153
 31
0.0
  0
LINE
  5
666
102
{ACAD_REACTORS
330
6E6
102
}
330
2
100
AcDbEntity
  8
SICHTBAR
100
AcDbLine
 10
261.6724032488049
 20
322.2172165780806
 30
0.0
 11
261.6724032488047
 21
321.2172165780807
 31
0.0
  0
LINE
  5
667
330
2
100
AcDbEntity
  8
SICHTBAR
100
AcDbLine
 10
149.6704996919723
 20
321.2172165780805
 30
0.0
 11
261.6724032488047
 21
321.217216578061
 31
0.0
  0
HATCH
  5
6E6
330
2
100
AcDbEntity
  8
SCHRAFF
100
AcDbHatch
 10
0.0
 20
0.0
 30
0.0
210
0.0
220
0.0
230
1.0
  2
ANSI31
 70
     0
 71
     1
 91
        2
 92
        7
 72
     1
 73
     1
 93
       23
 10
136.1714514703885
 20
334.030328761075
 42
0.0
 10
132.1714514703883
 20
334.030328761075
 42
0.4142135623730951
 10
130.6714514703883
 20
332.530328761075
 42
0.0
 10
130.6714514703881
 20
328.030328761075
 42
0.0
 10
131.6714514703883
 20
328.030328761075
 42
0.0
 10
131.6714514703885
 20
332.530328761075
 42
-0.4142135623730951
 10
132.1714514703885
 20
333.030328761075
 42
0.0
 10
136.1714514703885
 20
333.030328761075
 42
-0.4142135623730951
 10
136.6714514703885
 20
332.530328761075
 42
0.0
 10
136.6714514703885
 20
331.530328761075
 42
0.4142135623730951
 10
138.1714514703885
 20
330.030328761075
 42
0.0
 10
141.7503973393366
 20
330.030328761075
 42
-0.2168362746294053
 10
142.5043921708486
 20
329.6872091109509
 42
0.0
 10
148.6714514703903
 20
322.1735971907153
 42
0.0
 10
148.6714514703905
 20
321.1735971907152
 42
0.0
 10
149.6704996919723
 20
321.2172165780805
 42
0.0
 10
149.6704996919721
 20
322.2172165780806
 42
0.0127175654598007
 10
149.6056513040578
 20
322.2955905102493
 42
0.0
 10
143.2583870023607
 20
330.3440894608267
 42
0.216836274629427
 10
141.7503973393364
 20
331.030328761075
 42
0.0
 10
138.1714514703885
 20
331.030328761075
 42
-0.4142135623730951
 10
137.6714514703885
 20
331.530328761075
 42
0.0
 10
137.6714514703885
 20
332.530328761075
 42
0.4142135623730951
 97
       23
330
3E
330
43
330
4F
330
645
330
4A
330
42
330
56
330
40
330
4B
330
4D
330
49
330
45
330
65F
330
660
330
144
330
661
330
65D
330
65E
330
47
330
46
330
4E
330
4C
330
41
 92
        7
 72
     1
 73
     1
 93
       23
 10
279.1714514703888
 20
334.0303287610745
 42
0.0
 10
275.1714514703888
 20
334.0303287610745
 42
0.4142135623730951
 10
273.6714514703888
 20
332.5303287610745
 42
0.0
 10
273.6714514703888
 20
331.5303287610745
 42
-0.4142135623730951
 10
273.1714514703888
 20
331.0303287610746
 42
0.0
 10
269.5925056014405
 20
331.0303287610746
 42
0.2168362746293924
 10
268.0845159384164
 20
330.3440894608267
 42
0.0
 10
261.7372516367193
 20
322.2955905102493
 42
0.0127175654598016
 10
261.6724032488049
 20
322.2172165780806
 42
0.0
 10
261.6724032488047
 20
321.2172165780805
 42
0.0
 10
262.6714514703866
 20
321.1735971907152
 42
0.0
 10
262.6714514703867
 20
322.1735971907154
 42
0.0
 10
268.8012274660867
 20
329.6417851475082
 42
-0.2322709030050198
 10
269.5925056014407
 20
330.0303287610745
 42
0.0
 10
273.1714514703888
 20
330.0303287610745
 42
0.4142135623730951
 10
274.6714514703888
 20
331.5303287610745
 42
0.0
 10
274.6714514703888
 20
332.5303287610745
 42
-0.4142135623730951
 10
275.1714514703888
 20
333.0303287610746
 42
0.0
 10
279.1714514703888
 20
333.0303287610746
 42
-0.4142135623730951
 10
279.6714514703888
 20
332.5303287610745
 42
0.0
 10
279.6714514703888
 20
328.0303287610745
 42
0.0
 10
280.6714514703891
 20
328.0303287610745
 42
0.0
 10
280.6714514703888
 20
332.5303287610745
 42
0.4142135623730951
 97
       23
330
27
330
70
330
7F
330
82
330
78
330
7B
330
663
330
662
330
666
330
148
330
665
330
664
330
7A
330
77
330
81
330
80
330
6D
330
83
330
6F
330
7E
330
62D
330
7D
330
6E
 75
     0
 76
     1
 52
0.0
 41
10.0
 77
     0
 78
     1
 53
45.0
 43
0.0
 44
0.0
 45
-0.8838834764831842
 46
0.8838834764831844
 79
     0
 47
0.1258443878035317
 98
        2
 10
132.4957266566878
 20
333.3929501134185
 10
277.6516048987687
 20
333.4734660636957
1001
ACAD
1010
0.0
1020
0.0
1030
0.0
  0
DIMENSION
  5
78A
330
2
100
AcDbEntity
  8
BEMASS
100
AcDbDimension
280
     0
  2
*D25
 10
91.0028717442409
 20
334.0303287610751
 30
0.0
 11
86.50287174424098
 21
306.7232161737593
 31
0.0
 70
    32
  1
<>
 71
     5
 42
54.61422517463143
 73
     0
 74
     0
 75
     0
  3
STANDARD
100
AcDbAlignedDimension
 13
306.1432569033268
 23
279.4161035864436
 33
0.0
 14
132.1714514703883
 24
334.030328761075
 34
0.0
 50
90.0
100
AcDbRotatedDimension
1001
ACAD_DSTYLE_DIMINSPECT
1070
   396
1000
100%
1070
   395
1000

1070
   394
1070
    33
1070
   393
1070
     0
1001
ACAD
1000
DSTYLE
1002
{
1070
     3
1000

1070
   271
1070
     0
1002
}
  0
VIEWPORT
  5
2B4
330
2B3
100
AcDbEntity
 67
     1
  8
0
100
AcDbViewport
 10
208.5
 20
172.772378516624
 30
0.0
 40
417.0
 41
345.5447570332481
 68
     1
 69
     1
 12
208.5
 22
172.772378516624
 13
0.0
 23
0.0
 14
10.0
 24
10.0
 15
10.0
 25
10.0
 16
0.0
 26
0.0
 36
1.0
 17
0.0
 27
0.0
 37
0.0
 42
50.0
 43
0.0
 44
0.0
 45
345.5447570332481
 50
0.0
 51
0.0
 72
   100
 90
    32800
  1

281
     0
 71
     1
 74
     0
110
0.0
120
0.0
130
0.0
111
1.0
121
0.0
131
0.0
112
0.0
122
1.0
132
0.0
 79
     0
146
0.0
170
     0
 61
     5
348
2EB
292
     1
282
     1
141
0.0
142
0.0
 63
   250
421
  3355443
1001
GENIUS_GENODEF_13
1002
{
1000
HIER
1070
     0
1002
}
1002
{
1000
MANEDIT
1070
     0
1002
}
1002
{
1000
NOSEL
1070
     0
1002
}
1002
{
1000
BEHIND
1070
     0
1002
}
1002
{
1000
OTHER
1070
     0
1002
}
1002
{
1000
REACTOR
1002
}
1001
GENIUS_GENOBJ-N-SDF_13
1002
{
1000
OWNER
1000
GEN
1002
}
1001
GENIUS_GENSCREG_15
1000
PF
1040
1.0
1000
DF
1040
1.0
1000
MIN
1011
0.0
1021
0.0
1031
0.0
1000
MAX
1011
417.0
1021
345.5447570332481
1031
0.0
1000
FLAGS
1070
     4
  0
ENDSEC
  0
SECTION
  2
OBJECTS
  0
DICTIONARY
  5
7
330
0
100
AcDbDictionary
281
     1
  3
ACAD_CIP_PREVIOUS_PRODUCT_INFO
350
749
  3
ACAD_COLOR
350
2F6
  3
ACAD_DETAILVIEWSTYLE
350
73E
  3
ACAD_FIELDLIST
350
75F
  3
ACAD_GROUP
350
2C7
  3
ACAD_LAYOUT
350
2B2
  3
ACAD_MATERIAL
350
2CC
  3
ACAD_MLEADERSTYLE
350
31B
  3
ACAD_MLINESTYLE
350
2C8
  3
ACAD_PLOTSETTINGS
350
2C9
  3
ACAD_PLOTSTYLENAME
350
6
  3
ACAD_SCALELIST
350
2F9
  3
ACAD_SECTIONVIEWSTYLE
350
73C
  3
ACAD_TABLESTYLE
350
2F7
  3
ACAD_VISUALSTYLE
350
2E5
  3
ACDB_RECOMPOSE_DATA
350
89F
  3
AcDbVariableDictionary
350
729
  3
AcmDictionary
350
386
  3
AEC_PROPERTY_SET_DEFS
350
444
  3
AMG
350
321
  3
AMGSNAPSETTINGS
350
447
  0
DICTIONARY
  5
6E9
330
22
100
AcDbDictionary
280
     1
281
     1
  3
ADSK_XREC_LAYER_RECONCILED
360
6EA
  0
DICTIONARY
  5
6EB
330
C
100
AcDbDictionary
280
     1
281
     1
  3
ADSK_XREC_LAYER_RECONCILED
360
6EC
  0
DICTIONARY
  5
6ED
330
11
100
AcDbDictionary
280
     1
281
     1
  3
ADSK_XREC_LAYER_RECONCILED
360
6EE
  0
DICTIONARY
  5
6EF
330
A5
100
AcDbDictionary
280
     1
281
     1
  3
ADSK_XREC_LAYER_RECONCILED
360
6F0
  0
DICTIONARY
  5
6F1
330
4
100
AcDbDictionary
280
     1
281
     1
  3
ADSK_XREC_LAYER_RECONCILED
360
6F2
  0
DICTIONARY
  5
6F3
330
29
100
AcDbDictionary
280
     1
281
     1
  3
ADSK_XREC_LAYER_RECONCILED
360
6F4
  0
DICTIONARY
  5
6F5
330
95
100
AcDbDictionary
280
     1
281
     1
  3
ADSK_XREC_LAYER_RECONCILED
360
6F6
  0
DICTIONARY
  5
6F7
330
18C
100
AcDbDictionary
280
     1
281
     1
  3
ADSK_XREC_LAYER_RECONCILED
360
6F8
  0
DICTIONARY
  5
6F9
330
18F
100
AcDbDictionary
280
     1
281
     1
  3
ADSK_XREC_LAYER_RECONCILED
360
6FA
  0
DICTIONARY
  5
6FB
330
204
100
AcDbDictionary
280
     1
281
     1
  3
ADSK_XREC_LAYER_RECONCILED
360
6FC
  0
DICTIONARY
  5
6FD
330
164
100
AcDbDictionary
280
     1
281
     1
  3
ADSK_XREC_LAYER_RECONCILED
360
6FE
  0
DICTIONARY
  5
6FF
330
166
100
AcDbDictionary
280
     1
281
     1
  3
ADSK_XREC_LAYER_RECONCILED
360
700
  0
DICTIONARY
  5
701
330
1DD
100
AcDbDictionary
280
     1
281
     1
  3
ADSK_XREC_LAYER_RECONCILED
360
702
  0
DICTIONARY
  5
3C3
330
3C2
100
AcDbDictionary
280
     1
281
     1
  3
ADSK_XREC_LAYER_RECONCILED
360
703
  0
DICTIONARY
  5
6E7
330
2
100
AcDbDictionary
280
     1
281
     1
  3
ACAD_SORTENTS
360
6E8
  0
XRECORD
  5
749
102
{ACAD_REACTORS
330
7
102
}
330
7
100
AcDbXrecord
280
     1
300
AMECH_PP
300
2017
300
AMECH_PP_F_S
  0
DICTIONARY
  5
2F6
102
{ACAD_REACTORS
330
7
102
}
330
7
100
AcDbDictionary
281
     1
  0
DICTIONARY
  5
73E
102
{ACAD_REACTORS
330
7
102
}
330
7
100
AcDbDictionary
281
     1
  3
Imperial24
350
73F
  0
FIELDLIST
  5
75F
102
{ACAD_REACTORS
330
7
102
}
330
7
100
AcDbIdSet
 90
        4
330
75D
330
75E
330
760
330
761
100
AcDbFieldList
  0
DICTIONARY
  5
2C7
102
{ACAD_REACTORS
330
7
102
}
330
7
100
AcDbDictionary
281
     1
  0
DICTIONARY
  5
2B2
102
{ACAD_REACTORS
330
7
102
}
330
7
100
AcDbDictionary
281
     1
  3
Layout1
350
2B9
  3
Model
350
2B1
  0
DICTIONARY
  5
2CC
102
{ACAD_REACTORS
330
7
102
}
330
7
100
AcDbDictionary
281
     1
  3
ByBlock
350
2D5
  3
ByLayer
350
2CD
  3
Global
350
2DD
  0
DICTIONARY
  5
31B
102
{ACAD_REACTORS
330
7
102
}
330
7
100
AcDbDictionary
281
     1
  3
Standard
350
31C
  0
DICTIONARY
  5
2C8
102
{ACAD_REACTORS
330
7
102
}
330
7
100
AcDbDictionary
281
     1
  3
STANDARD
350
2CA
  0
DICTIONARY
  5
2C9
102
{ACAD_REACTORS
330
7
102
}
330
7
100
AcDbDictionary
281
     1
  0
ACDBDICTIONARYWDFLT
  5
6
102
{ACAD_REACTORS
330
7
102
}
330
7
100
AcDbDictionary
281
     1
  3
Normal
350
5
100
AcDbDictionaryWithDefault
340
5
  0
DICTIONARY
  5
2F9
102
{ACAD_REACTORS
330
7
102
}
330
7
100
AcDbDictionary
281
     1
  3
A0
350
2FA
  3
A1
350
2FB
  3
A2
350
2FC
  3
A3
350
2FD
  3
A4
350
2FE
  3
A5
350
2FF
  3
A6
350
300
  3
A7
350
301
  3
A8
350
302
  3
A9
350
303
  3
B0
350
304
  3
B1
350
305
  3
B2
350
306
  3
B3
350
307
  3
B4
350
308
  3
B5
350
309
  3
B6
350
30A
  3
B7
350
30B
  3
B8
350
30C
  3
B9
350
30D
  3
C0
350
30E
  3
C1
350
30F
  3
C2
350
310
  3
C3
350
311
  3
C4
350
312
  3
C5
350
313
  3
C6
350
314
  3
C7
350
315
  3
C8
350
316
  3
C9
350
317
  3
D0
350
318
  3
D1
350
319
  3
D2
350
31A
  0
DICTIONARY
  5
73C
102
{ACAD_REACTORS
330
7
102
}
330
7
100
AcDbDictionary
281
     1
  3
Imperial24
350
73D
  0
DICTIONARY
  5
2F7
102
{ACAD_REACTORS
330
7
102
}
330
7
100
AcDbDictionary
281
     1
  3
Standard
350
2F8
  0
DICTIONARY
  5
2E5
102
{ACAD_REACTORS
330
7
102
}
330
7
100
AcDbDictionary
281
     1
  3
2dWireframe
350
2EB
  3
3D Hidden
350
2ED
  3
3dWireframe
350
2EC
  3
Basic
350
2EA
  3
Brighten
350
2F1
  3
ColorChange
350
2F5
  3
Conceptual
350
2EE
  3
Dim
350
2F0
  3
EdgeColorOff
350
73B
  3
Facepattern
350
2F4
  3
Flat
350
2E6
  3
FlatWithEdges
350
2E7
  3
Gouraud
350
2E8
  3
GouraudWithEdges
350
2E9
  3
Hidden
350
733
  3
JitterOff
350
739
  3
Linepattern
350
2F3
  3
OverhangOff
350
73A
  3
Realistic
350
2EF
  3
Shaded
350
738
  3
Shaded with edges
350
737
  3
Shades of Gray
350
734
  3
Sketchy
350
735
  3
Thicken
350
2F2
  3
Wireframe
350
732
  3
X-Ray
350
736
  0
XRECORD
  5
89F
102
{ACAD_REACTORS
330
7
102
}
330
7
100
AcDbXrecord
280
     1
 90
        1
330
2F8
330
73D
330
73F
  0
DICTIONARY
  5
729
102
{ACAD_REACTORS
330
7
102
}
330
7
100
AcDbDictionary
281
     1
  3
CANNOSCALE
350
72D
  3
CMLEADERSTYLE
350
72B
  3
CTABLESTYLE
350
72A
  3
CVIEWDETAILSTYLE
350
898
  3
CVIEWSECTIONSTYLE
350
899
  3
LAYEREVAL
350
72F
  3
LAYERNOTIFY
350
730
  3
LIGHTINGUNITS
350
72E
  3
MSLTSCALE
350
72C
  0
DICTIONARY
  5
386
102
{ACAD_REACTORS
330
7
102
}
330
7
100
AcDbDictionary
281
     1
  3
AcmStdDictionary
350
391
  0
DICTIONARY
  5
444
102
{ACAD_REACTORS
330
7
102
}
330
7
100
AcDbDictionary
281
     1
  0
DICTIONARY
  5
321
102
{ACAD_REACTORS
330
7
102
}
330
7
100
AcDbDictionary
281
     1
  0
DICTIONARY
  5
447
102
{ACAD_REACTORS
330
7
102
}
330
7
100
AcDbDictionary
281
     1
  0
XRECORD
  5
6EA
102
{ACAD_REACTORS
330
6E9
102
}
330
6E9
100
AcDbXrecord
280
     1
290
     1
  0
XRECORD
  5
6EC
102
{ACAD_REACTORS
330
6EB
102
}
330
6EB
100
AcDbXrecord
280
     1
290
     1
  0
XRECORD
  5
6EE
102
{ACAD_REACTORS
330
6ED
102
}
330
6ED
100
AcDbXrecord
280
     1
290
     1
  0
XRECORD
  5
6F0
102
{ACAD_REACTORS
330
6EF
102
}
330
6EF
100
AcDbXrecord
280
     1
290
     1
  0
XRECORD
  5
6F2
102
{ACAD_REACTORS
330
6F1
102
}
330
6F1
100
AcDbXrecord
280
     1
290
     1
  0
XRECORD
  5
6F4
102
{ACAD_REACTORS
330
6F3
102
}
330
6F3
100
AcDbXrecord
280
     1
290
     1
  0
XRECORD
  5
6F6
102
{ACAD_REACTORS
330
6F5
102
}
330
6F5
100
AcDbXrecord
280
     1
290
     1
  0
XRECORD
  5
6F8
102
{ACAD_REACTORS
330
6F7
102
}
330
6F7
100
AcDbXrecord
280
     1
290
     1
  0
XRECORD
  5
6FA
102
{ACAD_REACTORS
330
6F9
102
}
330
6F9
100
AcDbXrecord
280
     1
290
     1
  0
XRECORD
  5
6FC
102
{ACAD_REACTORS
330
6FB
102
}
330
6FB
100
AcDbXrecord
280
     1
290
     1
  0
XRECORD
  5
6FE
102
{ACAD_REACTORS
330
6FD
102
}
330
6FD
100
AcDbXrecord
280
     1
290
     1
  0
XRECORD
  5
700
102
{ACAD_REACTORS
330
6FF
102
}
330
6FF
100
AcDbXrecord
280
     1
290
     1
  0
XRECORD
  5
702
102
{ACAD_REACTORS
330
701
102
}
330
701
100
AcDbXrecord
280
     1
290
     1
  0
XRECORD
  5
703
102
{ACAD_REACTORS
330
3C3
102
}
330
3C3
100
AcDbXrecord
280
     1
290
     1
  0
SORTENTSTABLE
  5
6E8
102
{ACAD_REACTORS
330
6E7
102
}
330
6E7
100
AcDbSortentsTable
330
2
331
60
  5
61
331
64
  5
65
331
25
  5
25
331
68
  5
69
331
6C
  5
6D
331
111
  5
112
331
115
  5
116
331
119
  5
11A
331
158
  5
15A
331
11D
  5
11E
331
98
  5
99
331
DB
  5
DC
331
9C
  5
9D
331
A0
  5
A1
331
DF
  5
E0
331
A4
  5
A7
331
E3
  5
E4
331
E7
  5
E8
331
16F
  5
170
331
70
  5
71
331
74
  5
75
331
39
  5
3A
331
3D
  5
3E
331
121
  5
12E
331
A8
  5
A9
331
AC
  5
AD
331
EB
  5
EC
331
B0
  5
B1
331
EF
  5
F0
331
B4
  5
B5
331
17F
  5
180
331
41
  5
42
331
45
  5
46
331
A
  5
A
331
49
  5
4A
331
4D
  5
4E
331
E
  5
E
331
F2
  5
F3
331
F6
  5
F7
331
FA
  5
FB
331
FE
  5
FF
331
13D
  5
13E
331
B8
  5
B9
331
7D
  5
7E
331
BC
  5
BD
331
C0
  5
C1
331
81
  5
82
331
C4
  5
C5
331
85
  5
86
331
65E
  5
65F
331
662
  5
663
331
666
  5
667
331
55
  5
56
331
59
  5
5A
331
5D
  5
5E
331
102
  5
103
331
106
  5
107
331
10A
  5
10B
331
10E
  5
10F
331
C8
  5
C9
331
89
  5
8A
331
8D
  5
8E
331
CC
  5
CD
331
91
  5
92
331
D0
  5
D1
331
D4
  5
D5
331
6E6
  5
27
331
61
  5
62
331
26
  5
26
331
65
  5
67
331
2A
  5
37
331
69
  5
6A
331
6D
  5
6E
331
112
  5
113
331
116
  5
117
331
11A
  5
11B
331
11E
  5
11F
331
99
  5
9A
331
D8
  5
D9
331
9D
  5
9E
331
DC
  5
DD
331
A1
  5
A2
331
E0
  5
E1
331
E4
  5
E5
331
71
  5
72
331
75
  5
76
331
3A
  5
3B
331
3E
  5
3F
331
12E
  5
12F
331
E8
  5
E9
331
A9
  5
AA
331
EC
  5
ED
331
AD
  5
AE
331
B1
  5
B2
331
B5
  5
B6
331
42
  5
43
331
3
  5
3
331
46
  5
47
331
B
  5
B
331
4A
  5
4B
331
F
  5
F
331
4E
  5
4F
331
F3
  5
F4
331
F7
  5
F8
331
FB
  5
FC
331
FF
  5
100
331
13E
  5
13F
331
B9
  5
BA
331
7A
  5
7B
331
7E
  5
7F
331
BD
  5
BE
331
82
  5
83
331
C1
  5
C2
331
86
  5
87
331
C5
  5
C6
331
65F
  5
660
331
663
  5
664
331
667
  5
66B
331
13
  5
13
331
56
  5
57
331
5A
  5
5B
331
5E
  5
5F
331
103
  5
104
331
107
  5
108
331
10B
  5
10C
331
10F
  5
110
331
8A
  5
8B
331
C9
  5
CA
331
8E
  5
8F
331
CD
  5
CE
331
D1
  5
D2
331
92
  5
93
331
D5
  5
D6
331
96
  5
97
331
62
  5
63
331
27
  5
28
331
6A
  5
6C
331
6E
  5
6F
331
113
  5
114
331
117
  5
118
331
11B
  5
11C
331
11F
  5
120
331
D9
  5
DA
331
9A
  5
9B
331
9E
  5
9F
331
DD
  5
DE
331
A2
  5
A3
331
E1
  5
E2
331
E5
  5
E6
331
72
  5
73
331
37
  5
38
331
76
  5
77
331
3B
  5
3C
331
3F
  5
40
331
12F
  5
130
331
AA
  5
AB
331
E9
  5
EA
331
AE
  5
AF
331
ED
  5
EE
331
B2
  5
B3
331
B6
  5
B7
331
17D
  5
17E
331
43
  5
44
331
47
  5
49
331
4B
  5
4C
331
4F
  5
50
331
F0
  5
F1
331
F4
  5
F5
331
F8
  5
F9
331
FC
  5
FD
331
13F
  5
140
331
7B
  5
7D
331
BA
  5
BB
331
7F
  5
80
331
BE
  5
BF
331
C2
  5
C3
331
83
  5
84
331
C6
  5
C7
331
87
  5
88
331
660
  5
661
331
664
  5
665
331
10
  5
10
331
57
  5
58
331
5B
  5
5C
331
5F
  5
60
331
100
  5
101
331
104
  5
105
331
108
  5
109
331
10C
  5
10D
331
CA
  5
CB
331
8B
  5
8C
331
8F
  5
90
331
CE
  5
CF
331
93
  5
94
331
D2
  5
D3
331
97
  5
98
331
D6
  5
D7
331
24
  5
24
331
63
  5
64
331
28
  5
2A
331
67
  5
68
331
6F
  5
70
331
110
  5
111
331
114
  5
115
331
118
  5
119
331
11C
  5
11D
331
9B
  5
9C
331
DA
  5
DB
331
9F
  5
A0
331
DE
  5
DF
331
E2
  5
E3
331
A3
  5
A4
331
E6
  5
E7
331
A7
  5
A8
331
73
  5
74
331
77
  5
78
331
38
  5
39
331
3C
  5
3D
331
120
  5
121
331
EA
  5
EB
331
AB
  5
AC
331
AF
  5
B0
331
EE
  5
EF
331
B3
  5
B4
331
B7
  5
B8
331
17E
  5
17F
331
62D
  5
645
331
645
  5
65D
331
40
  5
41
331
44
  5
45
331
D
  5
D
331
4C
  5
4D
331
F1
  5
F2
331
130
  5
13D
331
F5
  5
F6
331
F9
  5
FA
331
FD
  5
FE
331
78
  5
7A
331
BB
  5
BC
331
80
  5
81
331
BF
  5
C0
331
84
  5
85
331
C3
  5
C4
331
C7
  5
C8
331
65D
  5
65E
331
661
  5
662
331
665
  5
666
331
50
  5
54
331
54
  5
55
331
58
  5
59
331
5C
  5
5D
331
140
  5
144
331
101
  5
102
331
144
  5
148
331
105
  5
106
331
148
  5
14A
331
109
  5
10A
331
10D
  5
10E
331
88
  5
89
331
8C
  5
8D
331
CB
  5
CC
331
90
  5
91
331
CF
  5
D0
331
D3
  5
D4
331
94
  5
96
331
D7
  5
D8
  0
ACDBDETAILVIEWSTYLE
  5
73F
102
{ACAD_XDICTIONARY
360
89D
102
}
102
{ACAD_REACTORS
330
73E
330
753
102
}
330
73E
100
AcDbModelDocViewStyle
 70
     0
  3
Imperial24
290
     0
100
AcDbDetailViewStyle
 70
     0
 71
     0
 90
        3
 71
     1
340
9
 62
   256
 40
0.24
340
0
 62
   256
 40
0.24
300

 40
0.36
280
     3
 71
     2
340
8
 90
       25
 62
   256
 71
     3
340
9
 62
   256
 40
0.24
 90
        1
 40
0.75
 90
        1
300
%<\AcVar ViewType \f "%tc1">% %<\AcVar ViewDetailId>%\PSCALE %<\AcVar ViewScale \f "%sn">%
 71
     4
340
8
 90
       25
 62
   256
340
8
 90
       25
 62
   256
280
     0
  0
LAYOUT
  5
2B9
102
{ACAD_REACTORS
330
2B2
102
}
330
2B2
100
AcDbPlotSettings
  1

  2
C:\Program Files\AutoCAD R14\plotters\DWF Classic.pc3
  4

  6

 40
0.0
 41
0.0
 42
0.0
 43
0.0
 44
0.0
 45
0.0
 46
0.0
 47
0.0
 48
0.0
 49
0.0
140
0.0
141
0.0
142
1.0
143
1.0
 70
   688
 72
     0
 73
     0
 74
     5
  7
monochrome.ctb
 75
    16
147
1.0
 76
     0
 77
     2
 78
   300
148
0.0
149
0.0
100
AcDbLayout
  1
Layout1
 70
     0
 71
     1
 10
0.0
 20
0.0
 11
417.0
 21
288.0
 12
0.0
 22
0.0
 32
0.0
 14
1.000000000000000E+20
 24
1.000000000000000E+20
 34
1.000000000000000E+20
 15
-1.000000000000000E+20
 25
-1.000000000000000E+20
 35
-1.000000000000000E+20
146
0.0
 13
0.0
 23
0.0
 33
0.0
 16
1.0
 26
0.0
 36
0.0
 17
0.0
 27
1.0
 37
0.0
 76
     0
330
2B3
331
2B4
  0
LAYOUT
  5
2B1
102
{ACAD_REACTORS
330
2B2
102
}
330
2B2
100
AcDbPlotSettings
  1

  2
\\ACO_CAD_PRV\HPLJ5000N
  4
A4
  6

 40
6.720416545867919
 41
6.720423221588134
 42
7.694076538085937
 43
4.011077880859375
 44
209.9733276367187
 45
296.9683227539062
 46
0.0
 47
0.0
 48
0.0
 49
0.0
140
0.0
141
0.0
142
1.0
143
2.148119240418959
 70
 11952
 72
     1
 73
     1
 74
     1
  7
monochrome.ctb
 75
     0
147
0.4655235059507053
 76
     0
 77
     2
 78
   300
148
0.0199362105286127
149
0.0316601957038074
100
AcDbLayout
  1
Model
 70
     1
 71
     0
 10
0.0
 20
0.0
 11
12.0
 21
9.0
 12
0.0
 22
0.0
 32
0.0
 14
0.0
 24
0.0
 34
0.0
 15
0.0
 25
0.0
 35
0.0
146
0.0
 13
0.0
 23
0.0
 33
0.0
 16
1.0
 26
0.0
 36
0.0
 17
0.0
 27
1.0
 37
0.0
 76
     0
330
2
331
2C3
  0
MATERIAL
  5
2D5
102
{ACAD_XDICTIONARY
360
2D6
102
}
102
{ACAD_REACTORS
330
2CC
102
}
330
2CC
100
AcDbMaterial
  1
ByBlock
 72
     0
 43
0.0208333333333333
 43
0.0
 43
0.0
 43
0.0
 43
0.0
 43
0.0208333333333333
 43
0.0
 43
0.0
 43
0.0
 43
0.0
 43
1.0
 43
0.0
 43
0.0
 43
0.0
 43
0.0
 43
1.0
 77
     0
 47
0.0208333333333333
 47
0.0
 47
0.0
 47
0.0
 47
0.0
 47
0.0208333333333333
 47
0.0
 47
0.0
 47
0.0
 47
0.0
 47
1.0
 47
0.0
 47
0.0
 47
0.0
 47
0.0
 47
1.0
171
     0
 49
0.0208333333333333
 49
0.0
 49
0.0
 49
0.0
 49
0.0
 49
0.0208333333333333
 49
0.0
 49
0.0
 49
0.0
 49
0.0
 49
1.0
 49
0.0
 49
0.0
 49
0.0
 49
0.0
 49
1.0
175
     0
142
0.0208333333333333
142
0.0
142
0.0
142
0.0
142
0.0
142
0.0208333333333333
142
0.0
142
0.0
142
0.0
142
0.0
142
1.0
142
0.0
142
0.0
142
0.0
142
0.0
142
1.0
179
     0
144
0.0208333333333333
144
0.0
144
0.0
144
0.0
144
0.0
144
0.0208333333333333
144
0.0
144
0.0
144
0.0
144
0.0
144
1.0
144
0.0
144
0.0
144
0.0
144
0.0
144
1.0
147
0.0208333333333333
147
0.0
147
0.0
147
0.0
147
0.0
147
0.0208333333333333
147
0.0
147
0.0
147
0.0
147
0.0
147
1.0
147
0.0
147
0.0
147
0.0
147
0.0
147
1.0
  0
MATERIAL
  5
2CD
102
{ACAD_XDICTIONARY
360
2CE
102
}
102
{ACAD_REACTORS
330
2CC
102
}
330
2CC
100
AcDbMaterial
  1
ByLayer
 72
     0
 43
0.0208333333333333
 43
0.0
 43
0.0
 43
0.0
 43
0.0
 43
0.0208333333333333
 43
0.0
 43
0.0
 43
0.0
 43
0.0
 43
1.0
 43
0.0
 43
0.0
 43
0.0
 43
0.0
 43
1.0
 77
     0
 47
0.0208333333333333
 47
0.0
 47
0.0
 47
0.0
 47
0.0
 47
0.0208333333333333
 47
0.0
 47
0.0
 47
0.0
 47
0.0
 47
1.0
 47
0.0
 47
0.0
 47
0.0
 47
0.0
 47
1.0
171
     0
 49
0.0208333333333333
 49
0.0
 49
0.0
 49
0.0
 49
0.0
 49
0.0208333333333333
 49
0.0
 49
0.0
 49
0.0
 49
0.0
 49
1.0
 49
0.0
 49
0.0
 49
0.0
 49
0.0
 49
1.0
175
     0
142
0.0208333333333333
142
0.0
142
0.0
142
0.0
142
0.0
142
0.0208333333333333
142
0.0
142
0.0
142
0.0
142
0.0
142
1.0
142
0.0
142
0.0
142
0.0
142
0.0
142
1.0
179
     0
144
0.0208333333333333
144
0.0
144
0.0
144
0.0
144
0.0
144
0.0208333333333333
144
0.0
144
0.0
144
0.0
144
0.0
144
1.0
144
0.0
144
0.0
144
0.0
144
0.0
144
1.0
147
0.0208333333333333
147
0.0
147
0.0
147
0.0
147
0.0
147
0.0208333333333333
147
0.0
147
0.0
147
0.0
147
0.0
147
1.0
147
0.0
147
0.0
147
0.0
147
0.0
147
1.0
  0
MATERIAL
  5
2DD
102
{ACAD_XDICTIONARY
360
2DE
102
}
102
{ACAD_REACTORS
330
2CC
102
}
330
2CC
100
AcDbMaterial
  1
Global
 72
     0
 43
0.0208333333333333
 43
0.0
 43
0.0
 43
0.0
 43
0.0
 43
0.0208333333333333
 43
0.0
 43
0.0
 43
0.0
 43
0.0
 43
1.0
 43
0.0
 43
0.0
 43
0.0
 43
0.0
 43
1.0
 77
     0
 47
0.0208333333333333
 47
0.0
 47
0.0
 47
0.0
 47
0.0
 47
0.0208333333333333
 47
0.0
 47
0.0
 47
0.0
 47
0.0
 47
1.0
 47
0.0
 47
0.0
 47
0.0
 47
0.0
 47
1.0
171
     0
 49
0.0208333333333333
 49
0.0
 49
0.0
 49
0.0
 49
0.0
 49
0.0208333333333333
 49
0.0
 49
0.0
 49
0.0
 49
0.0
 49
1.0
 49
0.0
 49
0.0
 49
0.0
 49
0.0
 49
1.0
175
     0
142
0.0208333333333333
142
0.0
142
0.0
142
0.0
142
0.0
142
0.0208333333333333
142
0.0
142
0.0
142
0.0
142
0.0
142
1.0
142
0.0
142
0.0
142
0.0
142
0.0
142
1.0
179
     0
144
0.0208333333333333
144
0.0
144
0.0
144
0.0
144
0.0
144
0.0208333333333333
144
0.0
144
0.0
144
0.0
144
0.0
144
1.0
144
0.0
144
0.0
144
0.0
144
0.0
144
1.0
147
0.0208333333333333
147
0.0
147
0.0
147
0.0
147
0.0
147
0.0208333333333333
147
0.0
147
0.0
147
0.0
147
0.0
147
1.0
147
0.0
147
0.0
147
0.0
147
0.0
147
1.0
  0
MLEADERSTYLE
  5
31C
102
{ACAD_REACTORS
330
31B
102
}
330
31B
100
AcDbMLeaderStyle
179
     2
170
     2
171
     1
172
     0
 90
        2
 40
0.0
 41
0.0
173
     1
 91
-1056964608
340
2BE
 92
       -2
290
     1
 42
0.09
291
     1
 43
0.36
  3
Standard
 44
0.18
300

342
9
174
     1
178
     6
175
     1
176
     0
 93
-1056964608
 45
0.18
292
     0
297
     0
 46
0.18
 94
-1056964608
 47
1.0
 49
1.0
140
1.0
293
     1
141
0.0
294
     1
177
     0
142
1.0
295
     1
296
     0
143
0.125
271
     0
272
     9
273
     9
298
     0
  0
MLINESTYLE
  5
2CA
102
{ACAD_REACTORS
330
2C8
102
}
330
2C8
100
AcDbMlineStyle
  2
STANDARD
 70
     0
  3

 62
   256
 51
90.0
 52
90.0
 71
     2
 49
0.5
 62
   256
  6
BYLAYER
 49
-0.5
 62
   256
  6
BYLAYER
  0
ACDBPLACEHOLDER
  5
5
102
{ACAD_REACTORS
330
6
102
}
330
6
  0
SCALE
  5
2FA
102
{ACAD_REACTORS
330
2F9
102
}
330
2F9
100
AcDbScale
 70
     0
300
1:1
140
1.0
141
1.0
290
     1
  0
SCALE
  5
2FB
102
{ACAD_REACTORS
330
2F9
102
}
330
2F9
100
AcDbScale
 70
     0
300
1:2
140
1.0
141
2.0
290
     0
  0
SCALE
  5
2FC
102
{ACAD_REACTORS
330
2F9
102
}
330
2F9
100
AcDbScale
 70
     0
300
1:4
140
1.0
141
4.0
290
     0
  0
SCALE
  5
2FD
102
{ACAD_REACTORS
330
2F9
102
}
330
2F9
100
AcDbScale
 70
     0
300
1:5
140
1.0
141
5.0
290
     0
  0
SCALE
  5
2FE
102
{ACAD_REACTORS
330
2F9
102
}
330
2F9
100
AcDbScale
 70
     0
300
1:8
140
1.0
141
8.0
290
     0
  0
SCALE
  5
2FF
102
{ACAD_REACTORS
330
2F9
102
}
330
2F9
100
AcDbScale
 70
     0
300
1:10
140
1.0
141
10.0
290
     0
  0
SCALE
  5
300
102
{ACAD_REACTORS
330
2F9
102
}
330
2F9
100
AcDbScale
 70
     0
300
1:16
140
1.0
141
16.0
290
     0
  0
SCALE
  5
301
102
{ACAD_REACTORS
330
2F9
102
}
330
2F9
100
AcDbScale
 70
     0
300
1:20
140
1.0
141
20.0
290
     0
  0
SCALE
  5
302
102
{ACAD_REACTORS
330
2F9
102
}
330
2F9
100
AcDbScale
 70
     0
300
1:30
140
1.0
141
30.0
290
     0
  0
SCALE
  5
303
102
{ACAD_REACTORS
330
2F9
102
}
330
2F9
100
AcDbScale
 70
     0
300
1:40
140
1.0
141
40.0
290
     0
  0
SCALE
  5
304
102
{ACAD_REACTORS
330
2F9
102
}
330
2F9
100
AcDbScale
 70
     0
300
1:50
140
1.0
141
50.0
290
     0
  0
SCALE
  5
305
102
{ACAD_REACTORS
330
2F9
102
}
330
2F9
100
AcDbScale
 70
     0
300
1:100
140
1.0
141
100.0
290
     0
  0
SCALE
  5
306
102
{ACAD_REACTORS
330
2F9
102
}
330
2F9
100
AcDbScale
 70
     0
300
2:1
140
2.0
141
1.0
290
     0
  0
SCALE
  5
307
102
{ACAD_REACTORS
330
2F9
102
}
330
2F9
100
AcDbScale
 70
     0
300
4:1
140
4.0
141
1.0
290
     0
  0
SCALE
  5
308
102
{ACAD_REACTORS
330
2F9
102
}
330
2F9
100
AcDbScale
 70
     0
300
8:1
140
8.0
141
1.0
290
     0
  0
SCALE
  5
309
102
{ACAD_REACTORS
330
2F9
102
}
330
2F9
100
AcDbScale
 70
     0
300
10:1
140
10.0
141
1.0
290
     0
  0
SCALE
  5
30A
102
{ACAD_REACTORS
330
2F9
102
}
330
2F9
100
AcDbScale
 70
     0
300
100:1
140
100.0
141
1.0
290
     0
  0
SCALE
  5
30B
102
{ACAD_REACTORS
330
2F9
102
}
330
2F9
100
AcDbScale
 70
     0
300
1/128" = 1'-0"
140
0.0078125
141
12.0
290
     0
  0
SCALE
  5
30C
102
{ACAD_REACTORS
330
2F9
102
}
330
2F9
100
AcDbScale
 70
     0
300
1/64" = 1'-0"
140
0.015625
141
12.0
290
     0
  0
SCALE
  5
30D
102
{ACAD_REACTORS
330
2F9
102
}
330
2F9
100
AcDbScale
 70
     0
300
1/32" = 1'-0"
140
0.03125
141
12.0
290
     0
  0
SCALE
  5
30E
102
{ACAD_REACTORS
330
2F9
102
}
330
2F9
100
AcDbScale
 70
     0
300
1/16" = 1'-0"
140
0.0625
141
12.0
290
     0
  0
SCALE
  5
30F
102
{ACAD_REACTORS
330
2F9
102
}
330
2F9
100
AcDbScale
 70
     0
300
3/32" = 1'-0"
140
0.09375
141
12.0
290
     0
  0
SCALE
  5
310
102
{ACAD_REACTORS
330
2F9
102
}
330
2F9
100
AcDbScale
 70
     0
300
1/8" = 1'-0"
140
0.125
141
12.0
290
     0
  0
SCALE
  5
311
102
{ACAD_REACTORS
330
2F9
102
}
330
2F9
100
AcDbScale
 70
     0
300
3/16" = 1'-0"
140
0.1875
141
12.0
290
     0
  0
SCALE
  5
312
102
{ACAD_REACTORS
330
2F9
102
}
330
2F9
100
AcDbScale
 70
     0
300
1/4" = 1'-0"
140
0.25
141
12.0
290
     0
  0
SCALE
  5
313
102
{ACAD_REACTORS
330
2F9
102
}
330
2F9
100
AcDbScale
 70
     0
300
3/8" = 1'-0"
140
0.375
141
12.0
290
     0
  0
SCALE
  5
314
102
{ACAD_REACTORS
330
2F9
102
}
330
2F9
100
AcDbScale
 70
     0
300
1/2" = 1'-0"
140
0.5
141
12.0
290
     0
  0
SCALE
  5
315
102
{ACAD_REACTORS
330
2F9
102
}
330
2F9
100
AcDbScale
 70
     0
300
3/4" = 1'-0"
140
0.75
141
12.0
290
     0
  0
SCALE
  5
316
102
{ACAD_REACTORS
330
2F9
102
}
330
2F9
100
AcDbScale
 70
     0
300
1" = 1'-0"
140
1.0
141
12.0
290
     0
  0
SCALE
  5
317
102
{ACAD_REACTORS
330
2F9
102
}
330
2F9
100
AcDbScale
 70
     0
300
1-1/2" = 1'-0"
140
1.5
141
12.0
290
     0
  0
SCALE
  5
318
102
{ACAD_REACTORS
330
2F9
102
}
330
2F9
100
AcDbScale
 70
     0
300
3" = 1'-0"
140
3.0
141
12.0
290
     0
  0
SCALE
  5
319
102
{ACAD_REACTORS
330
2F9
102
}
330
2F9
100
AcDbScale
 70
     0
300
6" = 1'-0"
140
6.0
141
12.0
290
     0
  0
SCALE
  5
31A
102
{ACAD_REACTORS
330
2F9
102
}
330
2F9
100
AcDbScale
 70
     0
300
1'-0" = 1'-0"
140
12.0
141
12.0
290
     0
  0
ACDBSECTIONVIEWSTYLE
  5
73D
102
{ACAD_XDICTIONARY
360
89B
102
}
102
{ACAD_REACTORS
330
73C
330
752
102
}
330
73C
100
AcDbModelDocViewStyle
 70
     0
  3
Imperial24
290
     0
100
AcDbSectionViewStyle
 70
     0
 71
     0
 90
       78
 71
     1
340
9
 62
   256
 40
0.24
340
0
340
0
 62
   256
 40
0.24
300
I, O, Q, S, X, Z
 40
0.48
 90
        3
 40
0.18
 90
        1
 71
     2
340
8
 90
       25
 62
   256
340
8
 90
       50
 62
   256
 40
0.24
 40
0.0
 40
0.24
 71
     3
340
9
 62
   256
 40
0.24
 90
        1
 40
0.75
 90
        1
300
%<\AcVar ViewType \f "%tc1">% %<\AcVar ViewSectionStartId>%-%<\AcVar ViewSectionEndId>%\PSCALE %<\AcVar ViewScale \f "%sn">%
 71
     4
 62
   256
 62
   257
300
ANSI31
 40
1.0
 90
        0
290
     0
290
     0
 90
        6
 40
0.0
 40
1.570796326794896
 40
0.2617993877991494
 40
1.308996938995747
 40
-0.2617993877991494
 40
1.832595714594046
  0
TABLESTYLE
  5
2F8
102
{ACAD_XDICTIONARY
360
726
102
}
102
{ACAD_REACTORS
330
2F7
102
}
330
2F7
100
AcDbTableStyle
280
     0
  3
Standard
 70
     0
 71
     0
 40
0.06
 41
0.06
280
     0
281
     0
  7
STANDARD
140
0.18
170
     2
 62
     0
 63
     7
283
     0
 90
      512
 91
        0
  1

274
    -2
284
     1
 64
     0
275
    -2
285
     1
 65
     0
276
    -2
286
     1
 66
     0
277
    -2
287
     1
 67
     0
278
    -2
288
     1
 68
     0
279
    -2
289
     1
 69
     0
  7
STANDARD
140
0.25
170
     5
 62
     0
 63
     7
283
     0
 90
      512
 91
        0
  1

274
    -2
284
     1
 64
     0
275
    -2
285
     1
 65
     0
276
    -2
286
     1
 66
     0
277
    -2
287
     1
 67
     0
278
    -2
288
     1
 68
     0
279
    -2
289
     1
 69
     0
  7
STANDARD
140
0.18
170
     5
 62
     0
 63
     7
283
     0
 90
      512
 91
        0
  1

274
    -2
284
     1
 64
     0
275
    -2
285
     1
 65
     0
276
    -2
286
     1
 66
     0
277
    -2
287
     1
 67
     0
278
    -2
288
     1
 68
     0
279
    -2
289
     1
 69
     0
  0
VISUALSTYLE
  5
2EB
102
{ACAD_REACTORS
330
2E5
102
}
330
2E5
100
AcDbVisualStyle
  2
2dWireframe
 70
     4
177
     3
291
     0
 70
    58
 90
        0
176
     1
 90
        2
176
     1
 90
        0
176
     1
 90
        0
176
     1
 40
0.6
176
     1
 40
30.0
176
     1
 62
     7
420
 16777215
176
     1
 90
        1
176
     1
 90
        4
176
     1
 62
     7
176
     1
 62
   257
176
     1
 90
        1
176
     1
 90
        1
176
     1
 40
1.0
176
     1
 90
        0
176
     1
 62
   257
176
     1
 40
1.0
176
     1
 90
        1
176
     1
 90
        6
176
     1
 90
        2
176
     1
 62
     7
176
     1
 90
        5
176
     1
 90
        0
176
     1
 90
        0
176
     1
290
     0
176
     1
 90
        1
176
     1
 40
0.0
176
     1
 90
        0
176
     1
290
     1
176
     1
290
     1
176
     1
290
     0
176
     1
290
     0
176
     1
290
     0
176
     1
290
     0
176
     1
290
     0
176
     1
290
     0
176
     1
290
     0
176
     1
 90
       50
176
     1
 40
0.0
176
     1
 40
1.0
176
     1
 90
        0
176
     1
 62
    18
420
        0
176
     1
 90
       50
176
     1
 90
        3
176
     1
 62
     5
420
      255
176
     1
290
     0
176
     1
 90
       50
176
     1
 90
       50
176
     1
 90
       50
176
     1
290
     0
176
     1
 90
       50
176
     1
 62
   256
176
     0
 40
1.0
176
     0
 90
        2
176
     1
  1
strokes_ogs.tif
176
     1
290
     0
176
     1
 40
1.0
176
     1
 40
1.0
176
     1
  0
VISUALSTYLE
  5
2ED
102
{ACAD_REACTORS
330
2E5
102
}
330
2E5
100
AcDbVisualStyle
  2
3D Hidden
 70
     6
177
     3
291
     0
 70
    58
 90
        1
176
     1
 90
        2
176
     1
 90
        2
176
     1
 90
        0
176
     1
 40
0.6
176
     1
 40
30.0
176
     1
 62
     7
420
 16777215
176
     1
 90
        2
176
     1
 90
        2
176
     1
 62
     7
176
     1
 62
   257
176
     1
 90
        2
176
     1
 90
        1
176
     1
 40
40.0
176
     1
 90
        0
176
     1
 62
   257
176
     1
 40
1.0
176
     1
 90
        1
176
     1
 90
        6
176
     1
 90
        2
176
     1
 62
     7
176
     1
 90
        3
176
     1
 90
        0
176
     1
 90
        0
176
     1
290
     0
176
     1
 90
        1
176
     1
 40
0.0
176
     1
 90
        0
176
     1
290
     0
176
     1
290
     1
176
     1
290
     1
176
     1
290
     0
176
     1
290
     0
176
     1
290
     0
176
     1
290
     0
176
     1
290
     0
176
     1
290
     0
176
     1
 90
       50
176
     1
 40
0.0
176
     1
 40
1.0
176
     1
 90
        0
176
     1
 62
    18
420
        0
176
     1
 90
       50
176
     1
 90
        3
176
     1
 62
     5
420
      255
176
     1
290
     0
176
     1
 90
       50
176
     1
 90
       50
176
     1
 90
       50
176
     1
290
     0
176
     1
 90
       50
176
     1
 62
   256
176
     0
 40
1.0
176
     0
 90
        2
176
     1
  1
strokes_ogs.tif
176
     1
290
     0
176
     1
 40
1.0
176
     1
 40
1.0
176
     1
  0
VISUALSTYLE
  5
2EC
102
{ACAD_REACTORS
330
2E5
102
}
330
2E5
100
AcDbVisualStyle
  2
3dWireframe
 70
     5
177
     3
291
     0
 70
    58
 90
        0
176
     1
 90
        2
176
     1
 90
        0
176
     1
 90
        0
176
     1
 40
0.6
176
     1
 40
30.0
176
     1
 62
     7
420
 16777215
176
     1
 90
        1
176
     1
 90
        4
176
     1
 62
     7
176
     1
 62
   257
176
     1
 90
        1
176
     1
 90
        1
176
     1
 40
1.0
176
     1
 90
        0
176
     1
 62
   257
176
     1
 40
1.0
176
     1
 90
        1
176
     1
 90
        6
176
     1
 90
        2
176
     1
 62
     7
176
     1
 90
        5
176
     1
 90
        0
176
     1
 90
        0
176
     1
290
     0
176
     1
 90
        1
176
     1
 40
0.0
176
     1
 90
        0
176
     1
290
     0
176
     1
290
     1
176
     1
290
     1
176
     1
290
     0
176
     1
290
     0
176
     1
290
     0
176
     1
290
     0
176
     1
290
     0
176
     1
290
     0
176
     1
 90
       50
176
     1
 40
0.0
176
     1
 40
1.0
176
     1
 90
        0
176
     1
 62
    18
420
        0
176
     1
 90
       50
176
     1
 90
        3
176
     1
 62
     5
420
      255
176
     1
290
     0
176
     1
 90
       50
176
     1
 90
       50
176
     1
 90
       50
176
     1
290
     0
176
     1
 90
       50
176
     1
 62
   256
176
     0
 40
1.0
176
     0
 90
        2
176
     1
  1
strokes_ogs.tif
176
     1
290
     0
176
     1
 40
1.0
176
     1
 40
1.0
176
     1
  0
VISUALSTYLE
  5
2EA
102
{ACAD_REACTORS
330
2E5
102
}
330
2E5
100
AcDbVisualStyle
  2
Basic
 70
     7
177
     3
291
     1
 70
    58
 90
        1
176
     1
 90
        0
176
     1
 90
        1
176
     1
 90
        0
176
     1
 40
0.6
176
     1
 40
30.0
176
     1
 62
     7
420
 16777215
176
     1
 90
        0
176
     1
 90
        4
176
     1
 62
     7
176
     1
 62
   257
176
     1
 90
        1
176
     1
 90
        1
176
     1
 40
1.0
176
     1
 90
        8
176
     1
 62
     7
176
     1
 40
1.0
176
     1
 90
        1
176
     1
 90
        6
176
     1
 90
        2
176
     1
 62
     7
176
     1
 90
        5
176
     1
 90
        0
176
     1
 90
        0
176
     1
290
     0
176
     1
 90
        1
176
     1
 40
0.0
176
     1
 90
        0
176
     1
290
     0
176
     1
290
     1
176
     1
290
     1
176
     1
290
     0
176
     1
290
     0
176
     1
290
     0
176
     1
290
     0
176
     1
290
     0
176
     1
290
     0
176
     1
 90
       50
176
     1
 40
0.0
176
     1
 40
1.0
176
     1
 90
        0
176
     1
 62
    18
420
        0
176
     1
 90
       50
176
     1
 90
        3
176
     1
 62
     5
420
      255
176
     1
290
     0
176
     1
 90
       50
176
     1
 90
       50
176
     1
 90
       50
176
     1
290
     0
176
     1
 90
       50
176
     1
 62
   256
176
     0
 40
1.0
176
     0
 90
        2
176
     1
  1
strokes_ogs.tif
176
     1
290
     0
176
     1
 40
1.0
176
     1
 40
1.0
176
     1
  0
VISUALSTYLE
  5
2F1
102
{ACAD_REACTORS
330
2E5
102
}
330
2E5
100
AcDbVisualStyle
  2
Brighten
 70
    12
177
     3
291
     1
 70
    58
 90
        2
176
     1
 90
        2
176
     1
 90
        0
176
     1
 90
        0
176
     1
 40
0.6
176
     1
 40
30.0
176
     1
 62
     7
420
 16777215
176
     1
 90
        1
176
     1
 90
        4
176
     1
 62
     7
176
     1
 62
   257
176
     1
 90
        1
176
     1
 90
        1
176
     1
 40
1.0
176
     1
 90
        8
176
     1
 62
     7
176
     1
 40
1.0
176
     1
 90
        1
176
     1
 90
        6
176
     1
 90
        2
176
     1
 62
     7
176
     1
 90
        5
176
     1
 90
        0
176
     1
 90
        0
176
     1
290
     0
176
     1
 90
        1
176
     1
 40
50.0
176
     1
 90
        0
176
     1
290
     0
176
     1
290
     1
176
     1
290
     1
176
     1
290
     0
176
     1
290
     0
176
     1
290
     0
176
     1
290
     0
176
     1
290
     0
176
     1
290
     0
176
     1
 90
       50
176
     1
 40
0.0
176
     1
 40
1.0
176
     1
 90
        0
176
     1
 62
    18
420
        0
176
     1
 90
       50
176
     1
 90
        3
176
     1
 62
     5
420
      255
176
     1
290
     0
176
     1
 90
       50
176
     1
 90
       50
176
     1
 90
       50
176
     1
290
     0
176
     1
 90
       50
176
     1
 62
   256
176
     0
 40
1.0
176
     0
 90
        2
176
     1
  1
strokes_ogs.tif
176
     1
290
     0
176
     1
 40
1.0
176
     1
 40
1.0
176
     1
  0
VISUALSTYLE
  5
2F5
102
{ACAD_REACTORS
330
2E5
102
}
330
2E5
100
AcDbVisualStyle
  2
ColorChange
 70
    16
177
     3
291
     1
 70
    58
 90
        2
176
     1
 90
        2
176
     1
 90
        3
176
     1
 90
        0
176
     1
 40
0.6
176
     1
 40
30.0
176
     1
 62
     8
420
  8421504
176
     1
 90
        1
176
     1
 90
        4
176
     1
 62
     7
176
     1
 62
   257
176
     1
 90
        1
176
     1
 90
        1
176
     1
 40
1.0
176
     1
 90
        8
176
     1
 62
     8
420
  8421504
176
     1
 40
1.0
176
     1
 90
        1
176
     1
 90
        6
176
     1
 90
        2
176
     1
 62
     7
176
     1
 90
        5
176
     1
 90
        0
176
     1
 90
        0
176
     1
290
     0
176
     1
 90
        1
176
     1
 40
0.0
176
     1
 90
        0
176
     1
290
     0
176
     1
290
     1
176
     1
290
     1
176
     1
290
     0
176
     1
290
     0
176
     1
290
     0
176
     1
290
     0
176
     1
290
     0
176
     1
290
     0
176
     1
 90
       50
176
     1
 40
0.0
176
     1
 40
1.0
176
     1
 90
        0
176
     1
 62
    18
420
        0
176
     1
 90
       50
176
     1
 90
        3
176
     1
 62
     5
420
      255
176
     1
290
     0
176
     1
 90
       50
176
     1
 90
       50
176
     1
 90
       50
176
     1
290
     0
176
     1
 90
       50
176
     1
 62
   256
176
     0
 40
1.0
176
     0
 90
        2
176
     1
  1
strokes_ogs.tif
176
     1
290
     0
176
     1
 40
1.0
176
     1
 40
1.0
176
     1
  0
VISUALSTYLE
  5
2EE
102
{ACAD_REACTORS
330
2E5
102
}
330
2E5
100
AcDbVisualStyle
  2
Conceptual
 70
     9
177
     3
291
     0
 70
    58
 90
        3
176
     1
 90
        2
176
     1
 90
        0
176
     1
 90
        0
176
     1
 40
0.6
176
     1
 40
30.0
176
     1
 62
     7
420
 16777215
176
     1
 90
        2
176
     1
 90
        2
176
     1
 62
     7
176
     1
 62
   257
176
     1
 90
        1
176
     1
 90
        1
176
     1
 40
40.0
176
     1
 90
        8
176
     1
 62
     7
176
     1
 40
1.0
176
     1
 90
        1
176
     1
 90
        6
176
     1
 90
        2
176
     1
 62
     7
176
     1
 90
        3
176
     1
 90
        0
176
     1
 90
        0
176
     1
290
     0
176
     1
 90
        1
176
     1
 40
0.0
176
     1
 90
        0
176
     1
290
     0
176
     1
290
     1
176
     1
290
     1
176
     1
290
     0
176
     1
290
     0
176
     1
290
     0
176
     1
290
     0
176
     1
290
     0
176
     1
290
     0
176
     1
 90
       50
176
     1
 40
0.0
176
     1
 40
1.0
176
     1
 90
        0
176
     1
 62
    18
420
        0
176
     1
 90
       50
176
     1
 90
        3
176
     1
 62
     5
420
      255
176
     1
290
     0
176
     1
 90
       50
176
     1
 90
       50
176
     1
 90
       50
176
     1
290
     0
176
     1
 90
       50
176
     1
 62
   256
176
     0
 40
1.0
176
     0
 90
        2
176
     1
  1
strokes_ogs.tif
176
     1
290
     0
176
     1
 40
1.0
176
     1
 40
1.0
176
     1
  0
VISUALSTYLE
  5
2F0
102
{ACAD_REACTORS
330
2E5
102
}
330
2E5
100
AcDbVisualStyle
  2
Dim
 70
    11
177
     3
291
     1
 70
    58
 90
        2
176
     1
 90
        2
176
     1
 90
        0
176
     1
 90
        0
176
     1
 40
0.6
176
     1
 40
30.0
176
     1
 62
     7
420
 16777215
176
     1
 90
        1
176
     1
 90
        4
176
     1
 62
     7
176
     1
 62
   257
176
     1
 90
        1
176
     1
 90
        1
176
     1
 40
1.0
176
     1
 90
        8
176
     1
 62
     7
176
     1
 40
1.0
176
     1
 90
        1
176
     1
 90
        6
176
     1
 90
        2
176
     1
 62
     7
176
     1
 90
        5
176
     1
 90
        0
176
     1
 90
        0
176
     1
290
     0
176
     1
 90
        1
176
     1
 40
-50.0
176
     1
 90
        0
176
     1
290
     0
176
     1
290
     1
176
     1
290
     1
176
     1
290
     0
176
     1
290
     0
176
     1
290
     0
176
     1
290
     0
176
     1
290
     0
176
     1
290
     0
176
     1
 90
       50
176
     1
 40
0.0
176
     1
 40
1.0
176
     1
 90
        0
176
     1
 62
    18
420
        0
176
     1
 90
       50
176
     1
 90
        3
176
     1
 62
     5
420
      255
176
     1
290
     0
176
     1
 90
       50
176
     1
 90
       50
176
     1
 90
       50
176
     1
290
     0
176
     1
 90
       50
176
     1
 62
   256
176
     0
 40
1.0
176
     0
 90
        2
176
     1
  1
strokes_ogs.tif
176
     1
290
     0
176
     1
 40
1.0
176
     1
 40
1.0
176
     1
  0
VISUALSTYLE
  5
73B
102
{ACAD_REACTORS
330
2E5
102
}
330
2E5
100
AcDbVisualStyle
  2
EdgeColorOff
 70
    22
177
     3
291
     1
 70
    58
 90
        2
176
     0
 90
        2
176
     0
 90
        0
176
     0
 90
        0
176
     0
 40
0.6
176
     0
 40
30.0
176
     0
 62
     7
420
 16777215
176
     0
 90
        1
176
     0
 90
        4
176
     0
 62
     7
176
     0
 62
   257
176
     0
 90
        1
176
     0
 90
        1
176
     0
 40
1.0
176
     0
 90
        8
176
     2
 62
     7
176
     0
 40
1.0
176
     0
 90
        1
176
     0
 90
        6
176
     0
 90
        2
176
     0
 62
     7
176
     0
 90
        5
176
     0
 90
        0
176
     0
 90
        0
176
     0
290
     0
176
     0
 90
        1
176
     0
 40
0.0
176
     0
 90
        0
176
     0
290
     0
176
     0
290
     1
176
     0
290
     1
176
     0
290
     0
176
     0
290
     0
176
     0
290
     0
176
     0
290
     0
176
     0
290
     0
176
     0
290
     0
176
     0
 90
       50
176
     0
 40
0.0
176
     0
 40
1.0
176
     0
 90
        0
176
     0
 62
    18
420
        0
176
     0
 90
       50
176
     0
 90
        3
176
     0
 62
     5
420
      255
176
     0
290
     0
176
     0
 90
       50
176
     0
 90
       50
176
     0
 90
       50
176
     0
290
     0
176
     0
 90
       50
176
     0
 62
   256
176
     0
 40
1.0
176
     0
 90
        2
176
     0
  1
strokes_ogs.tif
176
     0
290
     0
176
     0
 40
1.0
176
     0
 40
1.0
176
     0
  0
VISUALSTYLE
  5
2F4
102
{ACAD_REACTORS
330
2E5
102
}
330
2E5
100
AcDbVisualStyle
  2
Facepattern
 70
    15
177
     3
291
     1
 70
    58
 90
        2
176
     1
 90
        2
176
     1
 90
        0
176
     1
 90
        0
176
     1
 40
0.6
176
     1
 40
30.0
176
     1
 62
     7
420
 16777215
176
     1
 90
        1
176
     1
 90
        4
176
     1
 62
     7
176
     1
 62
   257
176
     1
 90
        1
176
     1
 90
        1
176
     1
 40
1.0
176
     1
 90
        8
176
     1
 62
     7
176
     1
 40
1.0
176
     1
 90
        1
176
     1
 90
        6
176
     1
 90
        2
176
     1
 62
     7
176
     1
 90
        5
176
     1
 90
        0
176
     1
 90
        0
176
     1
290
     0
176
     1
 90
        1
176
     1
 40
0.0
176
     1
 90
        0
176
     1
290
     0
176
     1
290
     1
176
     1
290
     1
176
     1
290
     0
176
     1
290
     0
176
     1
290
     0
176
     1
290
     0
176
     1
290
     0
176
     1
290
     0
176
     1
 90
       50
176
     1
 40
0.0
176
     1
 40
1.0
176
     1
 90
        0
176
     1
 62
    18
420
        0
176
     1
 90
       50
176
     1
 90
        3
176
     1
 62
     5
420
      255
176
     1
290
     0
176
     1
 90
       50
176
     1
 90
       50
176
     1
 90
       50
176
     1
290
     0
176
     1
 90
       50
176
     1
 62
   256
176
     0
 40
1.0
176
     0
 90
        2
176
     1
  1
strokes_ogs.tif
176
     1
290
     0
176
     1
 40
1.0
176
     1
 40
1.0
176
     1
  0
VISUALSTYLE
  5
2E6
102
{ACAD_REACTORS
330
2E5
102
}
330
2E5
100
AcDbVisualStyle
  2
Flat
 70
     0
177
     3
291
     1
 70
    58
 90
        2
176
     1
 90
        1
176
     1
 90
        1
176
     1
 90
        2
176
     1
 40
0.6
176
     1
 40
30.0
176
     1
 62
     7
420
 16777215
176
     1
 90
        0
176
     1
 90
        4
176
     1
 62
     7
176
     1
 62
   257
176
     1
 90
        1
176
     1
 90
        1
176
     1
 40
1.0
176
     1
 90
        8
176
     1
 62
     7
176
     1
 40
1.0
176
     1
 90
        1
176
     1
 90
        6
176
     1
 90
        2
176
     1
 62
     7
176
     1
 90
        5
176
     1
 90
        0
176
     1
 90
        0
176
     1
290
     0
176
     1
 90
       13
176
     1
 40
0.0
176
     1
 90
        0
176
     1
290
     0
176
     1
290
     1
176
     1
290
     1
176
     1
290
     0
176
     1
290
     0
176
     1
290
     0
176
     1
290
     0
176
     1
290
     0
176
     1
290
     0
176
     1
 90
       50
176
     1
 40
0.0
176
     1
 40
1.0
176
     1
 90
        0
176
     1
 62
    18
420
        0
176
     1
 90
       50
176
     1
 90
        3
176
     1
 62
     5
420
      255
176
     1
290
     0
176
     1
 90
       50
176
     1
 90
       50
176
     1
 90
       50
176
     1
290
     0
176
     1
 90
       50
176
     1
 62
   256
176
     0
 40
1.0
176
     0
 90
        2
176
     1
  1
strokes_ogs.tif
176
     1
290
     0
176
     1
 40
1.0
176
     1
 40
1.0
176
     1
  0
VISUALSTYLE
  5
2E7
102
{ACAD_REACTORS
330
2E5
102
}
330
2E5
100
AcDbVisualStyle
  2
FlatWithEdges
 70
     1
177
     3
291
     1
 70
    58
 90
        2
176
     1
 90
        1
176
     1
 90
        1
176
     1
 90
        2
176
     1
 40
0.6
176
     1
 40
30.0
176
     1
 62
     7
420
 16777215
176
     1
 90
        1
176
     1
 90
        4
176
     1
 62
     7
176
     1
 62
   257
176
     1
 90
        1
176
     1
 90
        1
176
     1
 40
1.0
176
     1
 90
        0
176
     1
 62
   257
176
     1
 40
1.0
176
     1
 90
        1
176
     1
 90
        6
176
     1
 90
        2
176
     1
 62
     7
176
     1
 90
        5
176
     1
 90
        0
176
     1
 90
        0
176
     1
290
     0
176
     1
 90
       13
176
     1
 40
0.0
176
     1
 90
        0
176
     1
290
     0
176
     1
290
     1
176
     1
290
     1
176
     1
290
     0
176
     1
290
     0
176
     1
290
     0
176
     1
290
     0
176
     1
290
     0
176
     1
290
     0
176
     1
 90
       50
176
     1
 40
0.0
176
     1
 40
1.0
176
     1
 90
        0
176
     1
 62
    18
420
        0
176
     1
 90
       50
176
     1
 90
        3
176
     1
 62
     5
420
      255
176
     1
290
     0
176
     1
 90
       50
176
     1
 90
       50
176
     1
 90
       50
176
     1
290
     0
176
     1
 90
       50
176
     1
 62
   256
176
     0
 40
1.0
176
     0
 90
        2
176
     1
  1
strokes_ogs.tif
176
     1
290
     0
176
     1
 40
1.0
176
     1
 40
1.0
176
     1
  0
VISUALSTYLE
  5
2E8
102
{ACAD_REACTORS
330
2E5
102
}
330
2E5
100
AcDbVisualStyle
  2
Gouraud
 70
     2
177
     3
291
     1
 70
    58
 90
        2
176
     1
 90
        2
176
     1
 90
        1
176
     1
 90
        2
176
     1
 40
0.6
176
     1
 40
30.0
176
     1
 62
     7
420
 16777215
176
     1
 90
        0
176
     1
 90
        4
176
     1
 62
     7
176
     1
 62
   257
176
     1
 90
        1
176
     1
 90
        1
176
     1
 40
1.0
176
     1
 90
        0
176
     1
 62
     7
176
     1
 40
1.0
176
     1
 90
        1
176
     1
 90
        6
176
     1
 90
        2
176
     1
 62
     7
176
     1
 90
        5
176
     1
 90
        0
176
     1
 90
        0
176
     1
290
     0
176
     1
 90
       13
176
     1
 40
0.0
176
     1
 90
        0
176
     1
290
     0
176
     1
290
     1
176
     1
290
     1
176
     1
290
     0
176
     1
290
     0
176
     1
290
     0
176
     1
290
     0
176
     1
290
     0
176
     1
290
     0
176
     1
 90
       50
176
     1
 40
0.0
176
     1
 40
1.0
176
     1
 90
        0
176
     1
 62
    18
420
        0
176
     1
 90
       50
176
     1
 90
        3
176
     1
 62
     5
420
      255
176
     1
290
     0
176
     1
 90
       50
176
     1
 90
       50
176
     1
 90
       50
176
     1
290
     0
176
     1
 90
       50
176
     1
 62
   256
176
     0
 40
1.0
176
     0
 90
        2
176
     1
  1
strokes_ogs.tif
176
     1
290
     0
176
     1
 40
1.0
176
     1
 40
1.0
176
     1
  0
VISUALSTYLE
  5
2E9
102
{ACAD_REACTORS
330
2E5
102
}
330
2E5
100
AcDbVisualStyle
  2
GouraudWithEdges
 70
     3
177
     3
291
     1
 70
    58
 90
        2
176
     1
 90
        2
176
     1
 90
        1
176
     1
 90
        2
176
     1
 40
0.6
176
     1
 40
30.0
176
     1
 62
     7
420
 16777215
176
     1
 90
        1
176
     1
 90
        4
176
     1
 62
     7
176
     1
 62
   257
176
     1
 90
        1
176
     1
 90
        1
176
     1
 40
1.0
176
     1
 90
        0
176
     1
 62
   257
176
     1
 40
1.0
176
     1
 90
        1
176
     1
 90
        6
176
     1
 90
        2
176
     1
 62
     7
176
     1
 90
        5
176
     1
 90
        0
176
     1
 90
        0
176
     1
290
     0
176
     1
 90
       13
176
     1
 40
0.0
176
     1
 90
        0
176
     1
290
     0
176
     1
290
     1
176
     1
290
     1
176
     1
290
     0
176
     1
290
     0
176
     1
290
     0
176
     1
290
     0
176
     1
290
     0
176
     1
290
     0
176
     1
 90
       50
176
     1
 40
0.0
176
     1
 40
1.0
176
     1
 90
        0
176
     1
 62
    18
420
        0
176
     1
 90
       50
176
     1
 90
        3
176
     1
 62
     5
420
      255
176
     1
290
     0
176
     1
 90
       50
176
     1
 90
       50
176
     1
 90
       50
176
     1
290
     0
176
     1
 90
       50
176
     1
 62
   256
176
     0
 40
1.0
176
     0
 90
        2
176
     1
  1
strokes_ogs.tif
176
     1
290
     0
176
     1
 40
1.0
176
     1
 40
1.0
176
     1
  0
VISUALSTYLE
  5
733
102
{ACAD_REACTORS
330
2E5
102
}
330
2E5
100
AcDbVisualStyle
  2
Hidden
 70
     6
177
     3
291
     0
 70
    58
 90
        1
176
     1
 90
        2
176
     1
 90
        2
176
     1
 90
        0
176
     1
 40
0.6
176
     1
 40
30.0
176
     1
 62
     7
420
 16777215
176
     1
 90
        2
176
     1
 90
        2
176
     1
 62
     7
176
     1
 62
   257
176
     1
 90
        2
176
     1
 90
        1
176
     1
 40
40.0
176
     1
 90
        0
176
     1
 62
   257
176
     1
 40
1.0
176
     1
 90
        1
176
     1
 90
        6
176
     1
 90
        2
176
     1
 62
     7
176
     1
 90
        3
176
     1
 90
        0
176
     1
 90
        0
176
     1
290
     0
176
     1
 90
        1
176
     1
 40
0.0
176
     1
 90
        0
176
     1
290
     0
176
     1
290
     1
176
     1
290
     1
176
     1
290
     0
176
     1
290
     0
176
     1
290
     0
176
     1
290
     0
176
     1
290
     0
176
     1
290
     0
176
     1
 90
       50
176
     1
 40
0.0
176
     1
 40
1.0
176
     1
 90
        0
176
     1
 62
    18
420
        0
176
     1
 90
       50
176
     1
 90
        3
176
     1
 62
     5
420
      255
176
     1
290
     0
176
     1
 90
       50
176
     1
 90
       50
176
     1
 90
       50
176
     1
290
     0
176
     1
 90
       50
176
     1
 62
   256
176
     0
 40
1.0
176
     0
 90
        2
176
     1
  1
strokes_ogs.tif
176
     1
290
     0
176
     1
 40
1.0
176
     1
 40
1.0
176
     1
  0
VISUALSTYLE
  5
739
102
{ACAD_REACTORS
330
2E5
102
}
330
2E5
100
AcDbVisualStyle
  2
JitterOff
 70
    20
177
     3
291
     1
 70
    58
 90
        2
176
     0
 90
        2
176
     0
 90
        0
176
     0
 90
        0
176
     0
 40
0.6
176
     0
 40
30.0
176
     0
 62
     7
420
 16777215
176
     0
 90
        1
176
     0
 90
        4
176
     0
 62
     7
176
     0
 62
   257
176
     0
 90
        1
176
     0
 90
        1
176
     0
 40
1.0
176
     0
 90
       10
176
     2
 62
     7
176
     0
 40
1.0
176
     0
 90
        1
176
     0
 90
        6
176
     0
 90
        2
176
     0
 62
     7
176
     0
 90
        5
176
     0
 90
        0
176
     0
 90
        0
176
     0
290
     0
176
     0
 90
        1
176
     0
 40
0.0
176
     0
 90
        0
176
     0
290
     0
176
     0
290
     1
176
     0
290
     1
176
     0
290
     0
176
     0
290
     0
176
     0
290
     0
176
     0
290
     0
176
     0
290
     0
176
     0
290
     0
176
     0
 90
       50
176
     0
 40
0.0
176
     0
 40
1.0
176
     0
 90
        0
176
     0
 62
    18
420
        0
176
     0
 90
       50
176
     0
 90
        3
176
     0
 62
     5
420
      255
176
     0
290
     0
176
     0
 90
       50
176
     0
 90
       50
176
     0
 90
       50
176
     0
290
     0
176
     0
 90
       50
176
     0
 62
   256
176
     0
 40
1.0
176
     0
 90
        2
176
     0
  1
strokes_ogs.tif
176
     0
290
     0
176
     0
 40
1.0
176
     0
 40
1.0
176
     0
  0
VISUALSTYLE
  5
2F3
102
{ACAD_REACTORS
330
2E5
102
}
330
2E5
100
AcDbVisualStyle
  2
Linepattern
 70
    14
177
     3
291
     1
 70
    58
 90
        2
176
     1
 90
        2
176
     1
 90
        0
176
     1
 90
        0
176
     1
 40
0.6
176
     1
 40
30.0
176
     1
 62
     7
420
 16777215
176
     1
 90
        1
176
     1
 90
        4
176
     1
 62
     7
176
     1
 62
   257
176
     1
 90
        7
176
     1
 90
        7
176
     1
 40
1.0
176
     1
 90
        8
176
     1
 62
     7
176
     1
 40
1.0
176
     1
 90
        1
176
     1
 90
        6
176
     1
 90
        2
176
     1
 62
     7
176
     1
 90
        5
176
     1
 90
        0
176
     1
 90
        0
176
     1
290
     0
176
     1
 90
        1
176
     1
 40
0.0
176
     1
 90
        0
176
     1
290
     0
176
     1
290
     1
176
     1
290
     1
176
     1
290
     0
176
     1
290
     0
176
     1
290
     0
176
     1
290
     0
176
     1
290
     0
176
     1
290
     0
176
     1
 90
       50
176
     1
 40
0.0
176
     1
 40
1.0
176
     1
 90
        0
176
     1
 62
    18
420
        0
176
     1
 90
       50
176
     1
 90
        3
176
     1
 62
     5
420
      255
176
     1
290
     0
176
     1
 90
       50
176
     1
 90
       50
176
     1
 90
       50
176
     1
290
     0
176
     1
 90
       50
176
     1
 62
   256
176
     0
 40
1.0
176
     0
 90
        2
176
     1
  1
strokes_ogs.tif
176
     1
290
     0
176
     1
 40
1.0
176
     1
 40
1.0
176
     1
  0
VISUALSTYLE
  5
73A
102
{ACAD_REACTORS
330
2E5
102
}
330
2E5
100
AcDbVisualStyle
  2
OverhangOff
 70
    21
177
     3
291
     1
 70
    58
 90
        2
176
     0
 90
        2
176
     0
 90
        0
176
     0
 90
        0
176
     0
 40
0.6
176
     0
 40
30.0
176
     0
 62
     7
420
 16777215
176
     0
 90
        1
176
     0
 90
        4
176
     0
 62
     7
176
     0
 62
   257
176
     0
 90
        1
176
     0
 90
        1
176
     0
 40
1.0
176
     0
 90
        9
176
     2
 62
     7
176
     0
 40
1.0
176
     0
 90
        1
176
     0
 90
        6
176
     0
 90
        2
176
     0
 62
     7
176
     0
 90
        5
176
     0
 90
        0
176
     0
 90
        0
176
     0
290
     0
176
     0
 90
        1
176
     0
 40
0.0
176
     0
 90
        0
176
     0
290
     0
176
     0
290
     1
176
     0
290
     1
176
     0
290
     0
176
     0
290
     0
176
     0
290
     0
176
     0
290
     0
176
     0
290
     0
176
     0
290
     0
176
     0
 90
       50
176
     0
 40
0.0
176
     0
 40
1.0
176
     0
 90
        0
176
     0
 62
    18
420
        0
176
     0
 90
       50
176
     0
 90
        3
176
     0
 62
     5
420
      255
176
     0
290
     0
176
     0
 90
       50
176
     0
 90
       50
176
     0
 90
       50
176
     0
290
     0
176
     0
 90
       50
176
     0
 62
   256
176
     0
 40
1.0
176
     0
 90
        2
176
     0
  1
strokes_ogs.tif
176
     0
290
     0
176
     0
 40
1.0
176
     0
 40
1.0
176
     0
  0
VISUALSTYLE
  5
2EF
102
{ACAD_REACTORS
330
2E5
102
}
330
2E5
100
AcDbVisualStyle
  2
Realistic
 70
     8
177
     3
291
     0
 70
    58
 90
        2
176
     1
 90
        2
176
     1
 90
        0
176
     1
 90
        0
176
     1
 40
0.6
176
     1
 40
30.0
176
     1
 62
     7
420
 16777215
176
     1
 90
        1
176
     1
 90
        0
176
     1
 62
     7
176
     1
 62
   257
176
     1
 90
        1
176
     1
 90
        1
176
     1
 40
1.0
176
     1
 90
        8
176
     1
 62
     8
420
  7895160
176
     1
 40
1.0
176
     1
 90
        1
176
     1
 90
        6
176
     1
 90
        2
176
     1
 62
     7
176
     1
 90
        5
176
     1
 90
        0
176
     1
 90
        0
176
     1
290
     0
176
     1
 90
       13
176
     1
 40
0.0
176
     1
 90
        0
176
     1
290
     0
176
     1
290
     1
176
     1
290
     1
176
     1
290
     0
176
     1
290
     0
176
     1
290
     0
176
     1
290
     0
176
     1
290
     0
176
     1
290
     0
176
     1
 90
       50
176
     1
 40
0.0
176
     1
 40
1.0
176
     1
 90
        0
176
     1
 62
    18
420
        0
176
     1
 90
       50
176
     1
 90
        3
176
     1
 62
     5
420
      255
176
     1
290
     0
176
     1
 90
       50
176
     1
 90
       50
176
     1
 90
       50
176
     1
290
     0
176
     1
 90
       50
176
     1
 62
   256
176
     0
 40
1.0
176
     0
 90
        2
176
     1
  1
strokes_ogs.tif
176
     1
290
     0
176
     1
 40
1.0
176
     1
 40
1.0
176
     1
  0
VISUALSTYLE
  5
738
102
{ACAD_REACTORS
330
2E5
102
}
330
2E5
100
AcDbVisualStyle
  2
Shaded
 70
    27
177
     3
291
     0
 70
    58
 90
        2
176
     1
 90
        2
176
     1
 90
        1
176
     1
 90
        2
176
     1
 40
0.6
176
     1
 40
30.0
176
     1
 62
     7
420
 16777215
176
     1
 90
        0
176
     1
 90
        4
176
     1
 62
     7
176
     1
 62
   257
176
     1
 90
        1
176
     1
 90
        1
176
     1
 40
1.0
176
     1
 90
        8
176
     1
 62
   257
176
     1
 40
1.0
176
     1
 90
        1
176
     1
 90
        6
176
     1
 90
        2
176
     1
 62
     8
420
  7895160
176
     1
 90
        3
176
     1
 90
        0
176
     1
 90
        0
176
     1
290
     0
176
     1
 90
        5
176
     1
 40
0.0
176
     1
 90
        0
176
     1
290
     0
176
     1
290
     1
176
     1
290
     1
176
     1
290
     0
176
     1
290
     0
176
     1
290
     0
176
     1
290
     0
176
     1
290
     0
176
     1
290
     0
176
     1
 90
       50
176
     1
 40
0.0
176
     1
 40
1.0
176
     1
 90
        0
176
     1
 62
    18
420
        0
176
     1
 90
       50
176
     1
 90
        3
176
     1
 62
     5
420
      255
176
     1
290
     0
176
     1
 90
       50
176
     1
 90
       50
176
     1
 90
       50
176
     1
290
     0
176
     1
 90
       50
176
     1
 62
   256
176
     0
 40
1.0
176
     0
 90
        2
176
     1
  1
strokes_ogs.tif
176
     1
290
     0
176
     1
 40
1.0
176
     1
 40
1.0
176
     1
  0
VISUALSTYLE
  5
737
102
{ACAD_REACTORS
330
2E5
102
}
330
2E5
100
AcDbVisualStyle
  2
Shaded with edges
 70
    26
177
     3
291
     0
 70
    58
 90
        2
176
     1
 90
        2
176
     1
 90
        1
176
     1
 90
        2
176
     1
 40
0.6
176
     1
 40
30.0
176
     1
 62
     7
420
 16777215
176
     1
 90
        1
176
     1
 90
        2
176
     1
 62
     7
176
     1
 62
   257
176
     1
 90
        2
176
     1
 90
        1
176
     1
 40
1.0
176
     1
 90
        8
176
     1
 62
   257
176
     1
 40
1.0
176
     1
 90
        1
176
     1
 90
        6
176
     1
 90
        2
176
     1
 62
     7
176
     1
 90
        3
176
     1
 90
        0
176
     1
 90
        0
176
     1
290
     0
176
     1
 90
        5
176
     1
 40
0.0
176
     1
 90
        0
176
     1
290
     0
176
     1
290
     1
176
     1
290
     1
176
     1
290
     0
176
     1
290
     0
176
     1
290
     0
176
     1
290
     0
176
     1
290
     0
176
     1
290
     0
176
     1
 90
       50
176
     1
 40
0.0
176
     1
 40
1.0
176
     1
 90
        0
176
     1
 62
    18
420
        0
176
     1
 90
       50
176
     1
 90
        3
176
     1
 62
     5
420
      255
176
     1
290
     0
176
     1
 90
       50
176
     1
 90
       50
176
     1
 90
       50
176
     1
290
     0
176
     1
 90
       50
176
     1
 62
   256
176
     0
 40
1.0
176
     0
 90
        2
176
     1
  1
strokes_ogs.tif
176
     1
290
     0
176
     1
 40
1.0
176
     1
 40
1.0
176
     1
  0
VISUALSTYLE
  5
734
102
{ACAD_REACTORS
330
2E5
102
}
330
2E5
100
AcDbVisualStyle
  2
Shades of Gray
 70
    23
177
     3
291
     0
 70
    58
 90
        2
176
     1
 90
        2
176
     1
 90
        3
176
     1
 90
        0
176
     1
 40
0.6
176
     1
 40
30.0
176
     1
 62
     7
420
 16777215
176
     1
 90
        2
176
     1
 90
        2
176
     1
 62
     7
176
     1
 62
     7
176
     1
 90
        1
176
     1
 90
        1
176
     1
 40
40.0
176
     1
 90
        8
176
     1
 62
     7
176
     1
 40
1.0
176
     1
 90
        1
176
     1
 90
        6
176
     1
 90
        2
176
     1
 62
     7
176
     1
 90
        3
176
     1
 90
        0
176
     1
 90
        0
176
     1
290
     0
176
     1
 90
        1
176
     1
 40
0.0
176
     1
 90
        0
176
     1
290
     0
176
     1
290
     1
176
     1
290
     1
176
     1
290
     0
176
     1
290
     0
176
     1
290
     0
176
     1
290
     0
176
     1
290
     0
176
     1
290
     0
176
     1
 90
       50
176
     1
 40
0.0
176
     1
 40
1.0
176
     1
 90
        0
176
     1
 62
    18
420
        0
176
     1
 90
       50
176
     1
 90
        3
176
     1
 62
     5
420
      255
176
     1
290
     0
176
     1
 90
       50
176
     1
 90
       50
176
     1
 90
       50
176
     1
290
     0
176
     1
 90
       50
176
     1
 62
   256
176
     0
 40
1.0
176
     0
 90
        2
176
     1
  1
strokes_ogs.tif
176
     1
290
     0
176
     1
 40
1.0
176
     1
 40
1.0
176
     1
  0
VISUALSTYLE
  5
735
102
{ACAD_REACTORS
330
2E5
102
}
330
2E5
100
AcDbVisualStyle
  2
Sketchy
 70
    24
177
     3
291
     0
 70
    58
 90
        1
176
     1
 90
        2
176
     1
 90
        2
176
     1
 90
        0
176
     1
 40
0.6
176
     1
 40
30.0
176
     1
 62
     7
420
 16777215
176
     1
 90
        2
176
     1
 90
        2
176
     1
 62
     7
176
     1
 62
     7
176
     1
 90
        1
176
     1
 90
        1
176
     1
 40
40.0
176
     1
 90
       11
176
     1
 62
     7
176
     1
 40
1.0
176
     1
 90
        1
176
     1
 90
        6
176
     1
 90
        2
176
     1
 62
     7
176
     1
 90
        6
176
     1
 90
        0
176
     1
 90
        0
176
     1
290
     0
176
     1
 90
        1
176
     1
 40
0.0
176
     1
 90
        0
176
     1
290
     0
176
     1
290
     1
176
     1
290
     1
176
     1
290
     0
176
     1
290
     0
176
     1
290
     0
176
     1
290
     0
176
     1
290
     0
176
     1
290
     0
176
     1
 90
       50
176
     1
 40
0.0
176
     1
 40
1.0
176
     1
 90
        0
176
     1
 62
    18
420
        0
176
     1
 90
       50
176
     1
 90
        3
176
     1
 62
     5
420
      255
176
     1
290
     0
176
     1
 90
       50
176
     1
 90
       50
176
     1
 90
       50
176
     1
290
     0
176
     1
 90
       50
176
     1
 62
   256
176
     0
 40
1.0
176
     0
 90
        2
176
     1
  1
strokes_ogs.tif
176
     1
290
     0
176
     1
 40
1.0
176
     1
 40
1.0
176
     1
  0
VISUALSTYLE
  5
2F2
102
{ACAD_REACTORS
330
2E5
102
}
330
2E5
100
AcDbVisualStyle
  2
Thicken
 70
    13
177
     3
291
     1
 70
    58
 90
        2
176
     1
 90
        2
176
     1
 90
        0
176
     1
 90
        0
176
     1
 40
0.6
176
     1
 40
30.0
176
     1
 62
     7
420
 16777215
176
     1
 90
        1
176
     1
 90
        4
176
     1
 62
     7
176
     1
 62
   257
176
     1
 90
        1
176
     1
 90
        1
176
     1
 40
1.0
176
     1
 90
       12
176
     1
 62
     7
176
     1
 40
1.0
176
     1
 90
        1
176
     1
 90
        6
176
     1
 90
        2
176
     1
 62
     7
176
     1
 90
        5
176
     1
 90
        0
176
     1
 90
        0
176
     1
290
     0
176
     1
 90
        1
176
     1
 40
0.0
176
     1
 90
        0
176
     1
290
     0
176
     1
290
     1
176
     1
290
     1
176
     1
290
     0
176
     1
290
     0
176
     1
290
     0
176
     1
290
     0
176
     1
290
     0
176
     1
290
     0
176
     1
 90
       50
176
     1
 40
0.0
176
     1
 40
1.0
176
     1
 90
        0
176
     1
 62
    18
420
        0
176
     1
 90
       50
176
     1
 90
        3
176
     1
 62
     5
420
      255
176
     1
290
     0
176
     1
 90
       50
176
     1
 90
       50
176
     1
 90
       50
176
     1
290
     0
176
     1
 90
       50
176
     1
 62
   256
176
     0
 40
1.0
176
     0
 90
        2
176
     1
  1
strokes_ogs.tif
176
     1
290
     0
176
     1
 40
1.0
176
     1
 40
1.0
176
     1
  0
VISUALSTYLE
  5
732
102
{ACAD_REACTORS
330
2E5
102
}
330
2E5
100
AcDbVisualStyle
  2
Wireframe
 70
     5
177
     3
291
     0
 70
    58
 90
        0
176
     1
 90
        2
176
     1
 90
        0
176
     1
 90
        0
176
     1
 40
0.6
176
     1
 40
30.0
176
     1
 62
     7
420
 16777215
176
     1
 90
        1
176
     1
 90
        4
176
     1
 62
     7
176
     1
 62
   257
176
     1
 90
        1
176
     1
 90
        1
176
     1
 40
1.0
176
     1
 90
        0
176
     1
 62
   257
176
     1
 40
1.0
176
     1
 90
        1
176
     1
 90
        6
176
     1
 90
        2
176
     1
 62
     7
176
     1
 90
        3
176
     1
 90
        0
176
     1
 90
        0
176
     1
290
     0
176
     1
 90
        1
176
     1
 40
0.0
176
     1
 90
        0
176
     1
290
     0
176
     1
290
     1
176
     1
290
     1
176
     1
290
     0
176
     1
290
     0
176
     1
290
     0
176
     1
290
     0
176
     1
290
     0
176
     1
290
     0
176
     1
 90
       50
176
     1
 40
0.0
176
     1
 40
1.0
176
     1
 90
        0
176
     1
 62
    18
420
        0
176
     1
 90
       50
176
     1
 90
        3
176
     1
 62
     5
420
      255
176
     1
290
     0
176
     1
 90
       50
176
     1
 90
       50
176
     1
 90
       50
176
     1
290
     0
176
     1
 90
       50
176
     1
 62
   256
176
     0
 40
1.0
176
     0
 90
        2
176
     1
  1
strokes_ogs.tif
176
     1
290
     0
176
     1
 40
1.0
176
     1
 40
1.0
176
     1
  0
VISUALSTYLE
  5
736
102
{ACAD_REACTORS
330
2E5
102
}
330
2E5
100
AcDbVisualStyle
  2
X-Ray
 70
    25
177
     3
291
     0
 70
    58
 90
        2
176
     1
 90
        2
176
     1
 90
        1
176
     1
 90
        1
176
     1
 40
0.5
176
     1
 40
30.0
176
     1
 62
     7
420
 16777215
176
     1
 90
        1
176
     1
 90
        0
176
     1
 62
     7
176
     1
 62
   257
176
     1
 90
        1
176
     1
 90
        1
176
     1
 40
1.0
176
     1
 90
        8
176
     1
 62
     7
176
     1
 40
1.0
176
     1
 90
        1
176
     1
 90
        6
176
     1
 90
        2
176
     1
 62
     7
176
     1
 90
        3
176
     1
 90
        0
176
     1
 90
        0
176
     1
290
     0
176
     1
 90
       13
176
     1
 40
0.0
176
     1
 90
        0
176
     1
290
     0
176
     1
290
     1
176
     1
290
     1
176
     1
290
     0
176
     1
290
     0
176
     1
290
     0
176
     1
290
     0
176
     1
290
     0
176
     1
290
     0
176
     1
 90
       50
176
     1
 40
0.0
176
     1
 40
1.0
176
     1
 90
        0
176
     1
 62
    18
420
        0
176
     1
 90
       50
176
     1
 90
        3
176
     1
 62
     5
420
      255
176
     1
290
     0
176
     1
 90
       50
176
     1
 90
       50
176
     1
 90
       50
176
     1
290
     0
176
     1
 90
       50
176
     1
 62
   256
176
     0
 40
1.0
176
     0
 90
        2
176
     1
  1
strokes_ogs.tif
176
     1
290
     0
176
     1
 40
1.0
176
     1
 40
1.0
176
     1
  0
DICTIONARYVAR
  5
72D
102
{ACAD_REACTORS
330
729
102
}
330
729
100
DictionaryVariables
280
     0
  1
1:1
  0
DICTIONARYVAR
  5
72B
102
{ACAD_REACTORS
330
729
102
}
330
729
100
DictionaryVariables
280
     0
  1
STANDARD
  0
DICTIONARYVAR
  5
72A
102
{ACAD_REACTORS
330
729
102
}
330
729
100
DictionaryVariables
280
     0
  1
STANDARD
  0
DICTIONARYVAR
  5
898
102
{ACAD_REACTORS
330
729
102
}
330
729
100
DictionaryVariables
280
     0
  1
Imperial24
  0
DICTIONARYVAR
  5
899
102
{ACAD_REACTORS
330
729
102
}
330
729
100
DictionaryVariables
280
     0
  1
Imperial24
  0
DICTIONARYVAR
  5
72F
102
{ACAD_REACTORS
330
729
102
}
330
729
100
DictionaryVariables
280
     0
  1
1
  0
DICTIONARYVAR
  5
730
102
{ACAD_REACTORS
330
729
102
}
330
729
100
DictionaryVariables
280
     0
  1
15
  0
DICTIONARYVAR
  5
72E
102
{ACAD_REACTORS
330
729
102
}
330
729
100
DictionaryVariables
280
     0
  1
0
  0
DICTIONARYVAR
  5
72C
102
{ACAD_REACTORS
330
729
102
}
330
729
100
DictionaryVariables
280
     0
  1
0
  0
DICTIONARY
  5
391
102
{ACAD_REACTORS
330
386
102
}
330
386
100
AcDbDictionary
281
     1
  0
DICTIONARY
  5
89D
330
73F
100
AcDbDictionary
280
     1
281
     1
  3
ACAD_XREC_ROUNDTRIP
360
89E
  0
DICTIONARY
  5
2D6
330
2D5
100
AcDbDictionary
280
     1
281
     1
  3
BUMPTILE
360
2D8
  3
DIFFUSETILE
360
2D7
  3
OPACITYTILE
360
2DB
  3
REFLECTIONTILE
360
2DA
  3
REFRACTIONTILE
360
2DC
  3
SPECULARTILE
360
2D9
  0
DICTIONARY
  5
2CE
330
2CD
100
AcDbDictionary
280
     1
281
     1
  3
BUMPTILE
360
2D0
  3
DIFFUSETILE
360
2CF
  3
OPACITYTILE
360
2D3
  3
REFLECTIONTILE
360
2D2
  3
REFRACTIONTILE
360
2D4
  3
SPECULARTILE
360
2D1
  0
DICTIONARY
  5
2DE
330
2DD
100
AcDbDictionary
280
     1
281
     1
  3
BUMPTILE
360
2E0
  3
DIFFUSETILE
360
2DF
  3
OPACITYTILE
360
2E3
  3
REFLECTIONTILE
360
2E2
  3
REFRACTIONTILE
360
2E4
  3
SPECULARTILE
360
2E1
  0
DICTIONARY
  5
89B
330
73D
100
AcDbDictionary
280
     1
281
     1
  3
ACAD_XREC_ROUNDTRIP
360
89C
  0
DICTIONARY
  5
726
330
2F8
100
AcDbDictionary
280
     1
281
     1
  3
ACAD_ROUNDTRIP_2008_TABLESTYLE_CELLSTYLEMAP
360
89A
  0
XRECORD
  5
89E
102
{ACAD_REACTORS
330
89D
102
}
330
89D
100
AcDbXrecord
280
     1
102
DISPLAYNAME
  1
Imperial24
102
FLAGS
 90
        0
  0
XRECORD
  5
2D8
102
{ACAD_REACTORS
330
2D6
102
}
330
2D6
100
AcDbXrecord
280
     1
270
     1
271
     1
  0
XRECORD
  5
2D7
102
{ACAD_REACTORS
330
2D6
102
}
330
2D6
100
AcDbXrecord
280
     1
270
     1
271
     1
  0
XRECORD
  5
2DB
102
{ACAD_REACTORS
330
2D6
102
}
330
2D6
100
AcDbXrecord
280
     1
270
     1
271
     1
  0
XRECORD
  5
2DA
102
{ACAD_REACTORS
330
2D6
102
}
330
2D6
100
AcDbXrecord
280
     1
270
     1
271
     1
  0
XRECORD
  5
2DC
102
{ACAD_REACTORS
330
2D6
102
}
330
2D6
100
AcDbXrecord
280
     1
270
     1
271
     1
  0
XRECORD
  5
2D9
102
{ACAD_REACTORS
330
2D6
102
}
330
2D6
100
AcDbXrecord
280
     1
270
     1
271
     1
  0
XRECORD
  5
2D0
102
{ACAD_REACTORS
330
2CE
102
}
330
2CE
100
AcDbXrecord
280
     1
270
     1
271
     1
  0
XRECORD
  5
2CF
102
{ACAD_REACTORS
330
2CE
102
}
330
2CE
100
AcDbXrecord
280
     1
270
     1
271
     1
  0
XRECORD
  5
2D3
102
{ACAD_REACTORS
330
2CE
102
}
330
2CE
100
AcDbXrecord
280
     1
270
     1
271
     1
  0
XRECORD
  5
2D2
102
{ACAD_REACTORS
330
2CE
102
}
330
2CE
100
AcDbXrecord
280
     1
270
     1
271
     1
  0
XRECORD
  5
2D4
102
{ACAD_REACTORS
330
2CE
102
}
330
2CE
100
AcDbXrecord
280
     1
270
     1
271
     1
  0
XRECORD
  5
2D1
102
{ACAD_REACTORS
330
2CE
102
}
330
2CE
100
AcDbXrecord
280
     1
270
     1
271
     1
  0
XRECORD
  5
2E0
102
{ACAD_REACTORS
330
2DE
102
}
330
2DE
100
AcDbXrecord
280
     1
270
     1
271
     1
  0
XRECORD
  5
2DF
102
{ACAD_REACTORS
330
2DE
102
}
330
2DE
100
AcDbXrecord
280
     1
270
     1
271
     1
  0
XRECORD
  5
2E3
102
{ACAD_REACTORS
330
2DE
102
}
330
2DE
100
AcDbXrecord
280
     1
270
     1
271
     1
  0
XRECORD
  5
2E2
102
{ACAD_REACTORS
330
2DE
102
}
330
2DE
100
AcDbXrecord
280
     1
270
     1
271
     1
  0
XRECORD
  5
2E4
102
{ACAD_REACTORS
330
2DE
102
}
330
2DE
100
AcDbXrecord
280
     1
270
     1
271
     1
  0
XRECORD
  5
2E1
102
{ACAD_REACTORS
330
2DE
102
}
330
2DE
100
AcDbXrecord
280
     1
270
     1
271
     1
  0
XRECORD
  5
89C
102
{ACAD_REACTORS
330
89B
102
}
330
89B
100
AcDbXrecord
280
     1
102
DISPLAYNAME
  1
Imperial24
102
FLAGS
 90
        0
  0
CELLSTYLEMAP
  5
89A
102
{ACAD_REACTORS
330
726
102
}
330
726
100
AcDbCellStyleMap
 90
        3
300
CELLSTYLE
  1
TABLEFORMAT_BEGIN
 90
        5
170
     1
 91
        0
 92
    32768
 62
   257
 93
        1
300
CONTENTFORMAT
  1
CONTENTFORMAT_BEGIN
 90
        0
 91
        0
 92
      512
 93
        0
300

 40
0.0
140
1.0
 94
        5
 62
     0
340
9
144
0.25
309
CONTENTFORMAT_END
171
     0
 94
        0
309
TABLEFORMAT_END
  1
CELLSTYLE_BEGIN
 90
        1
 91
        1
300
_TITLE
309
CELLSTYLE_END
300
CELLSTYLE
  1
TABLEFORMAT_BEGIN
 90
        5
170
     1
 91
        0
 92
        0
 62
   257
 93
        1
300
CONTENTFORMAT
  1
CONTENTFORMAT_BEGIN
 90
        0
 91
        0
 92
      512
 93
        0
300

 40
0.0
140
1.0
 94
        5
 62
     0
340
9
144
0.18
309
CONTENTFORMAT_END
171
     0
 94
        0
309
TABLEFORMAT_END
  1
CELLSTYLE_BEGIN
 90
        2
 91
        1
300
_HEADER
309
CELLSTYLE_END
300
CELLSTYLE
  1
TABLEFORMAT_BEGIN
 90
        5
170
     1
 91
        0
 92
        0
 62
   257
 93
        1
300
CONTENTFORMAT
  1
CONTENTFORMAT_BEGIN
 90
        0
 91
        0
 92
      512
 93
        0
300

 40
0.0
140
1.0
 94
        2
 62
     0
340
9
144
0.18
309
CONTENTFORMAT_END
171
     0
 94
        0
309
TABLEFORMAT_END
  1
CELLSTYLE_BEGIN
 90
        3
 91
        2
300
_DATA
309
CELLSTYLE_END
  0
ENDSEC
  0
EOF
