  0
SECTION
  2
HEADER
  9
$ACADVER
  1
AC1027
  9
$ACADMAINTVER
 70
   125
  9
$DWGCODEPAGE
  3
ANSI_1250
  9
$LASTSAVEDBY
  1
jprorok
  9
$REQUIREDVERSIONS
160
                 0
  9
$INSBASE
 10
0.0
 20
0.0
 30
0.0
  9
$EXTMIN
 10
67.05862307496864
 20
13.97821183364522
 30
-0.0000000349181948
  9
$EXTMAX
 10
263.0309339152955
 20
375.8029681013401
 30
0.0000000814935746
  9
$LIMMIN
 10
0.0
 20
0.0
  9
$LIMMAX
 10
594.0
 20
420.0
  9
$ORTHOMODE
 70
     1
  9
$REGENMODE
 70
     1
  9
$FILLMODE
 70
     1
  9
$QTEXTMODE
 70
     0
  9
$MIRRTEXT
 70
     1
  9
$LTSCALE
 40
7.0
  9
$ATTMODE
 70
     1
  9
$TEXTSIZE
 40
0.2
  9
$TRACEWID
 40
0.05
  9
$TEXTSTYLE
  7
STANDARD
  9
$CLAYER
  8
SCHRAFF
  9
$CELTYPE
  6
BYLAYER
  9
$CECOLOR
 62
   256
  9
$CELTSCALE
 40
1.0
  9
$DISPSILH
 70
     0
  9
$DIMSCALE
 40
1.0
  9
$DIMASZ
 40
3.5
  9
$DIMEXO
 40
0.0
  9
$DIMDLI
 40
7.0
  9
$DIMRND
 40
0.01
  9
$DIMDLE
 40
0.0
  9
$DIMEXE
 40
1.8
  9
$DIMTP
 40
0.0
  9
$DIMTM
 40
0.0
  9
$DIMTXT
 40
3.5
  9
$DIMCEN
 40
3.0
  9
$DIMTSZ
 40
0.0
  9
$DIMTOL
 70
     0
  9
$DIMLIM
 70
     0
  9
$DIMTIH
 70
     0
  9
$DIMTOH
 70
     0
  9
$DIMSE1
 70
     0
  9
$DIMSE2
 70
     0
  9
$DIMTAD
 70
     1
  9
$DIMZIN
 70
     8
  9
$DIMBLK
  1

  9
$DIMASO
 70
     1
  9
$DIMSHO
 70
     1
  9
$DIMPOST
  1

  9
$DIMAPOST
  1

  9
$DIMALT
 70
     0
  9
$DIMALTD
 70
     2
  9
$DIMALTF
 40
25.4
  9
$DIMLFAC
 40
1.0
  9
$DIMTOFL
 70
     0
  9
$DIMTVP
 40
0.0
  9
$DIMTIX
 70
     1
  9
$DIMSOXD
 70
     0
  9
$DIMSAH
 70
     0
  9
$DIMBLK1
  1

  9
$DIMBLK2
  1

  9
$DIMSTYLE
  2
STANDARD
  9
$DIMCLRD
 70
   256
  9
$DIMCLRE
 70
   256
  9
$DIMCLRT
 70
   256
  9
$DIMTFAC
 40
1.0
  9
$DIMGAP
 40
1.5
  9
$DIMJUST
 70
     0
  9
$DIMSD1
 70
     0
  9
$DIMSD2
 70
     0
  9
$DIMTOLJ
 70
     1
  9
$DIMTZIN
 70
     8
  9
$DIMALTZ
 70
     8
  9
$DIMALTTZ
 70
     8
  9
$DIMUPT
 70
     0
  9
$DIMDEC
 70
     2
  9
$DIMTDEC
 70
     2
  9
$DIMALTU
 70
     2
  9
$DIMALTTD
 70
     2
  9
$DIMTXSTY
  7
BEMSTIL
  9
$DIMAUNIT
 70
     0
  9
$DIMADEC
 70
     0
  9
$DIMALTRND
 40
0.0
  9
$DIMAZIN
 70
     0
  9
$DIMDSEP
 70
    46
  9
$DIMATFIT
 70
     3
  9
$DIMFRAC
 70
     0
  9
$DIMLDRBLK
  1

  9
$DIMLUNIT
 70
     2
  9
$DIMLWD
 70
    -2
  9
$DIMLWE
 70
    -2
  9
$DIMTMOVE
 70
     2
  9
$DIMFXL
 40
1.0
  9
$DIMFXLON
 70
     0
  9
$DIMJOGANG
 40
0.7853981633974483
  9
$DIMTFILL
 70
     0
  9
$DIMTFILLCLR
 70
     0
  9
$DIMARCSYM
 70
     0
  9
$DIMLTYPE
  6

  9
$DIMLTEX1
  6

  9
$DIMLTEX2
  6

  9
$DIMTXTDIRECTION
 70
     0
  9
$LUNITS
 70
     2
  9
$LUPREC
 70
     2
  9
$SKETCHINC
 40
0.1
  9
$FILLETRAD
 40
10.0
  9
$AUNITS
 70
     0
  9
$AUPREC
 70
     0
  9
$MENU
  1
acad
  9
$ELEVATION
 40
0.0
  9
$PELEVATION
 40
0.0
  9
$THICKNESS
 40
0.0
  9
$LIMCHECK
 70
     0
  9
$CHAMFERA
 40
0.0
  9
$CHAMFERB
 40
0.0
  9
$CHAMFERC
 40
0.0
  9
$CHAMFERD
 40
0.0
  9
$SKPOLY
 70
     0
  9
$TDCREATE
 40
2450025.205231482
  9
$TDUCREATE
 40
2450025.163573264
  9
$TDUPDATE
 40
2458568.397048611
  9
$TDUUPDATE
 40
2458568.355381944
  9
$TDINDWG
 40
1.2035372454
  9
$TDUSRTIMER
 40
1.2035372454
  9
$USRTIMER
 70
     1
  9
$ANGBASE
 50
0.0
  9
$ANGDIR
 70
     0
  9
$PDMODE
 70
     0
  9
$PDSIZE
 40
0.0
  9
$PLINEWID
 40
0.0
  9
$SPLFRAME
 70
     0
  9
$SPLINETYPE
 70
     6
  9
$SPLINESEGS
 70
     8
  9
$HANDSEED
  5
D48
  9
$SURFTAB1
 70
     6
  9
$SURFTAB2
 70
     6
  9
$SURFTYPE
 70
     6
  9
$SURFU
 70
     6
  9
$SURFV
 70
     6
  9
$UCSBASE
  2

  9
$UCSNAME
  2

  9
$UCSORG
 10
0.0
 20
0.0
 30
0.0
  9
$UCSXDIR
 10
1.0
 20
0.0
 30
0.0
  9
$UCSYDIR
 10
0.0
 20
1.0
 30
0.0
  9
$UCSORTHOREF
  2

  9
$UCSORTHOVIEW
 70
     0
  9
$UCSORGTOP
 10
0.0
 20
0.0
 30
0.0
  9
$UCSORGBOTTOM
 10
0.0
 20
0.0
 30
0.0
  9
$UCSORGLEFT
 10
0.0
 20
0.0
 30
0.0
  9
$UCSORGRIGHT
 10
0.0
 20
0.0
 30
0.0
  9
$UCSORGFRONT
 10
0.0
 20
0.0
 30
0.0
  9
$UCSORGBACK
 10
0.0
 20
0.0
 30
0.0
  9
$PUCSBASE
  2

  9
$PUCSNAME
  2

  9
$PUCSORG
 10
0.0
 20
0.0
 30
0.0
  9
$PUCSXDIR
 10
1.0
 20
0.0
 30
0.0
  9
$PUCSYDIR
 10
0.0
 20
1.0
 30
0.0
  9
$PUCSORTHOREF
  2

  9
$PUCSORTHOVIEW
 70
     0
  9
$PUCSORGTOP
 10
0.0
 20
0.0
 30
0.0
  9
$PUCSORGBOTTOM
 10
0.0
 20
0.0
 30
0.0
  9
$PUCSORGLEFT
 10
0.0
 20
0.0
 30
0.0
  9
$PUCSORGRIGHT
 10
0.0
 20
0.0
 30
0.0
  9
$PUCSORGFRONT
 10
0.0
 20
0.0
 30
0.0
  9
$PUCSORGBACK
 10
0.0
 20
0.0
 30
0.0
  9
$USERI1
 70
     0
  9
$USERI2
 70
     0
  9
$USERI3
 70
     0
  9
$USERI4
 70
     0
  9
$USERI5
 70
     0
  9
$USERR1
 40
0.0
  9
$USERR2
 40
0.0
  9
$USERR3
 40
0.0
  9
$USERR4
 40
0.0
  9
$USERR5
 40
0.0
  9
$WORLDVIEW
 70
     1
  9
$SHADEDGE
 70
     3
  9
$SHADEDIF
 70
    70
  9
$TILEMODE
 70
     1
  9
$MAXACTVP
 70
    16
  9
$PINSBASE
 10
0.0
 20
0.0
 30
0.0
  9
$PLIMCHECK
 70
     0
  9
$PEXTMIN
 10
0.177597999999989
 20
1.95322999999999
 30
0.0
  9
$PEXTMAX
 10
286.11
 20
200.828
 30
0.0
  9
$PLIMMIN
 10
0.0
 20
0.0
  9
$PLIMMAX
 10
298.0
 20
210.0
  9
$UNITMODE
 70
     0
  9
$VISRETAIN
 70
     0
  9
$PLINEGEN
 70
     0
  9
$PSLTSCALE
 70
     0
  9
$TREEDEPTH
 70
  3020
  9
$CMLSTYLE
  2
STANDARD
  9
$CMLJUST
 70
     0
  9
$CMLSCALE
 40
1.0
  9
$PROXYGRAPHICS
 70
     1
  9
$MEASUREMENT
 70
     0
  9
$CELWEIGHT
370
    -1
  9
$ENDCAPS
280
     0
  9
$JOINSTYLE
280
     0
  9
$LWDISPLAY
290
     0
  9
$INSUNITS
 70
     0
  9
$HYPERLINKBASE
  1

  9
$STYLESHEET
  1
monochrome.ctb
  9
$XEDIT
290
     1
  9
$CEPSNTYPE
380
     0
  9
$PSTYLEMODE
290
     1
  9
$FINGERPRINTGUID
  2

  9
$VERSIONGUID
  2
{C21A6AFE-421A-6049-96F5-52AB1B8918AC}
  9
$EXTNAMES
290
     1
  9
$PSVPSCALE
 40
0.0
  9
$OLESTARTUP
290
     0
  9
$SORTENTS
280
   127
  9
$INDEXCTL
280
     0
  9
$HIDETEXT
280
     0
  9
$XCLIPFRAME
280
     2
  9
$HALOGAP
280
     0
  9
$OBSCOLOR
 70
   257
  9
$OBSLTYPE
280
     0
  9
$INTERSECTIONDISPLAY
280
     0
  9
$INTERSECTIONCOLOR
 70
   257
  9
$DIMASSOC
280
     1
  9
$PROJECTNAME
  1

  9
$CAMERADISPLAY
290
     0
  9
$LENSLENGTH
 40
50.0
  9
$CAMERAHEIGHT
 40
0.0
  9
$STEPSPERSEC
 40
2.0
  9
$STEPSIZE
 40
6.0
  9
$3DDWFPREC
 40
2.0
  9
$PSOLWIDTH
 40
0.25
  9
$PSOLHEIGHT
 40
4.0
  9
$LOFTANG1
 40
1.570796326794896
  9
$LOFTANG2
 40
1.570796326794896
  9
$LOFTMAG1
 40
0.0
  9
$LOFTMAG2
 40
0.0
  9
$LOFTPARAM
 70
     7
  9
$LOFTNORMALS
280
     1
  9
$LATITUDE
 40
37.795
  9
$LONGITUDE
 40
-122.394
  9
$NORTHDIRECTION
 40
0.0
  9
$TIMEZONE
 70
 -8000
  9
$LIGHTGLYPHDISPLAY
280
     1
  9
$TILEMODELIGHTSYNCH
280
     1
  9
$CMATERIAL
347
342
  9
$SOLIDHIST
280
     1
  9
$SHOWHIST
280
     1
  9
$DWFFRAME
280
     2
  9
$DGNFRAME
280
     0
  9
$REALWORLDSCALE
290
     1
  9
$INTERFERECOLOR
 62
     1
  9
$INTERFEREOBJVS
345
364
  9
$INTERFEREVPVS
346
361
  9
$CSHADOW
280
     0
  9
$SHADOWPLANELOCATION
 40
0.0
  0
ENDSEC
  0
SECTION
  2
CLASSES
  0
CLASS
  1
DICTIONARYVAR
  2
AcDbDictionaryVar
  3
ObjectDBX Classes
 90
        0
 91
        9
280
     0
281
     0
  0
CLASS
  1
IMAGE
  2
AcDbRasterImage
  3
ISM
 90
     2175
 91
        0
280
     0
281
     1
  0
CLASS
  1
IMAGEDEF_REACTOR
  2
AcDbRasterImageDefReactor
  3
ISM
 90
        1
 91
        0
280
     0
281
     0
  0
CLASS
  1
IMAGEDEF
  2
AcDbRasterImageDef
  3
ISM
 90
        0
 91
        0
280
     0
281
     0
  0
CLASS
  1
RASTERVARIABLES
  2
AcDbRasterVariables
  3
ISM
 90
        0
 91
        0
280
     0
281
     0
  0
CLASS
  1
ACDBDICTIONARYWDFLT
  2
AcDbDictionaryWithDefault
  3
ObjectDBX Classes
 90
        0
 91
        1
280
     0
281
     0
  0
CLASS
  1
MATERIAL
  2
AcDbMaterial
  3
ObjectDBX Classes
 90
     1153
 91
        3
280
     0
281
     0
  0
CLASS
  1
VISUALSTYLE
  2
AcDbVisualStyle
  3
ObjectDBX Classes
 90
     4095
 91
       26
280
     0
281
     0
  0
CLASS
  1
TABLESTYLE
  2
AcDbTableStyle
  3
ObjectDBX Classes
 90
     4095
 91
        1
280
     0
281
     0
  0
CLASS
  1
SCALE
  2
AcDbScale
  3
ObjectDBX Classes
 90
     1153
 91
       33
280
     0
281
     0
  0
CLASS
  1
MLEADERSTYLE
  2
AcDbMLeaderStyle
  3
ACDB_MLEADERSTYLE_CLASS
 90
     4095
 91
        1
280
     0
281
     0
  0
CLASS
  1
ACME_DOCUMENT
  2
AcMeDbDoc
  3
AcMeServices
 90
     1024
 91
        2
280
     0
281
     0
  0
CLASS
  1
AMGSETTINGSOBJ
  2
AmgSettingsObj
  3
"AcadM|Product Description: AutoCAD Mechanical|Company: Autodesk, Inc."
 90
     1024
 91
        2
280
     0
281
     0
  0
CLASS
  1
AMGOBJPROPCFG
  2
AmgObjPropCfg
  3
"AmgLay|Product Description: AutoCAD Mechanical|Company: Autodesk, Inc."
 90
     1024
 91
        1
280
     0
281
     0
  0
CLASS
  1
ACMESCOPE
  2
AcMeScope
  3
AcMeServices
 90
     1024
 91
        1
280
     0
281
     0
  0
CLASS
  1
ACMECOMMANDHISTORY
  2
AcMeCommandHistory
  3
AcMeServices
 90
     1024
 91
        1
280
     0
281
     0
  0
CLASS
  1
ACIMSYSVARMAN
  2
AcImSysVarManager
  3
AcMeServices
 90
     1024
 91
        3
280
     0
281
     0
  0
CLASS
  1
ACIMINTSYSVAR
  2
AcImIntSysVar
  3
AcMeServices
 90
     1024
 91
        2
280
     0
281
     0
  0
CLASS
  1
ACMEDRAWINGMAN
  2
AcMeDrawingMan
  3
AcMeServices
 90
     1024
 91
        0
280
     0
281
     0
  0
CLASS
  1
ACMEVIEW
  2
AcMeView
  3
AcMeServices
 90
     1024
 91
        0
280
     0
281
     0
  0
CLASS
  1
ACDBENTITYCACHE
  2
AcMeEntityCache
  3
AcMeServices
 90
     1024
 91
        1
280
     0
281
     0
  0
CLASS
  1
ACMESTATEMGR
  2
AcMeStateMgr
  3
AcMeServices
 90
     1024
 91
        1
280
     0
281
     0
  0
CLASS
  1
ACGREFMASTER
  2
AcGrefMaster
  3
AcAttribServices
 90
     1024
 91
        1
280
     0
281
     0
  0
CLASS
  1
AM_DRAWING_MGR
  2
AcDmDwgMgr
  3
AcMechDwgViewMgmt
 90
     1024
 91
        0
280
     0
281
     0
  0
CLASS
  1
AM_DWG_DOCUMENT
  2
AcDmDwgDocument
  3
AcMechDwgViewMgmt
 90
     1024
 91
        0
280
     0
281
     0
  0
CLASS
  1
AM_DWG_SHEET
  2
AcDmSheet
  3
AcMechDwgViewMgmt
 90
     1024
 91
        0
280
     0
281
     0
  0
CLASS
  1
AM_VIEWDIMPARMAP
  2
AcDmViewDimParMap
  3
AcMechDwgViewMgmt
 90
     1024
 91
        0
280
     0
281
     0
  0
CLASS
  1
AMDTINTERNALREACTOR
  2
AmdtInternalReactor
  3
AcMeServices
 90
     1024
 91
        0
280
     0
281
     0
  0
CLASS
  1
ACIMREALSYSVAR
  2
AcImRealSysVar
  3
AcMeServices
 90
     1024
 91
        0
280
     0
281
     0
  0
CLASS
  1
AM_DWGMGR_NAME
  2
AcDmDwgMgrName
  3
AcMechDwgViewMgmt
 90
     1024
 91
        0
280
     0
281
     0
  0
CLASS
  1
ACME_DATABASE
  2
AcMeDbDatabase
  3
AcMeServices
 90
     1024
 91
        1
280
     0
281
     0
  0
CLASS
  1
ACRFINSADJUSTERMGR
  2
AcRfInsAdjusterMgr
  3
AcMeServices
 90
     1024
 91
        1
280
     0
281
     0
  0
CLASS
  1
ACGREFACADMASTER
  2
AcGrefacadMaster
  3
AcGrefServices
 90
     1024
 91
        1
280
     0
281
     0
  0
CLASS
  1
AMDTMENUSTATEMGR
  2
AmdtMenuStateMgr
  3
McadcomServices
 90
     1024
 91
        1
280
     0
281
     0
  0
CLASS
  1
AMDTMCOMMENUSTATE
  2
AmdtMcomMenuState
  3
McadcomServices
 90
     1024
 91
        1
280
     0
281
     0
  0
CLASS
  1
AMIMASTER
  2
AmiMaster
  3
AmiServices
 90
     1024
 91
        1
280
     0
281
     0
  0
CLASS
  1
MAPIAMMOUDLE
  2
MApiAmModule
  3
MApiAmServices
 90
     1024
 91
        1
280
     0
281
     0
  0
CLASS
  1
ACIMSTRSYSVAR
  2
AcImStrSysVar
  3
AcMeServices
 90
     1024
 91
        5
280
     0
281
     0
  0
CLASS
  1
AMDTADMENUSTATE
  2
AmdtAdMenuState
  3
DesignerServices
 90
     1024
 91
        0
280
     0
281
     0
  0
CLASS
  1
ADAPPL
  2
AcAdAppl
  3
DesignerAssemblies
 90
     1024
 91
        0
280
     0
281
     0
  0
CLASS
  1
DEPMGR
  2
AcAdDepMgr
  3
DesignerAssemblies
 90
     1024
 91
        0
280
     0
281
     0
  0
CLASS
  1
PARAMMGR
  2
AcAdParamMgr
  3
DesignerAssemblies
 90
     1024
 91
        0
280
     0
281
     0
  0
CLASS
  1
PARAMSCOPE
  2
AcAdParamScope
  3
DesignerAssemblies
 90
     1024
 91
        0
280
     0
281
     0
  0
CLASS
  1
NAMEDAPPL
  2
AcAdNamedAppl
  3
DesignerAssemblies
 90
     1024
 91
        0
280
     0
281
     0
  0
CLASS
  1
AMDTDMMENUSTATE
  2
AmdtDmMenuState
  3
AcMechDwgViewMgmt
 90
     1024
 91
        0
280
     0
281
     0
  0
CLASS
  1
AMDTAMMENUSTATE
  2
AmdtAmMenuState
  3
DesignerAssemblies
 90
     1024
 91
        1
280
     0
281
     0
  0
CLASS
  1
ACAMPROJECT
  2
AcAmProject
  3
DesignerAssemblies
 90
     1024
 91
        1
280
     0
281
     0
  0
CLASS
  1
ACAMGRCOMPDEF
  2
AcAmGrCompDef
  3
DesignerAssemblies
 90
     1024
 91
        1
280
     0
281
     0
  0
CLASS
  1
ACAMCOMPDEF
  2
AcAmCompDef
  3
DesignerAssemblies
 90
     1024
 91
        1
280
     0
281
     0
  0
CLASS
  1
ACAMCOMPDEFMGR
  2
AcAmCompDefMgr
  3
DesignerAssemblies
 90
     1024
 91
        1
280
     0
281
     0
  0
CLASS
  1
AMCONTEXTMGR
  2
AcAmContextMgr
  3
DesignerAssemblies
 90
     1024
 91
        1
280
     0
281
     0
  0
CLASS
  1
ACAMCONTEXTMODELER
  2
AcAmContextModeler
  3
DesignerAssemblies
 90
     1024
 91
        1
280
     0
281
     0
  0
CLASS
  1
ACMDATADICTIONARY
  2
AcmDataDictionary
  3
"AcmSymBB|Product Description: AutoCAD Mechanical|Company: Autodesk, Inc."
 90
     1024
 91
        1
280
     0
281
     0
  0
CLASS
  1
CATALOGSTATE
  2
AcAmCatalogState
  3
DesignerAssemblies
 90
     1024
 91
        0
280
     0
281
     0
  0
CLASS
  1
ACAMGRCOMPDEFSET
  2
AcAmGrCompDefSet
  3
DesignerAssemblies
 90
     1024
 91
        1
280
     0
281
     0
  0
CLASS
  1
AMDTBROWSERDBTAB
  2
AmdtBrowserDbTab
  3
McadcomServices
 90
     1024
 91
        1
280
     0
281
     0
  0
CLASS
  1
CBROWSERAPPOBJECT
  2
CBrowserAppObject
  3
McadcomServices
 90
     1024
 91
        2
280
     0
281
     0
  0
CLASS
  1
DM_PLACEHOLDER
  2
AcDmSelsetPlaceholder
  3
McadcomServices
 90
     1024
 91
        1
280
     0
281
     0
  0
CLASS
  1
ACMSTANDARDANSI
  2
AcmStandardANSI
  3
"Amdt_StdImp|Product Description: AutoCAD Mechanical|Company: Autodesk, Inc."
 90
     1024
 91
        1
280
     0
281
     0
  0
CLASS
  1
ACMSURFSTANDARDANSI
  2
AcmSurfTextStdANSI
  3
"Amdt_StdImp|Product Description: AutoCAD Mechanical|Company: Autodesk, Inc."
 90
     1024
 91
        1
280
     0
281
     0
  0
CLASS
  1
ACMFCFSTANDARDANSI
  2
AcmFCFStdANSI
  3
"Amdt_StdImp|Product Description: AutoCAD Mechanical|Company: Autodesk, Inc."
 90
     1024
 91
        1
280
     0
281
     0
  0
CLASS
  1
ACMWELDSTANDARDANSI
  2
AcmWeldingStdANSI
  3
"Amdt_StdImp|Product Description: AutoCAD Mechanical|Company: Autodesk, Inc."
 90
     1024
 91
        1
280
     0
281
     0
  0
CLASS
  1
ACMIDSTANDARDANSI
  2
AcmIdStdANSI
  3
"Amdt_StdImp|Product Description: AutoCAD Mechanical|Company: Autodesk, Inc."
 90
     1024
 91
        1
280
     0
281
     0
  0
CLASS
  1
ACMDATUMSTANDARDANSI
  2
AcmDatumStdANSI
  3
"Amdt_StdImp|Product Description: AutoCAD Mechanical|Company: Autodesk, Inc."
 90
     1024
 91
        1
280
     0
281
     0
  0
CLASS
  1
ACMBOMSTANDARDANSI
  2
AcmBOMStdANSI
  3
"Amdt_StdImp|Product Description: AutoCAD Mechanical|Company: Autodesk, Inc."
 90
     1024
 91
        1
280
     0
281
     0
  0
CLASS
  1
ACMDETAILSTANDARDANSI
  2
AmdtDetailSymStdANSI
  3
"Amdt_StdImp|Product Description: AutoCAD Mechanical|Company: Autodesk, Inc."
 90
     1024
 91
        1
280
     0
281
     0
  0
CLASS
  1
ACMSECTIONSTANDARDANSI
  2
AmdtSectionSymStdANSI
  3
"Amdt_StdImp|Product Description: AutoCAD Mechanical|Company: Autodesk, Inc."
 90
     1024
 91
        1
280
     0
281
     0
  0
CLASS
  1
ACMCENTERLINESTANDARDANSI
  2
AmdtCenterLineStdANSI
  3
"Amdt_StdImp|Product Description: AutoCAD Mechanical|Company: Autodesk, Inc."
 90
     1024
 91
        1
280
     0
281
     0
  0
CLASS
  1
ACMTHREADLINESTANDARDANSI
  2
AmdtThreadLineStdANSI
  3
"Amdt_StdImp|Product Description: AutoCAD Mechanical|Company: Autodesk, Inc."
 90
     1024
 91
        1
280
     0
281
     0
  0
CLASS
  1
ACMNOTESTANDARDANSI
  2
AmdtNoteStdANSI
  3
"Amdt_StdImp|Product Description: AutoCAD Mechanical|Company: Autodesk, Inc."
 90
     1024
 91
        1
280
     0
281
     0
  0
CLASS
  1
ACMTAPERSTANDARDANSI
  2
AcmTaperStdANSI
  3
"Amdt_StdImp|Product Description: AutoCAD Mechanical|Company: Autodesk, Inc."
 90
     1024
 91
        1
280
     0
281
     0
  0
CLASS
  1
ACMANOOTATIONVIEWSTANDARDANSI
  2
AmdtAnViewStdANSI
  3
"Amdt_StdImp|Product Description: AutoCAD Mechanical|Company: Autodesk, Inc."
 90
     1024
 91
        1
280
     0
281
     0
  0
CLASS
  1
ACAMGLAYSTD
  2
AcAmgLayStd
  3
"AmgLay|Product Description: AutoCAD Mechanical|Company: Autodesk, Inc."
 90
     1024
 91
        1
280
     0
281
     0
  0
CLASS
  1
ACAMGDIMSTD
  2
AcAmgDimStd
  3
"AmgDim|Product Description: AutoCAD Mechanical|Company: Autodesk, Inc."
 90
     1024
 91
        1
280
     0
281
     0
  0
CLASS
  1
ACAMGHOLECHARTSTDANSI
  2
AcAmgHoleChartStdANSI
  3
AmgDim|Product Description: AutoCAD Mechanical|Company: Autodesk, Inc.
 90
     1024
 91
        1
280
     0
281
     0
  0
CLASS
  1
ACAMGTITLESTD
  2
AcAmgTitleStd
  3
"AmgTitle|Product Description: AutoCAD Mechanical|Company: Autodesk, Inc."
 90
     1024
 91
        1
280
     0
281
     0
  0
CLASS
  1
AMDTNOTETEMPLATEDB
  2
AmdtNoteTemplateDB
  3
AcmSymBB|Product Description: AutoCAD Mechanical|Company: Autodesk, Inc.
 90
     1024
 91
        7
280
     0
281
     0
  0
CLASS
  1
ACAMGFILTERDAT
  2
AcAmgFilterDat
  3
"AcadM|Product Description: AutoCAD Mechanical|Company: Autodesk, Inc."
 90
     1024
 91
        0
280
     0
281
     0
  0
CLASS
  1
AEC_REFEDIT_STATUS_TRACKER
  2
AecDbRefEditStatusTracker
  3
AecArchBase70|Product Desc: Autodesk Architectural Desktop 2007 |Company: Autodesk,Inc. |WEB Address: www.autodesk.com
 90
      129
 91
        0
280
     0
281
     0
  0
CLASS
  1
NPOCOLLECTION
  2
AcDbImpNonPersistentObjectsCollection
  3
ObjectDBX Classes
 90
     1153
 91
        1
280
     0
281
     0
  0
CLASS
  1
SORTENTSTABLE
  2
AcDbSortentsTable
  3
ObjectDBX Classes
 90
        0
 91
        3
280
     0
281
     0
  0
CLASS
  1
CELLSTYLEMAP
  2
AcDbCellStyleMap
  3
ObjectDBX Classes
 90
     1152
 91
        1
280
     0
281
     0
  0
CLASS
  1
ACDBSECTIONVIEWSTYLE
  2
AcDbSectionViewStyle
  3
ObjectDBX Classes
 90
     1025
 91
        2
280
     0
281
     0
  0
CLASS
  1
ACDBDETAILVIEWSTYLE
  2
AcDbDetailViewStyle
  3
ObjectDBX Classes
 90
     1025
 91
        2
280
     0
281
     0
  0
CLASS
  1
EXACXREFPANELOBJECT
  2
ExAcXREFPanelObject
  3
EXAC_ESW
 90
     1025
 91
        1
280
     0
281
     0
  0
CLASS
  1
ACMSECTIONSTANDARDCUSTOM
  2
AmdtSectionSymStdCustom
  3
"Amdt_StdImp|Product Description: AutoCAD Mechanical|Company: Autodesk, Inc."
 90
     1024
 91
        1
280
     0
281
     0
  0
CLASS
  1
ACMDETAILTANDARDCUSTOM
  2
AmdtDetailSymStdCustom
  3
"Amdt_StdImp|Product Description: AutoCAD Mechanical|Company: Autodesk, Inc."
 90
     1024
 91
        1
280
     0
281
     0
  0
CLASS
  1
FIELD
  2
AcDbField
  3
ObjectDBX Classes
 90
     1152
 91
        4
280
     0
281
     0
  0
CLASS
  1
FIELDLIST
  2
AcDbFieldList
  3
ObjectDBX Classes
 90
     1152
 91
        1
280
     0
281
     0
  0
CLASS
  1
CAMSSTRUCTBTNSTATE
  2
StructBtnState
  3
DesignerAssemblies
 90
     1024
 91
        1
280
     0
281
     0
  0
ENDSEC
  0
SECTION
  2
TABLES
  0
TABLE
  2
VPORT
  5
336
330
0
100
AcDbSymbolTable
 70
     1
1001
ACAD
1000
DbSaveVer
1071
        8
  0
VPORT
  5
337
330
336
100
AcDbSymbolTableRecord
100
AcDbViewportTableRecord
  2
*Active
 70
     0
 10
0.0
 20
0.0
 11
1.0
 21
1.0
 12
147.2891952569689
 22
192.1008811827043
 13
0.0
 23
0.0
 14
1.0
 24
1.0
 15
20.0
 25
20.0
 16
0.0
 26
0.0
 36
1.0
 17
0.0
 27
0.0
 37
0.0
 40
582.0298821119317
 41
2.358195211786371
 42
50.0
 43
0.0
 44
0.0
 50
0.0
 51
0.0
 71
     0
 72
   100
 73
     1
 74
     1
 75
     0
 76
     0
 77
     0
 78
     0
281
     0
 65
     1
110
0.0
120
0.0
130
0.0
111
1.0
121
0.0
131
0.0
112
0.0
122
1.0
132
0.0
 79
     0
146
0.0
348
360
 60
     3
 61
     5
292
     1
282
     1
141
0.0
142
0.0
 63
   250
421
  3355443
1001
ACAD_NAV_VCDISPLAY
1070
     3
  0
ENDTAB
  0
TABLE
  2
LTYPE
  5
331
330
0
100
AcDbSymbolTable
 70
    16
  0
LTYPE
  5
332
330
331
100
AcDbSymbolTableRecord
100
AcDbLinetypeTableRecord
  2
BYBLOCK
 70
     0
  3

 72
    65
 73
     0
 40
0.0
  0
LTYPE
  5
333
330
331
100
AcDbSymbolTableRecord
100
AcDbLinetypeTableRecord
  2
BYLAYER
 70
     0
  3

 72
    65
 73
     0
 40
0.0
  0
LTYPE
  5
15
330
331
100
AcDbSymbolTableRecord
100
AcDbLinetypeTableRecord
  2
CONTINUOUS
 70
     0
  3
Solid line
 72
    65
 73
     0
 40
0.0
  0
LTYPE
  5
C
330
331
100
AcDbSymbolTableRecord
100
AcDbLinetypeTableRecord
  2
AUSGEZOGEN
 70
     0
  3
Ausgezogene Linie
 72
    65
 73
     0
 40
0.0
  0
LTYPE
  5
8
330
331
100
AcDbSymbolTableRecord
100
AcDbLinetypeTableRecord
  2
STRICHPUNKT
 70
     0
  3
__ . __ . __ . __ . __ . __ . __ . __ . __ . __
 72
    65
 73
     4
 40
1.0
 49
0.5
 74
     0
 49
-0.25
 74
     0
 49
0.0
 74
     0
 49
-0.25
 74
     0
  0
LTYPE
  5
C7
330
331
100
AcDbSymbolTableRecord
100
AcDbLinetypeTableRecord
  2
VERDECKT
 70
     0
  3
__ __ __ __ __ __ __ __ __ __ __ __ __ __ __ __
 72
    65
 73
     2
 40
0.375
 49
0.25
 74
     0
 49
-0.125
 74
     0
  0
LTYPE
  5
1CC
330
331
100
AcDbSymbolTableRecord
100
AcDbLinetypeTableRecord
  2
AXES
 70
     0
  3
____ _ ____ _ ____ _ ____ _ ____ _ ____ _ ____ 
 72
    65
 73
     4
 40
2.0
 49
1.25
 74
     0
 49
-0.25
 74
     0
 49
0.25
 74
     0
 49
-0.25
 74
     0
  0
LTYPE
  5
1D9
330
331
100
AcDbSymbolTableRecord
100
AcDbLinetypeTableRecord
  2
CACHE
 70
     0
  3
__ __ __ __ __ __ __ __ __ __ __ __ __ __ __ __
 72
    65
 73
     2
 40
0.375
 49
0.25
 74
     0
 49
-0.125
 74
     0
  0
LTYPE
  5
3A0
330
331
100
AcDbSymbolTableRecord
100
AcDbLinetypeTableRecord
  2
Amconstr
 70
     0
  3
_______________________
 72
    65
 73
     2
 40
9999.0
 49
9999.0
 74
     0
 49
0.0
 74
     0
  0
LTYPE
  5
3D3
330
331
100
AcDbSymbolTableRecord
100
AcDbLinetypeTableRecord
  2
HIDDEN
 70
     0
  3
Skrytá __ __ __ __ __ __ __ __ __ __ __ __ __ __
 72
    65
 73
     2
 40
0.375
 49
0.25
 74
     0
 49
-0.125
 74
     0
  0
LTYPE
  5
3D4
330
331
100
AcDbSymbolTableRecord
100
AcDbLinetypeTableRecord
  2
PHANTOM2
 70
     0
  3
Sdružená (.5x) ___ _ _ ___ _ _ ___ _ _ ___ _ _
 72
    65
 73
     6
 40
1.25
 49
0.625
 74
     0
 49
-0.125
 74
     0
 49
0.125
 74
     0
 49
-0.125
 74
     0
 49
0.125
 74
     0
 49
-0.125
 74
     0
  0
LTYPE
  5
3D5
330
331
100
AcDbSymbolTableRecord
100
AcDbLinetypeTableRecord
  2
CENTER
 70
     0
  3
Středová ____ _ ____ _ ____ _ ____ _ ____ _ ____
 72
    65
 73
     4
 40
2.0
 49
1.25
 74
     0
 49
-0.25
 74
     0
 49
0.25
 74
     0
 49
-0.25
 74
     0
  0
LTYPE
  5
425
330
331
100
AcDbSymbolTableRecord
100
AcDbLinetypeTableRecord
  2
CENTER2
 70
     0
  3
Center (.5x) ___ _ ___ _ ___ _ ___ _ ___ _ ___
 72
    65
 73
     4
 40
1.125
 49
0.75
 74
     0
 49
-0.125
 74
     0
 49
0.125
 74
     0
 49
-0.125
 74
     0
  0
LTYPE
  5
426
330
331
100
AcDbSymbolTableRecord
100
AcDbLinetypeTableRecord
  2
HIDDEN2
 70
     0
  3
Hidden (.5x) _ _ _ _ _ _ _ _ _ _ _ _ _ _ _ _ _
 72
    65
 73
     2
 40
0.1875
 49
0.125
 74
     0
 49
-0.0625
 74
     0
  0
LTYPE
  5
427
330
331
100
AcDbSymbolTableRecord
100
AcDbLinetypeTableRecord
  2
Amzigzag2
 70
     0
  3
/\/-/\/-/\/-/\/-/\/-/\/
 72
    65
 73
     2
 40
0.4401
 49
0.0001
 74
     4
 75
   136
340
3A4
 46
0.0016
 50
0.0
 44
0.0
 45
0.0
 49
-0.4400000000000001
 74
     0
  0
LTYPE
  5
429
330
331
100
AcDbSymbolTableRecord
100
AcDbLinetypeTableRecord
  2
ACANSTGB
 70
     0
  3
__ . . __ . .
 72
    65
 73
     6
 40
0.35433070866
 49
0.15748031496
 74
     0
 49
-0.03937007874
 74
     0
 49
0.03937007874
 74
     0
 49
-0.03937007874
 74
     0
 49
0.03937007874
 74
     0
 49
-0.03937007874
 74
     0
  0
LTYPE
  5
42A
330
331
100
AcDbSymbolTableRecord
100
AcDbLinetypeTableRecord
  2
ACANSTGL
 70
     0
  3
_ _ _ _ _
 72
    65
 73
     2
 40
0.11811023622
 49
0.07874015748
 74
     0
 49
-0.03937007874
 74
     0
  0
ENDTAB
  0
TABLE
  2
LAYER
  5
32E
102
{ACAD_XDICTIONARY
360
5F1
102
}
330
0
100
AcDbSymbolTable
 70
    18
  0
LAYER
  5
14
102
{ACAD_XDICTIONARY
360
95A
102
}
330
32E
100
AcDbSymbolTableRecord
100
AcDbLayerTableRecord
  2
0
 70
     0
 62
     7
  6
CONTINUOUS
370
    -3
390
5
347
352
348
0
  0
LAYER
  5
B
102
{ACAD_XDICTIONARY
360
95C
102
}
330
32E
100
AcDbSymbolTableRecord
100
AcDbLayerTableRecord
  2
SICHTBAR
 70
     0
 62
     7
  6
AUSGEZOGEN
370
    -3
390
5
347
352
348
0
  0
LAYER
  5
5E
102
{ACAD_XDICTIONARY
360
95E
102
}
330
32E
100
AcDbSymbolTableRecord
100
AcDbLayerTableRecord
  2
BEMASS
 70
     0
 62
     3
  6
AUSGEZOGEN
370
    -3
390
5
347
352
348
0
  0
LAYER
  5
243
102
{ACAD_XDICTIONARY
360
960
102
}
330
32E
100
AcDbSymbolTableRecord
100
AcDbLayerTableRecord
  2
TEXT25
 70
     0
 62
     3
  6
AUSGEZOGEN
370
    -3
390
5
347
352
348
0
  0
LAYER
  5
90
102
{ACAD_XDICTIONARY
360
962
102
}
330
32E
100
AcDbSymbolTableRecord
100
AcDbLayerTableRecord
  2
DUENN
 70
     0
 62
     4
  6
AUSGEZOGEN
370
    -3
390
5
347
352
348
0
  0
LAYER
  5
4
102
{ACAD_XDICTIONARY
360
964
102
}
330
32E
100
AcDbSymbolTableRecord
100
AcDbLayerTableRecord
  2
MITTE
 70
     0
 62
     1
  6
STRICHPUNKT
370
    -3
390
5
347
352
348
0
  0
LAYER
  5
C6
102
{ACAD_XDICTIONARY
360
966
102
}
330
32E
100
AcDbSymbolTableRecord
100
AcDbLayerTableRecord
  2
VERDECKT
 70
     0
 62
     2
  6
VERDECKT
370
    -3
390
5
347
352
348
0
  0
LAYER
  5
240
102
{ACAD_XDICTIONARY
360
968
102
}
330
32E
100
AcDbSymbolTableRecord
100
AcDbLayerTableRecord
  2
TEXT35
 70
     0
 62
    12
  6
AUSGEZOGEN
370
    -3
390
5
347
352
348
0
  0
LAYER
  5
E
102
{ACAD_XDICTIONARY
360
96A
102
}
330
32E
100
AcDbSymbolTableRecord
100
AcDbLayerTableRecord
  2
TEXT50
 70
     0
 62
     7
  6
AUSGEZOGEN
370
    -3
390
5
347
352
348
0
  0
LAYER
  5
11
102
{ACAD_XDICTIONARY
360
96C
102
}
330
32E
100
AcDbSymbolTableRecord
100
AcDbLayerTableRecord
  2
SCHRAFF
 70
     0
 62
     6
  6
AUSGEZOGEN
370
    -3
390
5
347
352
348
0
  0
LAYER
  5
7A
330
32E
100
AcDbSymbolTableRecord
100
AcDbLayerTableRecord
  2
DEFPOINTS
 70
     0
 62
     7
  6
CONTINUOUS
290
     0
370
    -3
390
5
347
352
348
0
  0
LAYER
  5
329
102
{ACAD_XDICTIONARY
360
96E
102
}
330
32E
100
AcDbSymbolTableRecord
100
AcDbLayerTableRecord
  2
AFEN
 70
     0
 62
     7
  6
CONTINUOUS
370
    -3
390
5
347
352
348
0
  0
LAYER
  5
1F6
102
{ACAD_XDICTIONARY
360
970
102
}
330
32E
100
AcDbSymbolTableRecord
100
AcDbLayerTableRecord
  2
KOPF
 70
     0
 62
     9
  6
AUSGEZOGEN
370
    -3
390
5
347
352
348
0
  0
LAYER
  5
1F3
102
{ACAD_XDICTIONARY
360
974
102
}
330
32E
100
AcDbSymbolTableRecord
100
AcDbLayerTableRecord
  2
GAIN_ZRA
 70
     0
 62
     7
  6
CONTINUOUS
370
    -3
390
5
347
352
348
0
  0
LAYER
  5
1CB
102
{ACAD_XDICTIONARY
360
976
102
}
330
32E
100
AcDbSymbolTableRecord
100
AcDbLayerTableRecord
  2
AXE
 70
     0
 62
     1
  6
AXES
370
    -3
390
5
347
352
348
0
  0
LAYER
  5
1D8
102
{ACAD_XDICTIONARY
360
978
102
}
330
32E
100
AcDbSymbolTableRecord
100
AcDbLayerTableRecord
  2
HIDDEN
 70
     0
 62
    10
  6
CACHE
370
    -3
390
5
347
352
348
0
  0
LAYER
  5
1CE
102
{ACAD_XDICTIONARY
360
97A
102
}
330
32E
100
AcDbSymbolTableRecord
100
AcDbLayerTableRecord
  2
FICTIF
 70
     0
 62
     1
  6
CONTINUOUS
370
    -3
390
5
347
352
348
0
  0
LAYER
  5
438
102
{ACAD_XDICTIONARY
360
439
102
}
330
32E
100
AcDbSymbolTableRecord
100
AcDbLayerTableRecord
  2
Sperrlayer
 70
     0
 62
     7
  6
CONTINUOUS
370
    50
390
5
347
352
348
0
  0
ENDTAB
  0
TABLE
  2
STYLE
  5
32F
330
0
100
AcDbSymbolTable
 70
     9
  0
STYLE
  5
5F
330
32F
100
AcDbSymbolTableRecord
100
AcDbTextStyleTableRecord
  2
STANDARD
 70
     0
 40
0.0
 41
0.8
 50
0.0
 71
     0
 42
0.2
  3
simplex.shx
  4

  0
STYLE
  5
71
330
32F
100
AcDbSymbolTableRecord
100
AcDbTextStyleTableRecord
  2
BEMSTIL
 70
     0
 40
0.0
 41
0.8
 50
0.0
 71
     0
 42
3.5
  3
simplex.shx
  4

  0
STYLE
  5
241
330
32F
100
AcDbSymbolTableRecord
100
AcDbTextStyleTableRecord
  2
TEXT35
 70
     0
 40
3.5
 41
0.8
 50
0.0
 71
     0
 42
3.5
  3
din
  4

  0
STYLE
  5
244
330
32F
100
AcDbSymbolTableRecord
100
AcDbTextStyleTableRecord
  2
TEXT20
 70
     0
 40
2.0
 41
0.8
 50
0.0
 71
     0
 42
3.5
  3
DIN.shx
  4

  0
STYLE
  5
1FB
330
32F
100
AcDbSymbolTableRecord
100
AcDbTextStyleTableRecord
  2
TEXT25
 70
     0
 40
2.5
 41
0.8
 50
0.0
 71
     0
 42
2.5
  3
DIN.shx
  4

  0
STYLE
  5
F
330
32F
100
AcDbSymbolTableRecord
100
AcDbTextStyleTableRecord
  2
TEXT50
 70
     0
 40
5.0
 41
0.8
 50
0.0
 71
     0
 42
5.0
  3
isocp3.shx
  4

  0
STYLE
  5
3A4
330
32F
100
AcDbSymbolTableRecord
100
AcDbTextStyleTableRecord
  2

 70
     1
 40
0.0
 41
1.0
 50
0.0
 71
     0
 42
0.2
  3
genltshp.shx
  4

  0
STYLE
  5
428
330
32F
100
AcDbSymbolTableRecord
100
AcDbTextStyleTableRecord
  2
ACANSGDT
 70
     0
 40
0.0
 41
1.0
 50
0.0
 71
     0
 42
0.2
  3
amgdt.shx
  4

  0
STYLE
  5
B95
330
32F
100
AcDbSymbolTableRecord
100
AcDbTextStyleTableRecord
  2
ACANSTS
 70
     0
 40
0.0
 41
1.0
 50
0.0
 71
     0
 42
0.2
  3
romans.shx
  4

  0
ENDTAB
  0
TABLE
  2
VIEW
  5
334
330
0
100
AcDbSymbolTable
 70
     0
  0
ENDTAB
  0
TABLE
  2
UCS
  5
335
330
0
100
AcDbSymbolTable
 70
     0
  0
ENDTAB
  0
TABLE
  2
APPID
  5
338
330
0
100
AcDbSymbolTable
 70
    21
  0
APPID
  5
33
330
338
100
AcDbSymbolTableRecord
100
AcDbRegAppTableRecord
  2
ACAD
 70
     0
  0
APPID
  5
1C0
330
338
100
AcDbSymbolTableRecord
100
AcDbRegAppTableRecord
  2
ECLFRAIS7
 70
     0
  0
APPID
  5
3A8
330
338
100
AcDbSymbolTableRecord
100
AcDbRegAppTableRecord
  2
MCAD_NO_VIS
 70
     0
  0
APPID
  5
3A9
330
338
100
AcDbSymbolTableRecord
100
AcDbRegAppTableRecord
  2
ACAD_TEMP_GRAPHIC
 70
     0
  0
APPID
  5
3D7
330
338
100
AcDbSymbolTableRecord
100
AcDbRegAppTableRecord
  2
AD_DRAW
 70
     0
  0
APPID
  5
3DA
330
338
100
AcDbSymbolTableRecord
100
AcDbRegAppTableRecord
  2
ACATTRIBSERVICES
 70
     0
  0
APPID
  5
3FA
330
338
100
AcDbSymbolTableRecord
100
AcDbRegAppTableRecord
  2
DESIGNERASSEMBLIES
 70
     0
  0
APPID
  5
400
330
338
100
AcDbSymbolTableRecord
100
AcDbRegAppTableRecord
  2
ACADM_DIM_EDIT
 70
     0
  0
APPID
  5
401
330
338
100
AcDbSymbolTableRecord
100
AcDbRegAppTableRecord
  2
AMDT_DM_ADJ
 70
     0
  0
APPID
  5
417
330
338
100
AcDbSymbolTableRecord
100
AcDbRegAppTableRecord
  2
ACAD_DSTYLE_DIMJAG
 70
     0
  0
APPID
  5
418
330
338
100
AcDbSymbolTableRecord
100
AcDbRegAppTableRecord
  2
ACAD_DSTYLE_DIMBREAK
 70
     0
  0
APPID
  5
431
330
338
100
AcDbSymbolTableRecord
100
AcDbRegAppTableRecord
  2
GENIUS_GENSCREG_15
 70
     0
  0
APPID
  5
432
330
338
100
AcDbSymbolTableRecord
100
AcDbRegAppTableRecord
  2
GENIUS_GENODEF_13
 70
     0
  0
APPID
  5
433
330
338
100
AcDbSymbolTableRecord
100
AcDbRegAppTableRecord
  2
GENIUS_GENOBJ-N-SDF_13
 70
     0
  0
APPID
  5
43A
330
338
100
AcDbSymbolTableRecord
100
AcDbRegAppTableRecord
  2
ACAD_DSTYLE_DIMARC_LENGTH_SYMBOL
 70
     0
  0
APPID
  5
43B
330
338
100
AcDbSymbolTableRecord
100
AcDbRegAppTableRecord
  2
ACAD_DSTYLE_DIMJOGGED_JOGANGLE_SYMBOL
 70
     0
  0
APPID
  5
43C
330
338
100
AcDbSymbolTableRecord
100
AcDbRegAppTableRecord
  2
ACAD_MLEADERVER
 70
     0
  0
APPID
  5
43D
330
338
100
AcDbSymbolTableRecord
100
AcDbRegAppTableRecord
  2
ACAD_EXEMPT_FROM_CAD_STANDARDS
 70
     0
  0
APPID
  5
BAB
330
338
100
AcDbSymbolTableRecord
100
AcDbRegAppTableRecord
  2
ACAD_NAV_VCDISPLAY
 70
     0
  0
APPID
  5
CE3
330
338
100
AcDbSymbolTableRecord
100
AcDbRegAppTableRecord
  2
GradientColor1ACI
 70
     0
  0
APPID
  5
CE4
330
338
100
AcDbSymbolTableRecord
100
AcDbRegAppTableRecord
  2
GradientColor2ACI
 70
     0
  0
ENDTAB
  0
TABLE
  2
DIMSTYLE
  5
339
330
0
100
AcDbSymbolTable
 70
     8
100
AcDbDimStyleTable
 71
     1
340
70
  0
DIMSTYLE
105
70
102
{ACAD_REACTORS
330
744
330
762
330
767
330
795
330
797
330
798
330
799
330
79A
330
79B
330
79C
102
}
330
339
100
AcDbSymbolTableRecord
100
AcDbDimStyleTableRecord
  2
STANDARD
 70
     0
 41
3.5
 42
0.0
 43
7.0
 44
1.8
 45
0.01
 73
     0
 74
     0
 77
     1
 78
     8
140
3.5
141
3.0
147
1.5
174
     1
176
   256
177
   256
178
   256
271
     2
272
     2
279
     2
284
     8
285
     8
286
     8
340
71
  0
DIMSTYLE
105
416
102
{ACAD_REACTORS
330
B81
102
}
330
339
100
AcDbSymbolTableRecord
100
AcDbDimStyleTableRecord
  2
AM_ANSI
 70
     0
  4
mm
 41
0.12
 42
0.05
 43
0.5
 44
0.1
 47
0.1
 48
0.1
 78
     7
 79
     2
 90
     1
140
0.12
141
0.0
146
0.71
147
0.06
176
   256
177
   256
178
     2
274
     4
284
     7
340
5F
345
332
346
332
347
332
371
    -1
372
    -1
1001
ACAD_DSTYLE_DIMJAG
1070
   388
1040
1.5
1001
ACAD_DSTYLE_DIMBREAK
1070
   391
1040
0.125
  0
DIMSTYLE
105
419
330
339
100
AcDbSymbolTableRecord
100
AcDbDimStyleTableRecord
  2
AM_ANSI$3
 70
     0
  4
mm
 41
0.12
 42
0.05
 43
0.5
 44
0.1
 47
0.1
 48
0.1
 78
     7
 79
     2
 90
     1
140
0.12
141
0.0
146
0.71
147
0.06
176
   256
177
   256
178
     2
274
     4
284
     7
288
     1
289
     0
340
5F
345
332
346
332
347
332
371
    -1
372
    -1
1001
ACAD_DSTYLE_DIMBREAK
1070
   391
1040
0.125
1001
ACAD_DSTYLE_DIMJAG
1070
   388
1040
1.5
  0
DIMSTYLE
105
41A
330
339
100
AcDbSymbolTableRecord
100
AcDbDimStyleTableRecord
  2
AM_ANSI$4
 70
     0
  4
mm
 41
0.12
 42
0.05
 43
0.5
 44
0.1
 47
0.1
 48
0.1
 78
     7
 79
     2
 90
     1
140
0.12
141
0.0
146
0.71
147
0.06
176
   256
177
   256
178
     2
274
     4
284
     7
288
     1
289
     0
340
5F
345
332
346
332
347
332
371
    -1
372
    -1
1001
ACAD_DSTYLE_DIMBREAK
1070
   391
1040
0.125
1001
ACAD_DSTYLE_DIMJAG
1070
   388
1040
1.5
  0
DIMSTYLE
105
41B
330
339
100
AcDbSymbolTableRecord
100
AcDbDimStyleTableRecord
  2
AM_ANSI$7
 70
     0
  4
mm
 41
0.12
 42
0.05
 43
0.5
 44
0.1
 47
0.1
 48
0.1
 78
     7
 79
     2
 90
     1
140
0.12
141
0.0
146
0.71
147
0.06
176
   256
177
   256
178
     2
274
     4
284
     7
340
5F
345
332
346
332
347
332
371
    -1
372
    -1
1001
ACAD_DSTYLE_DIMBREAK
1070
   391
1040
0.125
1001
ACAD_DSTYLE_DIMJAG
1070
   388
1040
1.5
  0
DIMSTYLE
105
41C
330
339
100
AcDbSymbolTableRecord
100
AcDbDimStyleTableRecord
  2
AM_ANSI$SF
 70
     0
  4
mm
 41
0.12
 42
0.05
 43
0.5
 44
0.1
 47
0.1
 48
0.1
 75
     1
 76
     1
 78
     7
 79
     2
 90
     1
140
0.12
141
0.0
146
0.71
147
0.06
176
   256
177
   256
178
     2
274
     4
284
     7
340
5F
345
332
346
332
347
332
371
    -1
372
    -1
1001
ACAD_DSTYLE_DIMBREAK
1070
   391
1040
0.125
1001
ACAD_DSTYLE_DIMJAG
1070
   388
1040
1.5
  0
DIMSTYLE
105
421
330
339
100
AcDbSymbolTableRecord
100
AcDbDimStyleTableRecord
  2
AM_ANSI$SH
 70
     0
  4
mm
 41
0.12
 42
0.05
 43
0.5
 44
0.1
 47
0.1
 48
0.1
 75
     1
 76
     1
 78
     7
 79
     2
 90
     1
140
0.12
141
0.0
146
0.71
147
0.06
173
     1
176
   256
177
   256
178
     2
274
     4
284
     7
340
5F
343
41D
345
332
346
332
347
332
371
    -1
372
    -1
1001
ACAD_DSTYLE_DIMBREAK
1070
   391
1040
0.125
1001
ACAD_DSTYLE_DIMJAG
1070
   388
1040
1.5
  0
ENDTAB
  0
TABLE
  2
BLOCK_RECORD
  5
1
330
0
100
AcDbSymbolTable
 70
    26
  0
BLOCK_RECORD
  5
2
102
{ACAD_XDICTIONARY
360
A11
102
}
330
1
100
AcDbSymbolTableRecord
100
AcDbBlockTableRecord
  2
*MODEL_SPACE
340
323
 70
     0
280
     1
281
     0
  0
BLOCK_RECORD
  5
325
330
1
100
AcDbSymbolTableRecord
100
AcDbBlockTableRecord
  2
*PAPER_SPACE
340
32D
 70
     0
280
     1
281
     0
  0
BLOCK_RECORD
  5
1F4
330
1
100
AcDbSymbolTableRecord
100
AcDbBlockTableRecord
  2
RA_A2_pr
340
0
 70
     0
280
     1
281
     0
  0
BLOCK_RECORD
  5
1BA
330
1
100
AcDbSymbolTableRecord
100
AcDbBlockTableRecord
  2
101553
340
0
102
{BLKREFS
331
7A4
102
}
 70
     0
280
     1
281
     0
  0
BLOCK_RECORD
  5
41D
330
1
100
AcDbSymbolTableRecord
100
AcDbBlockTableRecord
  2
GENAXEH
340
0
 70
     0
280
     1
281
     0
  0
BLOCK_RECORD
  5
43E
330
1
100
AcDbSymbolTableRecord
100
AcDbBlockTableRecord
  2
ACO-SF
340
0
 70
     0
280
     1
281
     0
  0
BLOCK_RECORD
  5
4E7
330
1
100
AcDbSymbolTableRecord
100
AcDbBlockTableRecord
  2
*X4
340
0
 70
     0
280
     1
281
     0
  0
BLOCK_RECORD
  5
506
330
1
100
AcDbSymbolTableRecord
100
AcDbBlockTableRecord
  2
*X5
340
0
 70
     0
280
     1
281
     0
  0
BLOCK_RECORD
  5
5DA
102
{ACAD_XDICTIONARY
360
A27
102
}
330
1
100
AcDbSymbolTableRecord
100
AcDbBlockTableRecord
  2
A$C7B2D12FE
340
0
 70
     0
280
     1
281
     0
  0
BLOCK_RECORD
  5
81D
330
1
100
AcDbSymbolTableRecord
100
AcDbBlockTableRecord
  2
*D7
340
0
 70
     0
280
     1
281
     0
  0
BLOCK_RECORD
  5
829
330
1
100
AcDbSymbolTableRecord
100
AcDbBlockTableRecord
  2
*D8
340
0
 70
     0
280
     1
281
     0
  0
BLOCK_RECORD
  5
835
330
1
100
AcDbSymbolTableRecord
100
AcDbBlockTableRecord
  2
*D9
340
0
 70
     0
280
     1
281
     0
  0
BLOCK_RECORD
  5
841
330
1
100
AcDbSymbolTableRecord
100
AcDbBlockTableRecord
  2
*D10
340
0
 70
     0
280
     1
281
     0
  0
BLOCK_RECORD
  5
84D
330
1
100
AcDbSymbolTableRecord
100
AcDbBlockTableRecord
  2
*D11
340
0
 70
     0
280
     1
281
     0
  0
BLOCK_RECORD
  5
859
330
1
100
AcDbSymbolTableRecord
100
AcDbBlockTableRecord
  2
*D12
340
0
 70
     0
280
     1
281
     0
  0
BLOCK_RECORD
  5
866
330
1
100
AcDbSymbolTableRecord
100
AcDbBlockTableRecord
  2
*D13
340
0
 70
     0
280
     1
281
     0
  0
BLOCK_RECORD
  5
872
330
1
100
AcDbSymbolTableRecord
100
AcDbBlockTableRecord
  2
*D14
340
0
 70
     0
280
     1
281
     0
  0
BLOCK_RECORD
  5
87E
330
1
100
AcDbSymbolTableRecord
100
AcDbBlockTableRecord
  2
*D15
340
0
 70
     0
280
     1
281
     0
  0
BLOCK_RECORD
  5
88A
330
1
100
AcDbSymbolTableRecord
100
AcDbBlockTableRecord
  2
*D16
340
0
 70
     0
280
     1
281
     0
  0
BLOCK_RECORD
  5
896
330
1
100
AcDbSymbolTableRecord
100
AcDbBlockTableRecord
  2
*D17
340
0
 70
     0
280
     1
281
     0
  0
BLOCK_RECORD
  5
8A2
330
1
100
AcDbSymbolTableRecord
100
AcDbBlockTableRecord
  2
*D18
340
0
 70
     0
280
     1
281
     0
  0
BLOCK_RECORD
  5
8AE
330
1
100
AcDbSymbolTableRecord
100
AcDbBlockTableRecord
  2
*D19
340
0
 70
     0
280
     1
281
     0
  0
BLOCK_RECORD
  5
8BA
330
1
100
AcDbSymbolTableRecord
100
AcDbBlockTableRecord
  2
*D20
340
0
 70
     0
280
     1
281
     0
  0
BLOCK_RECORD
  5
8C6
330
1
100
AcDbSymbolTableRecord
100
AcDbBlockTableRecord
  2
*D21
340
0
 70
     0
280
     1
281
     0
  0
BLOCK_RECORD
  5
9CA
102
{ACAD_XDICTIONARY
360
BDD
102
}
330
1
100
AcDbSymbolTableRecord
100
AcDbBlockTableRecord
  2
A$C4D2A19F9
340
0
 70
     0
280
     1
281
     0
  0
BLOCK_RECORD
  5
B97
330
1
100
AcDbSymbolTableRecord
100
AcDbBlockTableRecord
  2
_ACMFILLEDHALF
340
0
 70
     0
280
     1
281
     0
  0
ENDTAB
  0
ENDSEC
  0
SECTION
  2
BLOCKS
  0
BLOCK
  5
321
330
2
100
AcDbEntity
  8
0
100
AcDbBlockBegin
  2
*MODEL_SPACE
 70
     0
 10
0.0
 20
0.0
 30
0.0
  3
*MODEL_SPACE
  1

  0
ENDBLK
  5
322
330
2
100
AcDbEntity
  8
0
100
AcDbBlockEnd
  0
BLOCK
  5
32B
330
325
100
AcDbEntity
 67
     1
  8
0
100
AcDbBlockBegin
  2
*PAPER_SPACE
 70
     0
 10
0.0
 20
0.0
 30
0.0
  3
*PAPER_SPACE
  1

  0
ENDBLK
  5
32C
330
325
100
AcDbEntity
 67
     1
  8
0
100
AcDbBlockEnd
  0
BLOCK
  5
23C
330
1F4
100
AcDbEntity
  8
0
100
AcDbBlockBegin
  2
RA_A2_pr
 70
     0
 10
0.0
 20
0.0
 30
0.0
  3
RA_A2_pr
  1

  0
LWPOLYLINE
  5
1F5
330
1F4
100
AcDbEntity
  8
KOPF
 62
    22
100
AcDbPolyline
 90
        4
 70
     1
 43
0.7
 10
588.0
 20
414.0
 10
588.0
 20
6.0
 10
21.0
 20
6.0
 10
21.0
 20
414.0
  0
LINE
  5
1F7
330
1F4
100
AcDbEntity
  8
KOPF
 62
    22
100
AcDbLine
 10
0.0
 20
420.0
 30
0.0
 11
594.0
 21
420.0
 31
0.0
  0
LINE
  5
1F8
330
1F4
100
AcDbEntity
  8
KOPF
 62
    22
100
AcDbLine
 10
594.0
 20
0.0
 30
0.0
 11
0.0
 21
0.0
 31
0.0
  0
LINE
  5
1F9
330
1F4
100
AcDbEntity
  8
KOPF
 62
    22
100
AcDbLine
 10
0.0
 20
0.0
 30
0.0
 11
0.0
 21
420.0
 31
0.0
  0
TEXT
  5
1FA
330
1F4
100
AcDbEntity
  8
KOPF
 62
    22
100
AcDbText
 10
16.12763230177199
 20
41.42224686135696
 30
0.0
 40
2.5
  1
A
 41
0.8
  7
TEXT25
100
AcDbText
  0
LINE
  5
1FC
330
1F4
100
AcDbEntity
  8
KOPF
 62
    22
100
AcDbLine
 10
21.0
 20
79.00000000000002
 30
0.0
 11
18.0
 21
79.00000000000002
 31
0.0
  0
TEXT
  5
1FD
330
1F4
100
AcDbEntity
  8
KOPF
 62
    22
100
AcDbText
 10
16.12763230177199
 20
114.422246861357
 30
0.0
 40
2.5
  1
B
 41
0.8
  7
TEXT25
100
AcDbText
  0
TEXT
  5
1FE
330
1F4
100
AcDbEntity
  8
KOPF
 62
    22
100
AcDbText
 10
56.29677316682592
 20
1.370968748636755
 30
0.0
 40
2.5
  1
1
 41
0.8
  7
TEXT25
100
AcDbText
  0
LINE
  5
1FF
330
1F4
100
AcDbEntity
  8
KOPF
 62
    22
100
AcDbLine
 10
93.0
 20
6.0
 30
0.0
 11
93.0
 21
3.0
 31
0.0
  0
TEXT
  5
200
330
1F4
100
AcDbEntity
  8
KOPF
 62
    22
100
AcDbText
 10
128.2967731668259
 20
1.370968748636755
 30
0.0
 40
2.5
  1
2
 41
0.8
  7
TEXT25
100
AcDbText
  0
LINE
  5
201
330
1F4
100
AcDbEntity
  8
KOPF
 62
    22
100
AcDbLine
 10
165.0
 20
6.0
 30
0.0
 11
165.0
 21
3.0
 31
0.0
  0
TEXT
  5
202
330
1F4
100
AcDbEntity
  8
KOPF
 62
    22
100
AcDbText
 10
200.2967731668259
 20
1.370968748636755
 30
0.0
 40
2.5
  1
3
 41
0.8
  7
TEXT25
100
AcDbText
  0
LINE
  5
203
330
1F4
100
AcDbEntity
  8
KOPF
 62
    22
100
AcDbLine
 10
210.0
 20
0.0
 30
0.0
 11
210.0
 21
6.0
 31
0.0
  0
LINE
  5
204
330
1F4
100
AcDbEntity
  8
KOPF
 62
    22
100
AcDbLine
 10
0.0
 20
148.5
 30
0.0
 11
10.54770188609711
 21
148.5
 31
0.0
  0
LINE
  5
205
330
1F4
100
AcDbEntity
  8
KOPF
 62
    22
100
AcDbLine
 10
21.0
 20
152.0
 30
0.0
 11
18.0
 21
152.0
 31
0.0
  0
TEXT
  5
206
330
1F4
100
AcDbEntity
  8
KOPF
 62
    22
100
AcDbText
 10
16.12763230177199
 20
187.4222468613569
 30
0.0
 40
2.5
  1
C
 41
0.8
  7
TEXT25
100
AcDbText
  0
LINE
  5
207
330
1F4
100
AcDbEntity
  8
KOPF
 62
    22
100
AcDbLine
 10
21.0
 20
225.0
 30
0.0
 11
18.0
 21
225.0
 31
0.0
  0
TEXT
  5
208
330
1F4
100
AcDbEntity
  8
KOPF
 62
    22
100
AcDbText
 10
16.12763230177199
 20
260.422246861357
 30
0.0
 40
2.5
  1
D
 41
0.8
  7
TEXT25
100
AcDbText
  0
LINE
  5
209
330
1F4
100
AcDbEntity
  8
KOPF
 62
    22
100
AcDbLine
 10
12.33785021057986
 20
296.9999999999999
 30
0.0
 11
21.0
 21
296.9999999999999
 31
0.0
  0
LINE
  5
20A
330
1F4
100
AcDbEntity
  8
KOPF
 62
    22
100
AcDbLine
 10
21.0
 20
298.0
 30
0.0
 11
18.0
 21
298.0
 31
0.0
  0
TEXT
  5
20B
330
1F4
100
AcDbEntity
  8
KOPF
 62
    22
100
AcDbText
 10
16.12763230177199
 20
333.422246861357
 30
0.0
 40
2.5
  1
E
 41
0.8
  7
TEXT25
100
AcDbText
  0
LINE
  5
20C
330
1F4
100
AcDbEntity
  8
KOPF
 62
    22
100
AcDbLine
 10
21.0
 20
371.0
 30
0.0
 11
18.0
 21
371.0
 31
0.0
  0
TEXT
  5
20D
330
1F4
100
AcDbEntity
  8
KOPF
 62
    22
100
AcDbText
 10
16.12763230177199
 20
393.4920404627393
 30
0.0
 40
2.5
  1
F
 41
0.8
  7
TEXT25
100
AcDbText
  0
TEXT
  5
20E
330
1F4
100
AcDbEntity
  8
KOPF
 62
    22
100
AcDbText
 10
56.29677316682592
 20
415.6290312513632
 30
0.0
 40
2.5
  1
1
 41
0.8
  7
TEXT25
100
AcDbText
  0
LINE
  5
20F
330
1F4
100
AcDbEntity
  8
KOPF
 62
    22
100
AcDbLine
 10
93.0
 20
414.0
 30
0.0
 11
93.0
 21
417.0
 31
0.0
  0
TEXT
  5
210
330
1F4
100
AcDbEntity
  8
KOPF
 62
    22
100
AcDbText
 10
128.2967731668259
 20
415.6290312513632
 30
0.0
 40
2.5
  1
2
 41
0.8
  7
TEXT25
100
AcDbText
  0
LINE
  5
211
330
1F4
100
AcDbEntity
  8
KOPF
 62
    22
100
AcDbLine
 10
165.0
 20
414.0
 30
0.0
 11
165.0
 21
417.0
 31
0.0
  0
TEXT
  5
212
330
1F4
100
AcDbEntity
  8
KOPF
 62
    22
100
AcDbText
 10
200.2967731668259
 20
415.6290312513632
 30
0.0
 40
2.5
  1
3
 41
0.8
  7
TEXT25
100
AcDbText
  0
LINE
  5
213
330
1F4
100
AcDbEntity
  8
KOPF
 62
    22
100
AcDbLine
 10
594.0
 20
420.0
 30
0.0
 11
594.0
 21
0.0
 31
0.0
  0
LINE
  5
214
330
1F4
100
AcDbEntity
  8
KOPF
 62
    22
100
AcDbLine
 10
237.0
 20
6.0
 30
0.0
 11
237.0
 21
3.0
 31
0.0
  0
TEXT
  5
215
330
1F4
100
AcDbEntity
  8
KOPF
 62
    22
100
AcDbText
 10
272.2967731668259
 20
1.370968748636755
 30
0.0
 40
2.5
  1
4
 41
0.8
  7
TEXT25
100
AcDbText
  0
LINE
  5
216
330
1F4
100
AcDbEntity
  8
KOPF
 62
    22
100
AcDbLine
 10
309.0
 20
6.0
 30
0.0
 11
309.0
 21
3.0
 31
0.0
  0
TEXT
  5
217
330
1F4
100
AcDbEntity
  8
KOPF
 62
    22
100
AcDbText
 10
345.2967731668259
 20
1.370968748636755
 30
0.0
 40
2.5
  1
5
 41
0.8
  7
TEXT25
100
AcDbText
  0
LINE
  5
218
330
1F4
100
AcDbEntity
  8
KOPF
 62
    22
100
AcDbLine
 10
381.0
 20
6.0
 30
0.0
 11
381.0
 21
3.0
 31
0.0
  0
LINE
  5
219
330
1F4
100
AcDbEntity
  8
KOPF
 62
    22
100
AcDbLine
 10
398.0
 20
6.0
 30
0.0
 11
398.0
 21
0.0
 31
0.0
  0
TEXT
  5
21A
330
1F4
100
AcDbEntity
  8
KOPF
 62
    22
100
AcDbText
 10
416.2967731668259
 20
1.370968748636755
 30
0.0
 40
2.5
  1
6
 41
0.8
  7
TEXT25
100
AcDbText
  0
LINE
  5
21B
330
1F4
100
AcDbEntity
  8
KOPF
 62
    22
100
AcDbLine
 10
525.0699601119618
 20
6.0
 30
0.0
 11
525.0699601119618
 21
3.0
 31
0.0
  0
TEXT
  5
21C
330
1F4
100
AcDbEntity
  8
KOPF
 62
    22
100
AcDbText
 10
580.8263465050426
 20
1.370968748636755
 30
0.0
 40
3.0
  1
A2
 41
0.8
  7
BEMSTIL
100
AcDbText
  0
TEXT
  5
21D
330
1F4
100
AcDbEntity
  8
KOPF
 62
    22
100
AcDbText
 10
589.5361572162235
 20
41.42224686135693
 30
0.0
 40
2.5
  1
A
 41
0.8
  7
TEXT25
100
AcDbText
  0
LINE
  5
21E
330
1F4
100
AcDbEntity
  8
KOPF
 62
    22
100
AcDbLine
 10
588.0
 20
79.00000000000002
 30
0.0
 11
591.0
 21
79.00000000000002
 31
0.0
  0
TEXT
  5
21F
330
1F4
100
AcDbEntity
  8
KOPF
 62
    22
100
AcDbText
 10
589.8161572162234
 20
114.422246861357
 30
0.0
 40
2.5
  1
B
 41
0.8
  7
TEXT25
100
AcDbText
  0
LINE
  5
220
330
1F4
100
AcDbEntity
  8
KOPF
 62
    22
100
AcDbLine
 10
237.0
 20
414.0
 30
0.0
 11
237.0
 21
417.0
 31
0.0
  0
TEXT
  5
221
330
1F4
100
AcDbEntity
  8
KOPF
 62
    22
100
AcDbText
 10
272.2967731668259
 20
415.6290312513632
 30
0.0
 40
3.0
  1
4
 41
0.8
  7
BEMSTIL
100
AcDbText
  0
LINE
  5
222
330
1F4
100
AcDbEntity
  8
KOPF
 62
    22
100
AcDbLine
 10
309.0
 20
414.0
 30
0.0
 11
309.0
 21
417.0
 31
0.0
  0
TEXT
  5
223
330
1F4
100
AcDbEntity
  8
KOPF
 62
    22
100
AcDbText
 10
345.2967731668259
 20
415.6290312513632
 30
0.0
 40
2.5
  1
5
 41
0.8
  7
TEXT25
100
AcDbText
  0
LINE
  5
224
330
1F4
100
AcDbEntity
  8
KOPF
 62
    22
100
AcDbLine
 10
381.0
 20
414.0
 30
0.0
 11
381.0
 21
417.0
 31
0.0
  0
LINE
  5
225
330
1F4
100
AcDbEntity
  8
KOPF
 62
    22
100
AcDbLine
 10
588.0
 20
152.0
 30
0.0
 11
591.0
 21
152.0
 31
0.0
  0
TEXT
  5
226
330
1F4
100
AcDbEntity
  8
KOPF
 62
    22
100
AcDbText
 10
589.9421173281852
 20
187.4222468613569
 30
0.0
 40
2.5
  1
C
 41
0.8
  7
TEXT25
100
AcDbText
  0
TEXT
  5
227
330
1F4
100
AcDbEntity
  8
KOPF
 62
    22
100
AcDbText
 10
589.9421173281852
 20
187.4222468613569
 30
0.0
 40
2.5
  1
C
 41
0.8
  7
TEXT25
100
AcDbText
  0
TEXT
  5
228
330
1F4
100
AcDbEntity
  8
KOPF
 62
    22
100
AcDbText
 10
589.8721572162234
 20
187.4222468613569
 30
0.0
 40
2.5
  1
C
 41
0.8
  7
TEXT25
100
AcDbText
  0
LINE
  5
229
330
1F4
100
AcDbEntity
  8
KOPF
 62
    22
100
AcDbLine
 10
588.0699601119617
 20
225.0
 30
0.0
 11
591.0699601119618
 21
225.0
 31
0.0
  0
LINE
  5
22A
330
1F4
100
AcDbEntity
  8
KOPF
 62
    22
100
AcDbLine
 10
588.0699601119617
 20
225.0
 30
0.0
 11
591.0699601119618
 21
225.0
 31
0.0
  0
LINE
  5
22B
330
1F4
100
AcDbEntity
  8
KOPF
 62
    22
100
AcDbLine
 10
588.0
 20
225.0
 30
0.0
 11
591.0
 21
225.0
 31
0.0
  0
TEXT
  5
22C
330
1F4
100
AcDbEntity
  8
KOPF
 62
    22
100
AcDbText
 10
589.8861173281852
 20
260.422246861357
 30
0.0
 40
2.5
  1
D
 41
0.8
  7
TEXT25
100
AcDbText
  0
TEXT
  5
22D
330
1F4
100
AcDbEntity
  8
KOPF
 62
    22
100
AcDbText
 10
589.8861173281852
 20
260.422246861357
 30
0.0
 40
2.5
  1
D
 41
0.8
  7
TEXT25
100
AcDbText
  0
TEXT
  5
22E
330
1F4
100
AcDbEntity
  8
KOPF
 62
    22
100
AcDbText
 10
589.8161572162234
 20
260.422246861357
 30
0.0
 40
2.5
  1
D
 41
0.8
  7
TEXT25
100
AcDbText
  0
TEXT
  5
22F
330
1F4
100
AcDbEntity
  8
KOPF
 62
    22
100
AcDbText
 10
416.2967731668259
 20
415.6290312513632
 30
0.0
 40
2.5
  1
6
 41
0.8
  7
TEXT25
100
AcDbText
  0
LINE
  5
230
330
1F4
100
AcDbEntity
  8
KOPF
 62
    22
100
AcDbLine
 10
453.0
 20
414.0
 30
0.0
 11
453.0
 21
417.0
 31
0.0
  0
TEXT
  5
231
330
1F4
100
AcDbEntity
  8
KOPF
 62
    22
100
AcDbText
 10
488.2967731668259
 20
415.6290312513632
 30
0.0
 40
2.5
  1
7
 41
0.8
  7
TEXT25
100
AcDbText
  0
LINE
  5
232
330
1F4
100
AcDbEntity
  8
KOPF
 62
    22
100
AcDbLine
 10
588.0699601119617
 20
298.0
 30
0.0
 11
591.0699601119618
 21
298.0
 31
0.0
  0
LINE
  5
233
330
1F4
100
AcDbEntity
  8
KOPF
 62
    22
100
AcDbLine
 10
588.0699601119617
 20
298.0
 30
0.0
 11
591.0699601119618
 21
298.0
 31
0.0
  0
LINE
  5
234
330
1F4
100
AcDbEntity
  8
KOPF
 62
    22
100
AcDbLine
 10
588.0
 20
298.0
 30
0.0
 11
591.0
 21
298.0
 31
0.0
  0
TEXT
  5
235
330
1F4
100
AcDbEntity
  8
KOPF
 62
    22
100
AcDbText
 10
589.8861173281852
 20
333.422246861357
 30
0.0
 40
2.5
  1
E
 41
0.8
  7
TEXT25
100
AcDbText
  0
TEXT
  5
236
330
1F4
100
AcDbEntity
  8
KOPF
 62
    22
100
AcDbText
 10
589.8861173281852
 20
333.422246861357
 30
0.0
 40
2.5
  1
E
 41
0.8
  7
TEXT25
100
AcDbText
  0
TEXT
  5
237
330
1F4
100
AcDbEntity
  8
KOPF
 62
    22
100
AcDbText
 10
589.8161572162234
 20
333.422246861357
 30
0.0
 40
2.5
  1
E
 41
0.8
  7
TEXT25
100
AcDbText
  0
LINE
  5
238
330
1F4
100
AcDbEntity
  8
KOPF
 62
    22
100
AcDbLine
 10
525.0
 20
414.0
 30
0.0
 11
525.0
 21
417.0
 31
0.0
  0
LINE
  5
239
330
1F4
100
AcDbEntity
  8
KOPF
 62
    22
100
AcDbLine
 10
588.0
 20
371.0
 30
0.0
 11
591.0
 21
371.0
 31
0.0
  0
TEXT
  5
23A
330
1F4
100
AcDbEntity
  8
KOPF
 62
    22
100
AcDbText
 10
560.2967731668258
 20
415.6290312513632
 30
0.0
 40
2.5
  1
8
 41
0.8
  7
TEXT25
100
AcDbText
  0
TEXT
  5
23B
330
1F4
100
AcDbEntity
  8
KOPF
 62
    22
100
AcDbText
 10
589.8161572162234
 20
393.4920404627393
 30
0.0
 40
2.5
  1
F
 41
0.8
  7
TEXT25
100
AcDbText
  0
ENDBLK
  5
23D
330
1F4
100
AcDbEntity
  8
0
100
AcDbBlockEnd
  0
BLOCK
  5
1BE
330
1BA
100
AcDbEntity
  8
0
100
AcDbBlockBegin
  2
101553
 70
     0
 10
0.0
 20
0.0
 30
0.0
  3
101553
  1
101553
  0
ATTDEF
  5
1BB
330
1BA
100
AcDbEntity
  8
0
100
AcDbText
 10
0.0
 20
0.0
 30
0.0
 40
0.00000002
  1
Vis FHc/90,M6.0x1.00-20
100
AcDbAttributeDefinition
280
     0
  3

  2
REFERENCE
 70
     3
280
     0
  0
LWPOLYLINE
  5
1BC
330
1BA
100
AcDbEntity
  8
0
100
AcDbPolyline
 90
        6
 70
     1
 43
0.0
 10
-1.999999999999999
 20
-1.154700538379253
 10
0.0000000000000007
 20
-2.309401076758506
 10
2.000000000000001
 20
-1.154700538379256
 10
2.000000000000002
 20
1.154700538379246
 10
0.0000000000000022
 20
2.309401076758498
 10
-1.999999999999997
 20
1.154700538379244
  0
CIRCLE
  5
1BD
330
1BA
100
AcDbEntity
  8
0
100
AcDbCircle
 10
0.0
 20
0.0
 30
0.0
 40
6.0
  0
ENDBLK
  5
1BF
330
1BA
100
AcDbEntity
  8
0
100
AcDbBlockEnd
  0
BLOCK
  5
41F
330
41D
100
AcDbEntity
  8
0
100
AcDbBlockBegin
  2
GENAXEH
 70
     0
 10
0.0
 20
0.0
 30
0.0
  3
GENAXEH
  1

  0
LINE
  5
41E
330
41D
100
AcDbEntity
  8
0
100
AcDbLine
 10
-1.0
 20
0.0
 30
0.0
 11
1.0
 21
0.0
 31
0.0
  0
ENDBLK
  5
420
330
41D
100
AcDbEntity
  8
0
100
AcDbBlockEnd
  0
BLOCK
  5
4B1
330
43E
100
AcDbEntity
  8
0
100
AcDbBlockBegin
  2
ACO-SF
 70
     2
 10
0.0
 20
0.0
 30
0.0
  3
ACO-SF
  1

  0
LWPOLYLINE
  5
43F
330
43E
100
AcDbEntity
  8
KOPF
 62
    12
100
AcDbPolyline
 90
        2
 70
     0
 43
0.5
 10
-83.0
 20
10.0
 10
0.0
 20
10.0
  0
LINE
  5
440
330
43E
100
AcDbEntity
  8
KOPF
100
AcDbLine
 10
-83.0
 20
10.0
 30
0.0
 11
0.0
 21
10.0
 31
0.0
  0
LWPOLYLINE
  5
441
330
43E
100
AcDbEntity
  8
KOPF
 62
    12
100
AcDbPolyline
 90
        2
 70
     0
 43
0.5
 10
0.0
 20
68.49999999999997
 10
-182.0
 20
68.49999999999997
  0
LWPOLYLINE
  5
442
330
43E
100
AcDbEntity
  8
KOPF
 62
    12
100
AcDbPolyline
 90
        2
 70
     0
 43
0.5
 10
0.0
 20
46.99999999999997
 10
-182.0
 20
46.99999999999997
  0
LWPOLYLINE
  5
443
330
43E
100
AcDbEntity
  8
KOPF
 62
    12
100
AcDbPolyline
 90
        2
 70
     0
 43
0.5
 10
-0.2154115848244373
 20
27.23910754630094
 10
-182.1882840408789
 20
27.23910754630094
  0
LINE
  5
444
330
43E
100
AcDbEntity
  8
KOPF
 62
    12
100
AcDbLine
 10
0.0
 20
88.49999999999996
 30
0.0
 11
-182.0
 21
88.49999999999996
 31
0.0
  0
LINE
  5
445
330
43E
100
AcDbEntity
  8
KOPF
 62
    12
100
AcDbLine
 10
-182.0
 20
83.49999999999997
 30
0.0
 11
0.0
 21
83.49999999999997
 31
0.0
  0
LINE
  5
446
330
43E
100
AcDbEntity
  8
KOPF
 62
    12
100
AcDbLine
 10
0.0
 20
73.49999999999997
 30
0.0
 11
-182.0
 21
73.49999999999997
 31
0.0
  0
LINE
  5
447
330
43E
100
AcDbEntity
  8
KOPF
 62
    12
100
AcDbLine
 10
-162.682677
 20
78.49999999999997
 30
0.0
 11
0.0
 21
78.49999999999997
 31
0.0
  0
LINE
  5
448
330
43E
100
AcDbEntity
  8
KOPF
100
AcDbLine
 10
0.0
 20
68.49999999999997
 30
0.0
 11
-182.0
 21
68.49999999999997
 31
0.0
  0
LINE
  5
449
330
43E
100
AcDbEntity
  8
KOPF
100
AcDbLine
 10
0.0
 20
88.49999999999996
 30
0.0
 11
-182.0
 21
88.49999999999996
 31
0.0
  0
LINE
  5
44A
330
43E
100
AcDbEntity
  8
KOPF
100
AcDbLine
 10
-182.0
 20
83.49999999999997
 30
0.0
 11
0.0
 21
83.49999999999997
 31
0.0
  0
LINE
  5
44B
330
43E
100
AcDbEntity
  8
KOPF
100
AcDbLine
 10
0.0
 20
73.49999999999997
 30
0.0
 11
-182.0
 21
73.49999999999997
 31
0.0
  0
LINE
  5
44C
330
43E
100
AcDbEntity
  8
KOPF
100
AcDbLine
 10
-162.682677
 20
78.49999999999997
 30
0.0
 11
0.0
 21
78.49999999999997
 31
0.0
  0
LINE
  5
44D
330
43E
100
AcDbEntity
  8
KOPF
 62
    12
100
AcDbLine
 10
-182.0
 20
57.74999999999997
 30
0.0
 11
-100.0
 21
57.74999999999997
 31
0.0
  0
LINE
  5
44E
330
43E
100
AcDbEntity
  8
KOPF
 62
    12
100
AcDbLine
 10
-182.0
 20
41.99999999999996
 30
0.0
 11
-113.4
 21
41.99999999999996
 31
0.0
  0
LINE
  5
44F
330
43E
100
AcDbEntity
  8
KOPF
100
AcDbLine
 10
-182.0
 20
57.74999999999997
 30
0.0
 11
-100.0
 21
57.74999999999997
 31
0.0
  0
LINE
  5
450
330
43E
100
AcDbEntity
  8
KOPF
100
AcDbLine
 10
-182.0
 20
41.99999999999996
 30
0.0
 11
-113.4
 21
41.99999999999996
 31
0.0
  0
LINE
  5
451
330
43E
100
AcDbEntity
  8
KOPF
 62
    12
100
AcDbLine
 10
-142.0
 20
68.49999999999997
 30
0.0
 11
-142.0
 21
46.99999999999997
 31
0.0
  0
LINE
  5
452
330
43E
100
AcDbEntity
  8
KOPF
 62
    12
100
AcDbLine
 10
-142.0
 20
68.49999999999997
 30
0.0
 11
-142.0
 21
46.99999999999997
 31
0.0
  0
ATTDEF
  5
453
330
43E
100
AcDbEntity
  8
TEXT35
100
AcDbText
 10
-140.2
 20
49.4
 30
0.0
 40
3.5
  1

 41
0.8
  7
TEXT35
100
AcDbAttributeDefinition
280
     0
  3
Oberfläche:
  2
F63
 70
     0
280
     0
  0
LWPOLYLINE
  5
454
330
43E
100
AcDbEntity
  8
KOPF
 62
    12
100
AcDbPolyline
 90
        2
 70
     0
 43
0.7
 10
-182.0
 20
88.49999999999996
 10
-182.0
 20
0.0
  0
LINE
  5
455
330
43E
100
AcDbEntity
  8
KOPF
100
AcDbLine
 10
-182.0
 20
88.49999999999996
 30
0.0
 11
-182.0
 21
0.0
 31
0.0
  0
TEXT
  5
456
330
43E
100
AcDbEntity
  8
KOPF
100
AcDbText
 10
-180.7503893537696
 20
38.32439403633659
 30
0.0
 40
2.0
  1
Gezeichnet/Drawn:
 41
0.8
  7
TEXT20
100
AcDbText
  0
ATTDEF
  5
457
330
43E
100
AcDbEntity
  8
TEXT35
100
AcDbText
 10
-176.6
 20
3.399999999999999
 30
0.0
 40
3.5
  1

 41
0.8
  7
TEXT35
100
AcDbAttributeDefinition
280
     0
  3
Z-Titel 3
  2
F13
 70
     0
280
     0
  0
ATTDEF
  5
458
330
43E
100
AcDbEntity
  8
TEXT50
100
AcDbText
 10
-176.6
 20
10.63250279796295
 30
0.0
 40
5.0
  1

 41
0.8
  7
TEXT50
100
AcDbAttributeDefinition
280
     0
  3
Z-Titel 2
  2
F3
 70
     0
280
     0
  0
ATTDEF
  5
459
330
43E
100
AcDbEntity
  8
TEXT50
100
AcDbText
 10
-176.6
 20
18.56318324460701
 30
0.0
 40
5.0
  1

 41
0.8
  7
TEXT50
100
AcDbAttributeDefinition
280
     0
  3
Z-Titel 1
  2
F2
 70
     0
280
     0
  0
TEXT
  5
45A
330
43E
100
AcDbEntity
  8
KOPF
100
AcDbText
 10
-180.7503893537696
 20
28.52395361420514
 30
0.0
 40
2.0
  1
Update:
 41
0.8
  7
TEXT20
100
AcDbText
  0
TEXT
  5
45B
330
43E
100
AcDbEntity
  8
KOPF
100
AcDbText
 10
-180.7503893537696
 20
33.43577642824449
 30
0.0
 40
2.0
  1
Geprüft/Checked by:
 41
0.8
  7
TEXT20
100
AcDbText
  0
LINE
  5
45C
330
43E
100
AcDbEntity
  8
KOPF
 62
    12
100
AcDbLine
 10
-156.7197982561446
 20
46.99999999999997
 30
0.0
 11
-156.7197982561446
 21
27.0
 31
0.0
  0
LINE
  5
45D
330
43E
100
AcDbEntity
  8
KOPF
100
AcDbLine
 10
-156.7197982561446
 20
46.99999999999997
 30
0.0
 11
-156.7197982561446
 21
27.0
 31
0.0
  0
ATTDEF
  5
45E
330
43E
100
AcDbEntity
  8
TEXT25
100
AcDbText
 10
-156.1482375880954
 20
28.32091209119023
 30
0.0
 40
2.0
  1

 41
0.8
  7
TEXT20
100
AcDbAttributeDefinition
280
     0
  3
Update am:
  2
F53
 70
     0
280
     0
  0
ATTDEF
  5
45F
330
43E
100
AcDbEntity
  8
TEXT25
100
AcDbText
 10
-156.2012152388982
 20
33.12227989587696
 30
0.0
 40
2.0
  1

 41
0.8
  7
TEXT20
100
AcDbAttributeDefinition
280
     0
  3
Geprüft am:
  2
F22
 70
     0
280
     0
  0
ATTDEF
  5
460
330
43E
100
AcDbEntity
  8
TEXT25
100
AcDbText
 10
-156.1679960265045
 20
38.33983936444393
 30
0.0
 40
2.0
  1

 41
0.8
  7
TEXT20
100
AcDbAttributeDefinition
280
     0
  3
Gezeichnet am:
  2
F9
 70
     0
280
     0
  0
TEXT
  5
461
330
43E
100
AcDbEntity
  8
KOPF
100
AcDbText
 10
-150.6117368782651
 20
43.13467299999999
 30
0.0
 40
2.0
  1
Datum
 41
0.8
  7
TEXT20
100
AcDbText
  0
LINE
  5
462
330
43E
100
AcDbEntity
  8
KOPF
 62
    12
100
AcDbLine
 10
-138.4
 20
46.99999999999997
 30
0.0
 11
-138.4
 21
27.0
 31
0.0
  0
LINE
  5
463
330
43E
100
AcDbEntity
  8
KOPF
100
AcDbLine
 10
-138.4
 20
46.99999999999997
 30
0.0
 11
-138.4
 21
27.0
 31
0.0
  0
TEXT
  5
464
330
43E
100
AcDbEntity
  8
KOPF
100
AcDbText
 10
-130.065072
 20
43.14125800000002
 30
0.0
 40
2.0
  1
Name
 41
0.8
  7
TEXT20
100
AcDbText
  0
ATTDEF
  5
465
330
43E
100
AcDbEntity
  8
TEXT25
100
AcDbText
 10
-136.2746977811447
 20
33.28471223400234
 30
0.0
 40
2.0
  1

 41
0.8
  7
TEXT20
100
AcDbAttributeDefinition
280
     0
  3
Geprüft von:
  2
F21
 70
     0
280
     0
  0
ATTDEF
  5
466
330
43E
100
AcDbEntity
  8
TEXT25
100
AcDbText
 10
-136.3996291720711
 20
28.23101841142455
 30
0.0
 40
2.0
  1

 41
0.8
  7
TEXT20
100
AcDbAttributeDefinition
280
     0
  3
Update von:
  2
F52
 70
     0
280
     0
  0
ATTDEF
  5
467
330
43E
100
AcDbEntity
  8
TEXT25
100
AcDbText
 10
-136.1922113552417
 20
38.48172579575253
 30
0.0
 40
2.0
  1

 41
0.8
  7
TEXT20
100
AcDbAttributeDefinition
280
     0
  3
Gezeichnet von
  2
F8
 70
     0
280
     0
  0
TEXT
  5
468
330
43E
100
AcDbEntity
  8
KOPF
100
AcDbText
 10
-174.6925639999999
 20
69.53813999999997
 30
0.0
 40
2.0
  1
Index
 41
0.8
  7
TEXT20
100
AcDbText
  0
LINE
  5
469
330
43E
100
AcDbEntity
  8
KOPF
100
AcDbLine
 10
-182.0
 20
78.49999999999997
 30
0.0
 11
-162.682677
 21
78.49999999999997
 31
0.0
  0
LINE
  5
46A
330
43E
100
AcDbEntity
  8
KOPF
100
AcDbLine
 10
-182.0
 20
78.49999999999997
 30
0.0
 11
-162.682677
 21
78.49999999999997
 31
0.0
  0
TEXT
  5
46B
330
43E
100
AcDbEntity
  8
KOPF
100
AcDbText
 10
-180.0
 20
65.166273
 30
0.0
 40
2.0
  1
Werkstoff/Material:
 41
0.8
  7
TEXT20
100
AcDbText
  0
TEXT
  5
46C
330
43E
100
AcDbEntity
  8
KOPF
100
AcDbText
 10
-181.0
 20
54.49999999999997
 30
0.0
 40
2.0
  1
zul. Abweich./Tolerance:
 41
0.8
  7
TEXT20
100
AcDbText
  0
ATTDEF
  5
46D
330
43E
100
AcDbEntity
  8
TEXT35
100
AcDbText
 10
-179.7
 20
59.6
 30
0.0
 40
3.5
  1

 41
0.8
  7
TEXT35
100
AcDbAttributeDefinition
280
     0
  3
Werkstoff:
  2
F61
 70
     0
280
     0
  0
ATTDEF
  5
46E
330
43E
100
AcDbEntity
  8
TEXT35
100
AcDbText
 10
-179.7
 20
49.7
 30
0.0
 40
3.5
  1

 41
0.8
  7
TEXT35
100
AcDbAttributeDefinition
280
     0
  3
zul. Abweichung
  2
F62
 70
     0
280
     0
  0
ATTDEF
  5
46F
330
43E
100
AcDbEntity
  8
TEXT25
100
AcDbText
 10
-174.360415155955
 20
74.59999999999999
 30
0.0
 40
2.0
  1

 41
0.8
  7
TEXT20
100
AcDbAttributeDefinition
280
     0
  3
Index vv.:
  2
F72
 70
     0
280
     0
  0
ATTDEF
  5
470
330
43E
100
AcDbEntity
  8
TEXT25
100
AcDbText
 10
-174.4435409453564
 20
79.47378932523601
 30
0.0
 40
2.0
  1

 41
0.8
  7
TEXT20
100
AcDbAttributeDefinition
280
     0
  3
Index v.:
  2
F68
 70
     0
280
     0
  0
ATTDEF
  5
471
330
43E
100
AcDbEntity
  8
TEXT25
100
AcDbText
 10
-174.3700408782365
 20
84.63034186138365
 30
0.0
 40
2.0
  1

 41
0.8
  7
TEXT20
100
AcDbAttributeDefinition
280
     0
  3
Index l.:
  2
F64
 70
     0
280
     0
  0
LINE
  5
472
330
43E
100
AcDbEntity
  8
KOPF
100
AcDbLine
 10
-162.682677
 20
88.49999999999996
 30
0.0
 11
-162.682677
 21
68.49999999999997
 31
0.0
  0
LINE
  5
473
330
43E
100
AcDbEntity
  8
KOPF
100
AcDbLine
 10
-162.682677
 20
88.49999999999996
 30
0.0
 11
-162.682677
 21
68.49999999999997
 31
0.0
  0
TEXT
  5
474
330
43E
100
AcDbEntity
  8
KOPF
100
AcDbText
 10
-156.706568
 20
69.53813999999997
 30
0.0
 40
2.0
  1
Datum
 41
0.8
  7
TEXT20
100
AcDbText
  0
ATTDEF
  5
475
330
43E
100
AcDbEntity
  8
TEXT25
100
AcDbText
 10
-160.9
 20
75.09999999999999
 30
0.0
 40
2.0
  1

 41
0.8
  7
TEXT20
100
AcDbAttributeDefinition
280
     0
  3
Datum vv.:
  2
F73
 70
     0
280
     0
  0
ATTDEF
  5
476
330
43E
100
AcDbEntity
  8
TEXT25
100
AcDbText
 10
-160.9
 20
79.40000000000001
 30
0.0
 40
2.0
  1

 41
0.8
  7
TEXT20
100
AcDbAttributeDefinition
280
     0
  3
Datum v.:
  2
F69
 70
     0
280
     0
  0
ATTDEF
  5
477
330
43E
100
AcDbEntity
  8
TEXT25
100
AcDbText
 10
-160.6
 20
84.50000000000001
 30
0.0
 40
2.0
  1

 41
0.8
  7
TEXT20
100
AcDbAttributeDefinition
280
     0
  3
Datum l.:
  2
F65
 70
     0
280
     0
  0
LINE
  5
478
330
43E
100
AcDbEntity
  8
KOPF
 62
    12
100
AcDbLine
 10
-142.0
 20
68.49999999999997
 30
0.0
 11
-142.0
 21
88.49999999999996
 31
0.0
  0
LINE
  5
479
330
43E
100
AcDbEntity
  8
KOPF
100
AcDbLine
 10
-142.0
 20
68.49999999999997
 30
0.0
 11
-142.0
 21
88.49999999999996
 31
0.0
  0
ATTDEF
  5
47A
330
43E
100
AcDbEntity
  8
TEXT35
100
AcDbText
 10
-139.9
 20
59.29999999999999
 30
0.0
 40
3.5
  1

 41
0.8
  7
TEXT35
100
AcDbAttributeDefinition
280
     0
  3
Gewicht:
  2
F60
 70
     0
280
     0
  0
TEXT
  5
47B
330
43E
100
AcDbEntity
  8
KOPF
100
AcDbText
 10
-140.387393
 20
54.54752599999996
 30
0.0
 40
2.0
  1
Oberfläche/Surface:
 41
0.8
  7
TEXT20
100
AcDbText
  0
TEXT
  5
47C
330
43E
100
AcDbEntity
  8
KOPF
100
AcDbText
 10
-140.1020469999999
 20
65.166273
 30
0.0
 40
2.0
  1
Gewicht/Weight:
 41
0.8
  7
TEXT20
100
AcDbText
  0
ATTDEF
  5
47D
330
43E
100
AcDbEntity
  8
TEXT25
100
AcDbText
 10
-140.4
 20
74.59999999999999
 30
0.0
 40
2.0
  1

 41
0.8
  7
TEXT20
100
AcDbAttributeDefinition
280
     0
  3
Bennenung vv.:
  2
F74
 70
     0
280
     0
  0
ATTDEF
  5
47E
330
43E
100
AcDbEntity
  8
TEXT25
100
AcDbText
 10
-140.5063960262479
 20
79.64480359078786
 30
0.0
 40
2.0
  1

 41
0.8
  7
TEXT20
100
AcDbAttributeDefinition
280
     0
  3
Benennung v.:
  2
F70
 70
     0
280
     0
  0
ATTDEF
  5
47F
330
43E
100
AcDbEntity
  8
TEXT25
100
AcDbText
 10
-140.390233442385
 20
84.56120109651198
 30
0.0
 40
2.0
  1

 41
0.8
  7
TEXT20
100
AcDbAttributeDefinition
280
     0
  3
Bennenung l.:
  2
F66
 70
     0
280
     0
  0
LINE
  5
480
330
43E
100
AcDbEntity
  8
KOPF
 62
    12
100
AcDbLine
 10
-100.0
 20
68.49999999999997
 30
0.0
 11
-100.0
 21
46.99999999999997
 31
0.0
  0
LWPOLYLINE
  5
481
330
43E
100
AcDbEntity
  8
KOPF
 62
    12
100
AcDbPolyline
 90
        2
 70
     0
 43
0.5
 10
-83.0
 20
46.99999999999997
 10
-83.0
 20
0.0
  0
LINE
  5
482
330
43E
100
AcDbEntity
  8
KOPF
100
AcDbLine
 10
-83.0
 20
46.99999999999997
 30
0.0
 11
-83.0
 21
0.0
 31
0.0
  0
LINE
  5
483
330
43E
100
AcDbEntity
  8
KOPF
 62
    12
100
AcDbLine
 10
-113.4
 20
27.0
 30
0.0
 11
-113.4
 21
46.99999999999997
 31
0.0
  0
LWPOLYLINE
  5
484
330
43E
100
AcDbEntity
  8
KOPF
100
AcDbPolyline
 90
        2
 70
     0
 43
0.5
 10
-113.4
 20
27.0
 10
-113.4
 20
46.99999999999997
  0
LINE
  5
485
330
43E
100
AcDbEntity
  8
KOPF
100
AcDbLine
 10
-113.4
 20
27.0
 30
0.0
 11
-113.4
 21
46.99999999999997
 31
0.0
  0
LINE
  5
486
330
43E
100
AcDbEntity
  8
KOPF
100
AcDbLine
 10
-113.4
 20
27.0
 30
0.0
 11
-113.4
 21
46.99999999999997
 31
0.0
  0
ATTDEF
  5
487
330
43E
100
AcDbEntity
  8
TEXT35
100
AcDbText
 10
-104.4935632823758
 20
33.13408015176805
 30
0.0
 40
3.5
  1

 41
0.8
  7
TEXT35
100
AcDbAttributeDefinition
280
     0
  3
Maßstab 2:
  2
F54
 70
     0
280
     0
  0
ATTDEF
  5
488
330
43E
100
AcDbEntity
  8
TEXT35
100
AcDbText
 10
-104.487948258847
 20
28.6
 30
0.0
 40
3.5
  1

 41
0.8
  7
TEXT35
100
AcDbAttributeDefinition
280
     0
  3
Maßstab 3:
  2
F55
 70
     0
280
     0
  0
ATTDEF
  5
489
330
43E
100
AcDbEntity
  8
TEXT50
100
AcDbText
 10
-106.6
 20
37.8
 30
0.0
 40
5.0
  1

 41
0.8
  7
TEXT50
100
AcDbAttributeDefinition
280
     0
  3
Maßstab 1:
  2
F25
 70
     0
280
     0
  0
TEXT
  5
48A
330
43E
100
AcDbEntity
  8
KOPF
100
AcDbText
 10
-112.263457
 20
43.88678899999999
 30
0.0
 40
2.0
  1
Massstab/Scale:
 41
0.8
  7
TEXT20
100
AcDbText
  0
LINE
  5
48B
330
43E
100
AcDbEntity
  8
KOPF
 62
    12
100
AcDbLine
 10
-57.80813400000011
 20
27.0
 30
0.0
 11
-57.80813400000011
 21
46.99999999999997
 31
0.0
  0
LINE
  5
48C
330
43E
100
AcDbEntity
  8
KOPF
100
AcDbLine
 10
-57.80813400000011
 20
27.0
 30
0.0
 11
-57.80813400000011
 21
46.99999999999997
 31
0.0
  0
TEXT
  5
48D
330
43E
100
AcDbEntity
  8
KOPF
100
AcDbText
 10
-81.59296000000006
 20
23.69783599999999
 30
0.0
 40
2.0
  1
Zeichnung Nr./Drawing No. :
 41
0.8
  7
TEXT20
100
AcDbText
  0
ATTDEF
  5
48E
330
43E
100
AcDbEntity
  8
TEXT50
100
AcDbText
 10
-78.29193986361122
 20
14.50587824180555
 30
0.0
 40
5.0
  1

 41
0.8
  7
TEXT50
100
AcDbAttributeDefinition
280
     0
  3
Standart:
  2
F1
 70
     0
280
     0
  0
TEXT
  5
48F
330
43E
100
AcDbEntity
  8
KOPF
100
AcDbText
 10
-33.57569784693112
 20
43.89175299409482
 30
0.0
 40
1.54
  1
Diese Zeichnung darf weder kopiert
 41
0.8
  7
TEXT20
100
AcDbText
  0
TEXT
  5
490
330
43E
100
AcDbEntity
  8
KOPF
100
AcDbText
 10
-33.57569784693112
 20
41.52458113737262
 30
0.0
 40
1.54
  1
noch dritten Personen, insbesondere
 41
0.8
  7
TEXT20
100
AcDbText
  0
TEXT
  5
491
330
43E
100
AcDbEntity
  8
KOPF
100
AcDbText
 10
-33.57569784693112
 20
36.90166145976977
 30
0.0
 40
1.54
  1
mitgeteilt werden und bleibt unser
 41
0.8
  7
TEXT20
100
AcDbText
  0
TEXT
  5
492
330
43E
100
AcDbEntity
  8
KOPF
100
AcDbText
 10
-33.57569784693112
 20
34.63884677996943
 30
0.0
 40
1.54
  1
Eigentum.
 41
0.8
  7
TEXT20
100
AcDbText
  0
TEXT
  5
493
330
43E
100
AcDbEntity
  8
KOPF
100
AcDbText
 10
-33.57569784693112
 20
39.24347006941072
 30
0.0
 40
1.54
  1
zum Zweck anderweitiger Benutzung
 41
0.8
  7
TEXT20
100
AcDbText
  0
TEXT
  5
494
330
43E
100
AcDbEntity
  8
KOPF
100
AcDbText
 10
-33.7904806989385
 20
31.57334562454959
 30
0.0
 40
1.54
  1
Schutzvermerk nach DIN 34 beachten
 41
0.75
  7
TEXT20
100
AcDbText
  0
LINE
  5
495
330
43E
100
AcDbEntity
  8
KOPF
100
AcDbLine
 10
-34.94281200000012
 20
47.01203199999999
 30
0.0
 11
-34.94281200000012
 21
27.0
 31
0.0
  0
LINE
  5
496
330
43E
100
AcDbEntity
  8
KOPF
100
AcDbLine
 10
-34.94281200000012
 20
47.01203199999999
 30
0.0
 11
-34.94281200000012
 21
27.0
 31
0.0
  0
LINE
  5
497
330
43E
100
AcDbEntity
  8
MITTE
100
AcDbLine
 10
-68.72053601410289
 20
36.04852954632858
 30
0.0
 11
-58.09977058652555
 21
36.04852954632858
 31
0.0
  0
LINE
  5
498
330
43E
100
AcDbEntity
  8
TEXT50
100
AcDbLine
 10
-67.92397860703466
 20
32.02559619470341
 30
0.0
 11
-59.37426243783511
 21
34.06858135367652
 31
0.0
  0
LINE
  5
499
330
43E
100
AcDbEntity
  8
TEXT50
100
AcDbLine
 10
-59.37426243783511
 20
38.02847773898061
 30
0.0
 11
-67.92397860703466
 21
40.07146289795374
 31
0.0
  0
TEXT
  5
49A
330
43E
100
AcDbEntity
  8
KOPF
100
AcDbText
 10
-79.98776247883302
 20
43.82431699999997
 30
0.0
 40
2.0
  1
Projektion: ISO-E
 41
0.8
  7
TEXT20
100
AcDbText
  0
LINE
  5
49B
330
43E
100
AcDbEntity
  8
TEXT50
100
AcDbLine
 10
-67.92397860703466
 20
40.07146289795374
 30
0.0
 11
-67.92397860703466
 21
32.02559619470346
 31
0.0
  0
LINE
  5
49C
330
43E
100
AcDbEntity
  8
MITTE
100
AcDbLine
 10
-74.35987264243829
 20
40.07146289795374
 30
0.0
 11
-74.35987264243829
 21
30.76413131482123
 31
0.0
  0
CIRCLE
  5
49D
330
43E
100
AcDbEntity
  8
TEXT50
100
AcDbCircle
 10
-74.35987264243829
 20
36.04852954632858
 30
0.0
 40
4.022933351625178
  0
CIRCLE
  5
49E
330
43E
100
AcDbEntity
  8
TEXT50
100
AcDbCircle
 10
-74.35987264243829
 20
36.04852954632858
 30
0.0
 40
1.979948192651899
  0
LINE
  5
49F
330
43E
100
AcDbEntity
  8
MITTE
100
AcDbLine
 10
-79.35163239339965
 20
36.04852954632858
 30
0.0
 11
-69.36811289147698
 21
36.04852954632858
 31
0.0
  0
LINE
  5
4A0
330
43E
100
AcDbEntity
  8
TEXT50
100
AcDbLine
 10
-59.37426243783511
 20
38.02847773898061
 30
0.0
 11
-59.37426243783511
 21
34.06858135367652
 31
0.0
  0
LWPOLYLINE
  5
4A1
330
43E
100
AcDbEntity
  8
KOPF
 62
    12
100
AcDbPolyline
 90
        2
 70
     0
 43
0.5
 10
-12.0
 20
27.0
 10
-12.0
 20
10.0
  0
LINE
  5
4A2
330
43E
100
AcDbEntity
  8
KOPF
100
AcDbLine
 10
-12.0
 20
27.0
 30
0.0
 11
-12.0
 21
10.0
 31
0.0
  0
ATTDEF
  5
4A3
330
43E
100
AcDbEntity
  8
TEXT50
100
AcDbText
 10
-5.58570360403041
 20
17.00587824180555
 30
0.0
 40
5.0
  1

 41
0.8
  7
TEXT50
 72
     4
 11
-5.58570360403041
 21
17.00587824180555
 31
0.0
100
AcDbAttributeDefinition
280
     0
  3
Index:
  2
F1B
 70
     0
280
     0
  0
TEXT
  5
4A4
330
43E
100
AcDbEntity
  8
KOPF
100
AcDbText
 10
-8.353129999999964
 20
23.330072
 30
0.0
 40
2.0
  1
Index
 41
0.8
  7
TEXT20
100
AcDbText
  0
TEXT
  5
4A5
330
43E
100
AcDbEntity
  8
KOPF
100
AcDbText
 10
-94.40535829344497
 20
70.39773773357916
 30
0.0
 40
2.0
  1
Benennung/Description
 41
0.8
  7
TEXT20
100
AcDbText
  0
LINE
  5
4A6
330
43E
100
AcDbEntity
  8
KOPF
100
AcDbLine
 10
-15.0
 20
88.49999999999996
 30
0.0
 11
-15.0
 21
68.49999999999997
 31
0.0
  0
LINE
  5
4A7
330
43E
100
AcDbEntity
  8
KOPF
100
AcDbLine
 10
-15.0
 20
88.49999999999996
 30
0.0
 11
-15.0
 21
68.49999999999997
 31
0.0
  0
TEXT
  5
4A8
330
43E
100
AcDbEntity
  8
KOPF
100
AcDbText
 10
-11.65833600000008
 20
69.53813999999997
 30
0.0
 40
2.0
  1
Name
 41
0.8
  7
TEXT20
100
AcDbText
  0
TEXT
  5
4A9
330
43E
100
AcDbEntity
  8
KOPF
100
AcDbText
 10
-11.65833600000008
 20
69.53813999999997
 30
0.0
 40
2.0
  1
Name
 41
0.8
  7
TEXT20
100
AcDbText
  0
ATTDEF
  5
4AA
330
43E
100
AcDbEntity
  8
TEXT25
100
AcDbText
 10
-13.39999999999998
 20
74.90000000000001
 30
0.0
 40
2.0
  1

 41
0.8
  7
TEXT20
100
AcDbAttributeDefinition
280
     0
  3
Name vv.:
  2
F75
 70
     0
280
     0
  0
ATTDEF
  5
4AB
330
43E
100
AcDbEntity
  8
TEXT25
100
AcDbText
 10
-13.39999999999998
 20
79.7
 30
0.0
 40
2.0
  1

 41
0.8
  7
TEXT20
100
AcDbAttributeDefinition
280
     0
  3
Name v.:
  2
F71
 70
     0
280
     0
  0
ATTDEF
  5
4AC
330
43E
100
AcDbEntity
  8
TEXT25
100
AcDbText
 10
-13.31006638105163
 20
84.29999999999999
 30
0.0
 40
2.0
  1

 41
0.8
  7
TEXT20
100
AcDbAttributeDefinition
280
     0
  3
Name l.:
  2
F67
 70
     0
280
     0
  0
LINE
  5
4AD
330
43E
100
AcDbEntity
  8
KOPF
100
AcDbLine
 10
-182.0
 20
36.99999999999997
 30
0.0
 11
-113.4
 21
36.99999999999997
 31
0.0
  0
LINE
  5
4AE
330
43E
100
AcDbEntity
  8
KOPF
100
AcDbLine
 10
-182.0
 20
31.99999999999997
 30
0.0
 11
-113.4
 21
31.99999999999997
 31
0.0
  0
MTEXT
  5
4AF
330
43E
100
AcDbEntity
  8
Sperrlayer
 62
     1
100
AcDbMText
 10
-166.0749851709908
 20
9.027899370527848
 30
0.0
 40
10.0
 41
771.0
 46
0.0
 71
     1
 72
     5
  1
VORABZUG - nicht FREIGEGEBEN !
  7
TEXT20
 11
0.8660254037844387
 21
0.5
 31
0.0
 73
     1
 44
1.0
  0
MTEXT
  5
4B0
330
43E
100
AcDbEntity
  8
KOPF
100
AcDbMText
 10
-56.97826298488752
 20
45.08280162644718
 30
0.0
 40
1.5
 41
22.0354509848874
 46
0.0
 71
     1
 72
     5
  1
The drawing is property\Pof company ACO and must not be neither copied nor used for other unauthorized purposes.\PTrademark according to DIN 34
  7
TEXT20
 73
     1
 44
1.0
  0
ENDBLK
  5
4B2
330
43E
100
AcDbEntity
  8
0
100
AcDbBlockEnd
  0
BLOCK
  5
4E8
330
4E7
100
AcDbEntity
  8
0
100
AcDbBlockBegin
  2
*X4
 70
     1
 10
0.0
 20
0.0
 30
0.0
  3
*X4
  1

  0
LINE
  5
4E9
330
4E7
100
AcDbEntity
  8
0
 62
     0
100
AcDbLine
 10
-508.9083038598724
 20
180.167254406418
 30
0.0
 11
-506.5320932591134
 21
182.543465007177
 31
0.0
  0
LINE
  5
4EA
330
4E7
100
AcDbEntity
  8
0
 62
     0
100
AcDbLine
 10
-508.7788943373211
 20
180.6502173195625
 30
0.0
 11
-506.6068078817941
 21
182.8223037750896
 31
0.0
  0
LINE
  5
4EB
330
4E7
100
AcDbEntity
  8
0
 62
     0
100
AcDbLine
 10
-508.6494848147699
 20
181.1331802327071
 30
0.0
 11
-506.6815225044748
 21
183.1011425430022
 31
0.0
  0
LINE
  5
4EC
330
4E7
100
AcDbEntity
  8
0
 62
     0
100
AcDbLine
 10
-508.5200752922187
 20
181.6161431458516
 30
0.0
 11
-506.7562371271555
 21
183.3799813109148
 31
0.0
  0
LINE
  5
4ED
330
4E7
100
AcDbEntity
  8
0
 62
     0
100
AcDbLine
 10
-508.3906657696673
 20
182.0991060589961
 30
0.0
 11
-506.8309517498361
 21
183.6588200788274
 31
0.0
  0
LINE
  5
4EE
330
4E7
100
AcDbEntity
  8
0
 62
     0
100
AcDbLine
 10
-508.2612562471161
 20
182.5820689721407
 30
0.0
 11
-506.9056663725168
 21
183.93765884674
 31
0.0
  0
LINE
  5
4EF
330
4E7
100
AcDbEntity
  8
0
 62
     0
100
AcDbLine
 10
-508.1318467245648
 20
183.0650318852852
 30
0.0
 11
-506.9803809951975
 21
184.2164976146526
 31
0.0
  0
LINE
  5
4F0
330
4E7
100
AcDbEntity
  8
0
 62
     0
100
AcDbLine
 10
-508.0024372020136
 20
183.5479947984298
 30
0.0
 11
-507.0550956178782
 21
184.4953363825652
 31
0.0
  0
LINE
  5
4F1
330
4E7
100
AcDbEntity
  8
0
 62
     0
100
AcDbLine
 10
-507.8730276794623
 20
184.0309577115743
 30
0.0
 11
-507.1298102405588
 21
184.7741751504778
 31
0.0
  0
LINE
  5
4F2
330
4E7
100
AcDbEntity
  8
0
 62
     0
100
AcDbLine
 10
-507.7436181569111
 20
184.5139206247188
 30
0.0
 11
-507.2045248632395
 21
185.0530139183904
 31
0.0
  0
LINE
  5
4F3
330
4E7
100
AcDbEntity
  8
0
 62
     0
100
AcDbLine
 10
-507.6142086343598
 20
184.9968835378633
 30
0.0
 11
-507.2792394859201
 21
185.331852686303
 31
0.0
  0
LINE
  5
4F4
330
4E7
100
AcDbEntity
  8
0
 62
     0
100
AcDbLine
 10
-507.4847991118085
 20
185.4798464510079
 30
0.0
 11
-507.3539541086009
 21
185.6106914542156
 31
0.0
  0
LINE
  5
4F5
330
4E7
100
AcDbEntity
  8
0
 62
     0
100
AcDbLine
 10
-509.0377133824237
 20
179.6842914932735
 30
0.0
 11
-506.4573786364328
 21
182.2646262392644
 31
0.0
  0
LINE
  5
4F6
330
4E7
100
AcDbEntity
  8
0
 62
     0
100
AcDbLine
 10
-509.1671229049749
 20
179.201328580129
 30
0.0
 11
-506.3826640137521
 21
181.9857874713518
 31
0.0
  0
LINE
  5
4F7
330
4E7
100
AcDbEntity
  8
0
 62
     0
100
AcDbLine
 10
-509.2965324275262
 20
178.7183656669844
 30
0.0
 11
-506.3079493910715
 21
181.7069487034391
 31
0.0
  0
LINE
  5
4F8
330
4E7
100
AcDbEntity
  8
0
 62
     0
100
AcDbLine
 10
-509.4259419500775
 20
178.2354027538399
 30
0.0
 11
-506.2332347683908
 21
181.4281099355266
 31
0.0
  0
LINE
  5
4F9
330
4E7
100
AcDbEntity
  8
0
 62
     0
100
AcDbLine
 10
-509.2457688710811
 20
178.062022442243
 30
0.0
 11
-506.1585201457101
 21
181.1492711676139
 31
0.0
  0
LINE
  5
4FA
330
4E7
100
AcDbEntity
  8
0
 62
     0
100
AcDbLine
 10
-508.8922154804878
 20
178.062022442243
 30
0.0
 11
-506.0838055230294
 21
180.8704323997013
 31
0.0
  0
LINE
  5
4FB
330
4E7
100
AcDbEntity
  8
0
 62
     0
100
AcDbLine
 10
-508.5386620898945
 20
178.062022442243
 30
0.0
 11
-506.0090909003488
 21
180.5915936317887
 31
0.0
  0
LINE
  5
4FC
330
4E7
100
AcDbEntity
  8
0
 62
     0
100
AcDbLine
 10
-508.1851086993013
 20
178.062022442243
 30
0.0
 11
-505.9343762776681
 21
180.3127548638761
 31
0.0
  0
LINE
  5
4FD
330
4E7
100
AcDbEntity
  8
0
 62
     0
100
AcDbLine
 10
-507.831555308708
 20
178.062022442243
 30
0.0
 11
-505.8596616549874
 21
180.0339160959635
 31
0.0
  0
LINE
  5
4FE
330
4E7
100
AcDbEntity
  8
0
 62
     0
100
AcDbLine
 10
-507.4780019181146
 20
178.062022442243
 30
0.0
 11
-505.7849470323067
 21
179.7550773280509
 31
0.0
  0
LINE
  5
4FF
330
4E7
100
AcDbEntity
  8
0
 62
     0
100
AcDbLine
 10
-507.1244485275214
 20
178.062022442243
 30
0.0
 11
-505.7102324096261
 21
179.4762385601383
 31
0.0
  0
LINE
  5
500
330
4E7
100
AcDbEntity
  8
0
 62
     0
100
AcDbLine
 10
-506.7708951369281
 20
178.062022442243
 30
0.0
 11
-505.6355177869455
 21
179.1973997922257
 31
0.0
  0
LINE
  5
501
330
4E7
100
AcDbEntity
  8
0
 62
     0
100
AcDbLine
 10
-506.4173417463349
 20
178.062022442243
 30
0.0
 11
-505.5608031642647
 21
178.9185610243131
 31
0.0
  0
LINE
  5
502
330
4E7
100
AcDbEntity
  8
0
 62
     0
100
AcDbLine
 10
-506.0637883557417
 20
178.062022442243
 30
0.0
 11
-505.486088541584
 21
178.6397222564005
 31
0.0
  0
LINE
  5
503
330
4E7
100
AcDbEntity
  8
0
 62
     0
100
AcDbLine
 10
-505.7102349651484
 20
178.062022442243
 30
0.0
 11
-505.4113739189034
 21
178.3608834884879
 31
0.0
  0
LINE
  5
504
330
4E7
100
AcDbEntity
  8
0
 62
     0
100
AcDbLine
 10
-505.3566815745551
 20
178.062022442243
 30
0.0
 11
-505.3366592962227
 21
178.0820447205753
 31
0.0
  0
ENDBLK
  5
505
330
4E7
100
AcDbEntity
  8
0
100
AcDbBlockEnd
  0
BLOCK
  5
507
330
506
100
AcDbEntity
  8
0
100
AcDbBlockBegin
  2
*X5
 70
     1
 10
0.0
 20
0.0
 30
0.0
  3
*X5
  1

  0
LINE
  5
508
330
506
100
AcDbEntity
  8
0
 62
     0
100
AcDbLine
 10
-333.2405270171299
 20
180.4725495148969
 30
0.0
 11
-330.9933493117873
 21
182.7197272202395
 31
0.0
  0
LINE
  5
509
330
506
100
AcDbEntity
  8
0
 62
     0
100
AcDbLine
 10
-333.1111174945786
 20
180.9555124280414
 30
0.0
 11
-331.0680639344679
 21
182.998565988152
 31
0.0
  0
LINE
  5
50A
330
506
100
AcDbEntity
  8
0
 62
     0
100
AcDbLine
 10
-332.9817079720274
 20
181.4384753411859
 30
0.0
 11
-331.1427785571486
 21
183.2774047560647
 31
0.0
  0
LINE
  5
50B
330
506
100
AcDbEntity
  8
0
 62
     0
100
AcDbLine
 10
-332.8522984494761
 20
181.9214382543304
 30
0.0
 11
-331.2174931798293
 21
183.5562435239772
 31
0.0
  0
LINE
  5
50C
330
506
100
AcDbEntity
  8
0
 62
     0
100
AcDbLine
 10
-332.7228889269248
 20
182.404401167475
 30
0.0
 11
-331.29220780251
 21
183.8350822918899
 31
0.0
  0
LINE
  5
50D
330
506
100
AcDbEntity
  8
0
 62
     0
100
AcDbLine
 10
-332.5934794043736
 20
182.8873640806195
 30
0.0
 11
-331.3669224251906
 21
184.1139210598025
 31
0.0
  0
LINE
  5
50E
330
506
100
AcDbEntity
  8
0
 62
     0
100
AcDbLine
 10
-332.4640698818224
 20
183.370326993764
 30
0.0
 11
-331.4416370478713
 21
184.3927598277151
 31
0.0
  0
LINE
  5
50F
330
506
100
AcDbEntity
  8
0
 62
     0
100
AcDbLine
 10
-332.3346603592711
 20
183.8532899069086
 30
0.0
 11
-331.516351670552
 21
184.6715985956277
 31
0.0
  0
LINE
  5
510
330
506
100
AcDbEntity
  8
0
 62
     0
100
AcDbLine
 10
-332.2052508367199
 20
184.3362528200531
 30
0.0
 11
-331.5910662932326
 21
184.9504373635403
 31
0.0
  0
LINE
  5
511
330
506
100
AcDbEntity
  8
0
 62
     0
100
AcDbLine
 10
-332.0758413141686
 20
184.8192157331976
 30
0.0
 11
-331.6657809159133
 21
185.2292761314529
 31
0.0
  0
LINE
  5
512
330
506
100
AcDbEntity
  8
0
 62
     0
100
AcDbLine
 10
-331.9464317916173
 20
185.3021786463422
 30
0.0
 11
-331.740495538594
 21
185.5081148993655
 31
0.0
  0
LINE
  5
513
330
506
100
AcDbEntity
  8
0
 62
     0
100
AcDbLine
 10
-331.8170222690661
 20
185.7851415594867
 30
0.0
 11
-331.8152101612747
 21
185.7869536672781
 31
0.0
  0
LINE
  5
514
330
506
100
AcDbEntity
  8
0
 62
     0
100
AcDbLine
 10
-333.3699365396811
 20
179.9895866017523
 30
0.0
 11
-330.9186346891066
 21
182.4408884523269
 31
0.0
  0
LINE
  5
515
330
506
100
AcDbEntity
  8
0
 62
     0
100
AcDbLine
 10
-333.4993460622324
 20
179.5066236886078
 30
0.0
 11
-330.8439200664259
 21
182.1620496844143
 31
0.0
  0
LINE
  5
516
330
506
100
AcDbEntity
  8
0
 62
     0
100
AcDbLine
 10
-333.6287555847836
 20
179.0236607754633
 30
0.0
 11
-330.7692054437453
 21
181.8832109165017
 31
0.0
  0
LINE
  5
517
330
506
100
AcDbEntity
  8
0
 62
     0
100
AcDbLine
 10
-333.7581651073349
 20
178.5406978623188
 30
0.0
 11
-330.6944908210646
 21
181.6043721485891
 31
0.0
  0
LINE
  5
518
330
506
100
AcDbEntity
  8
0
 62
     0
100
AcDbLine
 10
-333.8832871368174
 20
178.062022442243
 30
0.0
 11
-330.6197761983839
 21
181.3255333806765
 31
0.0
  0
LINE
  5
519
330
506
100
AcDbEntity
  8
0
 62
     0
100
AcDbLine
 10
-333.5297337462241
 20
178.062022442243
 30
0.0
 11
-330.5450615757032
 21
181.0466946127639
 31
0.0
  0
LINE
  5
51A
330
506
100
AcDbEntity
  8
0
 62
     0
100
AcDbLine
 10
-333.1761803556308
 20
178.062022442243
 30
0.0
 11
-330.4703469530226
 21
180.7678558448513
 31
0.0
  0
LINE
  5
51B
330
506
100
AcDbEntity
  8
0
 62
     0
100
AcDbLine
 10
-332.8226269650376
 20
178.062022442243
 30
0.0
 11
-330.3956323303419
 21
180.4890170769387
 31
0.0
  0
LINE
  5
51C
330
506
100
AcDbEntity
  8
0
 62
     0
100
AcDbLine
 10
-332.4690735744443
 20
178.062022442243
 30
0.0
 11
-330.3209177076612
 21
180.2101783090261
 31
0.0
  0
LINE
  5
51D
330
506
100
AcDbEntity
  8
0
 62
     0
100
AcDbLine
 10
-332.115520183851
 20
178.062022442243
 30
0.0
 11
-330.2462030849806
 21
179.9313395411135
 31
0.0
  0
LINE
  5
51E
330
506
100
AcDbEntity
  8
0
 62
     0
100
AcDbLine
 10
-331.7619667932577
 20
178.062022442243
 30
0.0
 11
-330.1714884622999
 21
179.6525007732009
 31
0.0
  0
LINE
  5
51F
330
506
100
AcDbEntity
  8
0
 62
     0
100
AcDbLine
 10
-331.4084134026645
 20
178.062022442243
 30
0.0
 11
-330.0967738396192
 21
179.3736620052882
 31
0.0
  0
LINE
  5
520
330
506
100
AcDbEntity
  8
0
 62
     0
100
AcDbLine
 10
-331.0548600120712
 20
178.062022442243
 30
0.0
 11
-330.0220592169385
 21
179.0948232373757
 31
0.0
  0
LINE
  5
521
330
506
100
AcDbEntity
  8
0
 62
     0
100
AcDbLine
 10
-330.7013066214779
 20
178.062022442243
 30
0.0
 11
-329.9473445942579
 21
178.8159844694631
 31
0.0
  0
LINE
  5
522
330
506
100
AcDbEntity
  8
0
 62
     0
100
AcDbLine
 10
-330.3477532308846
 20
178.062022442243
 30
0.0
 11
-329.8726299715772
 21
178.5371457015505
 31
0.0
  0
LINE
  5
523
330
506
100
AcDbEntity
  8
0
 62
     0
100
AcDbLine
 10
-329.9941998402914
 20
178.062022442243
 30
0.0
 11
-329.7979153488965
 21
178.2583069336379
 31
0.0
  0
ENDBLK
  5
524
330
506
100
AcDbEntity
  8
0
100
AcDbBlockEnd
  0
BLOCK
  5
5DB
330
5DA
100
AcDbEntity
  8
0
100
AcDbBlockBegin
  2
A$C7B2D12FE
 70
     0
 10
0.0
 20
0.0
 30
0.0
  3
A$C7B2D12FE
  1

  0
HATCH
  5
5DC
330
5DA
100
AcDbEntity
  8
SCHRAFF
100
AcDbHatch
 10
0.0
 20
0.0
 30
0.0
210
0.0
220
0.0
230
1.0
  2
ANSI31
 70
     0
 71
     0
 91
        2
 92
        7
 72
     1
 73
     1
 93
        8
 10
53.74999999999954
 20
-63.00000000000011
 42
-0.4142135623730956
 10
44.99999999999954
 20
-71.75000000000011
 42
0.0
 10
25.0
 20
-71.75000000000011
 42
0.0
 10
25.0
 20
-73.00000000000011
 42
0.0
 10
44.99999999999954
 20
-73.00000000000011
 42
0.4142135623730944
 10
54.99999999999954
 20
-63.00000000000011
 42
0.0
 10
54.99999999999966
 20
0.0
 42
0.0
 10
53.74999999999966
 20
0.0
 42
0.0
 97
        0
 92
        7
 72
     1
 73
     1
 93
        8
 10
-54.99999999999954
 20
-63.00000000000011
 42
0.4142135623730944
 10
-44.99999999999954
 20
-73.00000000000011
 42
0.0
 10
-25.00000000000011
 20
-73.00000000000011
 42
0.0
 10
-25.00000000000011
 20
-71.75000000000011
 42
0.0
 10
-44.99999999999954
 20
-71.75000000000011
 42
-0.4142135623730948
 10
-53.74999999999954
 20
-63.00000000000011
 42
0.0
 10
-53.7499999999996
 20
0.0
 42
0.0
 10
-54.99999999999966
 20
0.0
 42
0.0
 97
        0
 75
     0
 76
     1
 52
0.0
 41
10.0
 77
     0
 78
     1
 53
45.0
 43
-104.1112729168351
 44
-245.6486433385949
 45
-0.8838834764831842
 46
0.8838834764831844
 79
     0
 47
0.1252875382165263
 98
        2
 10
54.18665874903104
 20
-11.8962673232794
 10
-54.85256834386428
 20
-20.66639453569417
1001
ACAD
1010
0.0
1020
0.0
1030
0.0
  0
LINE
  5
5DD
330
5DA
100
AcDbEntity
  8
SICHTBAR
100
AcDbLine
 10
-54.99999999999954
 20
-63.00000000000011
 30
0.0
 11
-54.99999999999966
 21
-0.0000000000001137
 31
0.0
  0
LINE
  5
5DE
330
5DA
100
AcDbEntity
  8
SICHTBAR
100
AcDbLine
 10
-53.74999999999954
 20
-63.00000000000011
 30
0.0
 11
-53.74999999999966
 21
-0.0000000000001137
 31
0.0
  0
ARC
  5
5DF
330
5DA
100
AcDbEntity
  8
SICHTBAR
100
AcDbCircle
 10
-44.99999999999954
 20
-63.00000000000011
 30
0.0
 40
10.0
100
AcDbArc
 50
180.0
 51
270.0
  0
ARC
  5
5E0
330
5DA
100
AcDbEntity
  8
SICHTBAR
100
AcDbCircle
 10
-44.99999999999954
 20
-63.00000000000011
 30
0.0
 40
8.75
100
AcDbArc
 50
180.0
 51
270.0
  0
LINE
  5
5E1
330
5DA
100
AcDbEntity
  8
SICHTBAR
100
AcDbLine
 10
54.99999999999954
 20
-63.00000000000011
 30
0.0
 11
54.99999999999966
 21
0.0
 31
0.0
  0
LINE
  5
5E2
330
5DA
100
AcDbEntity
  8
SICHTBAR
100
AcDbLine
 10
53.74999999999954
 20
-63.00000000000011
 30
0.0
 11
53.74999999999966
 21
0.0
 31
0.0
  0
ARC
  5
5E3
330
5DA
100
AcDbEntity
  8
SICHTBAR
100
AcDbCircle
 10
44.99999999999954
 20
-63.00000000000011
 30
0.0
 40
10.0
100
AcDbArc
 50
270.0
 51
0.0
  0
ARC
  5
5E4
330
5DA
100
AcDbEntity
  8
SICHTBAR
100
AcDbCircle
 10
44.99999999999954
 20
-63.00000000000011
 30
0.0
 40
8.75
100
AcDbArc
 50
270.0
 51
0.0
  0
LINE
  5
5E5
330
5DA
100
AcDbEntity
  8
SICHTBAR
100
AcDbLine
 10
25.0
 20
-73.00000000000011
 30
0.0
 11
25.0
 21
-71.75000000000011
 31
0.0
  0
LINE
  5
5E6
330
5DA
100
AcDbEntity
  8
SICHTBAR
100
AcDbLine
 10
-25.00000000000011
 20
-73.00000000000011
 30
0.0
 11
-25.00000000000011
 21
-71.75000000000011
 31
0.0
  0
LINE
  5
5E7
330
5DA
100
AcDbEntity
  8
SICHTBAR
100
AcDbLine
 10
25.0
 20
-73.00000000000011
 30
0.0
 11
44.99999999999954
 21
-73.00000000000011
 31
0.0
  0
LINE
  5
5E8
330
5DA
100
AcDbEntity
  8
SICHTBAR
100
AcDbLine
 10
25.0
 20
-71.75000000000011
 30
0.0
 11
44.99999999999954
 21
-71.75000000000017
 31
0.0
  0
LINE
  5
5E9
330
5DA
100
AcDbEntity
  8
SICHTBAR
100
AcDbLine
 10
-25.00000000000011
 20
-73.00000000000011
 30
0.0
 11
-44.99999999999954
 21
-73.00000000000011
 31
0.0
  0
LINE
  5
5EA
330
5DA
100
AcDbEntity
  8
SICHTBAR
100
AcDbLine
 10
-25.00000000000011
 20
-71.75000000000011
 30
0.0
 11
-44.99999999999954
 21
-71.75000000000011
 31
0.0
  0
LINE
  5
5ED
330
5DA
100
AcDbEntity
  8
SICHTBAR
100
AcDbLine
 10
-55.0
 20
-1.000000000000113
 30
0.0
 11
-55.0
 21
-11.00000000000011
 31
0.0
  0
LINE
  5
5EE
330
5DA
100
AcDbEntity
  8
SICHTBAR
100
AcDbLine
 10
55.0
 20
-1.000000000000227
 30
0.0
 11
55.0
 21
-11.00000000000022
 31
0.0
  0
LINE
  5
5EF
330
5DA
100
AcDbEntity
  8
SICHTBAR
100
AcDbLine
 10
-55.0
 20
0.0
 30
0.0
 11
-38.05000000000001
 21
0.0
 31
0.0
  0
LINE
  5
C0A
330
5DA
100
AcDbEntity
  8
VERDECKT
100
AcDbLine
 10
-38.04999999999996
 20
0.0000000000000568
 30
0.0
 11
38.0499999999999
 21
-0.0000000000000568
 31
0.0
  0
LINE
  5
C0B
330
5DA
100
AcDbEntity
  8
SICHTBAR
100
AcDbLine
 10
38.0499999999999
 20
-0.0000000000000568
 30
0.0
 11
55.0
 21
0.0
 31
0.0
  0
ENDBLK
  5
5F0
330
5DA
100
AcDbEntity
  8
0
100
AcDbBlockEnd
  0
BLOCK
  5
81E
330
81D
100
AcDbEntity
  8
0
100
AcDbBlockBegin
  2
*D7
 70
     1
 10
0.0
 20
0.0
 30
0.0
  3
*D7
  1

  0
LINE
  5
8D2
330
81D
100
AcDbEntity
  8
BEMASS
440
 16777216
370
    -2
100
AcDbLine
 10
378.7548437431775
 20
288.1301655921656
 30
0.0
 11
397.1249974503625
 21
288.1301655921655
 31
0.0
  0
LINE
  5
8D3
330
81D
100
AcDbEntity
  8
BEMASS
440
 16777216
370
    -2
100
AcDbLine
 10
383.7548437431773
 20
338.1301655921654
 30
0.0
 11
397.1249974503625
 21
338.1301655921654
 31
0.0
  0
LINE
  5
8D4
330
81D
100
AcDbEntity
  8
BEMASS
440
 16777216
370
    -2
100
AcDbLine
 10
395.3249974503625
 20
291.6301655921655
 30
0.0
 11
395.3249974503625
 21
334.6301655921654
 31
0.0
  0
SOLID
  5
8D5
330
81D
100
AcDbEntity
  8
BEMASS
440
 16777216
100
AcDbTrace
 10
394.7416641170292
 20
291.6301655921655
 30
0.0
 11
395.9083307836958
 21
291.6301655921655
 31
0.0
 12
395.3249974503625
 22
288.1301655921655
 32
0.0
 13
395.3249974503625
 23
288.1301655921655
 33
0.0
  0
SOLID
  5
8D6
330
81D
100
AcDbEntity
  8
BEMASS
440
 16777216
100
AcDbTrace
 10
394.7416641170292
 20
334.6301655921654
 30
0.0
 11
395.9083307836958
 21
334.6301655921654
 31
0.0
 12
395.3249974503625
 22
338.1301655921654
 32
0.0
 13
395.3249974503625
 23
338.1301655921654
 33
0.0
  0
MTEXT
  5
8D7
330
81D
100
AcDbEntity
  8
BEMASS
440
 16777216
100
AcDbMText
 10
392.0749974503625
 20
313.1301655921656
 30
0.0
 40
3.5
 41
0.0
 46
0.0
 71
     5
 72
     1
  1
\A1;50
  7
BEMSTIL
 11
0.0000000000000001
 21
1.0
 31
0.0
 73
     1
 44
1.0
  0
POINT
  5
8D8
330
81D
100
AcDbEntity
  8
DEFPOINTS
 62
     0
440
 16777216
100
AcDbPoint
 10
378.7548437431775
 20
288.1301655921656
 30
0.0
  0
POINT
  5
8D9
330
81D
100
AcDbEntity
  8
DEFPOINTS
 62
     0
440
 16777216
100
AcDbPoint
 10
383.7548437431773
 20
338.1301655921654
 30
0.0
  0
POINT
  5
8DA
330
81D
100
AcDbEntity
  8
DEFPOINTS
 62
     0
440
 16777216
100
AcDbPoint
 10
395.3249974503625
 20
338.1301655921654
 30
0.0
  0
ENDBLK
  5
81F
330
81D
100
AcDbEntity
  8
0
100
AcDbBlockEnd
  0
BLOCK
  5
82A
330
829
100
AcDbEntity
  8
0
100
AcDbBlockBegin
  2
*D8
 70
     1
 10
0.0
 20
0.0
 30
0.0
  3
*D8
  1

  0
LINE
  5
8DB
330
829
100
AcDbEntity
  8
BEMASS
440
 16777216
370
    -2
100
AcDbLine
 10
387.2374083186926
 20
354.1301655921655
 30
0.0
 11
397.1650693856289
 21
354.1301655921655
 31
0.0
  0
LINE
  5
8DC
330
829
100
AcDbEntity
  8
BEMASS
440
 16777216
370
    -2
100
AcDbLine
 10
390.4399205967699
 20
338.1301655921654
 30
0.0
 11
397.1650693856289
 21
338.1301655921654
 31
0.0
  0
LINE
  5
8DD
330
829
100
AcDbEntity
  8
BEMASS
440
 16777216
370
    -2
100
AcDbLine
 10
395.3650693856289
 20
350.6301655921656
 30
0.0
 11
395.3650693856289
 21
341.6301655921655
 31
0.0
  0
SOLID
  5
8DE
330
829
100
AcDbEntity
  8
BEMASS
440
 16777216
100
AcDbTrace
 10
394.7817360522956
 20
350.6301655921656
 30
0.0
 11
395.9484027189622
 21
350.6301655921656
 31
0.0
 12
395.3650693856289
 22
354.1301655921655
 32
0.0
 13
395.3650693856289
 23
354.1301655921655
 33
0.0
  0
SOLID
  5
8DF
330
829
100
AcDbEntity
  8
BEMASS
440
 16777216
100
AcDbTrace
 10
394.7817360522956
 20
341.6301655921655
 30
0.0
 11
395.9484027189622
 21
341.6301655921655
 31
0.0
 12
395.3650693856289
 22
338.1301655921654
 32
0.0
 13
395.3650693856289
 23
338.1301655921654
 33
0.0
  0
MTEXT
  5
8E0
330
829
100
AcDbEntity
  8
BEMASS
440
 16777216
100
AcDbMText
 10
392.1150693856288
 20
346.1301655921656
 30
0.0
 40
3.5
 41
0.0
 46
0.0
 71
     5
 72
     1
  1
\A1;16
  7
BEMSTIL
 11
0.0000000000000001
 21
1.0
 31
0.0
 73
     1
 44
1.0
  0
POINT
  5
8E1
330
829
100
AcDbEntity
  8
DEFPOINTS
 62
     0
440
 16777216
100
AcDbPoint
 10
387.2374083186926
 20
354.1301655921655
 30
0.0
  0
POINT
  5
8E2
330
829
100
AcDbEntity
  8
DEFPOINTS
 62
     0
440
 16777216
100
AcDbPoint
 10
390.4399205967699
 20
338.1301655921654
 30
0.0
  0
POINT
  5
8E3
330
829
100
AcDbEntity
  8
DEFPOINTS
 62
     0
440
 16777216
100
AcDbPoint
 10
395.3650693856289
 20
338.1301655921654
 30
0.0
  0
ENDBLK
  5
82B
330
829
100
AcDbEntity
  8
0
100
AcDbBlockEnd
  0
BLOCK
  5
836
330
835
100
AcDbEntity
  8
0
100
AcDbBlockBegin
  2
*D9
 70
     1
 10
0.0
 20
0.0
 30
0.0
  3
*D9
  1

  0
LINE
  5
8E4
330
835
100
AcDbEntity
  8
BEMASS
440
 16777216
370
    -2
100
AcDbLine
 10
81.79964175231431
 20
31.06273798798793
 30
0.0
 11
81.79964175231431
 21
14.00677160115249
 31
0.0
  0
LINE
  5
8E5
330
835
100
AcDbEntity
  8
BEMASS
440
 16777216
370
    -2
100
AcDbLine
 10
231.7996417523143
 20
31.06273798798793
 30
0.0
 11
231.7996417523143
 21
14.00677160115249
 31
0.0
  0
LINE
  5
8E6
330
835
100
AcDbEntity
  8
BEMASS
440
 16777216
370
    -2
100
AcDbLine
 10
85.2996417523143
 20
15.80677160115249
 30
0.0
 11
228.2996417523143
 21
15.80677160115249
 31
0.0
  0
SOLID
  5
8E7
330
835
100
AcDbEntity
  8
BEMASS
440
 16777216
100
AcDbTrace
 10
85.2996417523143
 20
16.39010493448582
 30
0.0
 11
85.2996417523143
 21
15.22343826781916
 31
0.0
 12
81.79964175231431
 22
15.80677160115249
 32
0.0
 13
81.79964175231431
 23
15.80677160115249
 33
0.0
  0
SOLID
  5
8E8
330
835
100
AcDbEntity
  8
BEMASS
440
 16777216
100
AcDbTrace
 10
228.2996417523143
 20
16.39010493448582
 30
0.0
 11
228.2996417523143
 21
15.22343826781916
 31
0.0
 12
231.7996417523143
 22
15.80677160115249
 32
0.0
 13
231.7996417523143
 23
15.80677160115249
 33
0.0
  0
MTEXT
  5
8E9
330
835
100
AcDbEntity
  8
BEMASS
440
 16777216
100
AcDbMText
 10
156.7996417523143
 20
19.05677160115249
 30
0.0
 40
3.5
 41
0.0
 46
0.0
 71
     5
 72
     1
  1
\A1;150
  7
BEMSTIL
 73
     1
 44
1.0
  0
POINT
  5
8EA
330
835
100
AcDbEntity
  8
DEFPOINTS
 62
     0
440
 16777216
100
AcDbPoint
 10
81.79964175231431
 20
31.06273798798793
 30
0.0
  0
POINT
  5
8EB
330
835
100
AcDbEntity
  8
DEFPOINTS
 62
     0
440
 16777216
100
AcDbPoint
 10
231.7996417523143
 20
31.06273798798793
 30
0.0
  0
POINT
  5
8EC
330
835
100
AcDbEntity
  8
DEFPOINTS
 62
     0
440
 16777216
100
AcDbPoint
 10
231.7996417523143
 20
15.80677160115249
 30
0.0
  0
ENDBLK
  5
837
330
835
100
AcDbEntity
  8
0
100
AcDbBlockEnd
  0
BLOCK
  5
842
330
841
100
AcDbEntity
  8
0
100
AcDbBlockBegin
  2
*D10
 70
     1
 10
0.0
 20
0.0
 30
0.0
  3
*D10
  1

  0
LINE
  5
8ED
330
841
100
AcDbEntity
  8
BEMASS
440
 16777216
370
    -2
100
AcDbLine
 10
112.7996417523147
 20
271.1301655921655
 30
0.0
 11
70.27871692180513
 21
271.1301655921655
 31
0.0
  0
LINE
  5
8EE
330
841
100
AcDbEntity
  8
BEMASS
440
 16777216
370
    -2
100
AcDbLine
 10
81.79964175231431
 20
354.1301655921655
 30
0.0
 11
70.27871692180515
 21
354.1301655921655
 31
0.0
  0
LINE
  5
8EF
330
841
100
AcDbEntity
  8
BEMASS
440
 16777216
370
    -2
100
AcDbLine
 10
72.07871692180512
 20
274.6301655921655
 30
0.0
 11
72.07871692180514
 21
350.6301655921656
 31
0.0
  0
SOLID
  5
8F0
330
841
100
AcDbEntity
  8
BEMASS
440
 16777216
100
AcDbTrace
 10
71.4953835884718
 20
274.6301655921655
 30
0.0
 11
72.66205025513845
 21
274.6301655921655
 31
0.0
 12
72.07871692180512
 22
271.1301655921655
 32
0.0
 13
72.07871692180512
 23
271.1301655921655
 33
0.0
  0
SOLID
  5
8F1
330
841
100
AcDbEntity
  8
BEMASS
440
 16777216
100
AcDbTrace
 10
71.49538358847181
 20
350.6301655921656
 30
0.0
 11
72.66205025513847
 21
350.6301655921656
 31
0.0
 12
72.07871692180515
 22
354.1301655921655
 32
0.0
 13
72.07871692180515
 23
354.1301655921655
 33
0.0
  0
MTEXT
  5
8F2
330
841
100
AcDbEntity
  8
BEMASS
440
 16777216
100
AcDbMText
 10
68.82871692180508
 20
312.6301655921655
 30
0.0
 40
3.5
 41
0.0
 46
0.0
 71
     5
 72
     1
  1
\A1;83
  7
BEMSTIL
 11
0.0000000000000001
 21
1.0
 31
0.0
 73
     1
 44
1.0
  0
POINT
  5
8F3
330
841
100
AcDbEntity
  8
DEFPOINTS
 62
     0
440
 16777216
100
AcDbPoint
 10
112.7996417523147
 20
271.1301655921655
 30
0.0
  0
POINT
  5
8F4
330
841
100
AcDbEntity
  8
DEFPOINTS
 62
     0
440
 16777216
100
AcDbPoint
 10
81.79964175231431
 20
354.1301655921655
 30
0.0
  0
POINT
  5
8F5
330
841
100
AcDbEntity
  8
DEFPOINTS
 62
     0
440
 16777216
100
AcDbPoint
 10
72.07871692180515
 20
354.1301655921655
 30
0.0
  0
ENDBLK
  5
843
330
841
100
AcDbEntity
  8
0
100
AcDbBlockEnd
  0
BLOCK
  5
84E
330
84D
100
AcDbEntity
  8
0
100
AcDbBlockBegin
  2
*D11
 70
     1
 10
0.0
 20
0.0
 30
0.0
  3
*D11
  1

  0
LINE
  5
8F6
330
84D
100
AcDbEntity
  8
BEMASS
440
 16777216
370
    -2
100
AcDbLine
 10
93.21702773792527
 20
271.1301655921655
 30
0.0
 11
70.53097414663439
 21
271.1301655921655
 31
0.0
  0
LINE
  5
8F7
330
84D
100
AcDbEntity
  8
BEMASS
440
 16777216
370
    -2
100
AcDbLine
 10
132.7996417523143
 20
231.1301655921655
 30
0.0
 11
70.53097414663439
 21
231.1301655921655
 31
0.0
  0
LINE
  5
8F8
330
84D
100
AcDbEntity
  8
BEMASS
440
 16777216
370
    -2
100
AcDbLine
 10
72.33097414663439
 20
267.6301655921655
 30
0.0
 11
72.33097414663439
 21
234.6301655921656
 31
0.0
  0
SOLID
  5
8F9
330
84D
100
AcDbEntity
  8
BEMASS
440
 16777216
100
AcDbTrace
 10
71.74764081330106
 20
267.6301655921655
 30
0.0
 11
72.91430747996772
 21
267.6301655921655
 31
0.0
 12
72.33097414663439
 22
271.1301655921655
 32
0.0
 13
72.33097414663439
 23
271.1301655921655
 33
0.0
  0
SOLID
  5
8FA
330
84D
100
AcDbEntity
  8
BEMASS
440
 16777216
100
AcDbTrace
 10
71.74764081330106
 20
234.6301655921656
 30
0.0
 11
72.91430747996772
 21
234.6301655921656
 31
0.0
 12
72.33097414663439
 22
231.1301655921655
 32
0.0
 13
72.33097414663439
 23
231.1301655921655
 33
0.0
  0
MTEXT
  5
8FB
330
84D
100
AcDbEntity
  8
BEMASS
440
 16777216
100
AcDbMText
 10
69.08097414663434
 20
251.1301655921656
 30
0.0
 40
3.5
 41
0.0
 46
0.0
 71
     5
 72
     1
  1
\A1;40
  7
BEMSTIL
 11
0.0000000000000001
 21
1.0
 31
0.0
 73
     1
 44
1.0
  0
POINT
  5
8FC
330
84D
100
AcDbEntity
  8
DEFPOINTS
 62
     0
440
 16777216
100
AcDbPoint
 10
93.21702773792527
 20
271.1301655921655
 30
0.0
  0
POINT
  5
8FD
330
84D
100
AcDbEntity
  8
DEFPOINTS
 62
     0
440
 16777216
100
AcDbPoint
 10
132.7996417523143
 20
231.1301655921655
 30
0.0
  0
POINT
  5
8FE
330
84D
100
AcDbEntity
  8
DEFPOINTS
 62
     0
440
 16777216
100
AcDbPoint
 10
72.33097414663439
 20
231.1301655921655
 30
0.0
  0
ENDBLK
  5
84F
330
84D
100
AcDbEntity
  8
0
100
AcDbBlockEnd
  0
BLOCK
  5
85A
330
859
100
AcDbEntity
  8
0
100
AcDbBlockBegin
  2
*D12
 70
     1
 10
0.0
 20
0.0
 30
0.0
  3
*D12
  1

  0
LINE
  5
8FF
330
859
100
AcDbEntity
  8
BEMASS
440
 16777216
370
    -2
100
AcDbLine
 10
81.79964175231431
 20
359.1301655921654
 30
0.0
 11
70.27871692180515
 21
359.1301655921654
 31
0.0
  0
LINE
  5
900
330
859
100
AcDbEntity
  8
BEMASS
440
 16777216
370
    -2
100
AcDbLine
 10
81.79964175231434
 20
354.1301655921654
 30
0.0
 11
70.27871692180515
 21
354.1301655921654
 31
0.0
  0
LINE
  5
901
330
859
100
AcDbEntity
  8
BEMASS
440
 16777216
370
    -2
100
AcDbLine
 10
72.07871692180515
 20
362.6301655921654
 30
0.0
 11
72.07871692180515
 21
366.1301655921654
 31
0.0
  0
LINE
  5
902
330
859
100
AcDbEntity
  8
BEMASS
440
 16777216
370
    -2
100
AcDbLine
 10
72.07871692180514
 20
350.6301655921654
 30
0.0
 11
72.07871692180514
 21
347.1301655921654
 31
0.0
  0
SOLID
  5
903
330
859
100
AcDbEntity
  8
BEMASS
440
 16777216
100
AcDbTrace
 10
71.49538358847182
 20
362.6301655921654
 30
0.0
 11
72.66205025513848
 21
362.6301655921654
 31
0.0
 12
72.07871692180515
 22
359.1301655921654
 32
0.0
 13
72.07871692180515
 23
359.1301655921654
 33
0.0
  0
SOLID
  5
904
330
859
100
AcDbEntity
  8
BEMASS
440
 16777216
100
AcDbTrace
 10
71.49538358847181
 20
350.6301655921654
 30
0.0
 11
72.66205025513847
 21
350.6301655921654
 31
0.0
 12
72.07871692180515
 22
354.1301655921654
 32
0.0
 13
72.07871692180515
 23
354.1301655921654
 33
0.0
  0
MTEXT
  5
905
330
859
100
AcDbEntity
  8
BEMASS
440
 16777216
100
AcDbMText
 10
68.82871692180509
 20
356.6301655921654
 30
0.0
 40
3.5
 41
0.0
 46
0.0
 71
     5
 72
     1
  1
\A1;5
  7
BEMSTIL
 11
0.0000000000000001
 21
1.0
 31
0.0
 73
     1
 44
1.0
  0
POINT
  5
906
330
859
100
AcDbEntity
  8
DEFPOINTS
 62
     0
440
 16777216
100
AcDbPoint
 10
81.79964175231431
 20
359.1301655921654
 30
0.0
  0
POINT
  5
907
330
859
100
AcDbEntity
  8
DEFPOINTS
 62
     0
440
 16777216
100
AcDbPoint
 10
81.79964175231434
 20
354.1301655921654
 30
0.0
  0
POINT
  5
908
330
859
100
AcDbEntity
  8
DEFPOINTS
 62
     0
440
 16777216
100
AcDbPoint
 10
72.07871692180515
 20
354.1301655921654
 30
0.0
  0
ENDBLK
  5
85B
330
859
100
AcDbEntity
  8
0
100
AcDbBlockEnd
  0
BLOCK
  5
867
330
866
100
AcDbEntity
  8
0
100
AcDbBlockBegin
  2
*D13
 70
     1
 10
0.0
 20
0.0
 30
0.0
  3
*D13
  1

  0
LINE
  5
9F1
330
866
100
AcDbEntity
  8
BEMASS
440
 16777216
370
    -2
100
AcDbLine
 10
378.7548437431775
 20
288.1301655921656
 30
0.0
 11
397.1249974503625
 21
288.1301655921655
 31
0.0
  0
LINE
  5
9F2
330
866
100
AcDbEntity
  8
BEMASS
440
 16777216
370
    -2
100
AcDbLine
 10
378.7548437431775
 20
272.3801655921654
 30
0.0
 11
397.1249974503625
 21
272.3801655921654
 31
0.0
  0
LINE
  5
9F3
330
866
100
AcDbEntity
  8
BEMASS
440
 16777216
370
    -2
100
AcDbLine
 10
395.3249974503625
 20
284.6301655921655
 30
0.0
 11
395.3249974503625
 21
275.8801655921654
 31
0.0
  0
SOLID
  5
9F4
330
866
100
AcDbEntity
  8
BEMASS
440
 16777216
100
AcDbTrace
 10
394.7416641170292
 20
284.6301655921655
 30
0.0
 11
395.9083307836958
 21
284.6301655921655
 31
0.0
 12
395.3249974503625
 22
288.1301655921655
 32
0.0
 13
395.3249974503625
 23
288.1301655921655
 33
0.0
  0
SOLID
  5
9F5
330
866
100
AcDbEntity
  8
BEMASS
440
 16777216
100
AcDbTrace
 10
394.7416641170292
 20
275.8801655921654
 30
0.0
 11
395.9083307836958
 21
275.8801655921654
 31
0.0
 12
395.3249974503625
 22
272.3801655921654
 32
0.0
 13
395.3249974503625
 23
272.3801655921654
 33
0.0
  0
MTEXT
  5
9F6
330
866
100
AcDbEntity
  8
BEMASS
440
 16777216
100
AcDbMText
 10
391.1583307836957
 20
280.2551655921655
 30
0.0
 40
3.5
 41
0.0
 46
0.0
 71
     5
 72
     1
  1
\A1;(16)
  7
BEMSTIL
 11
0.0000000000000001
 21
1.0
 31
0.0
 73
     1
 44
1.0
  0
POINT
  5
9F7
330
866
100
AcDbEntity
  8
DEFPOINTS
 62
     0
440
 16777216
100
AcDbPoint
 10
378.7548437431775
 20
288.1301655921656
 30
0.0
  0
POINT
  5
9F8
330
866
100
AcDbEntity
  8
DEFPOINTS
 62
     0
440
 16777216
100
AcDbPoint
 10
378.7548437431775
 20
272.3801655921654
 30
0.0
  0
POINT
  5
9F9
330
866
100
AcDbEntity
  8
DEFPOINTS
 62
     0
440
 16777216
100
AcDbPoint
 10
395.3249974503625
 20
272.3801655921654
 30
0.0
  0
ENDBLK
  5
868
330
866
100
AcDbEntity
  8
0
100
AcDbBlockEnd
  0
BLOCK
  5
873
330
872
100
AcDbEntity
  8
0
100
AcDbBlockBegin
  2
*D14
 70
     1
 10
0.0
 20
0.0
 30
0.0
  3
*D14
  1

  0
LINE
  5
D3A
330
872
100
AcDbEntity
  8
BEMASS
440
 16777216
370
    -2
100
AcDbLine
 10
231.7996417523144
 20
181.062737987988
 30
0.0
 11
263.003638446712
 21
181.062737987988
 31
0.0
  0
LINE
  5
D3B
330
872
100
AcDbEntity
  8
BEMASS
440
 16777216
370
    -2
100
AcDbLine
 10
231.7996417523144
 20
31.06273798798794
 30
0.0
 11
263.003638446712
 21
31.06273798798795
 31
0.0
  0
LINE
  5
D3C
330
872
100
AcDbEntity
  8
BEMASS
440
 16777216
370
    -2
100
AcDbLine
 10
261.203638446712
 20
177.562737987988
 30
0.0
 11
261.2036384467121
 21
34.56273798798795
 31
0.0
  0
MTEXT
  5
D3D
330
872
100
AcDbEntity
  8
BEMASS
440
 16777216
100
AcDbMText
 10
256.7272067965996
 20
106.0627379879879
 30
0.0
 40
3.5
 41
0.0
 46
0.0
 71
     5
 72
     1
  1
\A1;150
  7
BEMSTIL
 11
0.0000000000000001
 21
1.0
 31
0.0
 73
     1
 44
1.0
  0
SOLID
  5
D3E
330
872
100
AcDbEntity
  8
BEMASS
440
 16777216
100
AcDbTrace
 10
260.6203051133787
 20
177.562737987988
 30
0.0
 11
261.7869717800453
 21
177.562737987988
 31
0.0
 12
261.203638446712
 22
181.062737987988
 32
0.0
 13
261.203638446712
 23
181.062737987988
 33
0.0
  0
SOLID
  5
D3F
330
872
100
AcDbEntity
  8
BEMASS
440
 16777216
100
AcDbTrace
 10
260.6203051133787
 20
34.56273798798795
 30
0.0
 11
261.7869717800453
 21
34.56273798798795
 31
0.0
 12
261.2036384467121
 22
31.06273798798795
 32
0.0
 13
261.2036384467121
 23
31.06273798798795
 33
0.0
  0
POINT
  5
D40
330
872
100
AcDbEntity
  8
DEFPOINTS
 62
     0
440
 16777216
100
AcDbPoint
 10
231.7996417523144
 20
181.062737987988
 30
0.0
  0
POINT
  5
D41
330
872
100
AcDbEntity
  8
DEFPOINTS
 62
     0
440
 16777216
100
AcDbPoint
 10
231.7996417523144
 20
31.06273798798794
 30
0.0
  0
POINT
  5
D42
330
872
100
AcDbEntity
  8
DEFPOINTS
 62
     0
440
 16777216
100
AcDbPoint
 10
261.2036384467121
 20
31.06273798798795
 30
0.0
  0
ENDBLK
  5
874
330
872
100
AcDbEntity
  8
0
100
AcDbBlockEnd
  0
BLOCK
  5
87F
330
87E
100
AcDbEntity
  8
0
100
AcDbBlockBegin
  2
*D15
 70
     1
 10
0.0
 20
0.0
 30
0.0
  3
*D15
  1

  0
LINE
  5
91B
330
87E
100
AcDbEntity
  8
BEMASS
440
 16777216
370
    -2
100
AcDbLine
 10
131.7996417523143
 20
234.1301655921656
 30
0.0
 11
131.7996417523143
 21
215.2002276032318
 31
0.0
  0
LINE
  5
91C
330
87E
100
AcDbEntity
  8
BEMASS
440
 16777216
370
    -2
100
AcDbLine
 10
181.7996417523143
 20
234.1301655921656
 30
0.0
 11
181.7996417523143
 21
215.2002276032318
 31
0.0
  0
LINE
  5
91D
330
87E
100
AcDbEntity
  8
BEMASS
440
 16777216
370
    -2
100
AcDbLine
 10
135.2996417523143
 20
217.0002276032318
 30
0.0
 11
178.2996417523143
 21
217.0002276032318
 31
0.0
  0
SOLID
  5
91E
330
87E
100
AcDbEntity
  8
BEMASS
440
 16777216
100
AcDbTrace
 10
135.2996417523143
 20
217.5835609365651
 30
0.0
 11
135.2996417523143
 21
216.4168942698985
 31
0.0
 12
131.7996417523143
 22
217.0002276032318
 32
0.0
 13
131.7996417523143
 23
217.0002276032318
 33
0.0
  0
SOLID
  5
91F
330
87E
100
AcDbEntity
  8
BEMASS
440
 16777216
100
AcDbTrace
 10
178.2996417523143
 20
217.5835609365651
 30
0.0
 11
178.2996417523143
 21
216.4168942698985
 31
0.0
 12
181.7996417523143
 22
217.0002276032318
 32
0.0
 13
181.7996417523143
 23
217.0002276032318
 33
0.0
  0
MTEXT
  5
920
330
87E
100
AcDbEntity
  8
BEMASS
440
 16777216
100
AcDbMText
 10
156.7996417523143
 20
220.2502276032318
 30
0.0
 40
3.5
 41
0.0
 46
0.0
 71
     5
 72
     1
  1
\A1;%%c50
  7
BEMSTIL
 73
     1
 44
1.0
  0
POINT
  5
921
330
87E
100
AcDbEntity
  8
DEFPOINTS
 62
     0
440
 16777216
100
AcDbPoint
 10
131.7996417523143
 20
234.1301655921656
 30
0.0
  0
POINT
  5
922
330
87E
100
AcDbEntity
  8
DEFPOINTS
 62
     0
440
 16777216
100
AcDbPoint
 10
181.7996417523143
 20
234.1301655921656
 30
0.0
  0
POINT
  5
923
330
87E
100
AcDbEntity
  8
DEFPOINTS
 62
     0
440
 16777216
100
AcDbPoint
 10
181.7996417523143
 20
217.0002276032318
 30
0.0
  0
ENDBLK
  5
880
330
87E
100
AcDbEntity
  8
0
100
AcDbBlockEnd
  0
BLOCK
  5
88B
330
88A
100
AcDbEntity
  8
0
100
AcDbBlockBegin
  2
*D16
 70
     1
 10
0.0
 20
0.0
 30
0.0
  3
*D16
  1

  0
LINE
  5
924
330
88A
100
AcDbEntity
  8
BEMASS
440
 16777216
370
    -2
100
AcDbLine
 10
101.7996417523147
 20
282.1301655921655
 30
0.0
 11
101.7996417523147
 21
204.0640584002109
 31
0.0
  0
LINE
  5
925
330
88A
100
AcDbEntity
  8
BEMASS
440
 16777216
370
    -2
100
AcDbLine
 10
211.7996417523139
 20
282.1301655921655
 30
0.0
 11
211.7996417523139
 21
204.0640584002109
 31
0.0
  0
LINE
  5
926
330
88A
100
AcDbEntity
  8
BEMASS
440
 16777216
370
    -2
100
AcDbLine
 10
105.2996417523147
 20
205.8640584002108
 30
0.0
 11
208.2996417523139
 21
205.8640584002108
 31
0.0
  0
SOLID
  5
927
330
88A
100
AcDbEntity
  8
BEMASS
440
 16777216
100
AcDbTrace
 10
105.2996417523147
 20
206.4473917335442
 30
0.0
 11
105.2996417523147
 21
205.2807250668775
 31
0.0
 12
101.7996417523147
 22
205.8640584002108
 32
0.0
 13
101.7996417523147
 23
205.8640584002108
 33
0.0
  0
SOLID
  5
928
330
88A
100
AcDbEntity
  8
BEMASS
440
 16777216
100
AcDbTrace
 10
208.2996417523139
 20
206.4473917335442
 30
0.0
 11
208.2996417523139
 21
205.2807250668775
 31
0.0
 12
211.7996417523139
 22
205.8640584002108
 32
0.0
 13
211.7996417523139
 23
205.8640584002108
 33
0.0
  0
MTEXT
  5
929
330
88A
100
AcDbEntity
  8
BEMASS
440
 16777216
100
AcDbMText
 10
156.7996417523143
 20
209.1140584002109
 30
0.0
 40
3.5
 41
0.0
 46
0.0
 71
     5
 72
     1
  1
\A1;%%c110
  7
BEMSTIL
 73
     1
 44
1.0
  0
POINT
  5
92A
330
88A
100
AcDbEntity
  8
DEFPOINTS
 62
     0
440
 16777216
100
AcDbPoint
 10
101.7996417523147
 20
282.1301655921655
 30
0.0
  0
POINT
  5
92B
330
88A
100
AcDbEntity
  8
DEFPOINTS
 62
     0
440
 16777216
100
AcDbPoint
 10
211.7996417523139
 20
282.1301655921655
 30
0.0
  0
POINT
  5
92C
330
88A
100
AcDbEntity
  8
DEFPOINTS
 62
     0
440
 16777216
100
AcDbPoint
 10
211.7996417523139
 20
205.8640584002108
 30
0.0
  0
ENDBLK
  5
88C
330
88A
100
AcDbEntity
  8
0
100
AcDbBlockEnd
  0
BLOCK
  5
897
330
896
100
AcDbEntity
  8
0
100
AcDbBlockBegin
  2
*D17
 70
     1
 10
0.0
 20
0.0
 30
0.0
  3
*D17
  1

  0
LINE
  5
92D
330
896
100
AcDbEntity
  8
BEMASS
440
 16777216
370
    -2
100
AcDbLine
 10
150.7996417523143
 20
338.1301655921656
 30
0.0
 11
150.7996417523143
 21
372.5829839157752
 31
0.0
  0
LINE
  5
92E
330
896
100
AcDbEntity
  8
BEMASS
440
 16777216
370
    -2
100
AcDbLine
 10
162.7996417523143
 20
338.1301655921656
 30
0.0
 11
162.7996417523143
 21
372.5829839157752
 31
0.0
  0
LINE
  5
92F
330
896
100
AcDbEntity
  8
BEMASS
440
 16777216
370
    -2
100
AcDbLine
 10
154.2996417523143
 20
370.7829839157751
 30
0.0
 11
159.2996417523143
 21
370.7829839157751
 31
0.0
  0
SOLID
  5
930
330
896
100
AcDbEntity
  8
BEMASS
440
 16777216
100
AcDbTrace
 10
154.2996417523143
 20
371.3663172491085
 30
0.0
 11
154.2996417523143
 21
370.1996505824419
 31
0.0
 12
150.7996417523143
 22
370.7829839157751
 32
0.0
 13
150.7996417523143
 23
370.7829839157751
 33
0.0
  0
SOLID
  5
931
330
896
100
AcDbEntity
  8
BEMASS
440
 16777216
100
AcDbTrace
 10
159.2996417523143
 20
371.3663172491085
 30
0.0
 11
159.2996417523143
 21
370.1996505824419
 31
0.0
 12
162.7996417523143
 22
370.7829839157751
 32
0.0
 13
162.7996417523143
 23
370.7829839157751
 33
0.0
  0
MTEXT
  5
932
330
896
100
AcDbEntity
  8
BEMASS
440
 16777216
100
AcDbMText
 10
156.7996417523143
 20
374.0329839157752
 30
0.0
 40
3.5
 41
0.0
 46
0.0
 71
     5
 72
     1
  1
\A1;9
  7
BEMSTIL
 73
     1
 44
1.0
  0
POINT
  5
933
330
896
100
AcDbEntity
  8
DEFPOINTS
 62
     0
440
 16777216
100
AcDbPoint
 10
150.7996417523143
 20
338.1301655921656
 30
0.0
  0
POINT
  5
934
330
896
100
AcDbEntity
  8
DEFPOINTS
 62
     0
440
 16777216
100
AcDbPoint
 10
162.7996417523143
 20
338.1301655921656
 30
0.0
  0
POINT
  5
935
330
896
100
AcDbEntity
  8
DEFPOINTS
 62
     0
440
 16777216
100
AcDbPoint
 10
162.7996417523143
 20
370.7829839157751
 30
0.0
  0
ENDBLK
  5
898
330
896
100
AcDbEntity
  8
0
100
AcDbBlockEnd
  0
BLOCK
  5
8A3
330
8A2
100
AcDbEntity
  8
0
100
AcDbBlockBegin
  2
*D18
 70
     1
 10
0.0
 20
0.0
 30
0.0
  3
*D18
  1

  0
LINE
  5
936
330
8A2
100
AcDbEntity
  8
BEMASS
440
 16777216
370
    -2
100
AcDbLine
 10
150.7996417523143
 20
338.1301655921656
 30
0.0
 11
138.3480557795562
 21
338.1301655921656
 31
0.0
  0
LINE
  5
937
330
8A2
100
AcDbEntity
  8
BEMASS
440
 16777216
370
    -2
100
AcDbLine
 10
150.7996417523143
 20
278.1301655921656
 30
0.0
 11
138.3480557795562
 21
278.1301655921656
 31
0.0
  0
LINE
  5
938
330
8A2
100
AcDbEntity
  8
BEMASS
440
 16777216
370
    -2
100
AcDbLine
 10
140.1480557795562
 20
334.6301655921656
 30
0.0
 11
140.1480557795562
 21
281.6301655921655
 31
0.0
  0
SOLID
  5
939
330
8A2
100
AcDbEntity
  8
BEMASS
440
 16777216
100
AcDbTrace
 10
139.5647224462229
 20
334.6301655921656
 30
0.0
 11
140.7313891128896
 21
334.6301655921656
 31
0.0
 12
140.1480557795562
 22
338.1301655921656
 32
0.0
 13
140.1480557795562
 23
338.1301655921656
 33
0.0
  0
SOLID
  5
93A
330
8A2
100
AcDbEntity
  8
BEMASS
440
 16777216
100
AcDbTrace
 10
139.5647224462228
 20
281.6301655921655
 30
0.0
 11
140.7313891128895
 21
281.6301655921655
 31
0.0
 12
140.1480557795562
 22
278.1301655921656
 32
0.0
 13
140.1480557795562
 23
278.1301655921656
 33
0.0
  0
MTEXT
  5
93B
330
8A2
100
AcDbEntity
  8
BEMASS
440
 16777216
100
AcDbMText
 10
136.8980557795562
 20
308.1301655921656
 30
0.0
 40
3.5
 41
0.0
 46
0.0
 71
     5
 72
     1
  1
\A1;60
  7
BEMSTIL
 11
0.0000000000000001
 21
1.0
 31
0.0
 73
     1
 44
1.0
  0
POINT
  5
93C
330
8A2
100
AcDbEntity
  8
DEFPOINTS
 62
     0
440
 16777216
100
AcDbPoint
 10
150.7996417523143
 20
338.1301655921656
 30
0.0
  0
POINT
  5
93D
330
8A2
100
AcDbEntity
  8
DEFPOINTS
 62
     0
440
 16777216
100
AcDbPoint
 10
150.7996417523143
 20
278.1301655921656
 30
0.0
  0
POINT
  5
93E
330
8A2
100
AcDbEntity
  8
DEFPOINTS
 62
     0
440
 16777216
100
AcDbPoint
 10
140.1480557795562
 20
278.1301655921656
 30
0.0
  0
ENDBLK
  5
8A4
330
8A2
100
AcDbEntity
  8
0
100
AcDbBlockEnd
  0
BLOCK
  5
8AF
330
8AE
100
AcDbEntity
  8
0
100
AcDbBlockBegin
  2
*D19
 70
     1
 10
0.0
 20
0.0
 30
0.0
  3
*D19
  1

  0
LINE
  5
93F
330
8AE
100
AcDbEntity
  8
BEMASS
440
 16777216
370
    -2
100
AcDbLine
 10
231.7996417523143
 20
359.1301655921654
 30
0.0
 11
256.426203749473
 21
359.1301655921654
 31
0.0
  0
LINE
  5
940
330
8AE
100
AcDbEntity
  8
BEMASS
440
 16777216
370
    -2
100
AcDbLine
 10
181.7996417523143
 20
231.1301655921655
 30
0.0
 11
256.426203749473
 21
231.1301655921655
 31
0.0
  0
LINE
  5
941
330
8AE
100
AcDbEntity
  8
BEMASS
440
 16777216
370
    -2
100
AcDbLine
 10
254.626203749473
 20
355.6301655921654
 30
0.0
 11
254.626203749473
 21
234.6301655921655
 31
0.0
  0
SOLID
  5
942
330
8AE
100
AcDbEntity
  8
BEMASS
440
 16777216
100
AcDbTrace
 10
254.0428704161397
 20
355.6301655921654
 30
0.0
 11
255.2095370828064
 21
355.6301655921654
 31
0.0
 12
254.626203749473
 22
359.1301655921654
 32
0.0
 13
254.626203749473
 23
359.1301655921654
 33
0.0
  0
SOLID
  5
943
330
8AE
100
AcDbEntity
  8
BEMASS
440
 16777216
100
AcDbTrace
 10
254.0428704161397
 20
234.6301655921655
 30
0.0
 11
255.2095370828063
 21
234.6301655921655
 31
0.0
 12
254.626203749473
 22
231.1301655921655
 32
0.0
 13
254.626203749473
 23
231.1301655921655
 33
0.0
  0
MTEXT
  5
944
330
8AE
100
AcDbEntity
  8
BEMASS
440
 16777216
100
AcDbMText
 10
251.376203749473
 20
295.1301655921655
 30
0.0
 40
3.5
 41
0.0
 46
0.0
 71
     5
 72
     1
  1
\A1;128
  7
BEMSTIL
 11
0.0000000000000001
 21
1.0
 31
0.0
 73
     1
 44
1.0
  0
POINT
  5
945
330
8AE
100
AcDbEntity
  8
DEFPOINTS
 62
     0
440
 16777216
100
AcDbPoint
 10
231.7996417523143
 20
359.1301655921654
 30
0.0
  0
POINT
  5
946
330
8AE
100
AcDbEntity
  8
DEFPOINTS
 62
     0
440
 16777216
100
AcDbPoint
 10
181.7996417523143
 20
231.1301655921655
 30
0.0
  0
POINT
  5
947
330
8AE
100
AcDbEntity
  8
DEFPOINTS
 62
     0
440
 16777216
100
AcDbPoint
 10
254.626203749473
 20
231.1301655921655
 30
0.0
  0
ENDBLK
  5
8B0
330
8AE
100
AcDbEntity
  8
0
100
AcDbBlockEnd
  0
BLOCK
  5
8BB
330
8BA
100
AcDbEntity
  8
0
100
AcDbBlockBegin
  2
*D20
 70
     1
 10
0.0
 20
0.0
 30
0.0
  3
*D20
  1

  0
LINE
  5
948
330
8BA
100
AcDbEntity
  8
BEMASS
440
 16777216
370
    -2
100
AcDbLine
 10
442.2548437431776
 20
358.5435857344924
 30
0.0
 11
442.2548437431776
 21
373.8735729762697
 31
0.0
  0
LINE
  5
949
330
8BA
100
AcDbEntity
  8
BEMASS
440
 16777216
370
    -2
100
AcDbLine
 10
457.2548437431776
 20
357.6857213582235
 30
0.0
 11
457.2548437431776
 21
373.8735729762697
 31
0.0
  0
LINE
  5
94A
330
8BA
100
AcDbEntity
  8
BEMASS
440
 16777216
370
    -2
100
AcDbLine
 10
445.7548437431777
 20
372.0735729762697
 30
0.0
 11
453.7548437431776
 21
372.0735729762697
 31
0.0
  0
SOLID
  5
94B
330
8BA
100
AcDbEntity
  8
BEMASS
440
 16777216
100
AcDbTrace
 10
445.7548437431777
 20
372.656906309603
 30
0.0
 11
445.7548437431777
 21
371.4902396429364
 31
0.0
 12
442.2548437431776
 22
372.0735729762697
 32
0.0
 13
442.2548437431776
 23
372.0735729762697
 33
0.0
  0
SOLID
  5
94C
330
8BA
100
AcDbEntity
  8
BEMASS
440
 16777216
100
AcDbTrace
 10
453.7548437431776
 20
372.656906309603
 30
0.0
 11
453.7548437431776
 21
371.4902396429364
 31
0.0
 12
457.2548437431776
 22
372.0735729762697
 32
0.0
 13
457.2548437431776
 23
372.0735729762697
 33
0.0
  0
MTEXT
  5
94D
330
8BA
100
AcDbEntity
  8
BEMASS
440
 16777216
100
AcDbMText
 10
449.7548437431776
 20
375.3235729762697
 30
0.0
 40
3.5
 41
0.0
 46
0.0
 71
     5
 72
     1
  1
\A1;%%c15
  7
BEMSTIL
 73
     1
 44
1.0
  0
POINT
  5
94E
330
8BA
100
AcDbEntity
  8
DEFPOINTS
 62
     0
440
 16777216
100
AcDbPoint
 10
442.2548437431776
 20
358.5435857344924
 30
0.0
  0
POINT
  5
94F
330
8BA
100
AcDbEntity
  8
DEFPOINTS
 62
     0
440
 16777216
100
AcDbPoint
 10
457.2548437431776
 20
357.6857213582235
 30
0.0
  0
POINT
  5
950
330
8BA
100
AcDbEntity
  8
DEFPOINTS
 62
     0
440
 16777216
100
AcDbPoint
 10
457.2548437431776
 20
372.0735729762697
 30
0.0
  0
ENDBLK
  5
8BC
330
8BA
100
AcDbEntity
  8
0
100
AcDbBlockEnd
  0
BLOCK
  5
8C7
330
8C6
100
AcDbEntity
  8
0
100
AcDbBlockBegin
  2
*D21
 70
     1
 10
0.0
 20
0.0
 30
0.0
  3
*D21
  1

  0
LINE
  5
951
330
8C6
100
AcDbEntity
  8
BEMASS
440
 16777216
370
    -2
100
AcDbLine
 10
365.7048437431777
 20
288.1301655921656
 30
0.0
 11
365.7048437431777
 21
195.9413714570003
 31
0.0
  0
LINE
  5
952
330
8C6
100
AcDbEntity
  8
BEMASS
440
 16777216
370
    -2
100
AcDbLine
 10
441.8048437431775
 20
295.3539754277033
 30
0.0
 11
441.8048437431775
 21
195.9413714570003
 31
0.0
  0
LINE
  5
953
330
8C6
100
AcDbEntity
  8
BEMASS
440
 16777216
370
    -2
100
AcDbLine
 10
369.2048437431777
 20
197.7413714570003
 30
0.0
 11
438.3048437431775
 21
197.7413714570003
 31
0.0
  0
SOLID
  5
954
330
8C6
100
AcDbEntity
  8
BEMASS
440
 16777216
100
AcDbTrace
 10
369.2048437431777
 20
198.3247047903337
 30
0.0
 11
369.2048437431777
 21
197.158038123667
 31
0.0
 12
365.7048437431777
 22
197.7413714570003
 32
0.0
 13
365.7048437431777
 23
197.7413714570003
 33
0.0
  0
SOLID
  5
955
330
8C6
100
AcDbEntity
  8
BEMASS
440
 16777216
100
AcDbTrace
 10
438.3048437431775
 20
198.3247047903337
 30
0.0
 11
438.3048437431775
 21
197.158038123667
 31
0.0
 12
441.8048437431775
 22
197.7413714570003
 32
0.0
 13
441.8048437431775
 23
197.7413714570003
 33
0.0
  0
MTEXT
  5
956
330
8C6
100
AcDbEntity
  8
BEMASS
440
 16777216
100
AcDbMText
 10
403.7548437431776
 20
200.9913714570004
 30
0.0
 40
3.5
 41
0.0
 46
0.0
 71
     5
 72
     1
  1
\A1;%%c76.1
  7
BEMSTIL
 73
     1
 44
1.0
  0
POINT
  5
957
330
8C6
100
AcDbEntity
  8
DEFPOINTS
 62
     0
440
 16777216
100
AcDbPoint
 10
365.7048437431777
 20
288.1301655921656
 30
0.0
  0
POINT
  5
958
330
8C6
100
AcDbEntity
  8
DEFPOINTS
 62
     0
440
 16777216
100
AcDbPoint
 10
441.8048437431775
 20
295.3539754277033
 30
0.0
  0
POINT
  5
959
330
8C6
100
AcDbEntity
  8
DEFPOINTS
 62
     0
440
 16777216
100
AcDbPoint
 10
441.8048437431775
 20
197.7413714570003
 30
0.0
  0
ENDBLK
  5
8C8
330
8C6
100
AcDbEntity
  8
0
100
AcDbBlockEnd
  0
BLOCK
  5
9DB
330
9CA
100
AcDbEntity
  8
0
100
AcDbBlockBegin
  2
A$C4D2A19F9
 70
     0
 10
0.0
 20
0.0
 30
0.0
  3
A$C4D2A19F9
  1

  0
LINE
  5
9CB
330
9CA
100
AcDbEntity
  8
SICHTBAR
100
AcDbLine
 10
-65.0
 20
0.0
 30
0.0
 11
-56.25
 21
0.0
 31
0.0
  0
LINE
  5
9CC
330
9CA
100
AcDbEntity
  8
SICHTBAR
100
AcDbLine
 10
-65.0
 20
-1.25
 30
0.0
 11
-56.25
 21
-1.25
 31
0.0
  0
LINE
  5
9CD
330
9CA
100
AcDbEntity
  8
SICHTBAR
100
AcDbLine
 10
-55.0
 20
-10.0
 30
0.0
 11
-38.05000000000001
 21
-10.0
 31
0.0
  0
LINE
  5
9CE
330
9CA
100
AcDbEntity
  8
SICHTBAR
100
AcDbLine
 10
-55.0
 20
-10.0
 30
0.0
 11
-55.0
 21
-2.5
 31
0.0
  0
ARC
  5
9CF
330
9CA
100
AcDbEntity
  8
SICHTBAR
100
AcDbCircle
 10
-56.25
 20
-2.5
 30
0.0
 40
1.25
100
AcDbArc
 50
0.0
 51
90.0
  0
LINE
  5
9D0
330
9CA
100
AcDbEntity
  8
SICHTBAR
100
AcDbLine
 10
-53.75
 20
-10.0
 30
0.0
 11
-53.75
 21
-2.5
 31
0.0
  0
ARC
  5
9D1
330
9CA
100
AcDbEntity
  8
SICHTBAR
100
AcDbCircle
 10
-56.25
 20
-2.5
 30
0.0
 40
2.5
100
AcDbArc
 50
0.0
 51
90.0
  0
LINE
  5
9D2
330
9CA
100
AcDbEntity
  8
SICHTBAR
100
AcDbLine
 10
-65.0
 20
-1.25
 30
0.0
 11
-65.0
 21
0.0
 31
0.0
  0
LINE
  5
9D3
330
9CA
100
AcDbEntity
  8
SICHTBAR
100
AcDbLine
 10
65.0
 20
0.0
 30
0.0
 11
56.25
 21
0.0
 31
0.0
  0
LINE
  5
9D4
330
9CA
100
AcDbEntity
  8
SICHTBAR
100
AcDbLine
 10
65.0
 20
-1.25
 30
0.0
 11
56.25
 21
-1.25
 31
0.0
  0
LINE
  5
9D5
330
9CA
100
AcDbEntity
  8
SICHTBAR
100
AcDbLine
 10
55.0
 20
-10.0
 30
0.0
 11
55.0
 21
-2.5
 31
0.0
  0
ARC
  5
9D6
330
9CA
100
AcDbEntity
  8
SICHTBAR
100
AcDbCircle
 10
56.25
 20
-2.5
 30
0.0
 40
1.25
100
AcDbArc
 50
90.0
 51
180.0
  0
LINE
  5
9D7
330
9CA
100
AcDbEntity
  8
SICHTBAR
100
AcDbLine
 10
53.75
 20
-10.0
 30
0.0
 11
53.75
 21
-2.5
 31
0.0
  0
ARC
  5
9D8
330
9CA
100
AcDbEntity
  8
SICHTBAR
100
AcDbCircle
 10
56.25
 20
-2.5
 30
0.0
 40
2.5
100
AcDbArc
 50
90.0
 51
180.0
  0
LINE
  5
9D9
330
9CA
100
AcDbEntity
  8
SICHTBAR
100
AcDbLine
 10
65.0
 20
-1.25
 30
0.0
 11
65.0
 21
0.0
 31
0.0
  0
LINE
  5
9DA
330
9CA
100
AcDbEntity
  8
SICHTBAR
100
AcDbLine
 10
-56.25
 20
0.0
 30
0.0
 11
56.25
 21
0.0
 31
0.0
  0
LINE
  5
BDB
330
9CA
100
AcDbEntity
  8
VERDECKT
100
AcDbLine
 10
-38.05000000000001
 20
-10.0
 30
0.0
 11
38.04999999999984
 21
-10.0
 31
0.0
  0
LINE
  5
BDC
330
9CA
100
AcDbEntity
  8
SICHTBAR
100
AcDbLine
 10
38.0499999999999
 20
-10.00000000000005
 30
0.0
 11
55.0
 21
-10.0
 31
0.0
  0
ENDBLK
  5
9DC
330
9CA
100
AcDbEntity
  8
0
100
AcDbBlockEnd
  0
BLOCK
  5
B98
330
B97
100
AcDbEntity
  8
0
100
AcDbBlockBegin
  2
_ACMFILLEDHALF
 70
     0
 10
0.0
 20
0.0
 30
0.0
  3
_ACMFILLEDHALF
  1

  0
TRACE
  5
B9A
330
B97
100
AcDbEntity
  8
SCHRAFF
 62
     0
100
AcDbTrace
 10
-0.8
 20
0.0
 30
0.0
 11
-1.0
 21
0.166666666
 31
0.0
 12
0.0
 22
0.0
 32
0.0
 13
0.0
 23
0.0
 33
0.0
  0
LINE
  5
B9B
330
B97
100
AcDbEntity
  8
SCHRAFF
 62
     0
100
AcDbLine
 10
-1.0
 20
0.0
 30
0.0
 11
-0.8
 21
0.0
 31
0.0
  0
ENDBLK
  5
B99
330
B97
100
AcDbEntity
  8
0
100
AcDbBlockEnd
  0
ENDSEC
  0
SECTION
  2
ENTITIES
  0
LINE
  5
70B
330
2
100
AcDbEntity
  8
MITTE
100
AcDbLine
 10
81.79964175231431
 20
106.0627379879879
 30
0.0
 11
231.7996417523143
 21
106.0627379879879
 31
0.0
  0
LINE
  5
70C
330
2
100
AcDbEntity
  8
MITTE
100
AcDbLine
 10
156.7996417523143
 20
31.06273798798793
 30
0.0
 11
156.7996417523143
 21
181.0627379879879
 31
0.0
  0
LINE
  5
73F
330
2
100
AcDbEntity
  8
SICHTBAR
100
AcDbLine
 10
81.79964175231431
 20
31.06273798798793
 30
0.0
 11
231.7996417523143
 21
31.06273798798793
 31
0.0
  0
LINE
  5
740
330
2
100
AcDbEntity
  8
SICHTBAR
100
AcDbLine
 10
231.7996417523143
 20
31.06273798798793
 30
0.0
 11
231.7996417523143
 21
181.0627379879879
 31
0.0
  0
LINE
  5
741
330
2
100
AcDbEntity
  8
SICHTBAR
100
AcDbLine
 10
231.7996417523143
 20
181.0627379879879
 30
0.0
 11
81.79964175231431
 21
181.0627379879879
 31
0.0
  0
LINE
  5
742
330
2
100
AcDbEntity
  8
SICHTBAR
100
AcDbLine
 10
81.79964175231431
 20
181.0627379879879
 30
0.0
 11
81.79964175231431
 21
31.06273798798793
 31
0.0
  0
DIMENSION
  5
744
330
2
100
AcDbEntity
  8
BEMASS
100
AcDbDimension
280
     0
  2
*D9
 10
231.7996417523143
 20
15.80677160115249
 30
0.0
 11
156.7996417523143
 21
19.05677160115249
 31
0.0
 70
    32
 71
     5
 42
150.0
 73
     0
 74
     0
 75
     0
  3
STANDARD
100
AcDbAlignedDimension
 13
81.79964175231431
 23
31.06273798798793
 33
0.0
 14
231.7996417523143
 24
31.06273798798793
 34
0.0
100
AcDbRotatedDimension
  0
CIRCLE
  5
746
330
2
100
AcDbEntity
  8
SICHTBAR
100
AcDbCircle
 10
156.7996417523143
 20
106.0627379879879
 30
0.0
 40
59.5
  0
CIRCLE
  5
747
330
2
100
AcDbEntity
  8
SICHTBAR
100
AcDbCircle
 10
156.7996417523143
 20
106.0627379879879
 30
0.0
 40
60.0
  0
CIRCLE
  5
74C
330
2
100
AcDbEntity
  8
MITTE
100
AcDbCircle
 10
156.7996417523143
 20
106.0627379879879
 30
0.0
 40
46.0
  0
CIRCLE
  5
74D
330
2
100
AcDbEntity
  8
SICHTBAR
100
AcDbCircle
 10
202.7996417523143
 20
106.0627379879879
 30
0.0
 40
7.5
  0
CIRCLE
  5
74E
330
2
100
AcDbEntity
  8
SICHTBAR
100
AcDbCircle
 10
195.4973042625486
 20
130.9322155909454
 30
0.0
 40
7.5
  0
CIRCLE
  5
74F
330
2
100
AcDbEntity
  8
SICHTBAR
100
AcDbCircle
 10
175.9087323504011
 20
147.9058097742958
 30
0.0
 40
7.5
  0
CIRCLE
  5
750
330
2
100
AcDbEntity
  8
SICHTBAR
100
AcDbCircle
 10
150.2531591917432
 20
151.5945243145108
 30
0.0
 40
7.5
  0
CIRCLE
  5
751
330
2
100
AcDbEntity
  8
SICHTBAR
100
AcDbCircle
 10
126.6760479908312
 20
140.8272184082838
 30
0.0
 40
7.5
  0
CIRCLE
  5
752
330
2
100
AcDbEntity
  8
SICHTBAR
100
AcDbCircle
 10
112.6629649660474
 20
119.0224356026938
 30
0.0
 40
7.5
  0
CIRCLE
  5
753
330
2
100
AcDbEntity
  8
SICHTBAR
100
AcDbCircle
 10
112.6629649660474
 20
93.10304037328217
 30
0.0
 40
7.5
  0
CIRCLE
  5
754
330
2
100
AcDbEntity
  8
SICHTBAR
100
AcDbCircle
 10
126.6760479908312
 20
71.29825756769204
 30
0.0
 40
7.5
  0
CIRCLE
  5
755
330
2
100
AcDbEntity
  8
SICHTBAR
100
AcDbCircle
 10
150.2531591917431
 20
60.53095166146499
 30
0.0
 40
7.5
  0
CIRCLE
  5
756
330
2
100
AcDbEntity
  8
SICHTBAR
100
AcDbCircle
 10
175.908732350401
 20
64.21966620168006
 30
0.0
 40
7.5
  0
CIRCLE
  5
757
330
2
100
AcDbEntity
  8
SICHTBAR
100
AcDbCircle
 10
195.4973042625486
 20
81.19326038503043
 30
0.0
 40
7.5
  0
LINE
  5
760
330
2
100
AcDbEntity
  8
MITTE
100
AcDbLine
 10
156.7996417523143
 20
226.5912799293413
 30
0.0
 11
156.7996417523143
 21
359.1301655921655
 31
0.0
  0
LINE
  5
761
330
2
100
AcDbEntity
  8
SICHTBAR
100
AcDbLine
 10
211.7996417523139
 20
281.1301655921655
 30
0.0
 11
211.799641752314
 21
350.1301655921657
 31
0.0
  0
DIMENSION
  5
762
330
2
100
AcDbEntity
  8
BEMASS
100
AcDbDimension
280
     0
  2
*D10
 10
72.07871692180515
 20
354.1301655921655
 30
0.0
 11
68.82871692180508
 21
312.6301655921655
 31
0.0
 70
    32
 71
     5
 42
83.00000000000006
 73
     0
 74
     0
 75
     0
  3
STANDARD
100
AcDbAlignedDimension
 13
112.7996417523147
 23
271.1301655921655
 33
0.0
 14
81.79964175231431
 24
354.1301655921655
 34
0.0
 50
90.0
100
AcDbRotatedDimension
  0
LINE
  5
763
330
2
100
AcDbEntity
  8
SICHTBAR
100
AcDbLine
 10
101.7996417523147
 20
281.1301655921655
 30
0.0
 11
101.7996417523146
 21
351.1301655921656
 31
0.0
  0
LINE
  5
764
330
2
100
AcDbEntity
  8
SICHTBAR
100
AcDbLine
 10
131.7996417523143
 20
231.1301655921655
 30
0.0
 11
181.7996417523143
 21
231.1301655921655
 31
0.0
  0
LINE
  5
766
330
2
100
AcDbEntity
  8
SICHTBAR
100
AcDbLine
 10
131.7996417523143
 20
231.1301655921655
 30
0.0
 11
131.7996417523142
 21
271.1301655921655
 31
0.0
  0
DIMENSION
  5
767
330
2
100
AcDbEntity
  8
BEMASS
100
AcDbDimension
280
     0
  2
*D11
 10
72.33097414663439
 20
231.1301655921655
 30
0.0
 11
69.08097414663434
 21
251.1301655921656
 31
0.0
 70
    32
 71
     5
 42
39.99999999999992
 73
     0
 74
     0
 75
     0
  3
STANDARD
100
AcDbAlignedDimension
 13
93.21702773792527
 23
271.1301655921655
 33
0.0
 14
132.7996417523143
 24
231.1301655921655
 34
0.0
 50
90.0
100
AcDbRotatedDimension
  0
LINE
  5
768
330
2
100
AcDbEntity
  8
SICHTBAR
100
AcDbLine
 10
131.7996417523142
 20
271.1301655921655
 30
0.0
 11
111.7996417523147
 21
271.1301655921655
 31
0.0
  0
LINE
  5
76A
330
2
100
AcDbEntity
  8
SICHTBAR
100
AcDbLine
 10
181.7996417523143
 20
231.1301655921655
 30
0.0
 11
181.7996417523143
 21
271.1301655921655
 31
0.0
  0
LINE
  5
76B
330
2
100
AcDbEntity
  8
SICHTBAR
100
AcDbLine
 10
181.7996417523143
 20
271.1301655921655
 30
0.0
 11
201.7996417523139
 21
271.1301655921655
 31
0.0
  0
LINE
  5
76C
330
2
100
AcDbEntity
  8
SICHTBAR
100
AcDbLine
 10
81.79964175231431
 20
359.1301655921654
 30
0.0
 11
231.7996417523143
 21
359.1301655921654
 31
0.0
  0
LINE
  5
76D
330
2
100
AcDbEntity
  8
SICHTBAR
100
AcDbLine
 10
111.0496417523143
 20
354.1301655921656
 30
0.0
 11
211.7996417523144
 21
354.1301655921655
 31
0.0
  0
LINE
  5
76E
330
2
100
AcDbEntity
  8
SICHTBAR
100
AcDbLine
 10
112.0496417523143
 20
359.1301655921656
 30
0.0
 11
201.5496417523144
 21
359.1301655921654
 31
0.0
  0
LINE
  5
76F
330
2
100
AcDbEntity
  8
SICHTBAR
100
AcDbLine
 10
99.79964175231458
 20
353.1301655921657
 30
0.0
 11
91.79964175231459
 21
353.1301655921656
 31
0.0
  0
LINE
  5
770
330
2
100
AcDbEntity
  8
SICHTBAR
100
AcDbLine
 10
111.0496417523143
 20
354.1301655921656
 30
0.0
 11
81.79964175231431
 21
354.1301655921654
 31
0.0
  0
LINE
  5
771
330
2
100
AcDbEntity
  8
SICHTBAR
100
AcDbLine
 10
81.79964175231431
 20
354.1301655921654
 30
0.0
 11
81.79964175231431
 21
359.1301655921654
 31
0.0
  0
LINE
  5
772
330
2
100
AcDbEntity
  8
SICHTBAR
100
AcDbLine
 10
91.79964175231459
 20
353.1301655921656
 30
0.0
 11
91.79964175231459
 21
354.1301655921656
 31
0.0
  0
ARC
  5
773
330
2
100
AcDbEntity
  8
SICHTBAR
100
AcDbCircle
 10
99.79964175231465
 20
351.1301655921656
 30
0.0
 40
2.0
100
AcDbArc
 50
0.0000000000000579
 51
90.00000000000127
  0
ARC
  5
774
330
2
100
AcDbEntity
  8
SICHTBAR
100
AcDbCircle
 10
214.799641752314
 20
350.1301655921657
 30
0.0
 40
3.0
100
AcDbArc
 50
89.9999999999987
 51
179.9999999999999
  0
LINE
  5
775
330
2
100
AcDbEntity
  8
SICHTBAR
100
AcDbLine
 10
211.7996417523144
 20
354.1301655921655
 30
0.0
 11
217.7996417523143
 21
354.1301655921655
 31
0.0
  0
LINE
  5
776
330
2
100
AcDbEntity
  8
SICHTBAR
100
AcDbLine
 10
231.7996417523143
 20
354.1301655921654
 30
0.0
 11
231.7996417523143
 21
359.1301655921654
 31
0.0
  0
LINE
  5
777
330
2
100
AcDbEntity
  8
SICHTBAR
100
AcDbLine
 10
216.5496417523144
 20
354.1301655921654
 30
0.0
 11
231.7996417523143
 21
354.1301655921654
 31
0.0
  0
LINE
  5
778
330
2
100
AcDbEntity
  8
SICHTBAR
100
AcDbLine
 10
214.799641752314
 20
353.1301655921657
 30
0.0
 11
221.799641752314
 21
353.1301655921656
 31
0.0
  0
LINE
  5
779
330
2
100
AcDbEntity
  8
SICHTBAR
100
AcDbLine
 10
221.799641752314
 20
353.1301655921656
 30
0.0
 11
221.799641752314
 21
354.1301655921656
 31
0.0
  0
LINE
  5
77A
330
2
100
AcDbEntity
  8
SICHTBAR
100
AcDbLine
 10
131.7996417523142
 20
271.1301655921655
 30
0.0
 11
181.7996417523143
 21
271.1301655921655
 31
0.0
  0
LWPOLYLINE
  5
77B
330
2
100
AcDbEntity
  8
SICHTBAR
100
AcDbPolyline
 90
        4
 70
     1
 43
0.0
 10
150.7996417523143
 20
278.1301655921656
 10
162.7996417523143
 20
278.1301655921656
 10
162.7996417523143
 20
338.1301655921656
 10
150.7996417523143
 20
338.1301655921656
  0
CIRCLE
  5
77C
330
2
100
AcDbEntity
  8
SICHTBAR
100
AcDbCircle
 10
156.7996417523143
 20
288.1301655921656
 30
0.0
 40
2.5
  0
LINE
  5
77D
330
2
100
AcDbEntity
  8
SICHTBAR
100
AcDbLine
 10
211.7996417523144
 20
338.1301655921655
 30
0.0
 11
211.7996417523144
 21
328.1301655921655
 31
0.0
  0
LINE
  5
77E
330
2
100
AcDbEntity
  8
SICHTBAR
100
AcDbLine
 10
220.4820506356609
 20
278.8897779415551
 30
0.0
 11
221.4668583886731
 21
279.0634261192221
 31
0.0
  0
LINE
  5
77F
330
2
100
AcDbEntity
  8
SICHTBAR
100
AcDbLine
 10
221.4668583886731
 20
279.0634261192221
 30
0.0
 11
212.7844495053266
 21
328.3038137698325
 31
0.0
  0
LINE
  5
780
330
2
100
AcDbEntity
  8
SICHTBAR
100
AcDbLine
 10
212.7996417523144
 20
338.1301655921655
 30
0.0
 11
211.7996417523144
 21
338.1301655921655
 31
0.0
  0
LINE
  5
781
330
2
100
AcDbEntity
  8
SICHTBAR
100
AcDbLine
 10
211.7996417523144
 20
328.1301655921655
 30
0.0
 11
220.4820506356609
 21
278.8897779415551
 31
0.0
  0
LINE
  5
782
330
2
100
AcDbEntity
  8
SICHTBAR
100
AcDbLine
 10
212.7996417523144
 20
328.1301655921655
 30
0.0
 11
212.7996417523144
 21
338.1301655921655
 31
0.0
  0
LINE
  5
783
330
2
100
AcDbEntity
  8
SICHTBAR
100
AcDbLine
 10
92.13242511595556
 20
279.0634261192222
 30
0.0
 11
100.8148339993021
 21
328.3038137698326
 31
0.0
  0
LINE
  5
784
330
2
100
AcDbEntity
  8
SICHTBAR
100
AcDbLine
 10
101.7996417523143
 20
328.1301655921656
 30
0.0
 11
93.11723286896773
 21
278.8897779415552
 31
0.0
  0
LINE
  5
785
330
2
100
AcDbEntity
  8
SICHTBAR
100
AcDbLine
 10
93.11723286896773
 20
278.8897779415552
 30
0.0
 11
92.13242511595556
 21
279.0634261192222
 31
0.0
  0
LINE
  5
786
330
2
100
AcDbEntity
  8
SICHTBAR
100
AcDbLine
 10
101.7996417523143
 20
338.1301655921656
 30
0.0
 11
101.7996417523143
 21
328.1301655921656
 31
0.0
  0
LINE
  5
787
330
2
100
AcDbEntity
  8
SICHTBAR
100
AcDbLine
 10
100.7996417523143
 20
328.1301655921656
 30
0.0
 11
100.7996417523143
 21
338.1301655921656
 31
0.0
  0
LINE
  5
788
330
2
100
AcDbEntity
  8
SICHTBAR
100
AcDbLine
 10
100.7996417523143
 20
338.1301655921656
 30
0.0
 11
101.7996417523143
 21
338.1301655921656
 31
0.0
  0
DIMENSION
  5
795
330
2
100
AcDbEntity
  8
BEMASS
100
AcDbDimension
280
     0
  2
*D12
 10
72.07871692180515
 20
354.1301655921654
 30
0.0
 11
68.82871692180509
 21
356.6301655921654
 31
0.0
 70
    32
 71
     5
 42
5.0
 73
     0
 74
     0
 75
     0
  3
STANDARD
100
AcDbAlignedDimension
 13
81.79964175231431
 23
359.1301655921654
 33
0.0
 14
81.79964175231434
 24
354.1301655921654
 34
0.0
 50
90.0
100
AcDbRotatedDimension
  0
DIMENSION
  5
797
330
2
100
AcDbEntity
  8
BEMASS
100
AcDbDimension
280
     0
  2
*D14
 10
261.2036384467121
 20
31.06273798798795
 30
0.0
 11
256.7272067965996
 21
106.0627379879879
 31
0.0
 70
   160
 71
     5
 42
150.0
 73
     0
 74
     0
 75
     0
  3
STANDARD
100
AcDbAlignedDimension
 13
231.7996417523143
 23
181.0627379879879
 33
0.0
 14
231.7996417523143
 24
31.06273798798793
 34
0.0
 50
90.0
100
AcDbRotatedDimension
  0
DIMENSION
  5
798
330
2
100
AcDbEntity
  8
BEMASS
100
AcDbDimension
280
     0
  2
*D15
 10
181.7996417523143
 20
217.0002276032318
 30
0.0
 11
156.7996417523143
 21
220.2502276032318
 31
0.0
 70
    32
  1
%%c<>
 71
     5
 42
50.00000000000006
 73
     0
 74
     0
 75
     0
  3
STANDARD
100
AcDbAlignedDimension
 13
131.7996417523143
 23
234.1301655921656
 33
0.0
 14
181.7996417523143
 24
234.1301655921656
 34
0.0
100
AcDbRotatedDimension
  0
DIMENSION
  5
799
330
2
100
AcDbEntity
  8
BEMASS
100
AcDbDimension
280
     0
  2
*D16
 10
211.7996417523139
 20
205.8640584002108
 30
0.0
 11
156.7996417523143
 21
209.1140584002109
 31
0.0
 70
    32
  1
%%c<>
 71
     5
 42
109.9999999999992
 73
     0
 74
     0
 75
     0
  3
STANDARD
100
AcDbAlignedDimension
 13
101.7996417523147
 23
282.1301655921655
 33
0.0
 14
211.7996417523139
 24
282.1301655921655
 34
0.0
100
AcDbRotatedDimension
  0
DIMENSION
  5
79A
330
2
100
AcDbEntity
  8
BEMASS
100
AcDbDimension
280
     0
  2
*D17
 10
162.7996417523143
 20
370.7829839157751
 30
0.0
 11
156.7996417523143
 21
374.0329839157752
 31
0.0
 70
    32
  1
9
 71
     5
 42
12.0
 73
     0
 74
     0
 75
     0
  3
STANDARD
100
AcDbAlignedDimension
 13
150.7996417523143
 23
338.1301655921656
 33
0.0
 14
162.7996417523143
 24
338.1301655921656
 34
0.0
100
AcDbRotatedDimension
  0
DIMENSION
  5
79B
330
2
100
AcDbEntity
  8
BEMASS
100
AcDbDimension
280
     0
  2
*D18
 10
140.1480557795562
 20
278.1301655921656
 30
0.0
 11
136.8980557795562
 21
308.1301655921656
 31
0.0
 70
    32
 71
     5
 42
60.0
 73
     0
 74
     0
 75
     0
  3
STANDARD
100
AcDbAlignedDimension
 13
150.7996417523143
 23
338.1301655921656
 33
0.0
 14
150.7996417523143
 24
278.1301655921656
 34
0.0
 50
90.0
100
AcDbRotatedDimension
  0
DIMENSION
  5
79C
330
2
100
AcDbEntity
  8
BEMASS
100
AcDbDimension
280
     0
  2
*D19
 10
254.626203749473
 20
231.1301655921655
 30
0.0
 11
251.376203749473
 21
295.1301655921655
 31
0.0
 70
    32
 71
     5
 42
127.9999999999999
 73
     0
 74
     0
 75
     0
  3
STANDARD
100
AcDbAlignedDimension
 13
231.7996417523143
 23
359.1301655921654
 33
0.0
 14
181.7996417523143
 24
231.1301655921655
 34
0.0
 50
90.0
100
AcDbRotatedDimension
  0
LINE
  5
7A3
330
2
100
AcDbEntity
  8
SICHTBAR
100
AcDbLine
 10
101.7996417523146
 20
344.1301655921656
 30
0.0
 11
211.7996417523144
 21
344.1301655921655
 31
0.0
  0
INSERT
  5
7A4
330
2
100
AcDbEntity
  8
0
100
AcDbBlockReference
  2
101553
 10
106.7996417523143
 20
106.0627379879879
 30
0.0
1001
ECLFRAIS7
1000
visfhc90_F
  0
LWPOLYLINE
  5
7A5
330
2
100
AcDbEntity
  8
VERDECKT
100
AcDbPolyline
 90
        6
 70
     1
 43
0.0
 10
110.7996417523142
 20
108.3721390647464
 10
106.7996417523142
 20
110.6815401415049
 10
102.7996417523142
 20
108.3721390647464
 10
102.7996417523142
 20
103.7533369112294
 10
106.7996417523142
 20
101.4439358344709
 10
110.7996417523142
 20
103.7533369112294
  0
CIRCLE
  5
7A6
330
2
100
AcDbEntity
  8
VERDECKT
100
AcDbCircle
 10
106.7996417523142
 20
106.0627379879879
 30
0.0
 40
2.5
  0
CIRCLE
  5
7A7
330
2
100
AcDbEntity
  8
MITTE
100
AcDbCircle
 10
156.7996417523143
 20
106.0627379879879
 30
0.0
 40
50.0
  0
LINE
  5
7D0
330
2
100
AcDbEntity
  8
SICHTBAR
100
AcDbLine
 10
99.79964175231458
 20
353.1301655921657
 30
0.0
 11
214.799641752314
 21
353.1301655921657
 31
0.0
  0
ARC
  5
AF5
330
2
100
AcDbEntity
  8
SICHTBAR
100
AcDbCircle
 10
201.7996417523139
 20
281.1301655921655
 30
0.0
 40
10.0
100
AcDbArc
 50
269.9999999999998
 51
360.0
  0
ARC
  5
AF6
330
2
100
AcDbEntity
  8
SICHTBAR
100
AcDbCircle
 10
111.7996417523147
 20
281.1301655921655
 30
0.0
 40
10.0
100
AcDbArc
 50
180.0
 51
270.0000000000002
  0
VIEWPORT
  5
326
330
325
100
AcDbEntity
 67
     1
  8
0
100
AcDbViewport
 10
125.1232526640179
 20
108.2407298859484
 30
0.0
 40
149.2209516653435
 41
93.81046284153089
 68
     2
 69
     1
 12
125.1232526640179
 22
108.2407298859484
 13
0.0
 23
0.0
 14
1.0
 24
1.0
 15
0.0
 25
0.0
 16
0.0
 26
0.0
 36
1.0
 17
0.0
 27
0.0
 37
0.0
 42
50.0
 43
0.0
 44
0.0
 45
93.81046284153089
 50
0.0
 51
0.0
 72
   100
 90
    32800
  1

281
     0
 71
     1
 74
     0
110
0.0
120
0.0
130
0.0
111
1.0
121
0.0
131
0.0
112
0.0
122
1.0
132
0.0
 79
     0
146
0.0
170
     0
 61
     5
348
360
292
     1
282
     1
141
0.0
142
0.0
 63
   250
421
  3355443
1001
GENIUS_GENODEF_13
1002
{
1000
HIER
1070
     0
1002
}
1002
{
1000
MANEDIT
1070
     0
1002
}
1002
{
1000
NOSEL
1070
     0
1002
}
1002
{
1000
BEHIND
1070
     0
1002
}
1002
{
1000
OTHER
1070
     0
1002
}
1002
{
1000
REACTOR
1002
}
1001
GENIUS_GENOBJ-N-SDF_13
1002
{
1000
OWNER
1000
GEN
1002
}
1001
GENIUS_GENSCREG_15
1000
PF
1040
1.0
1000
DF
1040
1.0
1000
MIN
1011
50.51277683134614
1021
61.33549846518301
1031
0.0
1000
MAX
1011
199.7337284966897
1021
155.1459613067139
1031
0.0
1000
FLAGS
1070
     4
  0
VIEWPORT
  5
328
330
325
100
AcDbEntity
 67
     1
  8
AFEN
100
AcDbViewport
 10
143.143799
 20
101.390615
 30
0.0
 40
285.932402
 41
198.87477
 68
     1
 69
     2
 12
291.5244840565424
 22
236.7777109490447
 13
0.0
 23
0.0
 14
1.0
 24
1.0
 15
20.0
 25
20.0
 16
0.0
 26
0.0
 36
1.0
 17
0.0
 27
0.0
 37
0.0
 42
50.0
 43
0.0
 44
0.0
 45
305.9466135540468
 50
0.0
 51
0.0
 72
   100
 90
    32800
  1

281
     0
 71
     1
 74
     0
110
0.0
120
0.0
130
0.0
111
1.0
121
0.0
131
0.0
112
0.0
122
1.0
132
0.0
 79
     0
146
0.0
170
     0
 61
     5
348
360
292
     1
282
     1
141
0.0
142
0.0
 63
   250
421
  3355443
1001
GENIUS_GENOBJ-N-SDF_13
1002
{
1000
OWNER
1000
GEN
1002
}
1001
GENIUS_GENODEF_13
1002
{
1000
HIER
1070
     0
1002
}
1002
{
1000
MANEDIT
1070
     0
1002
}
1002
{
1000
NOSEL
1070
     0
1002
}
1002
{
1000
BEHIND
1070
     0
1002
}
1002
{
1000
OTHER
1070
     0
1002
}
1002
{
1000
REACTOR
1002
}
1001
GENIUS_GENSCREG_15
1000
PF
1040
0.0
1000
DF
1040
0.0
1000
MIN
1011
0.177597999999989
1021
1.95322999999999
1031
0.0
1000
MAX
1011
286.11
1021
200.828
1031
0.0
1000
FLAGS
1070
     4
  0
ENDSEC
  0
SECTION
  2
OBJECTS
  0
DICTIONARY
  5
7
330
0
100
AcDbDictionary
281
     1
  3
ACAD_CIP_PREVIOUS_PRODUCT_INFO
350
B51
  3
ACAD_COLOR
350
36E
  3
ACAD_DETAILVIEWSTYLE
350
B47
  3
ACAD_FIELDLIST
350
BA1
  3
ACAD_GROUP
350
33B
  3
ACAD_LAYOUT
350
324
  3
ACAD_MATERIAL
350
341
  3
ACAD_MLEADERSTYLE
350
393
  3
ACAD_MLINESTYLE
350
33C
  3
ACAD_PLOTSETTINGS
350
33D
  3
ACAD_PLOTSTYLENAME
350
6
  3
ACAD_SCALELIST
350
371
  3
ACAD_SECTIONVIEWSTYLE
350
B45
  3
ACAD_TABLESTYLE
350
36F
  3
ACAD_VISUALSTYLE
350
35A
  3
ACDB_RECOMPOSE_DATA
350
D47
  3
AcDbVariableDictionary
350
B35
  3
AcmDictionary
350
3FB
  3
AEC_PROPERTY_SET_DEFS
350
4B3
  3
AMG
350
399
  3
AMGSNAPSETTINGS
350
4B6
  0
DICTIONARY
  5
5F1
330
32E
100
AcDbDictionary
280
     1
281
     1
  3
ACAD_LAYERSTATES
360
5F2
  0
DICTIONARY
  5
95A
330
14
100
AcDbDictionary
280
     1
281
     1
  3
ADSK_XREC_LAYER_RECONCILED
360
95B
  0
DICTIONARY
  5
95C
330
B
100
AcDbDictionary
280
     1
281
     1
  3
ADSK_XREC_LAYER_RECONCILED
360
95D
  0
DICTIONARY
  5
95E
330
5E
100
AcDbDictionary
280
     1
281
     1
  3
ADSK_XREC_LAYER_RECONCILED
360
95F
  0
DICTIONARY
  5
960
330
243
100
AcDbDictionary
280
     1
281
     1
  3
ADSK_XREC_LAYER_RECONCILED
360
961
  0
DICTIONARY
  5
962
330
90
100
AcDbDictionary
280
     1
281
     1
  3
ADSK_XREC_LAYER_RECONCILED
360
963
  0
DICTIONARY
  5
964
330
4
100
AcDbDictionary
280
     1
281
     1
  3
ADSK_XREC_LAYER_RECONCILED
360
965
  0
DICTIONARY
  5
966
330
C6
100
AcDbDictionary
280
     1
281
     1
  3
ADSK_XREC_LAYER_RECONCILED
360
967
  0
DICTIONARY
  5
968
330
240
100
AcDbDictionary
280
     1
281
     1
  3
ADSK_XREC_LAYER_RECONCILED
360
969
  0
DICTIONARY
  5
96A
330
E
100
AcDbDictionary
280
     1
281
     1
  3
ADSK_XREC_LAYER_RECONCILED
360
96B
  0
DICTIONARY
  5
96C
330
11
100
AcDbDictionary
280
     1
281
     1
  3
ADSK_XREC_LAYER_RECONCILED
360
96D
  0
DICTIONARY
  5
96E
330
329
100
AcDbDictionary
280
     1
281
     1
  3
ADSK_XREC_LAYER_RECONCILED
360
96F
  0
DICTIONARY
  5
970
330
1F6
100
AcDbDictionary
280
     1
281
     1
  3
ADSK_XREC_LAYER_RECONCILED
360
971
  0
DICTIONARY
  5
974
330
1F3
100
AcDbDictionary
280
     1
281
     1
  3
ADSK_XREC_LAYER_RECONCILED
360
975
  0
DICTIONARY
  5
976
330
1CB
100
AcDbDictionary
280
     1
281
     1
  3
ADSK_XREC_LAYER_RECONCILED
360
977
  0
DICTIONARY
  5
978
330
1D8
100
AcDbDictionary
280
     1
281
     1
  3
ADSK_XREC_LAYER_RECONCILED
360
979
  0
DICTIONARY
  5
97A
330
1CE
100
AcDbDictionary
280
     1
281
     1
  3
ADSK_XREC_LAYER_RECONCILED
360
97B
  0
DICTIONARY
  5
439
330
438
100
AcDbDictionary
280
     1
281
     1
  3
ADSK_XREC_LAYER_RECONCILED
360
97C
  0
DICTIONARY
  5
A11
330
2
100
AcDbDictionary
280
     1
281
     1
  3
ACAD_SORTENTS
360
AF3
  0
DICTIONARY
  5
A27
330
5DA
100
AcDbDictionary
280
     1
281
     1
  3
ACAD_SORTENTS
360
C0C
  0
DICTIONARY
  5
BDD
330
9CA
100
AcDbDictionary
280
     1
281
     1
  3
ACAD_SORTENTS
360
BDE
  0
XRECORD
  5
B51
102
{ACAD_REACTORS
330
7
102
}
330
7
100
AcDbXrecord
280
     1
300
AMECH_PP
300
2017
300
AMECH_PP_F_S
  0
DICTIONARY
  5
36E
102
{ACAD_REACTORS
330
7
102
}
330
7
100
AcDbDictionary
281
     1
  0
DICTIONARY
  5
B47
102
{ACAD_REACTORS
330
7
102
}
330
7
100
AcDbDictionary
281
     1
  3
Imperial24
350
B48
  0
FIELDLIST
  5
BA1
102
{ACAD_REACTORS
330
7
102
}
330
7
100
AcDbIdSet
 90
        4
330
B9F
330
BA0
330
BA2
330
BA3
100
AcDbFieldList
  0
DICTIONARY
  5
33B
102
{ACAD_REACTORS
330
7
102
}
330
7
100
AcDbDictionary
281
     1
  0
DICTIONARY
  5
324
102
{ACAD_REACTORS
330
7
102
}
330
7
100
AcDbDictionary
281
     1
  3
Layout1
350
32D
  3
Model
350
323
  0
DICTIONARY
  5
341
102
{ACAD_REACTORS
330
7
102
}
330
7
100
AcDbDictionary
281
     1
  3
ByBlock
350
34A
  3
ByLayer
350
342
  3
Global
350
352
  0
DICTIONARY
  5
393
102
{ACAD_REACTORS
330
7
102
}
330
7
100
AcDbDictionary
281
     1
  3
Standard
350
394
  0
DICTIONARY
  5
33C
102
{ACAD_REACTORS
330
7
102
}
330
7
100
AcDbDictionary
281
     1
  3
STANDARD
350
33E
  0
DICTIONARY
  5
33D
102
{ACAD_REACTORS
330
7
102
}
330
7
100
AcDbDictionary
281
     1
  0
ACDBDICTIONARYWDFLT
  5
6
102
{ACAD_REACTORS
330
7
102
}
330
7
100
AcDbDictionary
281
     1
  3
Normal
350
5
100
AcDbDictionaryWithDefault
340
5
  0
DICTIONARY
  5
371
102
{ACAD_REACTORS
330
7
102
}
330
7
100
AcDbDictionary
281
     1
  3
A0
350
372
  3
A1
350
373
  3
A2
350
374
  3
A3
350
375
  3
A4
350
376
  3
A5
350
377
  3
A6
350
378
  3
A7
350
379
  3
A8
350
37A
  3
A9
350
37B
  3
B0
350
37C
  3
B1
350
37D
  3
B2
350
37E
  3
B3
350
37F
  3
B4
350
380
  3
B5
350
381
  3
B6
350
382
  3
B7
350
383
  3
B8
350
384
  3
B9
350
385
  3
C0
350
386
  3
C1
350
387
  3
C2
350
388
  3
C3
350
389
  3
C4
350
38A
  3
C5
350
38B
  3
C6
350
38C
  3
C7
350
38D
  3
C8
350
38E
  3
C9
350
38F
  3
D0
350
390
  3
D1
350
391
  3
D2
350
392
  0
DICTIONARY
  5
B45
102
{ACAD_REACTORS
330
7
102
}
330
7
100
AcDbDictionary
281
     1
  3
Imperial24
350
B46
  0
DICTIONARY
  5
36F
102
{ACAD_REACTORS
330
7
102
}
330
7
100
AcDbDictionary
281
     1
  3
Standard
350
370
  0
DICTIONARY
  5
35A
102
{ACAD_REACTORS
330
7
102
}
330
7
100
AcDbDictionary
281
     1
  3
2dWireframe
350
360
  3
3D Hidden
350
362
  3
3dWireframe
350
361
  3
Basic
350
35F
  3
Brighten
350
366
  3
ColorChange
350
36A
  3
Conceptual
350
363
  3
Dim
350
365
  3
EdgeColorOff
350
36D
  3
Facepattern
350
369
  3
Flat
350
35B
  3
FlatWithEdges
350
35C
  3
Gouraud
350
35D
  3
GouraudWithEdges
350
35E
  3
Hidden
350
B3F
  3
JitterOff
350
36B
  3
Linepattern
350
368
  3
OverhangOff
350
36C
  3
Realistic
350
364
  3
Shaded
350
B44
  3
Shaded with edges
350
B43
  3
Shades of Gray
350
B40
  3
Sketchy
350
B41
  3
Thicken
350
367
  3
Wireframe
350
B3E
  3
X-Ray
350
B42
  0
XRECORD
  5
D47
102
{ACAD_REACTORS
330
7
102
}
330
7
100
AcDbXrecord
280
     1
 90
        1
330
370
330
B46
330
B48
  0
DICTIONARY
  5
B35
102
{ACAD_REACTORS
330
7
102
}
330
7
100
AcDbDictionary
281
     1
  3
CANNOSCALE
350
B39
  3
CMLEADERSTYLE
350
B37
  3
CTABLESTYLE
350
B36
  3
CVIEWDETAILSTYLE
350
D0D
  3
CVIEWSECTIONSTYLE
350
D0E
  3
LAYEREVAL
350
B3B
  3
LAYERNOTIFY
350
B3C
  3
LIGHTINGUNITS
350
B3A
  3
MSLTSCALE
350
B38
  0
DICTIONARY
  5
3FB
102
{ACAD_REACTORS
330
7
102
}
330
7
100
AcDbDictionary
281
     1
  3
AcmStdDictionary
350
405
  0
DICTIONARY
  5
4B3
102
{ACAD_REACTORS
330
7
102
}
330
7
100
AcDbDictionary
281
     1
  0
DICTIONARY
  5
399
102
{ACAD_REACTORS
330
7
102
}
330
7
100
AcDbDictionary
281
     1
  0
DICTIONARY
  5
4B6
102
{ACAD_REACTORS
330
7
102
}
330
7
100
AcDbDictionary
281
     1
  0
DICTIONARY
  5
5F2
102
{ACAD_REACTORS
330
5F1
102
}
330
5F1
100
AcDbDictionary
281
     1
  0
XRECORD
  5
95B
102
{ACAD_REACTORS
330
95A
102
}
330
95A
100
AcDbXrecord
280
     1
290
     1
  0
XRECORD
  5
95D
102
{ACAD_REACTORS
330
95C
102
}
330
95C
100
AcDbXrecord
280
     1
290
     1
  0
XRECORD
  5
95F
102
{ACAD_REACTORS
330
95E
102
}
330
95E
100
AcDbXrecord
280
     1
290
     1
  0
XRECORD
  5
961
102
{ACAD_REACTORS
330
960
102
}
330
960
100
AcDbXrecord
280
     1
290
     1
  0
XRECORD
  5
963
102
{ACAD_REACTORS
330
962
102
}
330
962
100
AcDbXrecord
280
     1
290
     1
  0
XRECORD
  5
965
102
{ACAD_REACTORS
330
964
102
}
330
964
100
AcDbXrecord
280
     1
290
     1
  0
XRECORD
  5
967
102
{ACAD_REACTORS
330
966
102
}
330
966
100
AcDbXrecord
280
     1
290
     1
  0
XRECORD
  5
969
102
{ACAD_REACTORS
330
968
102
}
330
968
100
AcDbXrecord
280
     1
290
     1
  0
XRECORD
  5
96B
102
{ACAD_REACTORS
330
96A
102
}
330
96A
100
AcDbXrecord
280
     1
290
     1
  0
XRECORD
  5
96D
102
{ACAD_REACTORS
330
96C
102
}
330
96C
100
AcDbXrecord
280
     1
290
     1
  0
XRECORD
  5
96F
102
{ACAD_REACTORS
330
96E
102
}
330
96E
100
AcDbXrecord
280
     1
290
     1
  0
XRECORD
  5
971
102
{ACAD_REACTORS
330
970
102
}
330
970
100
AcDbXrecord
280
     1
290
     1
  0
XRECORD
  5
975
102
{ACAD_REACTORS
330
974
102
}
330
974
100
AcDbXrecord
280
     1
290
     1
  0
XRECORD
  5
977
102
{ACAD_REACTORS
330
976
102
}
330
976
100
AcDbXrecord
280
     1
290
     1
  0
XRECORD
  5
979
102
{ACAD_REACTORS
330
978
102
}
330
978
100
AcDbXrecord
280
     1
290
     1
  0
XRECORD
  5
97B
102
{ACAD_REACTORS
330
97A
102
}
330
97A
100
AcDbXrecord
280
     1
290
     1
  0
XRECORD
  5
97C
102
{ACAD_REACTORS
330
439
102
}
330
439
100
AcDbXrecord
280
     1
290
     1
  0
SORTENTSTABLE
  5
AF3
102
{ACAD_REACTORS
330
A11
102
}
330
A11
100
AcDbSortentsTable
330
2
331
778
  5
78A
331
77C
  5
78E
331
780
  5
792
331
747
  5
756
331
784
  5
796
331
70C
  5
70C
331
74F
  5
75E
331
788
  5
79A
331
753
  5
762
331
757
  5
768
331
798
  5
7AA
331
79C
  5
7AE
331
761
  5
773
331
7A4
  5
7B6
331
76D
  5
77F
331
771
  5
783
331
775
  5
787
331
779
  5
78B
331
740
  5
74F
331
77D
  5
78F
331
744
  5
753
331
781
  5
793
331
785
  5
797
331
74C
  5
75B
331
750
  5
75F
331
754
  5
764
331
795
  5
7A7
331
799
  5
7AB
331
762
  5
775
331
766
  5
779
331
7A5
  5
7B7
331
AF5
  5
774
331
76A
  5
77C
331
76E
  5
780
331
772
  5
784
331
776
  5
788
331
77A
  5
78C
331
77E
  5
790
331
741
  5
750
331
782
  5
794
331
786
  5
798
331
74D
  5
75C
331
751
  5
760
331
755
  5
765
331
79A
  5
7AC
331
763
  5
776
331
767
  5
77A
331
7A6
  5
7B8
331
AF6
  5
777
331
76B
  5
77D
331
76F
  5
781
331
773
  5
785
331
777
  5
789
331
77B
  5
78D
331
77F
  5
791
331
742
  5
751
331
783
  5
795
331
746
  5
755
331
787
  5
799
331
70B
  5
70B
331
74E
  5
75D
331
752
  5
761
331
756
  5
766
331
797
  5
7A9
331
7D0
  5
801
331
79B
  5
7AD
331
760
  5
772
331
764
  5
778
331
7A3
  5
7B5
331
7A7
  5
7B9
331
768
  5
77B
331
76C
  5
77E
331
770
  5
782
331
774
  5
786
331
73F
  5
74E
  0
SORTENTSTABLE
  5
C0C
102
{ACAD_REACTORS
330
A27
102
}
330
A27
100
AcDbSortentsTable
330
5DA
  0
SORTENTSTABLE
  5
BDE
102
{ACAD_REACTORS
330
BDD
102
}
330
BDD
100
AcDbSortentsTable
330
9CA
331
9DA
  5
BDC
331
9D9
  5
BDB
331
9D8
  5
9DA
331
9D7
  5
9D9
331
BDC
  5
9CF
331
9D6
  5
9D8
331
BDB
  5
9CE
331
9D5
  5
9D7
331
9D4
  5
9D6
331
9D3
  5
9D5
331
9D2
  5
9D4
331
9D1
  5
9D3
331
9D0
  5
9D2
331
9CF
  5
9D1
331
9CE
  5
9D0
  0
ACDBDETAILVIEWSTYLE
  5
B48
102
{ACAD_XDICTIONARY
360
D07
102
}
102
{ACAD_REACTORS
330
B47
330
B94
102
}
330
B47
100
AcDbModelDocViewStyle
 70
     0
  3
Imperial24
290
     0
100
AcDbDetailViewStyle
 70
     0
 71
     0
 90
        3
 71
     1
340
5F
 62
   256
 40
0.24
340
0
 62
   256
 40
0.24
300

 40
0.36
280
     3
 71
     2
340
15
 90
       25
 62
   256
 71
     3
340
5F
 62
   256
 40
0.24
 90
        1
 40
0.75
 90
        1
300
%<\AcVar ViewType \f "%tc1">% %<\AcVar ViewDetailId>%\PSCALE %<\AcVar ViewScale \f "%sn">%
 71
     4
340
15
 90
       25
 62
   256
340
15
 90
       25
 62
   256
280
     0
  0
LAYOUT
  5
32D
102
{ACAD_REACTORS
330
324
102
}
330
324
100
AcDbPlotSettings
  1

  2
HP LaserJet 5000 N PCL 6
  4

  6

 40
0.0
 41
0.0
 42
0.0
 43
0.0
 44
0.0
 45
0.0
 46
0.0
 47
0.0
 48
0.0
 49
0.0
140
0.0
141
0.0
142
1.0
143
1.0
 70
   688
 72
     0
 73
     0
 74
     5
  7
monochrome.ctb
 75
    16
147
1.0
 76
     0
 77
     2
 78
   300
148
0.0
149
0.0
100
AcDbLayout
  1
Layout1
 70
     0
 71
     1
 10
0.0
 20
0.0
 11
298.0
 21
210.0
 12
0.0
 22
0.0
 32
0.0
 14
0.177597999999989
 24
1.95322999999999
 34
0.0
 15
286.11
 25
200.828
 35
0.0
146
0.0
 13
0.0
 23
0.0
 33
0.0
 16
1.0
 26
0.0
 36
0.0
 17
0.0
 27
1.0
 37
0.0
 76
     0
330
325
331
328
  0
LAYOUT
  5
323
102
{ACAD_XDICTIONARY
360
B33
102
}
102
{ACAD_REACTORS
330
324
102
}
330
324
100
AcDbPlotSettings
  1

  2
\\ACO_CAD_PRV\HPLJ5000N
  4
A4
  6

 40
6.720416545867919
 41
6.720423221588134
 42
7.694076538085937
 43
4.011077880859375
 44
209.9733276367187
 45
296.9683227539062
 46
0.0
 47
0.0
 48
0.0
 49
0.0
140
420.0
141
297.0
142
1.0
143
2.147988541374206
 70
 11952
 72
     1
 73
     1
 74
     1
  7
monochrome.ctb
 75
     0
147
0.4655518317431227
 76
     0
 77
     2
 78
   300
148
0.0256633251274252
149
0.0181260584133725
100
AcDbLayout
  1
Model
 70
     1
 71
     0
 10
0.0
 20
0.0
 11
12.0
 21
9.0
 12
0.0
 22
0.0
 32
0.0
 14
0.0
 24
0.0
 34
0.0
 15
0.0
 25
0.0
 35
0.0
146
0.0
 13
0.0
 23
0.0
 33
0.0
 16
1.0
 26
0.0
 36
0.0
 17
0.0
 27
1.0
 37
0.0
 76
     0
330
2
331
337
  0
MATERIAL
  5
34A
102
{ACAD_XDICTIONARY
360
34B
102
}
102
{ACAD_REACTORS
330
341
102
}
330
341
100
AcDbMaterial
  1
ByBlock
 72
     0
 43
0.0208333333333333
 43
0.0
 43
0.0
 43
0.0
 43
0.0
 43
0.0208333333333333
 43
0.0
 43
0.0
 43
0.0
 43
0.0
 43
1.0
 43
0.0
 43
0.0
 43
0.0
 43
0.0
 43
1.0
 77
     0
 47
0.0208333333333333
 47
0.0
 47
0.0
 47
0.0
 47
0.0
 47
0.0208333333333333
 47
0.0
 47
0.0
 47
0.0
 47
0.0
 47
1.0
 47
0.0
 47
0.0
 47
0.0
 47
0.0
 47
1.0
171
     0
 49
0.0208333333333333
 49
0.0
 49
0.0
 49
0.0
 49
0.0
 49
0.0208333333333333
 49
0.0
 49
0.0
 49
0.0
 49
0.0
 49
1.0
 49
0.0
 49
0.0
 49
0.0
 49
0.0
 49
1.0
175
     0
142
0.0208333333333333
142
0.0
142
0.0
142
0.0
142
0.0
142
0.0208333333333333
142
0.0
142
0.0
142
0.0
142
0.0
142
1.0
142
0.0
142
0.0
142
0.0
142
0.0
142
1.0
179
     0
144
0.0208333333333333
144
0.0
144
0.0
144
0.0
144
0.0
144
0.0208333333333333
144
0.0
144
0.0
144
0.0
144
0.0
144
1.0
144
0.0
144
0.0
144
0.0
144
0.0
144
1.0
147
0.0208333333333333
147
0.0
147
0.0
147
0.0
147
0.0
147
0.0208333333333333
147
0.0
147
0.0
147
0.0
147
0.0
147
1.0
147
0.0
147
0.0
147
0.0
147
0.0
147
1.0
  0
MATERIAL
  5
342
102
{ACAD_XDICTIONARY
360
343
102
}
102
{ACAD_REACTORS
330
341
102
}
330
341
100
AcDbMaterial
  1
ByLayer
 72
     0
 43
0.0208333333333333
 43
0.0
 43
0.0
 43
0.0
 43
0.0
 43
0.0208333333333333
 43
0.0
 43
0.0
 43
0.0
 43
0.0
 43
1.0
 43
0.0
 43
0.0
 43
0.0
 43
0.0
 43
1.0
 77
     0
 47
0.0208333333333333
 47
0.0
 47
0.0
 47
0.0
 47
0.0
 47
0.0208333333333333
 47
0.0
 47
0.0
 47
0.0
 47
0.0
 47
1.0
 47
0.0
 47
0.0
 47
0.0
 47
0.0
 47
1.0
171
     0
 49
0.0208333333333333
 49
0.0
 49
0.0
 49
0.0
 49
0.0
 49
0.0208333333333333
 49
0.0
 49
0.0
 49
0.0
 49
0.0
 49
1.0
 49
0.0
 49
0.0
 49
0.0
 49
0.0
 49
1.0
175
     0
142
0.0208333333333333
142
0.0
142
0.0
142
0.0
142
0.0
142
0.0208333333333333
142
0.0
142
0.0
142
0.0
142
0.0
142
1.0
142
0.0
142
0.0
142
0.0
142
0.0
142
1.0
179
     0
144
0.0208333333333333
144
0.0
144
0.0
144
0.0
144
0.0
144
0.0208333333333333
144
0.0
144
0.0
144
0.0
144
0.0
144
1.0
144
0.0
144
0.0
144
0.0
144
0.0
144
1.0
147
0.0208333333333333
147
0.0
147
0.0
147
0.0
147
0.0
147
0.0208333333333333
147
0.0
147
0.0
147
0.0
147
0.0
147
1.0
147
0.0
147
0.0
147
0.0
147
0.0
147
1.0
  0
MATERIAL
  5
352
102
{ACAD_XDICTIONARY
360
353
102
}
102
{ACAD_REACTORS
330
341
102
}
330
341
100
AcDbMaterial
  1
Global
 72
     0
 43
0.0208333333333333
 43
0.0
 43
0.0
 43
0.0
 43
0.0
 43
0.0208333333333333
 43
0.0
 43
0.0
 43
0.0
 43
0.0
 43
1.0
 43
0.0
 43
0.0
 43
0.0
 43
0.0
 43
1.0
 77
     0
 47
0.0208333333333333
 47
0.0
 47
0.0
 47
0.0
 47
0.0
 47
0.0208333333333333
 47
0.0
 47
0.0
 47
0.0
 47
0.0
 47
1.0
 47
0.0
 47
0.0
 47
0.0
 47
0.0
 47
1.0
171
     0
 49
0.0208333333333333
 49
0.0
 49
0.0
 49
0.0
 49
0.0
 49
0.0208333333333333
 49
0.0
 49
0.0
 49
0.0
 49
0.0
 49
1.0
 49
0.0
 49
0.0
 49
0.0
 49
0.0
 49
1.0
175
     0
142
0.0208333333333333
142
0.0
142
0.0
142
0.0
142
0.0
142
0.0208333333333333
142
0.0
142
0.0
142
0.0
142
0.0
142
1.0
142
0.0
142
0.0
142
0.0
142
0.0
142
1.0
179
     0
144
0.0208333333333333
144
0.0
144
0.0
144
0.0
144
0.0
144
0.0208333333333333
144
0.0
144
0.0
144
0.0
144
0.0
144
1.0
144
0.0
144
0.0
144
0.0
144
0.0
144
1.0
147
0.0208333333333333
147
0.0
147
0.0
147
0.0
147
0.0
147
0.0208333333333333
147
0.0
147
0.0
147
0.0
147
0.0
147
1.0
147
0.0
147
0.0
147
0.0
147
0.0
147
1.0
  0
MLEADERSTYLE
  5
394
102
{ACAD_REACTORS
330
393
102
}
330
393
100
AcDbMLeaderStyle
179
     2
170
     2
171
     1
172
     0
 90
        2
 40
0.0
 41
0.0
173
     1
 91
-1056964608
340
332
 92
       -2
290
     1
 42
0.09
291
     1
 43
0.36
  3
Standard
 44
0.18
300

342
5F
174
     1
178
     6
175
     1
176
     0
 93
-1056964608
 45
0.18
292
     0
297
     0
 46
0.18
 94
-1056964608
 47
1.0
 49
1.0
140
1.0
293
     1
141
0.0
294
     1
177
     0
142
1.0
295
     0
296
     0
143
0.125
271
     0
272
     9
273
     9
298
     0
  0
MLINESTYLE
  5
33E
102
{ACAD_REACTORS
330
33C
102
}
330
33C
100
AcDbMlineStyle
  2
STANDARD
 70
     0
  3

 62
   256
 51
90.0
 52
90.0
 71
     2
 49
0.5
 62
   256
  6
BYLAYER
 49
-0.5
 62
   256
  6
BYLAYER
  0
ACDBPLACEHOLDER
  5
5
102
{ACAD_REACTORS
330
6
102
}
330
6
  0
SCALE
  5
372
102
{ACAD_REACTORS
330
371
102
}
330
371
100
AcDbScale
 70
     0
300
1:1
140
1.0
141
1.0
290
     1
  0
SCALE
  5
373
102
{ACAD_REACTORS
330
371
102
}
330
371
100
AcDbScale
 70
     0
300
1:2
140
1.0
141
2.0
290
     0
  0
SCALE
  5
374
102
{ACAD_REACTORS
330
371
102
}
330
371
100
AcDbScale
 70
     0
300
1:4
140
1.0
141
4.0
290
     0
  0
SCALE
  5
375
102
{ACAD_REACTORS
330
371
102
}
330
371
100
AcDbScale
 70
     0
300
1:5
140
1.0
141
5.0
290
     0
  0
SCALE
  5
376
102
{ACAD_REACTORS
330
371
102
}
330
371
100
AcDbScale
 70
     0
300
1:8
140
1.0
141
8.0
290
     0
  0
SCALE
  5
377
102
{ACAD_REACTORS
330
371
102
}
330
371
100
AcDbScale
 70
     0
300
1:10
140
1.0
141
10.0
290
     0
  0
SCALE
  5
378
102
{ACAD_REACTORS
330
371
102
}
330
371
100
AcDbScale
 70
     0
300
1:16
140
1.0
141
16.0
290
     0
  0
SCALE
  5
379
102
{ACAD_REACTORS
330
371
102
}
330
371
100
AcDbScale
 70
     0
300
1:20
140
1.0
141
20.0
290
     0
  0
SCALE
  5
37A
102
{ACAD_REACTORS
330
371
102
}
330
371
100
AcDbScale
 70
     0
300
1:30
140
1.0
141
30.0
290
     0
  0
SCALE
  5
37B
102
{ACAD_REACTORS
330
371
102
}
330
371
100
AcDbScale
 70
     0
300
1:40
140
1.0
141
40.0
290
     0
  0
SCALE
  5
37C
102
{ACAD_REACTORS
330
371
102
}
330
371
100
AcDbScale
 70
     0
300
1:50
140
1.0
141
50.0
290
     0
  0
SCALE
  5
37D
102
{ACAD_REACTORS
330
371
102
}
330
371
100
AcDbScale
 70
     0
300
1:100
140
1.0
141
100.0
290
     0
  0
SCALE
  5
37E
102
{ACAD_REACTORS
330
371
102
}
330
371
100
AcDbScale
 70
     0
300
2:1
140
2.0
141
1.0
290
     0
  0
SCALE
  5
37F
102
{ACAD_REACTORS
330
371
102
}
330
371
100
AcDbScale
 70
     0
300
4:1
140
4.0
141
1.0
290
     0
  0
SCALE
  5
380
102
{ACAD_REACTORS
330
371
102
}
330
371
100
AcDbScale
 70
     0
300
8:1
140
8.0
141
1.0
290
     0
  0
SCALE
  5
381
102
{ACAD_REACTORS
330
371
102
}
330
371
100
AcDbScale
 70
     0
300
10:1
140
10.0
141
1.0
290
     0
  0
SCALE
  5
382
102
{ACAD_REACTORS
330
371
102
}
330
371
100
AcDbScale
 70
     0
300
100:1
140
100.0
141
1.0
290
     0
  0
SCALE
  5
383
102
{ACAD_REACTORS
330
371
102
}
330
371
100
AcDbScale
 70
     0
300
1/128" = 1'-0"
140
0.0078125
141
12.0
290
     0
  0
SCALE
  5
384
102
{ACAD_REACTORS
330
371
102
}
330
371
100
AcDbScale
 70
     0
300
1/64" = 1'-0"
140
0.015625
141
12.0
290
     0
  0
SCALE
  5
385
102
{ACAD_REACTORS
330
371
102
}
330
371
100
AcDbScale
 70
     0
300
1/32" = 1'-0"
140
0.03125
141
12.0
290
     0
  0
SCALE
  5
386
102
{ACAD_REACTORS
330
371
102
}
330
371
100
AcDbScale
 70
     0
300
1/16" = 1'-0"
140
0.0625
141
12.0
290
     0
  0
SCALE
  5
387
102
{ACAD_REACTORS
330
371
102
}
330
371
100
AcDbScale
 70
     0
300
3/32" = 1'-0"
140
0.09375
141
12.0
290
     0
  0
SCALE
  5
388
102
{ACAD_REACTORS
330
371
102
}
330
371
100
AcDbScale
 70
     0
300
1/8" = 1'-0"
140
0.125
141
12.0
290
     0
  0
SCALE
  5
389
102
{ACAD_REACTORS
330
371
102
}
330
371
100
AcDbScale
 70
     0
300
3/16" = 1'-0"
140
0.1875
141
12.0
290
     0
  0
SCALE
  5
38A
102
{ACAD_REACTORS
330
371
102
}
330
371
100
AcDbScale
 70
     0
300
1/4" = 1'-0"
140
0.25
141
12.0
290
     0
  0
SCALE
  5
38B
102
{ACAD_REACTORS
330
371
102
}
330
371
100
AcDbScale
 70
     0
300
3/8" = 1'-0"
140
0.375
141
12.0
290
     0
  0
SCALE
  5
38C
102
{ACAD_REACTORS
330
371
102
}
330
371
100
AcDbScale
 70
     0
300
1/2" = 1'-0"
140
0.5
141
12.0
290
     0
  0
SCALE
  5
38D
102
{ACAD_REACTORS
330
371
102
}
330
371
100
AcDbScale
 70
     0
300
3/4" = 1'-0"
140
0.75
141
12.0
290
     0
  0
SCALE
  5
38E
102
{ACAD_REACTORS
330
371
102
}
330
371
100
AcDbScale
 70
     0
300
1" = 1'-0"
140
1.0
141
12.0
290
     0
  0
SCALE
  5
38F
102
{ACAD_REACTORS
330
371
102
}
330
371
100
AcDbScale
 70
     0
300
1-1/2" = 1'-0"
140
1.5
141
12.0
290
     0
  0
SCALE
  5
390
102
{ACAD_REACTORS
330
371
102
}
330
371
100
AcDbScale
 70
     0
300
3" = 1'-0"
140
3.0
141
12.0
290
     0
  0
SCALE
  5
391
102
{ACAD_REACTORS
330
371
102
}
330
371
100
AcDbScale
 70
     0
300
6" = 1'-0"
140
6.0
141
12.0
290
     0
  0
SCALE
  5
392
102
{ACAD_REACTORS
330
371
102
}
330
371
100
AcDbScale
 70
     0
300
1'-0" = 1'-0"
140
12.0
141
12.0
290
     0
  0
ACDBSECTIONVIEWSTYLE
  5
B46
102
{ACAD_XDICTIONARY
360
D05
102
}
102
{ACAD_REACTORS
330
B45
330
B93
102
}
330
B45
100
AcDbModelDocViewStyle
 70
     0
  3
Imperial24
290
     0
100
AcDbSectionViewStyle
 70
     0
 71
     0
 90
       78
 71
     1
340
5F
 62
   256
 40
0.24
340
0
340
0
 62
   256
 40
0.24
300
I, O, Q, S, X, Z
 40
0.48
 90
        3
 40
0.18
 90
        1
 71
     2
340
15
 90
       25
 62
   256
340
15
 90
       50
 62
   256
 40
0.24
 40
0.0
 40
0.24
 71
     3
340
5F
 62
   256
 40
0.24
 90
        1
 40
0.75
 90
        1
300
%<\AcVar ViewType \f "%tc1">% %<\AcVar ViewSectionStartId>%-%<\AcVar ViewSectionEndId>%\PSCALE %<\AcVar ViewScale \f "%sn">%
 71
     4
 62
   256
 62
   257
300
ANSI31
 40
1.0
 90
        0
290
     0
290
     0
 90
        6
 40
0.0
 40
1.570796326794896
 40
0.2617993877991494
 40
1.308996938995747
 40
-0.2617993877991494
 40
1.832595714594046
  0
TABLESTYLE
  5
370
102
{ACAD_XDICTIONARY
360
D43
102
}
102
{ACAD_REACTORS
330
36F
102
}
330
36F
100
AcDbTableStyle
280
     0
  3
Standard
 70
     0
 71
     0
 40
0.06
 41
0.06
280
     0
281
     0
  7
STANDARD
140
0.18
170
     2
 62
     0
 63
     7
283
     0
 90
      512
 91
        0
  1

274
    -2
284
     1
 64
     0
275
    -2
285
     1
 65
     0
276
    -2
286
     1
 66
     0
277
    -2
287
     1
 67
     0
278
    -2
288
     1
 68
     0
279
    -2
289
     1
 69
     0
  7
STANDARD
140
0.25
170
     5
 62
     0
 63
     7
283
     0
 90
      512
 91
        0
  1

274
    -2
284
     1
 64
     0
275
    -2
285
     1
 65
     0
276
    -2
286
     1
 66
     0
277
    -2
287
     1
 67
     0
278
    -2
288
     1
 68
     0
279
    -2
289
     1
 69
     0
  7
STANDARD
140
0.18
170
     5
 62
     0
 63
     7
283
     0
 90
      512
 91
        0
  1

274
    -2
284
     1
 64
     0
275
    -2
285
     1
 65
     0
276
    -2
286
     1
 66
     0
277
    -2
287
     1
 67
     0
278
    -2
288
     1
 68
     0
279
    -2
289
     1
 69
     0
  0
VISUALSTYLE
  5
360
102
{ACAD_REACTORS
330
35A
102
}
330
35A
100
AcDbVisualStyle
  2
2dWireframe
 70
     4
177
     3
291
     0
 70
    58
 90
        0
176
     1
 90
        2
176
     1
 90
        0
176
     1
 90
        0
176
     1
 40
0.6
176
     1
 40
30.0
176
     1
 62
     7
420
 16777215
176
     1
 90
        1
176
     1
 90
        4
176
     1
 62
     7
176
     1
 62
   257
176
     1
 90
        1
176
     1
 90
        1
176
     1
 40
1.0
176
     1
 90
        0
176
     1
 62
   257
176
     1
 40
1.0
176
     1
 90
        1
176
     1
 90
        6
176
     1
 90
        2
176
     1
 62
     7
176
     1
 90
        5
176
     1
 90
        0
176
     1
 90
        0
176
     1
290
     0
176
     1
 90
        1
176
     1
 40
0.0
176
     1
 90
        0
176
     1
290
     1
176
     1
290
     1
176
     1
290
     0
176
     1
290
     0
176
     1
290
     0
176
     1
290
     0
176
     1
290
     0
176
     1
290
     0
176
     1
290
     0
176
     1
 90
       50
176
     1
 40
0.0
176
     1
 40
1.0
176
     1
 90
        0
176
     1
 62
    18
420
        0
176
     1
 90
       50
176
     1
 90
        3
176
     1
 62
     5
420
      255
176
     1
290
     0
176
     1
 90
       50
176
     1
 90
       50
176
     1
 90
       50
176
     1
290
     0
176
     1
 90
       50
176
     1
 62
   256
176
     0
 40
1.0
176
     0
 90
        2
176
     1
  1
strokes_ogs.tif
176
     1
290
     0
176
     1
 40
1.0
176
     1
 40
1.0
176
     1
  0
VISUALSTYLE
  5
362
102
{ACAD_REACTORS
330
35A
102
}
330
35A
100
AcDbVisualStyle
  2
3D Hidden
 70
     6
177
     3
291
     0
 70
    58
 90
        1
176
     1
 90
        2
176
     1
 90
        2
176
     1
 90
        0
176
     1
 40
0.6
176
     1
 40
30.0
176
     1
 62
     7
420
 16777215
176
     1
 90
        2
176
     1
 90
        2
176
     1
 62
     7
176
     1
 62
   257
176
     1
 90
        2
176
     1
 90
        1
176
     1
 40
179.0
176
     1
 90
        0
176
     1
 62
   257
176
     1
 40
1.0
176
     1
 90
        1
176
     1
 90
        6
176
     1
 90
        2
176
     1
 62
     7
176
     1
 90
        3
176
     1
 90
        0
176
     1
 90
        0
176
     1
290
     0
176
     1
 90
        1
176
     1
 40
0.0
176
     1
 90
        0
176
     1
290
     0
176
     1
290
     1
176
     1
290
     1
176
     1
290
     0
176
     1
290
     0
176
     1
290
     0
176
     1
290
     0
176
     1
290
     0
176
     1
290
     0
176
     1
 90
       50
176
     1
 40
0.0
176
     1
 40
1.0
176
     1
 90
        0
176
     1
 62
    18
420
        0
176
     1
 90
       50
176
     1
 90
        3
176
     1
 62
     5
420
      255
176
     1
290
     0
176
     1
 90
       50
176
     1
 90
       50
176
     1
 90
       50
176
     1
290
     0
176
     1
 90
       50
176
     1
 62
   256
176
     0
 40
1.0
176
     0
 90
        2
176
     1
  1
strokes_ogs.tif
176
     1
290
     0
176
     1
 40
1.0
176
     1
 40
1.0
176
     1
  0
VISUALSTYLE
  5
361
102
{ACAD_REACTORS
330
35A
102
}
330
35A
100
AcDbVisualStyle
  2
3dWireframe
 70
     5
177
     3
291
     0
 70
    58
 90
        0
176
     1
 90
        2
176
     1
 90
        0
176
     1
 90
        0
176
     1
 40
0.6
176
     1
 40
30.0
176
     1
 62
     7
420
 16777215
176
     1
 90
        1
176
     1
 90
        4
176
     1
 62
     7
176
     1
 62
   257
176
     1
 90
        1
176
     1
 90
        1
176
     1
 40
1.0
176
     1
 90
        0
176
     1
 62
   257
176
     1
 40
1.0
176
     1
 90
        1
176
     1
 90
        6
176
     1
 90
        2
176
     1
 62
     7
176
     1
 90
        5
176
     1
 90
        0
176
     1
 90
        0
176
     1
290
     0
176
     1
 90
        1
176
     1
 40
0.0
176
     1
 90
        0
176
     1
290
     0
176
     1
290
     1
176
     1
290
     1
176
     1
290
     0
176
     1
290
     0
176
     1
290
     0
176
     1
290
     0
176
     1
290
     0
176
     1
290
     0
176
     1
 90
       50
176
     1
 40
0.0
176
     1
 40
1.0
176
     1
 90
        0
176
     1
 62
    18
420
        0
176
     1
 90
       50
176
     1
 90
        3
176
     1
 62
     5
420
      255
176
     1
290
     0
176
     1
 90
       50
176
     1
 90
       50
176
     1
 90
       50
176
     1
290
     0
176
     1
 90
       50
176
     1
 62
   256
176
     0
 40
1.0
176
     0
 90
        2
176
     1
  1
strokes_ogs.tif
176
     1
290
     0
176
     1
 40
1.0
176
     1
 40
1.0
176
     1
  0
VISUALSTYLE
  5
35F
102
{ACAD_REACTORS
330
35A
102
}
330
35A
100
AcDbVisualStyle
  2
Basic
 70
     7
177
     3
291
     1
 70
    58
 90
        1
176
     1
 90
        0
176
     1
 90
        1
176
     1
 90
        0
176
     1
 40
0.6
176
     1
 40
30.0
176
     1
 62
     7
420
 16777215
176
     1
 90
        0
176
     1
 90
        4
176
     1
 62
     7
176
     1
 62
   257
176
     1
 90
        1
176
     1
 90
        1
176
     1
 40
1.0
176
     1
 90
        8
176
     1
 62
     7
176
     1
 40
1.0
176
     1
 90
        1
176
     1
 90
        6
176
     1
 90
        2
176
     1
 62
     7
176
     1
 90
        5
176
     1
 90
        0
176
     1
 90
        0
176
     1
290
     0
176
     1
 90
        1
176
     1
 40
0.0
176
     1
 90
        0
176
     1
290
     0
176
     1
290
     1
176
     1
290
     1
176
     1
290
     0
176
     1
290
     0
176
     1
290
     0
176
     1
290
     0
176
     1
290
     0
176
     1
290
     0
176
     1
 90
       50
176
     1
 40
0.0
176
     1
 40
1.0
176
     1
 90
        0
176
     1
 62
    18
420
        0
176
     1
 90
       50
176
     1
 90
        3
176
     1
 62
     5
420
      255
176
     1
290
     0
176
     1
 90
       50
176
     1
 90
       50
176
     1
 90
       50
176
     1
290
     0
176
     1
 90
       50
176
     1
 62
   256
176
     0
 40
1.0
176
     0
 90
        2
176
     1
  1
strokes_ogs.tif
176
     1
290
     0
176
     1
 40
1.0
176
     1
 40
1.0
176
     1
  0
VISUALSTYLE
  5
366
102
{ACAD_REACTORS
330
35A
102
}
330
35A
100
AcDbVisualStyle
  2
Brighten
 70
    12
177
     3
291
     1
 70
    58
 90
        2
176
     1
 90
        2
176
     1
 90
        0
176
     1
 90
        0
176
     1
 40
0.6
176
     1
 40
30.0
176
     1
 62
     7
420
 16777215
176
     1
 90
        1
176
     1
 90
        4
176
     1
 62
     7
176
     1
 62
   257
176
     1
 90
        1
176
     1
 90
        1
176
     1
 40
1.0
176
     1
 90
        8
176
     1
 62
     7
176
     1
 40
1.0
176
     1
 90
        1
176
     1
 90
        6
176
     1
 90
        2
176
     1
 62
     7
176
     1
 90
        5
176
     1
 90
        0
176
     1
 90
        0
176
     1
290
     0
176
     1
 90
        1
176
     1
 40
50.0
176
     1
 90
        0
176
     1
290
     0
176
     1
290
     1
176
     1
290
     1
176
     1
290
     0
176
     1
290
     0
176
     1
290
     0
176
     1
290
     0
176
     1
290
     0
176
     1
290
     0
176
     1
 90
       50
176
     1
 40
0.0
176
     1
 40
1.0
176
     1
 90
        0
176
     1
 62
    18
420
        0
176
     1
 90
       50
176
     1
 90
        3
176
     1
 62
     5
420
      255
176
     1
290
     0
176
     1
 90
       50
176
     1
 90
       50
176
     1
 90
       50
176
     1
290
     0
176
     1
 90
       50
176
     1
 62
   256
176
     0
 40
1.0
176
     0
 90
        2
176
     1
  1
strokes_ogs.tif
176
     1
290
     0
176
     1
 40
1.0
176
     1
 40
1.0
176
     1
  0
VISUALSTYLE
  5
36A
102
{ACAD_REACTORS
330
35A
102
}
330
35A
100
AcDbVisualStyle
  2
ColorChange
 70
    16
177
     3
291
     1
 70
    58
 90
        2
176
     1
 90
        2
176
     1
 90
        3
176
     1
 90
        0
176
     1
 40
0.6
176
     1
 40
30.0
176
     1
 62
     8
420
  8421504
176
     1
 90
        1
176
     1
 90
        4
176
     1
 62
     7
176
     1
 62
   257
176
     1
 90
        1
176
     1
 90
        1
176
     1
 40
1.0
176
     1
 90
        8
176
     1
 62
     8
420
  8421504
176
     1
 40
1.0
176
     1
 90
        1
176
     1
 90
        6
176
     1
 90
        2
176
     1
 62
     7
176
     1
 90
        5
176
     1
 90
        0
176
     1
 90
        0
176
     1
290
     0
176
     1
 90
        1
176
     1
 40
0.0
176
     1
 90
        0
176
     1
290
     0
176
     1
290
     1
176
     1
290
     1
176
     1
290
     0
176
     1
290
     0
176
     1
290
     0
176
     1
290
     0
176
     1
290
     0
176
     1
290
     0
176
     1
 90
       50
176
     1
 40
0.0
176
     1
 40
1.0
176
     1
 90
        0
176
     1
 62
    18
420
        0
176
     1
 90
       50
176
     1
 90
        3
176
     1
 62
     5
420
      255
176
     1
290
     0
176
     1
 90
       50
176
     1
 90
       50
176
     1
 90
       50
176
     1
290
     0
176
     1
 90
       50
176
     1
 62
   256
176
     0
 40
1.0
176
     0
 90
        2
176
     1
  1
strokes_ogs.tif
176
     1
290
     0
176
     1
 40
1.0
176
     1
 40
1.0
176
     1
  0
VISUALSTYLE
  5
363
102
{ACAD_REACTORS
330
35A
102
}
330
35A
100
AcDbVisualStyle
  2
Conceptual
 70
     9
177
     3
291
     0
 70
    58
 90
        3
176
     1
 90
        2
176
     1
 90
        0
176
     1
 90
        0
176
     1
 40
0.6
176
     1
 40
30.0
176
     1
 62
     7
420
 16777215
176
     1
 90
        2
176
     1
 90
        2
176
     1
 62
     7
176
     1
 62
   257
176
     1
 90
        1
176
     1
 90
        1
176
     1
 40
179.0
176
     1
 90
        8
176
     1
 62
     7
176
     1
 40
1.0
176
     1
 90
        1
176
     1
 90
        6
176
     1
 90
        2
176
     1
 62
     7
176
     1
 90
        3
176
     1
 90
        0
176
     1
 90
        0
176
     1
290
     0
176
     1
 90
        1
176
     1
 40
0.0
176
     1
 90
        0
176
     1
290
     0
176
     1
290
     1
176
     1
290
     1
176
     1
290
     0
176
     1
290
     0
176
     1
290
     0
176
     1
290
     0
176
     1
290
     0
176
     1
290
     0
176
     1
 90
       50
176
     1
 40
0.0
176
     1
 40
1.0
176
     1
 90
        0
176
     1
 62
    18
420
        0
176
     1
 90
       50
176
     1
 90
        3
176
     1
 62
     5
420
      255
176
     1
290
     0
176
     1
 90
       50
176
     1
 90
       50
176
     1
 90
       50
176
     1
290
     0
176
     1
 90
       50
176
     1
 62
   256
176
     0
 40
1.0
176
     0
 90
        2
176
     1
  1
strokes_ogs.tif
176
     1
290
     0
176
     1
 40
1.0
176
     1
 40
1.0
176
     1
  0
VISUALSTYLE
  5
365
102
{ACAD_REACTORS
330
35A
102
}
330
35A
100
AcDbVisualStyle
  2
Dim
 70
    11
177
     3
291
     1
 70
    58
 90
        2
176
     1
 90
        2
176
     1
 90
        0
176
     1
 90
        0
176
     1
 40
0.6
176
     1
 40
30.0
176
     1
 62
     7
420
 16777215
176
     1
 90
        1
176
     1
 90
        4
176
     1
 62
     7
176
     1
 62
   257
176
     1
 90
        1
176
     1
 90
        1
176
     1
 40
1.0
176
     1
 90
        8
176
     1
 62
     7
176
     1
 40
1.0
176
     1
 90
        1
176
     1
 90
        6
176
     1
 90
        2
176
     1
 62
     7
176
     1
 90
        5
176
     1
 90
        0
176
     1
 90
        0
176
     1
290
     0
176
     1
 90
        1
176
     1
 40
-50.0
176
     1
 90
        0
176
     1
290
     0
176
     1
290
     1
176
     1
290
     1
176
     1
290
     0
176
     1
290
     0
176
     1
290
     0
176
     1
290
     0
176
     1
290
     0
176
     1
290
     0
176
     1
 90
       50
176
     1
 40
0.0
176
     1
 40
1.0
176
     1
 90
        0
176
     1
 62
    18
420
        0
176
     1
 90
       50
176
     1
 90
        3
176
     1
 62
     5
420
      255
176
     1
290
     0
176
     1
 90
       50
176
     1
 90
       50
176
     1
 90
       50
176
     1
290
     0
176
     1
 90
       50
176
     1
 62
   256
176
     0
 40
1.0
176
     0
 90
        2
176
     1
  1
strokes_ogs.tif
176
     1
290
     0
176
     1
 40
1.0
176
     1
 40
1.0
176
     1
  0
VISUALSTYLE
  5
36D
102
{ACAD_REACTORS
330
35A
102
}
330
35A
100
AcDbVisualStyle
  2
EdgeColorOff
 70
    22
177
     3
291
     1
 70
    58
 90
        2
176
     0
 90
        2
176
     0
 90
        0
176
     0
 90
        0
176
     0
 40
0.6
176
     0
 40
30.0
176
     0
 62
     7
420
 16777215
176
     0
 90
        1
176
     0
 90
        4
176
     0
 62
     7
176
     0
 62
   257
176
     0
 90
        1
176
     0
 90
        1
176
     0
 40
1.0
176
     0
 90
        8
176
     2
 62
     7
176
     0
 40
1.0
176
     0
 90
        1
176
     0
 90
        6
176
     0
 90
        2
176
     0
 62
     7
176
     0
 90
        5
176
     0
 90
        0
176
     0
 90
        0
176
     0
290
     0
176
     0
 90
        1
176
     0
 40
0.0
176
     0
 90
        0
176
     0
290
     0
176
     1
290
     1
176
     1
290
     1
176
     1
290
     0
176
     1
290
     0
176
     1
290
     0
176
     1
290
     0
176
     1
290
     0
176
     1
290
     0
176
     1
 90
       50
176
     1
 40
0.0
176
     1
 40
1.0
176
     1
 90
        0
176
     1
 62
    18
420
        0
176
     1
 90
       50
176
     1
 90
        3
176
     1
 62
     5
420
      255
176
     1
290
     0
176
     1
 90
       50
176
     1
 90
       50
176
     1
 90
       50
176
     1
290
     0
176
     1
 90
       50
176
     1
 62
   256
176
     0
 40
1.0
176
     0
 90
        2
176
     1
  1
strokes_ogs.tif
176
     1
290
     0
176
     1
 40
1.0
176
     1
 40
1.0
176
     1
  0
VISUALSTYLE
  5
369
102
{ACAD_REACTORS
330
35A
102
}
330
35A
100
AcDbVisualStyle
  2
Facepattern
 70
    15
177
     3
291
     1
 70
    58
 90
        2
176
     1
 90
        2
176
     1
 90
        0
176
     1
 90
        0
176
     1
 40
0.6
176
     1
 40
30.0
176
     1
 62
     7
420
 16777215
176
     1
 90
        1
176
     1
 90
        4
176
     1
 62
     7
176
     1
 62
   257
176
     1
 90
        1
176
     1
 90
        1
176
     1
 40
1.0
176
     1
 90
        8
176
     1
 62
     7
176
     1
 40
1.0
176
     1
 90
        1
176
     1
 90
        6
176
     1
 90
        2
176
     1
 62
     7
176
     1
 90
        5
176
     1
 90
        0
176
     1
 90
        0
176
     1
290
     0
176
     1
 90
        1
176
     1
 40
0.0
176
     1
 90
        0
176
     1
290
     0
176
     1
290
     1
176
     1
290
     1
176
     1
290
     0
176
     1
290
     0
176
     1
290
     0
176
     1
290
     0
176
     1
290
     0
176
     1
290
     0
176
     1
 90
       50
176
     1
 40
0.0
176
     1
 40
1.0
176
     1
 90
        0
176
     1
 62
    18
420
        0
176
     1
 90
       50
176
     1
 90
        3
176
     1
 62
     5
420
      255
176
     1
290
     0
176
     1
 90
       50
176
     1
 90
       50
176
     1
 90
       50
176
     1
290
     0
176
     1
 90
       50
176
     1
 62
   256
176
     0
 40
1.0
176
     0
 90
        2
176
     1
  1
strokes_ogs.tif
176
     1
290
     0
176
     1
 40
1.0
176
     1
 40
1.0
176
     1
  0
VISUALSTYLE
  5
35B
102
{ACAD_REACTORS
330
35A
102
}
330
35A
100
AcDbVisualStyle
  2
Flat
 70
     0
177
     3
291
     1
 70
    58
 90
        2
176
     1
 90
        1
176
     1
 90
        1
176
     1
 90
        2
176
     1
 40
0.6
176
     1
 40
30.0
176
     1
 62
     7
420
 16777215
176
     1
 90
        0
176
     1
 90
        4
176
     1
 62
     7
176
     1
 62
   257
176
     1
 90
        1
176
     1
 90
        1
176
     1
 40
1.0
176
     1
 90
        8
176
     1
 62
     7
176
     1
 40
1.0
176
     1
 90
        1
176
     1
 90
        6
176
     1
 90
        2
176
     1
 62
     7
176
     1
 90
        5
176
     1
 90
        0
176
     1
 90
        0
176
     1
290
     0
176
     1
 90
       13
176
     1
 40
0.0
176
     1
 90
        0
176
     1
290
     0
176
     1
290
     1
176
     1
290
     1
176
     1
290
     0
176
     1
290
     0
176
     1
290
     0
176
     1
290
     0
176
     1
290
     0
176
     1
290
     0
176
     1
 90
       50
176
     1
 40
0.0
176
     1
 40
1.0
176
     1
 90
        0
176
     1
 62
    18
420
        0
176
     1
 90
       50
176
     1
 90
        3
176
     1
 62
     5
420
      255
176
     1
290
     0
176
     1
 90
       50
176
     1
 90
       50
176
     1
 90
       50
176
     1
290
     0
176
     1
 90
       50
176
     1
 62
   256
176
     0
 40
1.0
176
     0
 90
        2
176
     1
  1
strokes_ogs.tif
176
     1
290
     0
176
     1
 40
1.0
176
     1
 40
1.0
176
     1
  0
VISUALSTYLE
  5
35C
102
{ACAD_REACTORS
330
35A
102
}
330
35A
100
AcDbVisualStyle
  2
FlatWithEdges
 70
     1
177
     3
291
     1
 70
    58
 90
        2
176
     1
 90
        1
176
     1
 90
        1
176
     1
 90
        2
176
     1
 40
0.6
176
     1
 40
30.0
176
     1
 62
     7
420
 16777215
176
     1
 90
        1
176
     1
 90
        4
176
     1
 62
     7
176
     1
 62
   257
176
     1
 90
        1
176
     1
 90
        1
176
     1
 40
1.0
176
     1
 90
        0
176
     1
 62
   257
176
     1
 40
1.0
176
     1
 90
        1
176
     1
 90
        6
176
     1
 90
        2
176
     1
 62
     7
176
     1
 90
        5
176
     1
 90
        0
176
     1
 90
        0
176
     1
290
     0
176
     1
 90
       13
176
     1
 40
0.0
176
     1
 90
        0
176
     1
290
     0
176
     1
290
     1
176
     1
290
     1
176
     1
290
     0
176
     1
290
     0
176
     1
290
     0
176
     1
290
     0
176
     1
290
     0
176
     1
290
     0
176
     1
 90
       50
176
     1
 40
0.0
176
     1
 40
1.0
176
     1
 90
        0
176
     1
 62
    18
420
        0
176
     1
 90
       50
176
     1
 90
        3
176
     1
 62
     5
420
      255
176
     1
290
     0
176
     1
 90
       50
176
     1
 90
       50
176
     1
 90
       50
176
     1
290
     0
176
     1
 90
       50
176
     1
 62
   256
176
     0
 40
1.0
176
     0
 90
        2
176
     1
  1
strokes_ogs.tif
176
     1
290
     0
176
     1
 40
1.0
176
     1
 40
1.0
176
     1
  0
VISUALSTYLE
  5
35D
102
{ACAD_REACTORS
330
35A
102
}
330
35A
100
AcDbVisualStyle
  2
Gouraud
 70
     2
177
     3
291
     1
 70
    58
 90
        2
176
     1
 90
        2
176
     1
 90
        1
176
     1
 90
        2
176
     1
 40
0.6
176
     1
 40
30.0
176
     1
 62
     7
420
 16777215
176
     1
 90
        0
176
     1
 90
        4
176
     1
 62
     7
176
     1
 62
   257
176
     1
 90
        1
176
     1
 90
        1
176
     1
 40
1.0
176
     1
 90
        0
176
     1
 62
     7
176
     1
 40
1.0
176
     1
 90
        1
176
     1
 90
        6
176
     1
 90
        2
176
     1
 62
     7
176
     1
 90
        5
176
     1
 90
        0
176
     1
 90
        0
176
     1
290
     0
176
     1
 90
       13
176
     1
 40
0.0
176
     1
 90
        0
176
     1
290
     0
176
     1
290
     1
176
     1
290
     1
176
     1
290
     0
176
     1
290
     0
176
     1
290
     0
176
     1
290
     0
176
     1
290
     0
176
     1
290
     0
176
     1
 90
       50
176
     1
 40
0.0
176
     1
 40
1.0
176
     1
 90
        0
176
     1
 62
    18
420
        0
176
     1
 90
       50
176
     1
 90
        3
176
     1
 62
     5
420
      255
176
     1
290
     0
176
     1
 90
       50
176
     1
 90
       50
176
     1
 90
       50
176
     1
290
     0
176
     1
 90
       50
176
     1
 62
   256
176
     0
 40
1.0
176
     0
 90
        2
176
     1
  1
strokes_ogs.tif
176
     1
290
     0
176
     1
 40
1.0
176
     1
 40
1.0
176
     1
  0
VISUALSTYLE
  5
35E
102
{ACAD_REACTORS
330
35A
102
}
330
35A
100
AcDbVisualStyle
  2
GouraudWithEdges
 70
     3
177
     3
291
     1
 70
    58
 90
        2
176
     1
 90
        2
176
     1
 90
        1
176
     1
 90
        2
176
     1
 40
0.6
176
     1
 40
30.0
176
     1
 62
     7
420
 16777215
176
     1
 90
        1
176
     1
 90
        4
176
     1
 62
     7
176
     1
 62
   257
176
     1
 90
        1
176
     1
 90
        1
176
     1
 40
1.0
176
     1
 90
        0
176
     1
 62
   257
176
     1
 40
1.0
176
     1
 90
        1
176
     1
 90
        6
176
     1
 90
        2
176
     1
 62
     7
176
     1
 90
        5
176
     1
 90
        0
176
     1
 90
        0
176
     1
290
     0
176
     1
 90
       13
176
     1
 40
0.0
176
     1
 90
        0
176
     1
290
     0
176
     1
290
     1
176
     1
290
     1
176
     1
290
     0
176
     1
290
     0
176
     1
290
     0
176
     1
290
     0
176
     1
290
     0
176
     1
290
     0
176
     1
 90
       50
176
     1
 40
0.0
176
     1
 40
1.0
176
     1
 90
        0
176
     1
 62
    18
420
        0
176
     1
 90
       50
176
     1
 90
        3
176
     1
 62
     5
420
      255
176
     1
290
     0
176
     1
 90
       50
176
     1
 90
       50
176
     1
 90
       50
176
     1
290
     0
176
     1
 90
       50
176
     1
 62
   256
176
     0
 40
1.0
176
     0
 90
        2
176
     1
  1
strokes_ogs.tif
176
     1
290
     0
176
     1
 40
1.0
176
     1
 40
1.0
176
     1
  0
VISUALSTYLE
  5
B3F
102
{ACAD_REACTORS
330
35A
102
}
330
35A
100
AcDbVisualStyle
  2
Hidden
 70
     6
177
     3
291
     0
 70
    58
 90
        1
176
     1
 90
        2
176
     1
 90
        2
176
     1
 90
        0
176
     1
 40
0.6
176
     1
 40
30.0
176
     1
 62
     7
420
 16777215
176
     1
 90
        2
176
     1
 90
        2
176
     1
 62
     7
176
     1
 62
   257
176
     1
 90
        2
176
     1
 90
        1
176
     1
 40
40.0
176
     1
 90
        0
176
     1
 62
   257
176
     1
 40
1.0
176
     1
 90
        1
176
     1
 90
        6
176
     1
 90
        2
176
     1
 62
     7
176
     1
 90
        3
176
     1
 90
        0
176
     1
 90
        0
176
     1
290
     0
176
     1
 90
        1
176
     1
 40
0.0
176
     1
 90
        0
176
     1
290
     0
176
     1
290
     1
176
     1
290
     1
176
     1
290
     0
176
     1
290
     0
176
     1
290
     0
176
     1
290
     0
176
     1
290
     0
176
     1
290
     0
176
     1
 90
       50
176
     1
 40
0.0
176
     1
 40
1.0
176
     1
 90
        0
176
     1
 62
    18
420
        0
176
     1
 90
       50
176
     1
 90
        3
176
     1
 62
     5
420
      255
176
     1
290
     0
176
     1
 90
       50
176
     1
 90
       50
176
     1
 90
       50
176
     1
290
     0
176
     1
 90
       50
176
     1
 62
   256
176
     0
 40
1.0
176
     0
 90
        2
176
     1
  1
strokes_ogs.tif
176
     1
290
     0
176
     1
 40
1.0
176
     1
 40
1.0
176
     1
  0
VISUALSTYLE
  5
36B
102
{ACAD_REACTORS
330
35A
102
}
330
35A
100
AcDbVisualStyle
  2
JitterOff
 70
    20
177
     3
291
     1
 70
    58
 90
        2
176
     0
 90
        2
176
     0
 90
        0
176
     0
 90
        0
176
     0
 40
0.6
176
     0
 40
30.0
176
     0
 62
     7
420
 16777215
176
     0
 90
        1
176
     0
 90
        4
176
     0
 62
     7
176
     0
 62
   257
176
     0
 90
        1
176
     0
 90
        1
176
     0
 40
1.0
176
     0
 90
       10
176
     2
 62
     7
176
     0
 40
1.0
176
     0
 90
        1
176
     0
 90
        6
176
     0
 90
        2
176
     0
 62
     7
176
     0
 90
        5
176
     0
 90
        0
176
     0
 90
        0
176
     0
290
     0
176
     0
 90
        1
176
     0
 40
0.0
176
     0
 90
        0
176
     0
290
     0
176
     1
290
     1
176
     1
290
     1
176
     1
290
     0
176
     1
290
     0
176
     1
290
     0
176
     1
290
     0
176
     1
290
     0
176
     1
290
     0
176
     1
 90
       50
176
     1
 40
0.0
176
     1
 40
1.0
176
     1
 90
        0
176
     1
 62
    18
420
        0
176
     1
 90
       50
176
     1
 90
        3
176
     1
 62
     5
420
      255
176
     1
290
     0
176
     1
 90
       50
176
     1
 90
       50
176
     1
 90
       50
176
     1
290
     0
176
     1
 90
       50
176
     1
 62
   256
176
     0
 40
1.0
176
     0
 90
        2
176
     1
  1
strokes_ogs.tif
176
     1
290
     0
176
     1
 40
1.0
176
     1
 40
1.0
176
     1
  0
VISUALSTYLE
  5
368
102
{ACAD_REACTORS
330
35A
102
}
330
35A
100
AcDbVisualStyle
  2
Linepattern
 70
    14
177
     3
291
     1
 70
    58
 90
        2
176
     1
 90
        2
176
     1
 90
        0
176
     1
 90
        0
176
     1
 40
0.6
176
     1
 40
30.0
176
     1
 62
     7
420
 16777215
176
     1
 90
        1
176
     1
 90
        4
176
     1
 62
     7
176
     1
 62
   257
176
     1
 90
        7
176
     1
 90
        7
176
     1
 40
1.0
176
     1
 90
        8
176
     1
 62
     7
176
     1
 40
1.0
176
     1
 90
        1
176
     1
 90
        6
176
     1
 90
        2
176
     1
 62
     7
176
     1
 90
        5
176
     1
 90
        0
176
     1
 90
        0
176
     1
290
     0
176
     1
 90
        1
176
     1
 40
0.0
176
     1
 90
        0
176
     1
290
     0
176
     1
290
     1
176
     1
290
     1
176
     1
290
     0
176
     1
290
     0
176
     1
290
     0
176
     1
290
     0
176
     1
290
     0
176
     1
290
     0
176
     1
 90
       50
176
     1
 40
0.0
176
     1
 40
1.0
176
     1
 90
        0
176
     1
 62
    18
420
        0
176
     1
 90
       50
176
     1
 90
        3
176
     1
 62
     5
420
      255
176
     1
290
     0
176
     1
 90
       50
176
     1
 90
       50
176
     1
 90
       50
176
     1
290
     0
176
     1
 90
       50
176
     1
 62
   256
176
     0
 40
1.0
176
     0
 90
        2
176
     1
  1
strokes_ogs.tif
176
     1
290
     0
176
     1
 40
1.0
176
     1
 40
1.0
176
     1
  0
VISUALSTYLE
  5
36C
102
{ACAD_REACTORS
330
35A
102
}
330
35A
100
AcDbVisualStyle
  2
OverhangOff
 70
    21
177
     3
291
     1
 70
    58
 90
        2
176
     0
 90
        2
176
     0
 90
        0
176
     0
 90
        0
176
     0
 40
0.6
176
     0
 40
30.0
176
     0
 62
     7
420
 16777215
176
     0
 90
        1
176
     0
 90
        4
176
     0
 62
     7
176
     0
 62
   257
176
     0
 90
        1
176
     0
 90
        1
176
     0
 40
1.0
176
     0
 90
        9
176
     2
 62
     7
176
     0
 40
1.0
176
     0
 90
        1
176
     0
 90
        6
176
     0
 90
        2
176
     0
 62
     7
176
     0
 90
        5
176
     0
 90
        0
176
     0
 90
        0
176
     0
290
     0
176
     0
 90
        1
176
     0
 40
0.0
176
     0
 90
        0
176
     0
290
     0
176
     1
290
     1
176
     1
290
     1
176
     1
290
     0
176
     1
290
     0
176
     1
290
     0
176
     1
290
     0
176
     1
290
     0
176
     1
290
     0
176
     1
 90
       50
176
     1
 40
0.0
176
     1
 40
1.0
176
     1
 90
        0
176
     1
 62
    18
420
        0
176
     1
 90
       50
176
     1
 90
        3
176
     1
 62
     5
420
      255
176
     1
290
     0
176
     1
 90
       50
176
     1
 90
       50
176
     1
 90
       50
176
     1
290
     0
176
     1
 90
       50
176
     1
 62
   256
176
     0
 40
1.0
176
     0
 90
        2
176
     1
  1
strokes_ogs.tif
176
     1
290
     0
176
     1
 40
1.0
176
     1
 40
1.0
176
     1
  0
VISUALSTYLE
  5
364
102
{ACAD_REACTORS
330
35A
102
}
330
35A
100
AcDbVisualStyle
  2
Realistic
 70
     8
177
     3
291
     0
 70
    58
 90
        2
176
     1
 90
        2
176
     1
 90
        0
176
     1
 90
        0
176
     1
 40
0.6
176
     1
 40
30.0
176
     1
 62
     7
420
 16777215
176
     1
 90
        1
176
     1
 90
        0
176
     1
 62
     7
176
     1
 62
   257
176
     1
 90
        1
176
     1
 90
        1
176
     1
 40
1.0
176
     1
 90
        8
176
     1
 62
     8
420
  7895160
176
     1
 40
1.0
176
     1
 90
        1
176
     1
 90
        6
176
     1
 90
        2
176
     1
 62
     7
176
     1
 90
        5
176
     1
 90
        0
176
     1
 90
        0
176
     1
290
     0
176
     1
 90
       13
176
     1
 40
0.0
176
     1
 90
        0
176
     1
290
     0
176
     1
290
     1
176
     1
290
     1
176
     1
290
     0
176
     1
290
     0
176
     1
290
     0
176
     1
290
     0
176
     1
290
     0
176
     1
290
     0
176
     1
 90
       50
176
     1
 40
0.0
176
     1
 40
1.0
176
     1
 90
        0
176
     1
 62
    18
420
        0
176
     1
 90
       50
176
     1
 90
        3
176
     1
 62
     5
420
      255
176
     1
290
     0
176
     1
 90
       50
176
     1
 90
       50
176
     1
 90
       50
176
     1
290
     0
176
     1
 90
       50
176
     1
 62
   256
176
     0
 40
1.0
176
     0
 90
        2
176
     1
  1
strokes_ogs.tif
176
     1
290
     0
176
     1
 40
1.0
176
     1
 40
1.0
176
     1
  0
VISUALSTYLE
  5
B44
102
{ACAD_REACTORS
330
35A
102
}
330
35A
100
AcDbVisualStyle
  2
Shaded
 70
    27
177
     3
291
     0
 70
    58
 90
        2
176
     1
 90
        2
176
     1
 90
        1
176
     1
 90
        2
176
     1
 40
0.6
176
     1
 40
30.0
176
     1
 62
     7
420
 16777215
176
     1
 90
        0
176
     1
 90
        4
176
     1
 62
     7
176
     1
 62
   257
176
     1
 90
        1
176
     1
 90
        1
176
     1
 40
1.0
176
     1
 90
        8
176
     1
 62
   257
176
     1
 40
1.0
176
     1
 90
        1
176
     1
 90
        6
176
     1
 90
        2
176
     1
 62
     8
420
  7895160
176
     1
 90
        3
176
     1
 90
        0
176
     1
 90
        0
176
     1
290
     0
176
     1
 90
        5
176
     1
 40
0.0
176
     1
 90
        0
176
     1
290
     0
176
     1
290
     1
176
     1
290
     1
176
     1
290
     0
176
     1
290
     0
176
     1
290
     0
176
     1
290
     0
176
     1
290
     0
176
     1
290
     0
176
     1
 90
       50
176
     1
 40
0.0
176
     1
 40
1.0
176
     1
 90
        0
176
     1
 62
    18
420
        0
176
     1
 90
       50
176
     1
 90
        3
176
     1
 62
     5
420
      255
176
     1
290
     0
176
     1
 90
       50
176
     1
 90
       50
176
     1
 90
       50
176
     1
290
     0
176
     1
 90
       50
176
     1
 62
   256
176
     0
 40
1.0
176
     0
 90
        2
176
     1
  1
strokes_ogs.tif
176
     1
290
     0
176
     1
 40
1.0
176
     1
 40
1.0
176
     1
  0
VISUALSTYLE
  5
B43
102
{ACAD_REACTORS
330
35A
102
}
330
35A
100
AcDbVisualStyle
  2
Shaded with edges
 70
    26
177
     3
291
     0
 70
    58
 90
        2
176
     1
 90
        2
176
     1
 90
        1
176
     1
 90
        2
176
     1
 40
0.6
176
     1
 40
30.0
176
     1
 62
     7
420
 16777215
176
     1
 90
        1
176
     1
 90
        2
176
     1
 62
     7
176
     1
 62
   257
176
     1
 90
        2
176
     1
 90
        1
176
     1
 40
1.0
176
     1
 90
        8
176
     1
 62
   257
176
     1
 40
1.0
176
     1
 90
        1
176
     1
 90
        6
176
     1
 90
        2
176
     1
 62
     7
176
     1
 90
        3
176
     1
 90
        0
176
     1
 90
        0
176
     1
290
     0
176
     1
 90
        5
176
     1
 40
0.0
176
     1
 90
        0
176
     1
290
     0
176
     1
290
     1
176
     1
290
     1
176
     1
290
     0
176
     1
290
     0
176
     1
290
     0
176
     1
290
     0
176
     1
290
     0
176
     1
290
     0
176
     1
 90
       50
176
     1
 40
0.0
176
     1
 40
1.0
176
     1
 90
        0
176
     1
 62
    18
420
        0
176
     1
 90
       50
176
     1
 90
        3
176
     1
 62
     5
420
      255
176
     1
290
     0
176
     1
 90
       50
176
     1
 90
       50
176
     1
 90
       50
176
     1
290
     0
176
     1
 90
       50
176
     1
 62
   256
176
     0
 40
1.0
176
     0
 90
        2
176
     1
  1
strokes_ogs.tif
176
     1
290
     0
176
     1
 40
1.0
176
     1
 40
1.0
176
     1
  0
VISUALSTYLE
  5
B40
102
{ACAD_REACTORS
330
35A
102
}
330
35A
100
AcDbVisualStyle
  2
Shades of Gray
 70
    23
177
     3
291
     0
 70
    58
 90
        2
176
     1
 90
        2
176
     1
 90
        3
176
     1
 90
        0
176
     1
 40
0.6
176
     1
 40
30.0
176
     1
 62
     7
420
 16777215
176
     1
 90
        2
176
     1
 90
        2
176
     1
 62
     7
176
     1
 62
     7
176
     1
 90
        1
176
     1
 90
        1
176
     1
 40
40.0
176
     1
 90
        8
176
     1
 62
     7
176
     1
 40
1.0
176
     1
 90
        1
176
     1
 90
        6
176
     1
 90
        2
176
     1
 62
     7
176
     1
 90
        3
176
     1
 90
        0
176
     1
 90
        0
176
     1
290
     0
176
     1
 90
        1
176
     1
 40
0.0
176
     1
 90
        0
176
     1
290
     0
176
     1
290
     1
176
     1
290
     1
176
     1
290
     0
176
     1
290
     0
176
     1
290
     0
176
     1
290
     0
176
     1
290
     0
176
     1
290
     0
176
     1
 90
       50
176
     1
 40
0.0
176
     1
 40
1.0
176
     1
 90
        0
176
     1
 62
    18
420
        0
176
     1
 90
       50
176
     1
 90
        3
176
     1
 62
     5
420
      255
176
     1
290
     0
176
     1
 90
       50
176
     1
 90
       50
176
     1
 90
       50
176
     1
290
     0
176
     1
 90
       50
176
     1
 62
   256
176
     0
 40
1.0
176
     0
 90
        2
176
     1
  1
strokes_ogs.tif
176
     1
290
     0
176
     1
 40
1.0
176
     1
 40
1.0
176
     1
  0
VISUALSTYLE
  5
B41
102
{ACAD_REACTORS
330
35A
102
}
330
35A
100
AcDbVisualStyle
  2
Sketchy
 70
    24
177
     3
291
     0
 70
    58
 90
        1
176
     1
 90
        2
176
     1
 90
        2
176
     1
 90
        0
176
     1
 40
0.6
176
     1
 40
30.0
176
     1
 62
     7
420
 16777215
176
     1
 90
        2
176
     1
 90
        2
176
     1
 62
     7
176
     1
 62
     7
176
     1
 90
        1
176
     1
 90
        1
176
     1
 40
40.0
176
     1
 90
       11
176
     1
 62
     7
176
     1
 40
1.0
176
     1
 90
        1
176
     1
 90
        6
176
     1
 90
        2
176
     1
 62
     7
176
     1
 90
        6
176
     1
 90
        0
176
     1
 90
        0
176
     1
290
     0
176
     1
 90
        1
176
     1
 40
0.0
176
     1
 90
        0
176
     1
290
     0
176
     1
290
     1
176
     1
290
     1
176
     1
290
     0
176
     1
290
     0
176
     1
290
     0
176
     1
290
     0
176
     1
290
     0
176
     1
290
     0
176
     1
 90
       50
176
     1
 40
0.0
176
     1
 40
1.0
176
     1
 90
        0
176
     1
 62
    18
420
        0
176
     1
 90
       50
176
     1
 90
        3
176
     1
 62
     5
420
      255
176
     1
290
     0
176
     1
 90
       50
176
     1
 90
       50
176
     1
 90
       50
176
     1
290
     0
176
     1
 90
       50
176
     1
 62
   256
176
     0
 40
1.0
176
     0
 90
        2
176
     1
  1
strokes_ogs.tif
176
     1
290
     0
176
     1
 40
1.0
176
     1
 40
1.0
176
     1
  0
VISUALSTYLE
  5
367
102
{ACAD_REACTORS
330
35A
102
}
330
35A
100
AcDbVisualStyle
  2
Thicken
 70
    13
177
     3
291
     1
 70
    58
 90
        2
176
     1
 90
        2
176
     1
 90
        0
176
     1
 90
        0
176
     1
 40
0.6
176
     1
 40
30.0
176
     1
 62
     7
420
 16777215
176
     1
 90
        1
176
     1
 90
        4
176
     1
 62
     7
176
     1
 62
   257
176
     1
 90
        1
176
     1
 90
        1
176
     1
 40
1.0
176
     1
 90
       12
176
     1
 62
     7
176
     1
 40
1.0
176
     1
 90
        1
176
     1
 90
        6
176
     1
 90
        2
176
     1
 62
     7
176
     1
 90
        5
176
     1
 90
        0
176
     1
 90
        0
176
     1
290
     0
176
     1
 90
        1
176
     1
 40
0.0
176
     1
 90
        0
176
     1
290
     0
176
     1
290
     1
176
     1
290
     1
176
     1
290
     0
176
     1
290
     0
176
     1
290
     0
176
     1
290
     0
176
     1
290
     0
176
     1
290
     0
176
     1
 90
       50
176
     1
 40
0.0
176
     1
 40
1.0
176
     1
 90
        0
176
     1
 62
    18
420
        0
176
     1
 90
       50
176
     1
 90
        3
176
     1
 62
     5
420
      255
176
     1
290
     0
176
     1
 90
       50
176
     1
 90
       50
176
     1
 90
       50
176
     1
290
     0
176
     1
 90
       50
176
     1
 62
   256
176
     0
 40
1.0
176
     0
 90
        2
176
     1
  1
strokes_ogs.tif
176
     1
290
     0
176
     1
 40
1.0
176
     1
 40
1.0
176
     1
  0
VISUALSTYLE
  5
B3E
102
{ACAD_REACTORS
330
35A
102
}
330
35A
100
AcDbVisualStyle
  2
Wireframe
 70
     5
177
     3
291
     0
 70
    58
 90
        0
176
     1
 90
        2
176
     1
 90
        0
176
     1
 90
        0
176
     1
 40
0.6
176
     1
 40
30.0
176
     1
 62
     7
420
 16777215
176
     1
 90
        1
176
     1
 90
        4
176
     1
 62
     7
176
     1
 62
   257
176
     1
 90
        1
176
     1
 90
        1
176
     1
 40
1.0
176
     1
 90
        0
176
     1
 62
   257
176
     1
 40
1.0
176
     1
 90
        1
176
     1
 90
        6
176
     1
 90
        2
176
     1
 62
     7
176
     1
 90
        3
176
     1
 90
        0
176
     1
 90
        0
176
     1
290
     0
176
     1
 90
        1
176
     1
 40
0.0
176
     1
 90
        0
176
     1
290
     0
176
     1
290
     1
176
     1
290
     1
176
     1
290
     0
176
     1
290
     0
176
     1
290
     0
176
     1
290
     0
176
     1
290
     0
176
     1
290
     0
176
     1
 90
       50
176
     1
 40
0.0
176
     1
 40
1.0
176
     1
 90
        0
176
     1
 62
    18
420
        0
176
     1
 90
       50
176
     1
 90
        3
176
     1
 62
     5
420
      255
176
     1
290
     0
176
     1
 90
       50
176
     1
 90
       50
176
     1
 90
       50
176
     1
290
     0
176
     1
 90
       50
176
     1
 62
   256
176
     0
 40
1.0
176
     0
 90
        2
176
     1
  1
strokes_ogs.tif
176
     1
290
     0
176
     1
 40
1.0
176
     1
 40
1.0
176
     1
  0
VISUALSTYLE
  5
B42
102
{ACAD_REACTORS
330
35A
102
}
330
35A
100
AcDbVisualStyle
  2
X-Ray
 70
    25
177
     3
291
     0
 70
    58
 90
        2
176
     1
 90
        2
176
     1
 90
        1
176
     1
 90
        1
176
     1
 40
0.5
176
     1
 40
30.0
176
     1
 62
     7
420
 16777215
176
     1
 90
        1
176
     1
 90
        0
176
     1
 62
     7
176
     1
 62
   257
176
     1
 90
        1
176
     1
 90
        1
176
     1
 40
1.0
176
     1
 90
        8
176
     1
 62
     7
176
     1
 40
1.0
176
     1
 90
        1
176
     1
 90
        6
176
     1
 90
        2
176
     1
 62
     7
176
     1
 90
        3
176
     1
 90
        0
176
     1
 90
        0
176
     1
290
     0
176
     1
 90
       13
176
     1
 40
0.0
176
     1
 90
        0
176
     1
290
     0
176
     1
290
     1
176
     1
290
     1
176
     1
290
     0
176
     1
290
     0
176
     1
290
     0
176
     1
290
     0
176
     1
290
     0
176
     1
290
     0
176
     1
 90
       50
176
     1
 40
0.0
176
     1
 40
1.0
176
     1
 90
        0
176
     1
 62
    18
420
        0
176
     1
 90
       50
176
     1
 90
        3
176
     1
 62
     5
420
      255
176
     1
290
     0
176
     1
 90
       50
176
     1
 90
       50
176
     1
 90
       50
176
     1
290
     0
176
     1
 90
       50
176
     1
 62
   256
176
     0
 40
1.0
176
     0
 90
        2
176
     1
  1
strokes_ogs.tif
176
     1
290
     0
176
     1
 40
1.0
176
     1
 40
1.0
176
     1
  0
DICTIONARYVAR
  5
B39
102
{ACAD_REACTORS
330
B35
102
}
330
B35
100
DictionaryVariables
280
     0
  1
1:1
  0
DICTIONARYVAR
  5
B37
102
{ACAD_REACTORS
330
B35
102
}
330
B35
100
DictionaryVariables
280
     0
  1
STANDARD
  0
DICTIONARYVAR
  5
B36
102
{ACAD_REACTORS
330
B35
102
}
330
B35
100
DictionaryVariables
280
     0
  1
STANDARD
  0
DICTIONARYVAR
  5
D0D
102
{ACAD_REACTORS
330
B35
102
}
330
B35
100
DictionaryVariables
280
     0
  1
Imperial24
  0
DICTIONARYVAR
  5
D0E
102
{ACAD_REACTORS
330
B35
102
}
330
B35
100
DictionaryVariables
280
     0
  1
Imperial24
  0
DICTIONARYVAR
  5
B3B
102
{ACAD_REACTORS
330
B35
102
}
330
B35
100
DictionaryVariables
280
     0
  1
1
  0
DICTIONARYVAR
  5
B3C
102
{ACAD_REACTORS
330
B35
102
}
330
B35
100
DictionaryVariables
280
     0
  1
15
  0
DICTIONARYVAR
  5
B3A
102
{ACAD_REACTORS
330
B35
102
}
330
B35
100
DictionaryVariables
280
     0
  1
0
  0
DICTIONARYVAR
  5
B38
102
{ACAD_REACTORS
330
B35
102
}
330
B35
100
DictionaryVariables
280
     0
  1
0
  0
DICTIONARY
  5
405
102
{ACAD_REACTORS
330
3FB
102
}
330
3FB
100
AcDbDictionary
281
     1
  0
DICTIONARY
  5
D07
330
B48
100
AcDbDictionary
280
     1
281
     1
  3
ACAD_XREC_ROUNDTRIP
360
D46
  0
DICTIONARY
  5
B33
330
323
100
AcDbDictionary
280
     1
281
     1
  0
DICTIONARY
  5
34B
330
34A
100
AcDbDictionary
280
     1
281
     1
  3
BUMPTILE
360
34D
  3
DIFFUSETILE
360
34C
  3
OPACITYTILE
360
350
  3
REFLECTIONTILE
360
34F
  3
REFRACTIONTILE
360
351
  3
SPECULARTILE
360
34E
  0
DICTIONARY
  5
343
330
342
100
AcDbDictionary
280
     1
281
     1
  3
BUMPTILE
360
345
  3
DIFFUSETILE
360
344
  3
OPACITYTILE
360
348
  3
REFLECTIONTILE
360
347
  3
REFRACTIONTILE
360
349
  3
SPECULARTILE
360
346
  0
DICTIONARY
  5
353
330
352
100
AcDbDictionary
280
     1
281
     1
  3
BUMPTILE
360
355
  3
DIFFUSETILE
360
354
  3
OPACITYTILE
360
358
  3
REFLECTIONTILE
360
357
  3
REFRACTIONTILE
360
359
  3
SPECULARTILE
360
356
  0
DICTIONARY
  5
D05
330
B46
100
AcDbDictionary
280
     1
281
     1
  3
ACAD_XREC_ROUNDTRIP
360
D45
  0
DICTIONARY
  5
D43
330
370
100
AcDbDictionary
280
     1
281
     1
  3
ACAD_ROUNDTRIP_2008_TABLESTYLE_CELLSTYLEMAP
360
D44
  0
XRECORD
  5
D46
102
{ACAD_REACTORS
330
D07
102
}
330
D07
100
AcDbXrecord
280
     1
102
DISPLAYNAME
  1
Imperial24
102
FLAGS
 90
        0
  0
XRECORD
  5
34D
102
{ACAD_REACTORS
330
34B
102
}
330
34B
100
AcDbXrecord
280
     1
270
     1
271
     1
  0
XRECORD
  5
34C
102
{ACAD_REACTORS
330
34B
102
}
330
34B
100
AcDbXrecord
280
     1
270
     1
271
     1
  0
XRECORD
  5
350
102
{ACAD_REACTORS
330
34B
102
}
330
34B
100
AcDbXrecord
280
     1
270
     1
271
     1
  0
XRECORD
  5
34F
102
{ACAD_REACTORS
330
34B
102
}
330
34B
100
AcDbXrecord
280
     1
270
     1
271
     1
  0
XRECORD
  5
351
102
{ACAD_REACTORS
330
34B
102
}
330
34B
100
AcDbXrecord
280
     1
270
     1
271
     1
  0
XRECORD
  5
34E
102
{ACAD_REACTORS
330
34B
102
}
330
34B
100
AcDbXrecord
280
     1
270
     1
271
     1
  0
XRECORD
  5
345
102
{ACAD_REACTORS
330
343
102
}
330
343
100
AcDbXrecord
280
     1
270
     1
271
     1
  0
XRECORD
  5
344
102
{ACAD_REACTORS
330
343
102
}
330
343
100
AcDbXrecord
280
     1
270
     1
271
     1
  0
XRECORD
  5
348
102
{ACAD_REACTORS
330
343
102
}
330
343
100
AcDbXrecord
280
     1
270
     1
271
     1
  0
XRECORD
  5
347
102
{ACAD_REACTORS
330
343
102
}
330
343
100
AcDbXrecord
280
     1
270
     1
271
     1
  0
XRECORD
  5
349
102
{ACAD_REACTORS
330
343
102
}
330
343
100
AcDbXrecord
280
     1
270
     1
271
     1
  0
XRECORD
  5
346
102
{ACAD_REACTORS
330
343
102
}
330
343
100
AcDbXrecord
280
     1
270
     1
271
     1
  0
XRECORD
  5
355
102
{ACAD_REACTORS
330
353
102
}
330
353
100
AcDbXrecord
280
     1
270
     1
271
     1
  0
XRECORD
  5
354
102
{ACAD_REACTORS
330
353
102
}
330
353
100
AcDbXrecord
280
     1
270
     1
271
     1
  0
XRECORD
  5
358
102
{ACAD_REACTORS
330
353
102
}
330
353
100
AcDbXrecord
280
     1
270
     1
271
     1
  0
XRECORD
  5
357
102
{ACAD_REACTORS
330
353
102
}
330
353
100
AcDbXrecord
280
     1
270
     1
271
     1
  0
XRECORD
  5
359
102
{ACAD_REACTORS
330
353
102
}
330
353
100
AcDbXrecord
280
     1
270
     1
271
     1
  0
XRECORD
  5
356
102
{ACAD_REACTORS
330
353
102
}
330
353
100
AcDbXrecord
280
     1
270
     1
271
     1
  0
XRECORD
  5
D45
102
{ACAD_REACTORS
330
D05
102
}
330
D05
100
AcDbXrecord
280
     1
102
DISPLAYNAME
  1
Imperial24
102
FLAGS
 90
        0
  0
CELLSTYLEMAP
  5
D44
102
{ACAD_REACTORS
330
D43
102
}
330
D43
100
AcDbCellStyleMap
 90
        3
300
CELLSTYLE
  1
TABLEFORMAT_BEGIN
 90
        5
170
     1
 91
        0
 92
    32768
 62
   257
 93
        1
300
CONTENTFORMAT
  1
CONTENTFORMAT_BEGIN
 90
        0
 91
        0
 92
      512
 93
        0
300

 40
0.0
140
1.0
 94
        5
 62
     0
340
5F
144
0.25
309
CONTENTFORMAT_END
171
     0
 94
        0
309
TABLEFORMAT_END
  1
CELLSTYLE_BEGIN
 90
        1
 91
        1
300
_TITLE
309
CELLSTYLE_END
300
CELLSTYLE
  1
TABLEFORMAT_BEGIN
 90
        5
170
     1
 91
        0
 92
        0
 62
   257
 93
        1
300
CONTENTFORMAT
  1
CONTENTFORMAT_BEGIN
 90
        0
 91
        0
 92
      512
 93
        0
300

 40
0.0
140
1.0
 94
        5
 62
     0
340
5F
144
0.18
309
CONTENTFORMAT_END
171
     0
 94
        0
309
TABLEFORMAT_END
  1
CELLSTYLE_BEGIN
 90
        2
 91
        1
300
_HEADER
309
CELLSTYLE_END
300
CELLSTYLE
  1
TABLEFORMAT_BEGIN
 90
        5
170
     1
 91
        0
 92
        0
 62
   257
 93
        1
300
CONTENTFORMAT
  1
CONTENTFORMAT_BEGIN
 90
        0
 91
        0
 92
      512
 93
        0
300

 40
0.0
140
1.0
 94
        2
 62
     0
340
5F
144
0.18
309
CONTENTFORMAT_END
171
     0
 94
        0
309
TABLEFORMAT_END
  1
CELLSTYLE_BEGIN
 90
        3
 91
        2
300
_DATA
309
CELLSTYLE_END
  0
ENDSEC
  0
SECTION
  2
ACDSDATA
 70
     2
 71
     8
  0
ACDSSCHEMA
 90
        0
  1
AcDb_Thumbnail_Schema
  2
AcDbDs::ID
280
    10
 91
        8
  2
Thumbnail_Data
280
    15
 91
        0
101
ACDSRECORD
 95
        0
 90
        1
  2
AcDbDs::TreatedAsObjectData
280
     1
291
     1
101
ACDSRECORD
 95
        0
 90
        2
  2
AcDbDs::Legacy
280
     1
291
     1
101
ACDSRECORD
  1
AcDbDs::ID
 90
        3
  2
AcDs:Indexable
280
     1
291
     1
101
ACDSRECORD
  1
AcDbDs::ID
 90
        4
  2
AcDbDs::HandleAttribute
280
     7
282
     1
  0
ACDSSCHEMA
 90
        1
  1
AcDbDs::TreatedAsObjectDataSchema
  2
AcDbDs::TreatedAsObjectData
280
     1
 91
        0
  0
ACDSSCHEMA
 90
        2
  1
AcDbDs::LegacySchema
  2
AcDbDs::Legacy
280
     1
 91
        0
  0
ACDSSCHEMA
 90
        3
  1
AcDbDs::IndexedPropertySchema
  2
AcDs:Indexable
280
     1
 91
        0
  0
ACDSSCHEMA
 90
        4
  1
AcDbDs::HandleAttributeSchema
  2
AcDbDs::HandleAttribute
280
     7
 91
        1
284
     1
  0
ACDSRECORD
 90
        0
  2
AcDbDs::ID
280
    10
320
323
  2
Thumbnail_Data
280
    15
 94
     2981
310
89504E470D0A1A0A0000000D4948445200000100000000A20803000000990FE30500000300504C5445000000000000FFFFFF0000000000000000000000000000000000000000000000000000330000660000990000CC0000FF0033000033330033660033990033CC0033FF0066000066330066660066990066CC0066FF0099
310
000099330099660099990099CC0099FF00CC0000CC3300CC6600CC9900CCCC00CCFF00FF0000FF3300FF6600FF9900FFCC00FFFF3300003300333300663300993300CC3300FF3333003333333333663333993333CC3333FF3366003366333366663366993366CC3366FF3399003399333399663399993399CC3399FF33CC00
310
33CC3333CC6633CC9933CCCC33CCFF33FF0033FF3333FF6633FF9933FFCC33FFFF6600006600336600666600996600CC6600FF6633006633336633666633996633CC6633FF6666006666336666666666996666CC6666FF6699006699336699666699996699CC6699FF66CC0066CC3366CC6666CC9966CCCC66CCFF66FF0066
310
FF3366FF6666FF9966FFCC66FFFF9900009900339900669900999900CC9900FF9933009933339933669933999933CC9933FF9966009966339966669966999966CC9966FF9999009999339999669999999999CC9999FF99CC0099CC3399CC6699CC9999CCCC99CCFF99FF0099FF3399FF6699FF9999FFCC99FFFFCC0000CC00
310
33CC0066CC0099CC00CCCC00FFCC3300CC3333CC3366CC3399CC33CCCC33FFCC6600CC6633CC6666CC6699CC66CCCC66FFCC9900CC9933CC9966CC9999CC99CCCC99FFCCCC00CCCC33CCCC66CCCC99CCCCCCCCCCFFCCFF00CCFF33CCFF66CCFF99CCFFCCCCFFFFFF0000FF0033FF0066FF0099FF00CCFF00FFFF3300FF3333
310
FF3366FF3399FF33CCFF33FFFF6600FF6633FF6666FF6699FF66CCFF66FFFF9900FF9933FF9966FF9999FF99CCFF99FFFFCC00FFCC33FFCC66FFCC99FFCCCCFFCCFFFFFF00FFFF33FFFF66FFFF99FFFFCCFFFFFF0000000D0D0D1A1A1A2828283535354343435050505D5D5D6B6B6B787878868686939393A1A1A1AEAEAEBB
310
BBBBC9C9C9D6D6D6E4E4E4F1F1F1FFFFFF000000000000000000000000000000000000000000000000000000000000C11FEF66000008604944415478DAED9D3BA2B42A0C80CF7268DCB0952BA1711B5659814DFA232F0545050CF818B8F757671C9D938F241008CE1FCCA5FB8502EBF26701005FF1BFAB89259E83A473A997
310
75879F8B04D01D087970AE83A45789971DFC254100BE6C006100E0ABA502A8002A800AA0023803D075A501A0FE570040484FB02BAE0128CA7300C00D00A01480EA032A800AE061008CF1BFDE073096DA0038FB88EF63F70260BA100188D4002601B04C00BA78002E8CA8D2987D1357FF495F48D50F604B3135623609041210
310
3048FBC20B26C0562FE800A420780000CFD96400F1083E0760710502017F1E00ADEFB857D8BCF19F5EFB0CAF12C88FF67DDF34FD6941E4F2B31817485D0070DC5431516BEC30DE3DAD3394EADFF7D0F3730020BE50EEA39AD0741338D180B3120400B1B978FB423E00C335008F3CC98E3314DA2D54C1B9CA750BB2E6279B69
310
1AE334F12300942B700148C7E101A0EF2E21605900E9CA19E2B793EEFE1D0D10001A71DDA90908B7F951001C0301404CFC900BC0D23E9001C0D907984EC44AEF0D8068021786C5F73580C9B7B857331200F4DAB4FBE57A5B035600E282C82BD1E0530140941264F1013400440F504A1D0D4012C00F00505DDC1EA20140133C
310
A2F65C0056B4140FE0131AB019258C02505403300600E605103B98FE4A006E2C7013007B24A302C0ED99CF03D837016A0018E303A002B80100C63583180B00A20060F3EB00E2E2C11000DD4934780140C06C1EC60110FF373E5BCB180D3E0E801E497D830964023021C0FB012092F8803400258321F40743B807C07DF71CC0
310
ACCDBD3DA7660390F367AB0F176C05760078DE4F01808B4CECA027A8EF139F614A038085FB00761D007B2000FC6500B006604D9B6EE561F103229100E016009E6FE65E8F9602400779ECA015909A95925E7C757A7C2EA153774900609B5A312C2561529C5C037C837EDC3B0E9806C06D05DCDBDB265001E401703A35F66600
310
5D05504DA002B83A2A5C01FCA409B0EA032A800AA002A800B652B02D00F6D15660A71C2E0EF09448003BF9B1376800906800446AC0DE784B05901540970200F2020022005D2E0DB0CCFBD100A002A00670ECE87F4703DEE203C801C0D604A002F83C8088F2331A40FC87AE2F5DB3BC174099B2696B7E0E400ED37AAB063CCC
310
07BCB83CF46972050174154035810A201D40F20324C8BA87770338B8F5E1935F5669653F0E00C800C43F51241B0099BF551EC0D96111002A796DD280619F42360068524BADFA2F0BC0883CAB9E97417613B80B8010567F2D9F8F608BE0A32660C49F8E743E27EC20F8A41394424EDF36AC0A280243110D6855990EE54E6E0A
310
0150D52FC5B717FF2F08CA98C016405B0680945FED54C786A3EEE42804AE19940440A001DD390055CD5A7CE4A288AD4CEFC761399B1740EB2F17A241BD68320080AA63F1EC20AEEA5E6E0504B19E42E9C74220B706B4857DC0ACE3537573B0D6BAA12421ED401228E5040D002805603A94CE4F5BFEA40A66358354036086D1
310
373540EB37CAD57C4674DD1596CDF04CC018C1C7FA015A34C6B5FC5634A8A381C90C5011C80AE0A6705819C02486D47753C9DC0E0E8415A0A5025F03206B9671A182B3A7E77678348506C608BE0740B5F1CA008CF8733758BD126E800B23302AF035009358B2FDD312DB4E50370A1301DB0B7C098070F4A205E0736F57FB3D
310
6B3040ADED63F04D0020008816106DF98D0F30EF81F202DA063E070085075000DC6650BF9C016815781780AE3B010002806801972AB79B41B3E18B0D3C0740470700175137FD00152DBE1580C704D00130F97766BA00BE7E806E08B8FCDC0C00AF01F0E44824644D24FA00FB875084871F9890F210808A081C00384B920C00
310
BC0020378039C298C2FD816B00C8A7B69FAB8D53D4DB72904400E0831C2859A2942B00BC1A609DCBA501FDA20143BA06F49734E0D6661035812B3EC0DCE395FD80F9E7A0025A01D86905027F65E1A11D2124E8075C6C059E0600D62AB001205C002180711C27EF2137721F5D98FC4702601D0B40502C703B00791D01804103
310
405BDA5534289A0ABE8A06AF025033301A80781979BD6C7DC8C603905973A03A3F00DCF10064A4E301141A306D894684940DB82322F388D0B00C889891710A002B0D88CDB79217D04C8DA97A3563E24E0C048B02582E904E03C6450358AC2AA84F7784A3C25C4E0879A3413D378294002403BD1B7D3EC0121676CE128D0A9B
310
7901D89D1740FA7981B30A6EC3F480766688CF3343A05D829E19D2A34138E400205FB6EBCA6ECBCD0B183F38CF0CDB4F3A5331A36B0034005AB027C0C544E0F4DFA2EC650128231898B4761D2F9B0E8F4C12189CA9411A00ED1680257551000B01F9A43F2B3F008455B0B5FC8400D46E1CF5B1E5038A02583244C4035FAD0C
310
11AEB364E833445C5706EDDAE5170630CB3898010E9323C4609B2143A501A093000060C989D23931A5012802A832A2EC9F8851E2BBF253FB804700307972BA0D403E670D7B5225490138DEC03E708E47CF59C18A3E53541E98277F02E4CA141DADA371E913DADE21A0BB34D2E60AEB5E9FCE155E125436C9C2B97B82D3D7DE
310
02C0C4404E7A8E2F5D9C14801D0F1ADD30038EE39CB276054017BD5EC01A1019CE2F240160C23B55F33300DD224B8DF095EB73837B0C0ED78CD09AC0CA298C8EA730CB0756FD062361F7DA35434776EDB84ACB043CD7BD77D5D822AA3326B4D100F387F8C7065EBC6A6C5CB7FB236BD9B61F203F36B6A33E6AD7975D03C06E
310
5C3839AA1FF1D0EB83020DC5BD81F0811701A44EC810CC058D10920D3B9EF4A47E0080BD8ECCFAC996E99478F7D5004067E4E381331A016127793A338063D326D7003C04005E0D000200C9A51880BCB140AA20340054838A87B1FFD89E94F73E4061047B08646F71D4D99C69F7720046F2EC001E58469A4F85015853DB7DD5
310
9D9CEB426E72F805BE5DD0D89FEF4DF74F4A04000700601F40F02DBDE73A12D30C00F00B6503E01F86D1DBA7858226190000000049454E44AE426082
  0
ENDSEC
  0
EOF
