  0
SECTION
  2
HEADER
  9
$ACADVER
  1
AC1027
  9
$ACADMAINTVER
 70
   125
  9
$DWGCODEPAGE
  3
ANSI_1250
  9
$LASTSAVEDBY
  1
jprorok
  9
$REQUIREDVERSIONS
160
                 0
  9
$INSBASE
 10
0.0
 20
0.0
 30
0.0
  9
$EXTMIN
 10
66.55490258354098
 20
13.99017433401923
 30
-0.0015258207003583
  9
$EXTMAX
 10
259.294922868366
 20
376.3055429192093
 30
0.0000000349246037
  9
$LIMMIN
 10
0.0
 20
0.0
  9
$LIMMAX
 10
594.0
 20
420.0
  9
$ORTHOMODE
 70
     1
  9
$REGENMODE
 70
     1
  9
$FILLMODE
 70
     1
  9
$QTEXTMODE
 70
     0
  9
$MIRRTEXT
 70
     1
  9
$LTSCALE
 40
7.0
  9
$ATTMODE
 70
     1
  9
$TEXTSIZE
 40
0.2
  9
$TRACEWID
 40
0.05
  9
$TEXTSTYLE
  7
STANDARD
  9
$CLAYER
  8
BEMASS
  9
$CELTYPE
  6
BYLAYER
  9
$CECOLOR
 62
   256
  9
$CELTSCALE
 40
1.0
  9
$DISPSILH
 70
     0
  9
$DIMSCALE
 40
1.0
  9
$DIMASZ
 40
0.12
  9
$DIMEXO
 40
0.05
  9
$DIMDLI
 40
0.5
  9
$DIMRND
 40
0.0
  9
$DIMDLE
 40
0.0
  9
$DIMEXE
 40
0.1
  9
$DIMTP
 40
0.1
  9
$DIMTM
 40
0.1
  9
$DIMTXT
 40
0.12
  9
$DIMCEN
 40
0.0
  9
$DIMTSZ
 40
0.0
  9
$DIMTOL
 70
     0
  9
$DIMLIM
 70
     0
  9
$DIMTIH
 70
     1
  9
$DIMTOH
 70
     1
  9
$DIMSE1
 70
     0
  9
$DIMSE2
 70
     0
  9
$DIMTAD
 70
     0
  9
$DIMZIN
 70
     7
  9
$DIMBLK
  1

  9
$DIMASO
 70
     1
  9
$DIMSHO
 70
     1
  9
$DIMPOST
  1

  9
$DIMAPOST
  1
mm
  9
$DIMALT
 70
     0
  9
$DIMALTD
 70
     2
  9
$DIMALTF
 40
25.4
  9
$DIMLFAC
 40
1.0
  9
$DIMTOFL
 70
     0
  9
$DIMTVP
 40
0.0
  9
$DIMTIX
 70
     0
  9
$DIMSOXD
 70
     0
  9
$DIMSAH
 70
     0
  9
$DIMBLK1
  1

  9
$DIMBLK2
  1

  9
$DIMSTYLE
  2
AM_ANSI
  9
$DIMCLRD
 70
   256
  9
$DIMCLRE
 70
   256
  9
$DIMCLRT
 70
     2
  9
$DIMTFAC
 40
0.71
  9
$DIMGAP
 40
0.06
  9
$DIMJUST
 70
     0
  9
$DIMSD1
 70
     0
  9
$DIMSD2
 70
     0
  9
$DIMTOLJ
 70
     1
  9
$DIMTZIN
 70
     7
  9
$DIMALTZ
 70
     0
  9
$DIMALTTZ
 70
     0
  9
$DIMUPT
 70
     0
  9
$DIMDEC
 70
     4
  9
$DIMTDEC
 70
     4
  9
$DIMALTU
 70
     2
  9
$DIMALTTD
 70
     4
  9
$DIMTXSTY
  7
STANDARD
  9
$DIMAUNIT
 70
     0
  9
$DIMADEC
 70
     0
  9
$DIMALTRND
 40
0.0
  9
$DIMAZIN
 70
     2
  9
$DIMDSEP
 70
    46
  9
$DIMATFIT
 70
     3
  9
$DIMFRAC
 70
     0
  9
$DIMLDRBLK
  1

  9
$DIMLUNIT
 70
     2
  9
$DIMLWD
 70
    -1
  9
$DIMLWE
 70
    -1
  9
$DIMTMOVE
 70
     0
  9
$DIMFXL
 40
1.0
  9
$DIMFXLON
 70
     0
  9
$DIMJOGANG
 40
0.7853981633974483
  9
$DIMTFILL
 70
     0
  9
$DIMTFILLCLR
 70
     0
  9
$DIMARCSYM
 70
     1
  9
$DIMLTYPE
  6
BYBLOCK
  9
$DIMLTEX1
  6
BYBLOCK
  9
$DIMLTEX2
  6
BYBLOCK
  9
$DIMTXTDIRECTION
 70
     0
  9
$LUNITS
 70
     2
  9
$LUPREC
 70
     2
  9
$SKETCHINC
 40
0.1
  9
$FILLETRAD
 40
11.0
  9
$AUNITS
 70
     0
  9
$AUPREC
 70
     0
  9
$MENU
  1
acad
  9
$ELEVATION
 40
0.0
  9
$PELEVATION
 40
0.0
  9
$THICKNESS
 40
0.0
  9
$LIMCHECK
 70
     0
  9
$CHAMFERA
 40
0.0
  9
$CHAMFERB
 40
0.0
  9
$CHAMFERC
 40
0.0
  9
$CHAMFERD
 40
0.0
  9
$SKPOLY
 70
     0
  9
$TDCREATE
 40
2450025.205231482
  9
$TDUCREATE
 40
2450025.163573264
  9
$TDUPDATE
 40
2458568.394745371
  9
$TDUUPDATE
 40
2458568.353078704
  9
$TDINDWG
 40
1.1878002431
  9
$TDUSRTIMER
 40
1.1878002431
  9
$USRTIMER
 70
     1
  9
$ANGBASE
 50
0.0
  9
$ANGDIR
 70
     0
  9
$PDMODE
 70
     0
  9
$PDSIZE
 40
0.0
  9
$PLINEWID
 40
0.0
  9
$SPLFRAME
 70
     0
  9
$SPLINETYPE
 70
     6
  9
$SPLINESEGS
 70
     8
  9
$HANDSEED
  5
58D
  9
$SURFTAB1
 70
     6
  9
$SURFTAB2
 70
     6
  9
$SURFTYPE
 70
     6
  9
$SURFU
 70
     6
  9
$SURFV
 70
     6
  9
$UCSBASE
  2

  9
$UCSNAME
  2

  9
$UCSORG
 10
0.0
 20
0.0
 30
0.0
  9
$UCSXDIR
 10
1.0
 20
0.0
 30
0.0
  9
$UCSYDIR
 10
0.0
 20
1.0
 30
0.0
  9
$UCSORTHOREF
  2

  9
$UCSORTHOVIEW
 70
     0
  9
$UCSORGTOP
 10
0.0
 20
0.0
 30
0.0
  9
$UCSORGBOTTOM
 10
0.0
 20
0.0
 30
0.0
  9
$UCSORGLEFT
 10
0.0
 20
0.0
 30
0.0
  9
$UCSORGRIGHT
 10
0.0
 20
0.0
 30
0.0
  9
$UCSORGFRONT
 10
0.0
 20
0.0
 30
0.0
  9
$UCSORGBACK
 10
0.0
 20
0.0
 30
0.0
  9
$PUCSBASE
  2

  9
$PUCSNAME
  2

  9
$PUCSORG
 10
0.0
 20
0.0
 30
0.0
  9
$PUCSXDIR
 10
1.0
 20
0.0
 30
0.0
  9
$PUCSYDIR
 10
0.0
 20
1.0
 30
0.0
  9
$PUCSORTHOREF
  2

  9
$PUCSORTHOVIEW
 70
     0
  9
$PUCSORGTOP
 10
0.0
 20
0.0
 30
0.0
  9
$PUCSORGBOTTOM
 10
0.0
 20
0.0
 30
0.0
  9
$PUCSORGLEFT
 10
0.0
 20
0.0
 30
0.0
  9
$PUCSORGRIGHT
 10
0.0
 20
0.0
 30
0.0
  9
$PUCSORGFRONT
 10
0.0
 20
0.0
 30
0.0
  9
$PUCSORGBACK
 10
0.0
 20
0.0
 30
0.0
  9
$USERI1
 70
     0
  9
$USERI2
 70
     0
  9
$USERI3
 70
     0
  9
$USERI4
 70
     0
  9
$USERI5
 70
     0
  9
$USERR1
 40
0.0
  9
$USERR2
 40
0.0
  9
$USERR3
 40
0.0
  9
$USERR4
 40
0.0
  9
$USERR5
 40
0.0
  9
$WORLDVIEW
 70
     1
  9
$SHADEDGE
 70
     3
  9
$SHADEDIF
 70
    70
  9
$TILEMODE
 70
     1
  9
$MAXACTVP
 70
    16
  9
$PINSBASE
 10
0.0
 20
0.0
 30
0.0
  9
$PLIMCHECK
 70
     0
  9
$PEXTMIN
 10
0.177597999999989
 20
1.95322999999999
 30
0.0
  9
$PEXTMAX
 10
286.11
 20
200.828
 30
0.0
  9
$PLIMMIN
 10
0.0
 20
0.0
  9
$PLIMMAX
 10
298.0
 20
210.0
  9
$UNITMODE
 70
     0
  9
$VISRETAIN
 70
     0
  9
$PLINEGEN
 70
     0
  9
$PSLTSCALE
 70
     0
  9
$TREEDEPTH
 70
  3020
  9
$CMLSTYLE
  2
STANDARD
  9
$CMLJUST
 70
     0
  9
$CMLSCALE
 40
1.0
  9
$PROXYGRAPHICS
 70
     1
  9
$MEASUREMENT
 70
     0
  9
$CELWEIGHT
370
    -1
  9
$ENDCAPS
280
     0
  9
$JOINSTYLE
280
     0
  9
$LWDISPLAY
290
     0
  9
$INSUNITS
 70
     0
  9
$HYPERLINKBASE
  1

  9
$STYLESHEET
  1
monochrome.ctb
  9
$XEDIT
290
     1
  9
$CEPSNTYPE
380
     0
  9
$PSTYLEMODE
290
     1
  9
$FINGERPRINTGUID
  2

  9
$VERSIONGUID
  2
{D3AB20F4-1923-7049-853E-06E81B1DA951}
  9
$EXTNAMES
290
     1
  9
$PSVPSCALE
 40
0.0
  9
$OLESTARTUP
290
     0
  9
$SORTENTS
280
   127
  9
$INDEXCTL
280
     0
  9
$HIDETEXT
280
     0
  9
$XCLIPFRAME
280
     0
  9
$HALOGAP
280
     0
  9
$OBSCOLOR
 70
   257
  9
$OBSLTYPE
280
     0
  9
$INTERSECTIONDISPLAY
280
     0
  9
$INTERSECTIONCOLOR
 70
   257
  9
$DIMASSOC
280
     1
  9
$PROJECTNAME
  1

  9
$CAMERADISPLAY
290
     0
  9
$LENSLENGTH
 40
50.0
  9
$CAMERAHEIGHT
 40
0.0
  9
$STEPSPERSEC
 40
2.0
  9
$STEPSIZE
 40
6.0
  9
$3DDWFPREC
 40
2.0
  9
$PSOLWIDTH
 40
0.25
  9
$PSOLHEIGHT
 40
4.0
  9
$LOFTANG1
 40
1.570796326794896
  9
$LOFTANG2
 40
1.570796326794896
  9
$LOFTMAG1
 40
0.0
  9
$LOFTMAG2
 40
0.0
  9
$LOFTPARAM
 70
     7
  9
$LOFTNORMALS
280
     1
  9
$LATITUDE
 40
37.795
  9
$LONGITUDE
 40
-122.394
  9
$NORTHDIRECTION
 40
0.0
  9
$TIMEZONE
 70
 -8000
  9
$LIGHTGLYPHDISPLAY
280
     1
  9
$TILEMODELIGHTSYNCH
280
     1
  9
$CMATERIAL
347
3CA
  9
$SOLIDHIST
280
     1
  9
$SHOWHIST
280
     1
  9
$DWFFRAME
280
     2
  9
$DGNFRAME
280
     0
  9
$REALWORLDSCALE
290
     1
  9
$INTERFERECOLOR
 62
     1
  9
$INTERFEREOBJVS
345
3EC
  9
$INTERFEREVPVS
346
4FE
  9
$CSHADOW
280
     0
  9
$SHADOWPLANELOCATION
 40
0.0
  0
ENDSEC
  0
SECTION
  2
CLASSES
  0
CLASS
  1
DICTIONARYVAR
  2
AcDbDictionaryVar
  3
ObjectDBX Classes
 90
        0
 91
        9
280
     0
281
     0
  0
CLASS
  1
IMAGE
  2
AcDbRasterImage
  3
ISM
 90
     2175
 91
        0
280
     0
281
     1
  0
CLASS
  1
IMAGEDEF_REACTOR
  2
AcDbRasterImageDefReactor
  3
ISM
 90
        1
 91
        0
280
     0
281
     0
  0
CLASS
  1
IMAGEDEF
  2
AcDbRasterImageDef
  3
ISM
 90
        0
 91
        0
280
     0
281
     0
  0
CLASS
  1
RASTERVARIABLES
  2
AcDbRasterVariables
  3
ISM
 90
        0
 91
        0
280
     0
281
     0
  0
CLASS
  1
ACDBDICTIONARYWDFLT
  2
AcDbDictionaryWithDefault
  3
ObjectDBX Classes
 90
        0
 91
        1
280
     0
281
     0
  0
CLASS
  1
TABLESTYLE
  2
AcDbTableStyle
  3
ObjectDBX Classes
 90
     4095
 91
        1
280
     0
281
     0
  0
CLASS
  1
MATERIAL
  2
AcDbMaterial
  3
ObjectDBX Classes
 90
     1153
 91
        3
280
     0
281
     0
  0
CLASS
  1
VISUALSTYLE
  2
AcDbVisualStyle
  3
ObjectDBX Classes
 90
     4095
 91
       26
280
     0
281
     0
  0
CLASS
  1
SCALE
  2
AcDbScale
  3
ObjectDBX Classes
 90
     1153
 91
       33
280
     0
281
     0
  0
CLASS
  1
MLEADERSTYLE
  2
AcDbMLeaderStyle
  3
ACDB_MLEADERSTYLE_CLASS
 90
     4095
 91
        1
280
     0
281
     0
  0
CLASS
  1
ACME_DOCUMENT
  2
AcMeDbDoc
  3
AcMeServices
 90
     1024
 91
        2
280
     0
281
     0
  0
CLASS
  1
AMGSETTINGSOBJ
  2
AmgSettingsObj
  3
"AcadM|Product Description: AutoCAD Mechanical|Company: Autodesk, Inc."
 90
     1024
 91
        2
280
     0
281
     0
  0
CLASS
  1
AMGOBJPROPCFG
  2
AmgObjPropCfg
  3
"AmgLay|Product Description: AutoCAD Mechanical|Company: Autodesk, Inc."
 90
     1024
 91
        1
280
     0
281
     0
  0
CLASS
  1
ACMESCOPE
  2
AcMeScope
  3
AcMeServices
 90
     1024
 91
        1
280
     0
281
     0
  0
CLASS
  1
ACMECOMMANDHISTORY
  2
AcMeCommandHistory
  3
AcMeServices
 90
     1024
 91
        1
280
     0
281
     0
  0
CLASS
  1
ACIMSYSVARMAN
  2
AcImSysVarManager
  3
AcMeServices
 90
     1024
 91
        3
280
     0
281
     0
  0
CLASS
  1
ACIMINTSYSVAR
  2
AcImIntSysVar
  3
AcMeServices
 90
     1024
 91
        2
280
     0
281
     0
  0
CLASS
  1
ACMEDRAWINGMAN
  2
AcMeDrawingMan
  3
AcMeServices
 90
     1024
 91
        0
280
     0
281
     0
  0
CLASS
  1
ACMEVIEW
  2
AcMeView
  3
AcMeServices
 90
     1024
 91
        0
280
     0
281
     0
  0
CLASS
  1
ACDBENTITYCACHE
  2
AcMeEntityCache
  3
AcMeServices
 90
     1024
 91
        1
280
     0
281
     0
  0
CLASS
  1
GSMANAGER
  2
AcMeGSManager
  3
AcMeServices
 90
     1024
 91
        0
280
     0
281
     0
  0
CLASS
  1
AMDTINTERNALREACTOR
  2
AmdtInternalReactor
  3
AcMeServices
 90
     1024
 91
        0
280
     0
281
     0
  0
CLASS
  1
ACMESTATEMGR
  2
AcMeStateMgr
  3
AcMeServices
 90
     1024
 91
        1
280
     0
281
     0
  0
CLASS
  1
ACGREFMASTER
  2
AcGrefMaster
  3
AcAttribServices
 90
     1024
 91
        1
280
     0
281
     0
  0
CLASS
  1
AM_DRAWING_MGR
  2
AcDmDwgMgr
  3
AcMechDwgViewMgmt
 90
     1024
 91
        0
280
     0
281
     0
  0
CLASS
  1
AM_DWG_DOCUMENT
  2
AcDmDwgDocument
  3
AcMechDwgViewMgmt
 90
     1024
 91
        0
280
     0
281
     0
  0
CLASS
  1
AM_DWG_SHEET
  2
AcDmSheet
  3
AcMechDwgViewMgmt
 90
     1024
 91
        0
280
     0
281
     0
  0
CLASS
  1
AM_VIEWDIMPARMAP
  2
AcDmViewDimParMap
  3
AcMechDwgViewMgmt
 90
     1024
 91
        0
280
     0
281
     0
  0
CLASS
  1
ACIMREALSYSVAR
  2
AcImRealSysVar
  3
AcMeServices
 90
     1024
 91
        0
280
     0
281
     0
  0
CLASS
  1
AM_DWGMGR_NAME
  2
AcDmDwgMgrName
  3
AcMechDwgViewMgmt
 90
     1024
 91
        0
280
     0
281
     0
  0
CLASS
  1
ACME_DATABASE
  2
AcMeDbDatabase
  3
AcMeServices
 90
     1024
 91
        1
280
     0
281
     0
  0
CLASS
  1
ACRFINSADJUSTERMGR
  2
AcRfInsAdjusterMgr
  3
AcMeServices
 90
     1024
 91
        1
280
     0
281
     0
  0
CLASS
  1
ACGREFACADMASTER
  2
AcGrefacadMaster
  3
AcGrefServices
 90
     1024
 91
        1
280
     0
281
     0
  0
CLASS
  1
AMDTMENUSTATEMGR
  2
AmdtMenuStateMgr
  3
McadcomServices
 90
     1024
 91
        1
280
     0
281
     0
  0
CLASS
  1
AMDTMCOMMENUSTATE
  2
AmdtMcomMenuState
  3
McadcomServices
 90
     1024
 91
        1
280
     0
281
     0
  0
CLASS
  1
AMIMASTER
  2
AmiMaster
  3
AmiServices
 90
     1024
 91
        1
280
     0
281
     0
  0
CLASS
  1
MAPIAMMOUDLE
  2
MApiAmModule
  3
MApiAmServices
 90
     1024
 91
        1
280
     0
281
     0
  0
CLASS
  1
ACIMSTRSYSVAR
  2
AcImStrSysVar
  3
AcMeServices
 90
     1024
 91
        5
280
     0
281
     0
  0
CLASS
  1
AMDTADMENUSTATE
  2
AmdtAdMenuState
  3
DesignerServices
 90
     1024
 91
        0
280
     0
281
     0
  0
CLASS
  1
ADAPPL
  2
AcAdAppl
  3
DesignerAssemblies
 90
     1024
 91
        0
280
     0
281
     0
  0
CLASS
  1
DEPMGR
  2
AcAdDepMgr
  3
DesignerAssemblies
 90
     1024
 91
        0
280
     0
281
     0
  0
CLASS
  1
PARAMMGR
  2
AcAdParamMgr
  3
DesignerAssemblies
 90
     1024
 91
        0
280
     0
281
     0
  0
CLASS
  1
PARAMSCOPE
  2
AcAdParamScope
  3
DesignerAssemblies
 90
     1024
 91
        0
280
     0
281
     0
  0
CLASS
  1
NAMEDAPPL
  2
AcAdNamedAppl
  3
DesignerAssemblies
 90
     1024
 91
        0
280
     0
281
     0
  0
CLASS
  1
AMDTDMMENUSTATE
  2
AmdtDmMenuState
  3
AcMechDwgViewMgmt
 90
     1024
 91
        0
280
     0
281
     0
  0
CLASS
  1
AMDTAMMENUSTATE
  2
AmdtAmMenuState
  3
DesignerAssemblies
 90
     1024
 91
        1
280
     0
281
     0
  0
CLASS
  1
ACAMPROJECT
  2
AcAmProject
  3
DesignerAssemblies
 90
     1024
 91
        1
280
     0
281
     0
  0
CLASS
  1
ACAMGRCOMPDEF
  2
AcAmGrCompDef
  3
DesignerAssemblies
 90
     1024
 91
        1
280
     0
281
     0
  0
CLASS
  1
ACCMCONTEXT
  2
AcCmContext
  3
DesignerAssemblies
 90
     1024
 91
        0
280
     0
281
     0
  0
CLASS
  1
ACAMCOMPDEF
  2
AcAmCompDef
  3
DesignerAssemblies
 90
     1024
 91
        1
280
     0
281
     0
  0
CLASS
  1
ACAMCOMPDEFMGR
  2
AcAmCompDefMgr
  3
DesignerAssemblies
 90
     1024
 91
        1
280
     0
281
     0
  0
CLASS
  1
AMCONTEXTMGR
  2
AcAmContextMgr
  3
DesignerAssemblies
 90
     1024
 91
        1
280
     0
281
     0
  0
CLASS
  1
ACAMCONTEXTMODELER
  2
AcAmContextModeler
  3
DesignerAssemblies
 90
     1024
 91
        1
280
     0
281
     0
  0
CLASS
  1
ACMDATADICTIONARY
  2
AcmDataDictionary
  3
"AcmSymBB|Product Description: AutoCAD Mechanical|Company: Autodesk, Inc."
 90
     1024
 91
        1
280
     0
281
     0
  0
CLASS
  1
CATALOGSTATE
  2
AcAmCatalogState
  3
DesignerAssemblies
 90
     1024
 91
        0
280
     0
281
     0
  0
CLASS
  1
ACAMGRCOMPDEFSET
  2
AcAmGrCompDefSet
  3
DesignerAssemblies
 90
     1024
 91
        1
280
     0
281
     0
  0
CLASS
  1
AMDTBROWSERDBTAB
  2
AmdtBrowserDbTab
  3
McadcomServices
 90
     1024
 91
        1
280
     0
281
     0
  0
CLASS
  1
CBROWSERAPPOBJECT
  2
CBrowserAppObject
  3
McadcomServices
 90
     1024
 91
        2
280
     0
281
     0
  0
CLASS
  1
DM_PLACEHOLDER
  2
AcDmSelsetPlaceholder
  3
McadcomServices
 90
     1024
 91
        1
280
     0
281
     0
  0
CLASS
  1
EXACXREFPANELOBJECT
  2
ExAcXREFPanelObject
  3
EXAC_ESW
 90
     1025
 91
        1
280
     0
281
     0
  0
CLASS
  1
NPOCOLLECTION
  2
AcDbImpNonPersistentObjectsCollection
  3
ObjectDBX Classes
 90
     1153
 91
        1
280
     0
281
     0
  0
CLASS
  1
ACMSTANDARDANSI
  2
AcmStandardANSI
  3
"Amdt_StdImp|Product Description: AutoCAD Mechanical|Company: Autodesk, Inc."
 90
     1024
 91
        1
280
     0
281
     0
  0
CLASS
  1
ACMSURFSTANDARDANSI
  2
AcmSurfTextStdANSI
  3
"Amdt_StdImp|Product Description: AutoCAD Mechanical|Company: Autodesk, Inc."
 90
     1024
 91
        1
280
     0
281
     0
  0
CLASS
  1
ACMFCFSTANDARDANSI
  2
AcmFCFStdANSI
  3
"Amdt_StdImp|Product Description: AutoCAD Mechanical|Company: Autodesk, Inc."
 90
     1024
 91
        1
280
     0
281
     0
  0
CLASS
  1
ACMWELDSTANDARDANSI
  2
AcmWeldingStdANSI
  3
"Amdt_StdImp|Product Description: AutoCAD Mechanical|Company: Autodesk, Inc."
 90
     1024
 91
        1
280
     0
281
     0
  0
CLASS
  1
ACMIDSTANDARDANSI
  2
AcmIdStdANSI
  3
"Amdt_StdImp|Product Description: AutoCAD Mechanical|Company: Autodesk, Inc."
 90
     1024
 91
        1
280
     0
281
     0
  0
CLASS
  1
ACMDATUMSTANDARDANSI
  2
AcmDatumStdANSI
  3
"Amdt_StdImp|Product Description: AutoCAD Mechanical|Company: Autodesk, Inc."
 90
     1024
 91
        1
280
     0
281
     0
  0
CLASS
  1
ACMBOMSTANDARDANSI
  2
AcmBOMStdANSI
  3
"Amdt_StdImp|Product Description: AutoCAD Mechanical|Company: Autodesk, Inc."
 90
     1024
 91
        1
280
     0
281
     0
  0
CLASS
  1
ACMDETAILSTANDARDANSI
  2
AmdtDetailSymStdANSI
  3
"Amdt_StdImp|Product Description: AutoCAD Mechanical|Company: Autodesk, Inc."
 90
     1024
 91
        1
280
     0
281
     0
  0
CLASS
  1
ACMSECTIONSTANDARDANSI
  2
AmdtSectionSymStdANSI
  3
"Amdt_StdImp|Product Description: AutoCAD Mechanical|Company: Autodesk, Inc."
 90
     1024
 91
        1
280
     0
281
     0
  0
CLASS
  1
ACMCENTERLINESTANDARDANSI
  2
AmdtCenterLineStdANSI
  3
"Amdt_StdImp|Product Description: AutoCAD Mechanical|Company: Autodesk, Inc."
 90
     1024
 91
        1
280
     0
281
     0
  0
CLASS
  1
ACMTHREADLINESTANDARDANSI
  2
AmdtThreadLineStdANSI
  3
"Amdt_StdImp|Product Description: AutoCAD Mechanical|Company: Autodesk, Inc."
 90
     1024
 91
        1
280
     0
281
     0
  0
CLASS
  1
ACMNOTESTANDARDANSI
  2
AmdtNoteStdANSI
  3
"Amdt_StdImp|Product Description: AutoCAD Mechanical|Company: Autodesk, Inc."
 90
     1024
 91
        1
280
     0
281
     0
  0
CLASS
  1
ACMTAPERSTANDARDANSI
  2
AcmTaperStdANSI
  3
"Amdt_StdImp|Product Description: AutoCAD Mechanical|Company: Autodesk, Inc."
 90
     1024
 91
        1
280
     0
281
     0
  0
CLASS
  1
ACMANOOTATIONVIEWSTANDARDANSI
  2
AmdtAnViewStdANSI
  3
"Amdt_StdImp|Product Description: AutoCAD Mechanical|Company: Autodesk, Inc."
 90
     1024
 91
        1
280
     0
281
     0
  0
CLASS
  1
ACAMGLAYSTD
  2
AcAmgLayStd
  3
"AmgLay|Product Description: AutoCAD Mechanical|Company: Autodesk, Inc."
 90
     1024
 91
        1
280
     0
281
     0
  0
CLASS
  1
ACAMGDIMSTD
  2
AcAmgDimStd
  3
"AmgDim|Product Description: AutoCAD Mechanical|Company: Autodesk, Inc."
 90
     1024
 91
        1
280
     0
281
     0
  0
CLASS
  1
ACAMGHOLECHARTSTDANSI
  2
AcAmgHoleChartStdANSI
  3
AmgDim|Product Description: AutoCAD Mechanical|Company: Autodesk, Inc.
 90
     1024
 91
        1
280
     0
281
     0
  0
CLASS
  1
ACAMGTITLESTD
  2
AcAmgTitleStd
  3
"AmgTitle|Product Description: AutoCAD Mechanical|Company: Autodesk, Inc."
 90
     1024
 91
        1
280
     0
281
     0
  0
CLASS
  1
AMDTNOTETEMPLATEDB
  2
AmdtNoteTemplateDB
  3
AcmSymBB|Product Description: AutoCAD Mechanical|Company: Autodesk, Inc.
 90
     1024
 91
        7
280
     0
281
     0
  0
CLASS
  1
ACAMGFILTERDAT
  2
AcAmgFilterDat
  3
"AcadM|Product Description: AutoCAD Mechanical|Company: Autodesk, Inc."
 90
     1024
 91
        0
280
     0
281
     0
  0
CLASS
  1
CELLSTYLEMAP
  2
AcDbCellStyleMap
  3
ObjectDBX Classes
 90
     1152
 91
        2
280
     0
281
     0
  0
CLASS
  1
ACDBSECTIONVIEWSTYLE
  2
AcDbSectionViewStyle
  3
ObjectDBX Classes
 90
     1025
 91
        2
280
     0
281
     0
  0
CLASS
  1
ACDBDETAILVIEWSTYLE
  2
AcDbDetailViewStyle
  3
ObjectDBX Classes
 90
     1025
 91
        2
280
     0
281
     0
  0
CLASS
  1
ACMSECTIONSTANDARDCUSTOM
  2
AmdtSectionSymStdCustom
  3
"Amdt_StdImp|Product Description: AutoCAD Mechanical|Company: Autodesk, Inc."
 90
     1024
 91
        1
280
     0
281
     0
  0
CLASS
  1
ACMDETAILTANDARDCUSTOM
  2
AmdtDetailSymStdCustom
  3
"Amdt_StdImp|Product Description: AutoCAD Mechanical|Company: Autodesk, Inc."
 90
     1024
 91
        1
280
     0
281
     0
  0
CLASS
  1
FIELD
  2
AcDbField
  3
ObjectDBX Classes
 90
     1152
 91
        4
280
     0
281
     0
  0
CLASS
  1
FIELDLIST
  2
AcDbFieldList
  3
ObjectDBX Classes
 90
     1152
 91
        1
280
     0
281
     0
  0
ENDSEC
  0
SECTION
  2
TABLES
  0
TABLE
  2
VPORT
  5
2FF
330
0
100
AcDbSymbolTable
 70
     1
1001
ACAD
1000
DbSaveVer
1071
        8
  0
VPORT
  5
3C8
330
2FF
100
AcDbSymbolTableRecord
100
AcDbViewportTableRecord
  2
*Active
 70
     0
 10
0.0
 20
0.0
 11
1.0
 21
1.0
 12
165.6086355147229
 22
193.3607625562779
 13
0.0
 23
0.0
 14
1.0
 24
1.0
 15
20.0
 25
20.0
 16
0.0
 26
0.0
 36
1.0
 17
0.0
 27
0.0
 37
0.0
 40
582.8190746842169
 41
2.358195211786371
 42
50.0
 43
0.0
 44
0.0
 50
0.0
 51
0.0
 71
     0
 72
   100
 73
     1
 74
     1
 75
     0
 76
     0
 77
     0
 78
     0
281
     0
 65
     1
110
0.0
120
0.0
130
0.0
111
1.0
121
0.0
131
0.0
112
0.0
122
1.0
132
0.0
 79
     0
146
0.0
348
3E8
 60
     3
 61
     5
292
     1
282
     1
141
0.0
142
0.0
 63
   250
421
  3355443
1001
ACAD_NAV_VCDISPLAY
1070
     3
  0
ENDTAB
  0
TABLE
  2
LTYPE
  5
2FA
330
0
100
AcDbSymbolTable
 70
    19
  0
LTYPE
  5
2FB
330
2FA
100
AcDbSymbolTableRecord
100
AcDbLinetypeTableRecord
  2
BYBLOCK
 70
     0
  3

 72
    65
 73
     0
 40
0.0
  0
LTYPE
  5
2FC
330
2FA
100
AcDbSymbolTableRecord
100
AcDbLinetypeTableRecord
  2
BYLAYER
 70
     0
  3

 72
    65
 73
     0
 40
0.0
  0
LTYPE
  5
15
330
2FA
100
AcDbSymbolTableRecord
100
AcDbLinetypeTableRecord
  2
CONTINUOUS
 70
     0
  3
Solid line
 72
    65
 73
     0
 40
0.0
  0
LTYPE
  5
C
330
2FA
100
AcDbSymbolTableRecord
100
AcDbLinetypeTableRecord
  2
AUSGEZOGEN
 70
     0
  3
Ausgezogene Linie
 72
    65
 73
     0
 40
0.0
  0
LTYPE
  5
8
330
2FA
100
AcDbSymbolTableRecord
100
AcDbLinetypeTableRecord
  2
STRICHPUNKT
 70
     0
  3
__ . __ . __ . __ . __ . __ . __ . __ . __ . __
 72
    65
 73
     4
 40
1.0
 49
0.5
 74
     0
 49
-0.25
 74
     0
 49
0.0
 74
     0
 49
-0.25
 74
     0
  0
LTYPE
  5
C6
330
2FA
100
AcDbSymbolTableRecord
100
AcDbLinetypeTableRecord
  2
VERDECKT
 70
     0
  3
__ __ __ __ __ __ __ __ __ __ __ __ __ __ __ __
 72
    65
 73
     2
 40
0.375
 49
0.25
 74
     0
 49
-0.125
 74
     0
  0
LTYPE
  5
424
330
2FA
100
AcDbSymbolTableRecord
100
AcDbLinetypeTableRecord
  2
AM_ISO02W050
 70
     0
  3
__ __ __ __ __ __ __ __ __ __ __ __ __ __ __
 72
    65
 73
     2
 40
7.5
 49
6.0
 74
     0
 49
-1.5
 74
     0
  0
LTYPE
  5
425
330
2FA
100
AcDbSymbolTableRecord
100
AcDbLinetypeTableRecord
  2
AM_ISO08W050
 70
     0
  3
____ . ____ . ____ . ____ . ____ . ____ . ____
 72
    65
 73
     4
 40
18.0
 49
12.0
 74
     0
 49
-1.5
 74
     0
 49
3.0
 74
     0
 49
-1.5
 74
     0
  0
LTYPE
  5
426
330
2FA
100
AcDbSymbolTableRecord
100
AcDbLinetypeTableRecord
  2
AM_ISO09W050
 70
     0
  3
_____ . . _____ . . _____ . . ____ .. ____
 72
    65
 73
     6
 40
22.5
 49
12.0
 74
     0
 49
-1.5
 74
     0
 49
3.0
 74
     0
 49
-1.5
 74
     0
 49
3.0
 74
     0
 49
-1.5
 74
     0
  0
LTYPE
  5
427
330
2FA
100
AcDbSymbolTableRecord
100
AcDbLinetypeTableRecord
  2
Amconstr
 70
     0
  3
_______________________
 72
    65
 73
     2
 40
9999.0
 49
9999.0
 74
     0
 49
0.0
 74
     0
  0
LTYPE
  5
428
330
2FA
100
AcDbSymbolTableRecord
100
AcDbLinetypeTableRecord
  2
AM_ISO08W050x2
 70
     0
  3
__ . __ . __ . __ . __ . __
 72
    65
 73
     4
 40
9.0
 49
6.0
 74
     0
 49
-0.75
 74
     0
 49
1.5
 74
     0
 49
-0.75
 74
     0
  0
LTYPE
  5
429
330
2FA
100
AcDbSymbolTableRecord
100
AcDbLinetypeTableRecord
  2
AM_ISO02W050x2
 70
     0
  3
 _ _ _ _ _ _ _ _ _ _ _ _
 72
    65
 73
     2
 40
3.75
 49
3.0
 74
     0
 49
-0.75
 74
     0
  0
LTYPE
  5
42C
330
2FA
100
AcDbSymbolTableRecord
100
AcDbLinetypeTableRecord
  2
Amzigzag
 70
     0
  3
/\/-/\/-/\/-/\/-/\/-/\/
 72
    65
 73
     2
 40
11.0001
 49
0.0001
 74
     4
 75
   136
340
42B
 46
0.04
 50
0.0
 44
0.0
 45
0.0
 49
-11.0
 74
     0
  0
LTYPE
  5
45C
330
2FA
100
AcDbSymbolTableRecord
100
AcDbLinetypeTableRecord
  2
HIDDEN
 70
     0
  3
Skrytá __ __ __ __ __ __ __ __ __ __ __ __ __ __
 72
    65
 73
     2
 40
0.375
 49
0.25
 74
     0
 49
-0.125
 74
     0
  0
LTYPE
  5
45D
330
2FA
100
AcDbSymbolTableRecord
100
AcDbLinetypeTableRecord
  2
PHANTOM2
 70
     0
  3
Sdružená (.5x) ___ _ _ ___ _ _ ___ _ _ ___ _ _
 72
    65
 73
     6
 40
1.25
 49
0.625
 74
     0
 49
-0.125
 74
     0
 49
0.125
 74
     0
 49
-0.125
 74
     0
 49
0.125
 74
     0
 49
-0.125
 74
     0
  0
LTYPE
  5
45E
330
2FA
100
AcDbSymbolTableRecord
100
AcDbLinetypeTableRecord
  2
CENTER
 70
     0
  3
Středová ____ _ ____ _ ____ _ ____ _ ____ _ ____
 72
    65
 73
     4
 40
2.0
 49
1.25
 74
     0
 49
-0.25
 74
     0
 49
0.25
 74
     0
 49
-0.25
 74
     0
  0
LTYPE
  5
4B0
330
2FA
100
AcDbSymbolTableRecord
100
AcDbLinetypeTableRecord
  2
CENTER2
 70
     0
  3
Center (.5x) ___ _ ___ _ ___ _ ___ _ ___ _ ___
 72
    65
 73
     4
 40
1.125
 49
0.75
 74
     0
 49
-0.125
 74
     0
 49
0.125
 74
     0
 49
-0.125
 74
     0
  0
LTYPE
  5
4B1
330
2FA
100
AcDbSymbolTableRecord
100
AcDbLinetypeTableRecord
  2
HIDDEN2
 70
     0
  3
Hidden (.5x) _ _ _ _ _ _ _ _ _ _ _ _ _ _ _ _ _
 72
    65
 73
     2
 40
0.1875
 49
0.125
 74
     0
 49
-0.0625
 74
     0
  0
LTYPE
  5
4B2
330
2FA
100
AcDbSymbolTableRecord
100
AcDbLinetypeTableRecord
  2
Amzigzag2
 70
     0
  3
/\/-/\/-/\/-/\/-/\/-/\/
 72
    65
 73
     2
 40
0.4401
 49
0.0001
 74
     4
 75
   136
340
42B
 46
0.0016
 50
0.0
 44
0.0
 45
0.0
 49
-0.4400000000000001
 74
     0
  0
LTYPE
  5
4B4
330
2FA
100
AcDbSymbolTableRecord
100
AcDbLinetypeTableRecord
  2
ACANSTGB
 70
     0
  3
__ . . __ . .
 72
    65
 73
     6
 40
0.35433070866
 49
0.15748031496
 74
     0
 49
-0.03937007874
 74
     0
 49
0.03937007874
 74
     0
 49
-0.03937007874
 74
     0
 49
0.03937007874
 74
     0
 49
-0.03937007874
 74
     0
  0
LTYPE
  5
4B5
330
2FA
100
AcDbSymbolTableRecord
100
AcDbLinetypeTableRecord
  2
ACANSTGL
 70
     0
  3
_ _ _ _ _
 72
    65
 73
     2
 40
0.11811023622
 49
0.07874015748
 74
     0
 49
-0.03937007874
 74
     0
  0
ENDTAB
  0
TABLE
  2
LAYER
  5
2F7
330
0
100
AcDbSymbolTable
 70
    16
  0
LAYER
  5
14
102
{ACAD_XDICTIONARY
360
4BF
102
}
330
2F7
100
AcDbSymbolTableRecord
100
AcDbLayerTableRecord
  2
0
 70
     0
 62
     7
  6
CONTINUOUS
370
    -3
390
5
347
3DA
348
0
  0
LAYER
  5
B
102
{ACAD_XDICTIONARY
360
4C1
102
}
330
2F7
100
AcDbSymbolTableRecord
100
AcDbLayerTableRecord
  2
SICHTBAR
 70
     0
 62
     7
  6
AUSGEZOGEN
370
    -3
390
5
347
3DA
348
0
  0
LAYER
  5
5E
102
{ACAD_XDICTIONARY
360
4C3
102
}
330
2F7
100
AcDbSymbolTableRecord
100
AcDbLayerTableRecord
  2
BEMASS
 70
     0
 62
     3
  6
AUSGEZOGEN
370
    -3
390
5
347
3DA
348
0
  0
LAYER
  5
20C
102
{ACAD_XDICTIONARY
360
4C5
102
}
330
2F7
100
AcDbSymbolTableRecord
100
AcDbLayerTableRecord
  2
TEXT25
 70
     0
 62
     3
  6
AUSGEZOGEN
370
    -3
390
5
347
3DA
348
0
  0
LAYER
  5
8F
102
{ACAD_XDICTIONARY
360
4C7
102
}
330
2F7
100
AcDbSymbolTableRecord
100
AcDbLayerTableRecord
  2
DUENN
 70
     0
 62
     4
  6
AUSGEZOGEN
370
    -3
390
5
347
3DA
348
0
  0
LAYER
  5
4
102
{ACAD_XDICTIONARY
360
4C9
102
}
330
2F7
100
AcDbSymbolTableRecord
100
AcDbLayerTableRecord
  2
MITTE
 70
     0
 62
     1
  6
STRICHPUNKT
370
    -3
390
5
347
3DA
348
0
  0
LAYER
  5
C5
102
{ACAD_XDICTIONARY
360
4CB
102
}
330
2F7
100
AcDbSymbolTableRecord
100
AcDbLayerTableRecord
  2
VERDECKT
 70
     0
 62
     2
  6
VERDECKT
370
    -3
390
5
347
3DA
348
0
  0
LAYER
  5
209
102
{ACAD_XDICTIONARY
360
4CD
102
}
330
2F7
100
AcDbSymbolTableRecord
100
AcDbLayerTableRecord
  2
TEXT35
 70
     0
 62
    12
  6
AUSGEZOGEN
370
    -3
390
5
347
3DA
348
0
  0
LAYER
  5
E
102
{ACAD_XDICTIONARY
360
4CF
102
}
330
2F7
100
AcDbSymbolTableRecord
100
AcDbLayerTableRecord
  2
TEXT50
 70
     0
 62
     7
  6
AUSGEZOGEN
370
    -3
390
5
347
3DA
348
0
  0
LAYER
  5
11
102
{ACAD_XDICTIONARY
360
4D1
102
}
330
2F7
100
AcDbSymbolTableRecord
100
AcDbLayerTableRecord
  2
SCHRAFF
 70
     0
 62
     6
  6
AUSGEZOGEN
370
    -3
390
5
347
3DA
348
0
  0
LAYER
  5
79
330
2F7
100
AcDbSymbolTableRecord
100
AcDbLayerTableRecord
  2
DEFPOINTS
 70
     0
 62
     7
  6
CONTINUOUS
290
     0
370
    -3
390
5
347
3DA
348
0
  0
LAYER
  5
2F2
102
{ACAD_XDICTIONARY
360
4D3
102
}
330
2F7
100
AcDbSymbolTableRecord
100
AcDbLayerTableRecord
  2
AFEN
 70
     0
 62
     7
  6
CONTINUOUS
370
    -3
390
5
347
3DA
348
0
  0
LAYER
  5
1BE
102
{ACAD_XDICTIONARY
360
4D5
102
}
330
2F7
100
AcDbSymbolTableRecord
100
AcDbLayerTableRecord
  2
KOPF
 70
     0
 62
     9
  6
AUSGEZOGEN
370
    -3
390
5
347
3DA
348
0
  0
LAYER
  5
232
102
{ACAD_XDICTIONARY
360
4D7
102
}
330
2F7
100
AcDbSymbolTableRecord
100
AcDbLayerTableRecord
  2
GAIN_ZSF
 70
     0
 62
     7
  6
CONTINUOUS
370
    -3
390
5
347
3DA
348
0
  0
LAYER
  5
1BB
102
{ACAD_XDICTIONARY
360
4D9
102
}
330
2F7
100
AcDbSymbolTableRecord
100
AcDbLayerTableRecord
  2
GAIN_ZRA
 70
     0
 62
     7
  6
CONTINUOUS
370
    -3
390
5
347
3DA
348
0
  0
LAYER
  5
311
102
{ACAD_XDICTIONARY
360
4DB
102
}
330
2F7
100
AcDbSymbolTableRecord
100
AcDbLayerTableRecord
  2
Sperrlayer
 70
     1
 62
     7
  6
CONTINUOUS
370
    50
390
5
347
3DA
348
0
  0
ENDTAB
  0
TABLE
  2
STYLE
  5
2F8
330
0
100
AcDbSymbolTable
 70
    11
  0
STYLE
  5
5F
330
2F8
100
AcDbSymbolTableRecord
100
AcDbTextStyleTableRecord
  2
STANDARD
 70
     0
 40
0.0
 41
0.8
 50
0.0
 71
     0
 42
0.2
  3
simplex.shx
  4

  0
STYLE
  5
1E5
330
2F8
100
AcDbSymbolTableRecord
100
AcDbTextStyleTableRecord
  2
BEMSTIL
 70
     0
 40
0.0
 41
0.8
 50
0.0
 71
     0
 42
3.5
  3
simplex.shx
  4

  0
STYLE
  5
20A
330
2F8
100
AcDbSymbolTableRecord
100
AcDbTextStyleTableRecord
  2
TEXT35
 70
     0
 40
3.5
 41
0.8
 50
0.0
 71
     0
 42
3.5
  3
din
  4

  0
STYLE
  5
20D
330
2F8
100
AcDbSymbolTableRecord
100
AcDbTextStyleTableRecord
  2
TEXT20
 70
     0
 40
2.0
 41
0.8
 50
0.0
 71
     0
 42
3.5
  3
DIN.shx
  4

  0
STYLE
  5
1C3
330
2F8
100
AcDbSymbolTableRecord
100
AcDbTextStyleTableRecord
  2
TEXT25
 70
     0
 40
2.5
 41
0.8
 50
0.0
 71
     0
 42
2.5
  3
DIN.shx
  4

  0
STYLE
  5
2D4
330
2F8
100
AcDbSymbolTableRecord
100
AcDbTextStyleTableRecord
  2
ITALICC8
 70
     0
 40
3.0
 41
0.8
 50
0.0
 71
     0
 42
3.0
  3
italicc8
  4

  0
STYLE
  5
2CE
330
2F8
100
AcDbSymbolTableRecord
100
AcDbTextStyleTableRecord
  2
ROMANS8
 70
     0
 40
2.1
 41
0.7
 50
0.0
 71
     0
 42
2.1
  3
ROMANS8
  4

  0
STYLE
  5
F
330
2F8
100
AcDbSymbolTableRecord
100
AcDbTextStyleTableRecord
  2
TEXT50
 70
     0
 40
5.0
 41
0.8
 50
0.0
 71
     0
 42
5.0
  3
isocp3.shx
  4

  0
STYLE
  5
42B
330
2F8
100
AcDbSymbolTableRecord
100
AcDbTextStyleTableRecord
  2

 70
     1
 40
0.0
 41
1.0
 50
0.0
 71
     0
 42
0.2
  3
genltshp.shx
  4

  0
STYLE
  5
4AF
330
2F8
100
AcDbSymbolTableRecord
100
AcDbTextStyleTableRecord
  2
ACANSTS
 70
     0
 40
1.0
 41
1.0
 50
0.0
 71
     0
 42
0.2
  3
romans.shx
  4

  0
STYLE
  5
4B3
330
2F8
100
AcDbSymbolTableRecord
100
AcDbTextStyleTableRecord
  2
ACANSGDT
 70
     0
 40
0.0
 41
1.0
 50
0.0
 71
     0
 42
0.2
  3
amgdt.shx
  4

  0
ENDTAB
  0
TABLE
  2
VIEW
  5
2FD
330
0
100
AcDbSymbolTable
 70
     0
  0
ENDTAB
  0
TABLE
  2
UCS
  5
2FE
330
0
100
AcDbSymbolTable
 70
     0
  0
ENDTAB
  0
TABLE
  2
APPID
  5
301
330
0
100
AcDbSymbolTable
 70
    16
  0
APPID
  5
33
330
301
100
AcDbSymbolTableRecord
100
AcDbRegAppTableRecord
  2
ACAD
 70
     0
  0
APPID
  5
3B1
330
301
100
AcDbSymbolTableRecord
100
AcDbRegAppTableRecord
  2
DCO15
 70
     0
  0
APPID
  5
417
330
301
100
AcDbSymbolTableRecord
100
AcDbRegAppTableRecord
  2
ACAD_MLEADERVER
 70
     0
  0
APPID
  5
42F
330
301
100
AcDbSymbolTableRecord
100
AcDbRegAppTableRecord
  2
MCAD_NO_VIS
 70
     0
  0
APPID
  5
430
330
301
100
AcDbSymbolTableRecord
100
AcDbRegAppTableRecord
  2
ACAD_TEMP_GRAPHIC
 70
     0
  0
APPID
  5
460
330
301
100
AcDbSymbolTableRecord
100
AcDbRegAppTableRecord
  2
AD_DRAW
 70
     0
  0
APPID
  5
463
330
301
100
AcDbSymbolTableRecord
100
AcDbRegAppTableRecord
  2
ACATTRIBSERVICES
 70
     0
  0
APPID
  5
484
330
301
100
AcDbSymbolTableRecord
100
AcDbRegAppTableRecord
  2
DESIGNERASSEMBLIES
 70
     0
  0
APPID
  5
48A
330
301
100
AcDbSymbolTableRecord
100
AcDbRegAppTableRecord
  2
ACADM_DIM_EDIT
 70
     0
  0
APPID
  5
48B
330
301
100
AcDbSymbolTableRecord
100
AcDbRegAppTableRecord
  2
AMDT_DM_ADJ
 70
     0
  0
APPID
  5
4BC
330
301
100
AcDbSymbolTableRecord
100
AcDbRegAppTableRecord
  2
GENIUS_GENSCREG_15
 70
     0
  0
APPID
  5
4BD
330
301
100
AcDbSymbolTableRecord
100
AcDbRegAppTableRecord
  2
GENIUS_GENOBJ-N-SDF_13
 70
     0
  0
APPID
  5
4BE
330
301
100
AcDbSymbolTableRecord
100
AcDbRegAppTableRecord
  2
GENIUS_GENODEF_13
 70
     0
  0
APPID
  5
554
330
301
100
AcDbSymbolTableRecord
100
AcDbRegAppTableRecord
  2
ACAD_DSTYLE_DIMBREAK
 70
     0
  0
APPID
  5
555
330
301
100
AcDbSymbolTableRecord
100
AcDbRegAppTableRecord
  2
ACAD_DSTYLE_DIMJAG
 70
     0
  0
APPID
  5
570
330
301
100
AcDbSymbolTableRecord
100
AcDbRegAppTableRecord
  2
ACAD_NAV_VCDISPLAY
 70
     0
  0
ENDTAB
  0
TABLE
  2
DIMSTYLE
  5
302
330
0
100
AcDbSymbolTable
 70
     7
100
AcDbDimStyleTable
 71
     2
340
4A3
340
70
  0
DIMSTYLE
105
70
102
{ACAD_REACTORS
330
B4
330
F5
330
E4
330
12F
330
14A
330
157
330
164
330
171
330
17E
330
18B
330
AC
330
AD
102
}
330
302
100
AcDbSymbolTableRecord
100
AcDbDimStyleTableRecord
  2
STANDARD
 70
     0
 41
3.5
 42
0.0
 43
7.0
 44
1.8
 45
0.01
 73
     0
 74
     0
 77
     1
 78
     8
140
4.0
141
3.0
147
1.5
174
     1
176
   256
177
   256
178
   256
271
     2
272
     2
279
     2
284
     8
285
     8
286
     8
340
5F
  0
DIMSTYLE
105
4A3
102
{ACAD_REACTORS
330
544
102
}
330
302
100
AcDbSymbolTableRecord
100
AcDbDimStyleTableRecord
  2
AM_ANSI
 70
     0
  4
mm
 41
0.12
 42
0.05
 43
0.5
 44
0.1
 47
0.1
 48
0.1
 78
     7
 79
     2
 90
     1
140
0.12
141
0.0
146
0.71
147
0.06
176
   256
177
   256
178
     2
274
     4
284
     7
340
5F
345
2FB
346
2FB
347
2FB
371
    -1
372
    -1
  0
DIMSTYLE
105
4A4
330
302
100
AcDbSymbolTableRecord
100
AcDbDimStyleTableRecord
  2
AM_ANSI$3
 70
     0
  4
mm
 41
0.12
 42
0.05
 43
0.5
 44
0.1
 47
0.1
 48
0.1
 78
     7
 79
     2
 90
     1
140
0.12
141
0.0
146
0.71
147
0.06
176
   256
177
   256
178
     2
274
     4
284
     7
288
     1
289
     0
340
5F
345
2FB
346
2FB
347
2FB
371
    -1
372
    -1
  0
DIMSTYLE
105
4A5
330
302
100
AcDbSymbolTableRecord
100
AcDbDimStyleTableRecord
  2
AM_ANSI$4
 70
     0
  4
mm
 41
0.12
 42
0.05
 43
0.5
 44
0.1
 47
0.1
 48
0.1
 78
     7
 79
     2
 90
     1
140
0.12
141
0.0
146
0.71
147
0.06
176
   256
177
   256
178
     2
274
     4
284
     7
340
5F
345
2FB
346
2FB
347
2FB
371
    -1
372
    -1
  0
DIMSTYLE
105
4A6
330
302
100
AcDbSymbolTableRecord
100
AcDbDimStyleTableRecord
  2
AM_ANSI$7
 70
     0
  4
mm
 41
0.12
 42
0.05
 43
0.5
 44
0.1
 47
0.1
 48
0.1
 78
     7
 79
     2
 90
     1
140
0.12
141
0.0
146
0.71
147
0.06
176
   256
177
   256
178
     2
274
     4
284
     7
340
5F
345
2FB
346
2FB
347
2FB
371
    -1
372
    -1
  0
DIMSTYLE
105
4A7
330
302
100
AcDbSymbolTableRecord
100
AcDbDimStyleTableRecord
  2
AM_ANSI$SF
 70
     0
  4
mm
 41
0.12
 42
0.05
 43
0.5
 44
0.1
 47
0.1
 48
0.1
 75
     1
 76
     1
 78
     7
 79
     2
 90
     1
140
0.12
141
0.0
146
0.71
147
0.06
176
   256
177
   256
178
     2
274
     4
284
     7
340
5F
345
2FB
346
2FB
347
2FB
371
    -1
372
    -1
  0
DIMSTYLE
105
4AC
330
302
100
AcDbSymbolTableRecord
100
AcDbDimStyleTableRecord
  2
AM_ANSI$SH
 70
     0
  4
mm
 41
0.12
 42
0.05
 43
0.5
 44
0.1
 47
0.1
 48
0.1
 75
     1
 76
     1
 78
     7
 79
     2
 90
     1
140
0.12
141
0.0
146
0.71
147
0.06
173
     1
176
   256
177
   256
178
     2
274
     4
284
     7
340
5F
343
4A8
345
2FB
346
2FB
347
2FB
371
    -1
372
    -1
  0
ENDTAB
  0
TABLE
  2
BLOCK_RECORD
  5
1
330
0
100
AcDbSymbolTable
 70
    25
  0
BLOCK_RECORD
  5
2
330
1
100
AcDbSymbolTableRecord
100
AcDbBlockTableRecord
  2
*MODEL_SPACE
340
2EC
 70
     0
280
     1
281
     0
  0
BLOCK_RECORD
  5
2EE
330
1
100
AcDbSymbolTableRecord
100
AcDbBlockTableRecord
  2
*PAPER_SPACE
340
2F6
 70
     0
280
     1
281
     0
  0
BLOCK_RECORD
  5
233
330
1
100
AcDbSymbolTableRecord
100
AcDbBlockTableRecord
  2
SF_PRI
340
0
 70
     0
280
     1
281
     0
  0
BLOCK_RECORD
  5
2C6
330
1
100
AcDbSymbolTableRecord
100
AcDbBlockTableRecord
  2
A$C17D61B2D
340
0
102
{BLKREFS
331
2C5
102
}
 70
     0
280
     1
281
     0
  0
BLOCK_RECORD
  5
12
330
1
100
AcDbSymbolTableRecord
100
AcDbBlockTableRecord
  2
*X2
340
0
 70
     0
280
     1
281
     0
  0
BLOCK_RECORD
  5
3B
330
1
100
AcDbSymbolTableRecord
100
AcDbBlockTableRecord
  2
*X3
340
0
 70
     0
280
     1
281
     0
  0
BLOCK_RECORD
  5
71
330
1
100
AcDbSymbolTableRecord
100
AcDbBlockTableRecord
  2
*D4
340
0
 70
     0
280
     1
281
     0
  0
BLOCK_RECORD
  5
A0
330
1
100
AcDbSymbolTableRecord
100
AcDbBlockTableRecord
  2
*D5
340
0
 70
     0
280
     1
281
     0
  0
BLOCK_RECORD
  5
1BC
330
1
100
AcDbSymbolTableRecord
100
AcDbBlockTableRecord
  2
RA_A2_pr
340
0
 70
     0
280
     1
281
     0
  0
BLOCK_RECORD
  5
B5
330
1
100
AcDbSymbolTableRecord
100
AcDbBlockTableRecord
  2
*D7
340
0
 70
     0
280
     1
281
     0
  0
BLOCK_RECORD
  5
F6
330
1
100
AcDbSymbolTableRecord
100
AcDbBlockTableRecord
  2
*D8
340
0
 70
     0
280
     1
281
     0
  0
BLOCK_RECORD
  5
E5
330
1
100
AcDbSymbolTableRecord
100
AcDbBlockTableRecord
  2
*D9
340
0
 70
     0
280
     1
281
     0
  0
BLOCK_RECORD
  5
130
330
1
100
AcDbSymbolTableRecord
100
AcDbBlockTableRecord
  2
*D10
340
0
 70
     0
280
     1
281
     0
  0
BLOCK_RECORD
  5
13E
330
1
100
AcDbSymbolTableRecord
100
AcDbBlockTableRecord
  2
*D11
340
0
 70
     0
280
     1
281
     0
  0
BLOCK_RECORD
  5
14B
330
1
100
AcDbSymbolTableRecord
100
AcDbBlockTableRecord
  2
*D12
340
0
 70
     0
280
     1
281
     0
  0
BLOCK_RECORD
  5
158
330
1
100
AcDbSymbolTableRecord
100
AcDbBlockTableRecord
  2
*D13
340
0
 70
     0
280
     1
281
     0
  0
BLOCK_RECORD
  5
165
330
1
100
AcDbSymbolTableRecord
100
AcDbBlockTableRecord
  2
*D14
340
0
 70
     0
280
     1
281
     0
  0
BLOCK_RECORD
  5
172
330
1
100
AcDbSymbolTableRecord
100
AcDbBlockTableRecord
  2
*D15
340
0
 70
     0
280
     1
281
     0
  0
BLOCK_RECORD
  5
17F
330
1
100
AcDbSymbolTableRecord
100
AcDbBlockTableRecord
  2
*D16
340
0
 70
     0
280
     1
281
     0
  0
BLOCK_RECORD
  5
18C
330
1
100
AcDbSymbolTableRecord
100
AcDbBlockTableRecord
  2
*D17
340
0
 70
     0
280
     1
281
     0
  0
BLOCK_RECORD
  5
19B
330
1
100
AcDbSymbolTableRecord
100
AcDbBlockTableRecord
  2
*D18
340
0
 70
     0
280
     1
281
     0
  0
BLOCK_RECORD
  5
1A8
330
1
100
AcDbSymbolTableRecord
100
AcDbBlockTableRecord
  2
*D19
340
0
 70
     0
280
     1
281
     0
  0
BLOCK_RECORD
  5
312
330
1
100
AcDbSymbolTableRecord
100
AcDbBlockTableRecord
  2
ACO-SF
340
0
 70
     0
280
     1
281
     0
  0
BLOCK_RECORD
  5
3B2
330
1
100
AcDbSymbolTableRecord
100
AcDbBlockTableRecord
  2
logo_1200
340
0
 70
     0
280
     1
281
     0
  0
BLOCK_RECORD
  5
4A8
330
1
100
AcDbSymbolTableRecord
100
AcDbBlockTableRecord
  2
GENAXEH
340
0
 70
     0
280
     1
281
     0
  0
BLOCK_RECORD
  5
55C
330
1
100
AcDbSymbolTableRecord
100
AcDbBlockTableRecord
  2
_ACMFILLEDHALF
340
0
 70
     0
280
     1
281
     0
  0
ENDTAB
  0
ENDSEC
  0
SECTION
  2
BLOCKS
  0
BLOCK
  5
2EA
330
2
100
AcDbEntity
  8
0
100
AcDbBlockBegin
  2
*MODEL_SPACE
 70
     0
 10
0.0
 20
0.0
 30
0.0
  3
*MODEL_SPACE
  1

  0
ENDBLK
  5
2EB
330
2
100
AcDbEntity
  8
0
100
AcDbBlockEnd
  0
BLOCK
  5
2F4
330
2EE
100
AcDbEntity
 67
     1
  8
0
100
AcDbBlockBegin
  2
*PAPER_SPACE
 70
     0
 10
0.0
 20
0.0
 30
0.0
  3
*PAPER_SPACE
  1

  0
ENDBLK
  5
2F5
330
2EE
100
AcDbEntity
 67
     1
  8
0
100
AcDbBlockEnd
  0
BLOCK
  5
2DA
330
233
100
AcDbEntity
  8
0
100
AcDbBlockBegin
  2
SF_PRI
 70
     2
 10
0.0
 20
0.0
 30
0.0
  3
SF_PRI
  1

  0
LINE
  5
234
330
233
100
AcDbEntity
  8
KOPF
100
AcDbLine
 10
-162.682677
 20
78.49999999999997
 30
0.0
 11
0.0
 21
78.49999999999997
 31
0.0
  0
TEXT
  5
235
330
233
100
AcDbEntity
  8
KOPF
100
AcDbText
 10
-94.40535829344497
 20
70.39773773357916
 30
0.0
 40
2.0
  1
Benennung
 41
0.8
  7
TEXT20
100
AcDbText
  0
LINE
  5
236
330
233
100
AcDbEntity
  8
KOPF
100
AcDbLine
 10
0.0
 20
73.49999999999997
 30
0.0
 11
-182.0
 21
73.49999999999997
 31
0.0
  0
LINE
  5
237
330
233
100
AcDbEntity
  8
KOPF
100
AcDbLine
 10
-182.0
 20
83.49999999999997
 30
0.0
 11
0.0
 21
83.49999999999997
 31
0.0
  0
LINE
  5
238
330
233
100
AcDbEntity
  8
KOPF
100
AcDbLine
 10
0.0
 20
88.49999999999996
 30
0.0
 11
-182.0
 21
88.49999999999996
 31
0.0
  0
LINE
  5
239
330
233
100
AcDbEntity
  8
KOPF
100
AcDbLine
 10
0.0
 20
68.49999999999997
 30
0.0
 11
-182.0
 21
68.49999999999997
 31
0.0
  0
LINE
  5
23A
330
233
100
AcDbEntity
  8
KOPF
 62
     9
100
AcDbLine
 10
0.0
 20
27.0
 30
0.0
 11
-182.0
 21
27.0
 31
0.0
  0
LINE
  5
23B
330
233
100
AcDbEntity
  8
KOPF
 62
    12
100
AcDbLine
 10
-162.682677
 20
78.49999999999997
 30
0.0
 11
0.0
 21
78.49999999999997
 31
0.0
  0
LINE
  5
23C
330
233
100
AcDbEntity
  8
KOPF
 62
    12
100
AcDbLine
 10
0.0
 20
73.49999999999997
 30
0.0
 11
-182.0
 21
73.49999999999997
 31
0.0
  0
LINE
  5
23D
330
233
100
AcDbEntity
  8
KOPF
 62
    12
100
AcDbLine
 10
-182.0
 20
83.49999999999997
 30
0.0
 11
0.0
 21
83.49999999999997
 31
0.0
  0
LINE
  5
23E
330
233
100
AcDbEntity
  8
KOPF
 62
    12
100
AcDbLine
 10
0.0
 20
88.49999999999996
 30
0.0
 11
-182.0
 21
88.49999999999996
 31
0.0
  0
LWPOLYLINE
  5
23F
330
233
100
AcDbEntity
  8
KOPF
 62
    12
100
AcDbPolyline
 90
        2
 70
     0
 43
0.5
 10
0.0
 20
27.0
 10
-182.0
 20
27.0
  0
LWPOLYLINE
  5
240
330
233
100
AcDbEntity
  8
KOPF
 62
    12
100
AcDbPolyline
 90
        2
 70
     0
 43
0.5
 10
0.0
 20
46.99999999999997
 10
-182.0
 20
46.99999999999997
  0
LWPOLYLINE
  5
241
330
233
100
AcDbEntity
  8
KOPF
 62
    12
100
AcDbPolyline
 90
        2
 70
     0
 43
0.5
 10
0.0
 20
68.49999999999997
 10
-182.0
 20
68.49999999999997
  0
LINE
  5
242
330
233
100
AcDbEntity
  8
KOPF
100
AcDbLine
 10
-113.4
 20
38.18891161795127
 30
0.0
 11
-182.0
 21
38.18891161795127
 31
0.0
  0
LINE
  5
243
330
233
100
AcDbEntity
  8
KOPF
100
AcDbLine
 10
-182.0
 20
41.99999999999996
 30
0.0
 11
-113.4
 21
41.99999999999996
 31
0.0
  0
LINE
  5
244
330
233
100
AcDbEntity
  8
KOPF
100
AcDbLine
 10
-182.0
 20
57.74999999999997
 30
0.0
 11
-100.0
 21
57.74999999999997
 31
0.0
  0
LINE
  5
245
330
233
100
AcDbEntity
  8
KOPF
 62
    12
100
AcDbLine
 10
-182.0
 20
41.99999999999996
 30
0.0
 11
-113.4
 21
41.99999999999996
 31
0.0
  0
LINE
  5
246
330
233
100
AcDbEntity
  8
KOPF
 62
    12
100
AcDbLine
 10
-182.0
 20
57.74999999999997
 30
0.0
 11
-100.0
 21
57.74999999999997
 31
0.0
  0
LINE
  5
247
330
233
100
AcDbEntity
  8
KOPF
 62
    12
100
AcDbLine
 10
-182.0
 20
34.17599418553943
 30
0.0
 11
-113.4
 21
34.17599418553943
 31
0.0
  0
ATTDEF
  5
248
330
233
100
AcDbEntity
  8
TEXT35
100
AcDbText
 10
-179.7
 20
49.7
 30
0.0
 40
3.5
  1

 41
0.8
  7
TEXT35
100
AcDbAttributeDefinition
280
     0
  3
zul. Abweichung
  2
F62
 70
     0
280
     0
  0
LINE
  5
249
330
233
100
AcDbEntity
  8
KOPF
100
AcDbLine
 10
-182.0
 20
88.49999999999996
 30
0.0
 11
-182.0
 21
0.0
 31
0.0
  0
LWPOLYLINE
  5
24A
330
233
100
AcDbEntity
  8
KOPF
 62
    12
100
AcDbPolyline
 90
        2
 70
     0
 43
0.7
 10
-182.0
 20
88.49999999999996
 10
-182.0
 20
0.0
  0
TEXT
  5
24B
330
233
100
AcDbEntity
  8
KOPF
100
AcDbText
 10
-179.738589
 20
35.31866212537803
 30
0.0
 40
2.0
  1
Geprüft
 41
0.8
  7
TEXT20
100
AcDbText
  0
TEXT
  5
24C
330
233
100
AcDbEntity
  8
KOPF
100
AcDbText
 10
-179.738589
 20
39.09466554638483
 30
0.0
 40
2.0
  1
Gezeichnet:
 41
0.8
  7
TEXT20
100
AcDbText
  0
TEXT
  5
24D
330
233
100
AcDbEntity
  8
KOPF
100
AcDbText
 10
-179.738589
 20
31.60503909815258
 30
0.0
 40
2.0
  1
Update:
 41
0.8
  7
TEXT20
100
AcDbText
  0
LINE
  5
24E
330
233
100
AcDbEntity
  8
KOPF
100
AcDbLine
 10
-163.0
 20
46.99999999999997
 30
0.0
 11
-163.0
 21
27.0
 31
0.0
  0
LINE
  5
24F
330
233
100
AcDbEntity
  8
KOPF
 62
    12
100
AcDbLine
 10
-163.0
 20
46.99999999999997
 30
0.0
 11
-163.0
 21
27.0
 31
0.0
  0
TEXT
  5
250
330
233
100
AcDbEntity
  8
KOPF
100
AcDbText
 10
-155.964455
 20
43.13467299999999
 30
0.0
 40
2.0
  1
Datum
 41
0.8
  7
TEXT20
100
AcDbText
  0
TEXT
  5
251
330
233
100
AcDbEntity
  8
KOPF
100
AcDbText
 10
-155.964455
 20
43.13467299999999
 30
0.0
 40
2.0
  1
Datum
 41
0.8
  7
TEXT20
100
AcDbText
  0
ATTDEF
  5
252
330
233
100
AcDbEntity
  8
TEXT25
100
AcDbText
 10
-161.5207141482394
 20
39.11011087449218
 30
0.0
 40
2.0
  1

 41
0.8
  7
TEXT20
100
AcDbAttributeDefinition
280
     0
  3
Gezeichnet am:
  2
F9
 70
     0
280
     0
  0
ATTDEF
  5
253
330
233
100
AcDbEntity
  8
TEXT25
100
AcDbText
 10
-161.5009557098303
 20
31.40199757513767
 30
0.0
 40
2.0
  1

 41
0.8
  7
TEXT20
100
AcDbAttributeDefinition
280
     0
  3
Update am:
  2
F53
 70
     0
280
     0
  0
ATTDEF
  5
254
330
233
100
AcDbEntity
  8
TEXT25
100
AcDbText
 10
-161.5539333606331
 20
35.00516559301049
 30
0.0
 40
2.0
  1

 41
0.8
  7
TEXT20
100
AcDbAttributeDefinition
280
     0
  3
Geprüft am:
  2
F22
 70
     0
280
     0
  0
ATTDEF
  5
255
330
233
100
AcDbEntity
  8
TEXT25
100
AcDbText
 10
-174.360415155955
 20
74.59999999999999
 30
0.0
 40
2.0
  1

 41
0.8
  7
TEXT20
100
AcDbAttributeDefinition
280
     0
  3
Index vv.:
  2
F72
 70
     0
280
     0
  0
ATTDEF
  5
256
330
233
100
AcDbEntity
  8
TEXT25
100
AcDbText
 10
-174.4435409453564
 20
79.47378932523601
 30
0.0
 40
2.0
  1

 41
0.8
  7
TEXT20
100
AcDbAttributeDefinition
280
     0
  3
Index v.:
  2
F68
 70
     0
280
     0
  0
ATTDEF
  5
257
330
233
100
AcDbEntity
  8
TEXT25
100
AcDbText
 10
-174.3700408782365
 20
84.63034186138365
 30
0.0
 40
2.0
  1

 41
0.8
  7
TEXT20
100
AcDbAttributeDefinition
280
     0
  3
Index l.:
  2
F64
 70
     0
280
     0
  0
ATTDEF
  5
258
330
233
100
AcDbEntity
  8
TEXT35
100
AcDbText
 10
-179.7
 20
59.6
 30
0.0
 40
3.5
  1

 41
0.8
  7
TEXT35
100
AcDbAttributeDefinition
280
     0
  3
Werkstoff:
  2
F61
 70
     0
280
     0
  0
TEXT
  5
259
330
233
100
AcDbEntity
  8
KOPF
100
AcDbText
 10
-181.0
 20
54.49999999999997
 30
0.0
 40
2.0
  1
zul. Abweich.:
 41
0.8
  7
TEXT20
100
AcDbText
  0
TEXT
  5
25A
330
233
100
AcDbEntity
  8
KOPF
100
AcDbText
 10
-180.0
 20
65.166273
 30
0.0
 40
2.0
  1
Werkstoff:
 41
0.8
  7
TEXT20
100
AcDbText
  0
LINE
  5
25B
330
233
100
AcDbEntity
  8
KOPF
100
AcDbLine
 10
-182.0
 20
78.49999999999997
 30
0.0
 11
-162.682677
 21
78.49999999999997
 31
0.0
  0
TEXT
  5
25C
330
233
100
AcDbEntity
  8
KOPF
100
AcDbText
 10
-181.0
 20
54.49999999999997
 30
0.0
 40
2.0
  1
zul. Abweich.:
 41
0.8
  7
TEXT20
100
AcDbText
  0
TEXT
  5
25D
330
233
100
AcDbEntity
  8
KOPF
100
AcDbText
 10
-180.0
 20
65.166273
 30
0.0
 40
2.0
  1
Werkstoff:
 41
0.8
  7
TEXT20
100
AcDbText
  0
LINE
  5
25E
330
233
100
AcDbEntity
  8
KOPF
100
AcDbLine
 10
-182.0
 20
78.49999999999997
 30
0.0
 11
-162.682677
 21
78.49999999999997
 31
0.0
  0
LINE
  5
25F
330
233
100
AcDbEntity
  8
KOPF
100
AcDbLine
 10
-162.682677
 20
88.49999999999996
 30
0.0
 11
-162.682677
 21
68.49999999999997
 31
0.0
  0
LINE
  5
260
330
233
100
AcDbEntity
  8
KOPF
100
AcDbLine
 10
-162.682677
 20
88.49999999999996
 30
0.0
 11
-162.682677
 21
68.49999999999997
 31
0.0
  0
TEXT
  5
261
330
233
100
AcDbEntity
  8
KOPF
100
AcDbText
 10
-174.6925639999999
 20
69.53813999999997
 30
0.0
 40
2.0
  1
Index
 41
0.8
  7
TEXT20
100
AcDbText
  0
TEXT
  5
262
330
233
100
AcDbEntity
  8
KOPF
100
AcDbText
 10
-174.6925639999999
 20
69.53813999999997
 30
0.0
 40
2.0
  1
Index
 41
0.8
  7
TEXT20
100
AcDbText
  0
TEXT
  5
263
330
233
100
AcDbEntity
  8
KOPF
100
AcDbText
 10
-156.706568
 20
69.53813999999997
 30
0.0
 40
2.0
  1
Datum
 41
0.8
  7
TEXT20
100
AcDbText
  0
TEXT
  5
264
330
233
100
AcDbEntity
  8
KOPF
100
AcDbText
 10
-156.706568
 20
69.53813999999997
 30
0.0
 40
2.0
  1
Datum
 41
0.8
  7
TEXT20
100
AcDbText
  0
ATTDEF
  5
265
330
233
100
AcDbEntity
  8
TEXT25
100
AcDbText
 10
-160.9
 20
75.09999999999999
 30
0.0
 40
2.0
  1

 41
0.8
  7
TEXT20
100
AcDbAttributeDefinition
280
     0
  3
Datum vv.:
  2
F73
 70
     0
280
     0
  0
ATTDEF
  5
266
330
233
100
AcDbEntity
  8
TEXT25
100
AcDbText
 10
-160.9
 20
79.40000000000001
 30
0.0
 40
2.0
  1

 41
0.8
  7
TEXT20
100
AcDbAttributeDefinition
280
     0
  3
Datum v.:
  2
F69
 70
     0
280
     0
  0
ATTDEF
  5
267
330
233
100
AcDbEntity
  8
TEXT25
100
AcDbText
 10
-160.6
 20
84.50000000000001
 30
0.0
 40
2.0
  1

 41
0.8
  7
TEXT20
100
AcDbAttributeDefinition
280
     0
  3
Datum l.:
  2
F65
 70
     0
280
     0
  0
ATTDEF
  5
268
330
233
100
AcDbEntity
  8
TEXT35
100
AcDbText
 10
-140.2
 20
49.4
 30
0.0
 40
3.5
  1

 41
0.8
  7
TEXT35
100
AcDbAttributeDefinition
280
     0
  3
Oberfläche:
  2
F63
 70
     0
280
     0
  0
LINE
  5
269
330
233
100
AcDbEntity
  8
KOPF
 62
    12
100
AcDbLine
 10
-100.0
 20
68.49999999999997
 30
0.0
 11
-100.0
 21
46.99999999999997
 31
0.0
  0
LINE
  5
26A
330
233
100
AcDbEntity
  8
KOPF
 62
    12
100
AcDbLine
 10
-142.0
 20
68.49999999999997
 30
0.0
 11
-142.0
 21
46.99999999999997
 31
0.0
  0
LINE
  5
26B
330
233
100
AcDbEntity
  8
KOPF
 62
    12
100
AcDbLine
 10
-100.0
 20
68.49999999999997
 30
0.0
 11
-100.0
 21
46.99999999999997
 31
0.0
  0
LINE
  5
26C
330
233
100
AcDbEntity
  8
KOPF
 62
    12
100
AcDbLine
 10
-142.0
 20
68.49999999999997
 30
0.0
 11
-142.0
 21
46.99999999999997
 31
0.0
  0
ATTDEF
  5
26D
330
233
100
AcDbEntity
  8
TEXT25
100
AcDbText
 10
-136.3996291720711
 20
31.31210389537199
 30
0.0
 40
2.0
  1

 41
0.8
  7
TEXT20
100
AcDbAttributeDefinition
280
     0
  3
Update von:
  2
F52
 70
     0
280
     0
  0
LINE
  5
26E
330
233
100
AcDbEntity
  8
KOPF
100
AcDbLine
 10
-138.4
 20
46.99999999999997
 30
0.0
 11
-138.4
 21
27.0
 31
0.0
  0
LINE
  5
26F
330
233
100
AcDbEntity
  8
KOPF
 62
    12
100
AcDbLine
 10
-138.4
 20
46.99999999999997
 30
0.0
 11
-138.4
 21
27.0
 31
0.0
  0
ATTDEF
  5
270
330
233
100
AcDbEntity
  8
TEXT25
100
AcDbText
 10
-136.1922113552417
 20
39.25199730580077
 30
0.0
 40
2.0
  1

 41
0.8
  7
TEXT20
100
AcDbAttributeDefinition
280
     0
  3
Gezeichnet von
  2
F8
 70
     0
280
     0
  0
ATTDEF
  5
271
330
233
100
AcDbEntity
  8
TEXT25
100
AcDbText
 10
-136.2746977811447
 20
35.16759793113587
 30
0.0
 40
2.0
  1

 41
0.8
  7
TEXT20
100
AcDbAttributeDefinition
280
     0
  3
Geprüft von:
  2
F21
 70
     0
280
     0
  0
TEXT
  5
272
330
233
100
AcDbEntity
  8
KOPF
100
AcDbText
 10
-130.065072
 20
43.14125800000002
 30
0.0
 40
2.0
  1
Name
 41
0.8
  7
TEXT20
100
AcDbText
  0
TEXT
  5
273
330
233
100
AcDbEntity
  8
KOPF
100
AcDbText
 10
-130.065072
 20
43.14125800000002
 30
0.0
 40
2.0
  1
Name
 41
0.8
  7
TEXT20
100
AcDbText
  0
ATTDEF
  5
274
330
233
100
AcDbEntity
  8
TEXT50
100
AcDbText
 10
-106.6
 20
37.8
 30
0.0
 40
5.0
  1

 41
0.8
  7
TEXT50
100
AcDbAttributeDefinition
280
     0
  3
Maßstab 1:
  2
F25
 70
     0
280
     0
  0
TEXT
  5
275
330
233
100
AcDbEntity
  8
KOPF
100
AcDbText
 10
-112.263457
 20
43.88678899999999
 30
0.0
 40
2.0
  1
Massstab:
 41
0.8
  7
TEXT20
100
AcDbText
  0
LINE
  5
276
330
233
100
AcDbEntity
  8
KOPF
100
AcDbLine
 10
-113.4
 20
27.0
 30
0.0
 11
-113.4
 21
46.99999999999997
 31
0.0
  0
LINE
  5
277
330
233
100
AcDbEntity
  8
KOPF
100
AcDbLine
 10
-113.4
 20
27.0
 30
0.0
 11
-113.4
 21
46.99999999999997
 31
0.0
  0
LWPOLYLINE
  5
278
330
233
100
AcDbEntity
  8
KOPF
100
AcDbPolyline
 90
        2
 70
     0
 43
0.5
 10
-113.4
 20
27.0
 10
-113.4
 20
46.99999999999997
  0
LINE
  5
279
330
233
100
AcDbEntity
  8
KOPF
 62
    12
100
AcDbLine
 10
-113.4
 20
27.0
 30
0.0
 11
-113.4
 21
46.99999999999997
 31
0.0
  0
ATTDEF
  5
27A
330
233
100
AcDbEntity
  8
TEXT35
100
AcDbText
 10
-104.487948258847
 20
28.6
 30
0.0
 40
3.5
  1

 41
0.8
  7
TEXT35
100
AcDbAttributeDefinition
280
     0
  3
Maßstab 3:
  2
F55
 70
     0
280
     0
  0
ATTDEF
  5
27B
330
233
100
AcDbEntity
  8
TEXT35
100
AcDbText
 10
-104.4935632823758
 20
33.13408015176805
 30
0.0
 40
3.5
  1

 41
0.8
  7
TEXT35
100
AcDbAttributeDefinition
280
     0
  3
Maßstab 2:
  2
F54
 70
     0
280
     0
  0
ATTDEF
  5
27C
330
233
100
AcDbEntity
  8
TEXT35
100
AcDbText
 10
-139.9
 20
59.29999999999999
 30
0.0
 40
3.5
  1

 41
0.8
  7
TEXT35
100
AcDbAttributeDefinition
280
     0
  3
Gewicht:
  2
F60
 70
     0
280
     0
  0
TEXT
  5
27D
330
233
100
AcDbEntity
  8
KOPF
100
AcDbText
 10
-140.1020469999999
 20
65.166273
 30
0.0
 40
2.0
  1
Gewicht:
 41
0.8
  7
TEXT20
100
AcDbText
  0
TEXT
  5
27E
330
233
100
AcDbEntity
  8
KOPF
100
AcDbText
 10
-140.387393
 20
54.54752599999996
 30
0.0
 40
2.0
  1
Oberfläche
 41
0.8
  7
TEXT20
100
AcDbText
  0
TEXT
  5
27F
330
233
100
AcDbEntity
  8
KOPF
100
AcDbText
 10
-140.1020469999999
 20
65.166273
 30
0.0
 40
2.0
  1
Gewicht:
 41
0.8
  7
TEXT20
100
AcDbText
  0
LINE
  5
280
330
233
100
AcDbEntity
  8
KOPF
100
AcDbLine
 10
-142.0
 20
68.49999999999997
 30
0.0
 11
-142.0
 21
88.49999999999996
 31
0.0
  0
LINE
  5
281
330
233
100
AcDbEntity
  8
KOPF
 62
    12
100
AcDbLine
 10
-142.0
 20
68.49999999999997
 30
0.0
 11
-142.0
 21
88.49999999999996
 31
0.0
  0
ATTDEF
  5
282
330
233
100
AcDbEntity
  8
TEXT25
100
AcDbText
 10
-140.4
 20
74.59999999999999
 30
0.0
 40
2.0
  1

 41
0.8
  7
TEXT20
100
AcDbAttributeDefinition
280
     0
  3
Bennenung vv.:
  2
F74
 70
     0
280
     0
  0
ATTDEF
  5
283
330
233
100
AcDbEntity
  8
TEXT25
100
AcDbText
 10
-140.5063960262479
 20
79.64480359078786
 30
0.0
 40
2.0
  1

 41
0.8
  7
TEXT20
100
AcDbAttributeDefinition
280
     0
  3
Benennung v.:
  2
F70
 70
     0
280
     0
  0
ATTDEF
  5
284
330
233
100
AcDbEntity
  8
TEXT25
100
AcDbText
 10
-140.390233442385
 20
84.56120109651198
 30
0.0
 40
2.0
  1

 41
0.8
  7
TEXT20
100
AcDbAttributeDefinition
280
     0
  3
Bennenung l.:
  2
F66
 70
     0
280
     0
  0
TEXT
  5
285
330
233
100
AcDbEntity
  8
KOPF
100
AcDbText
 10
-33.7904806989385
 20
30.30982488917614
 30
0.0
 40
1.54
  1
Schutzvermerk nach DIN 34 beachten
 41
0.75
  7
TEXT20
100
AcDbText
  0
LINE
  5
286
330
233
100
AcDbEntity
  8
KOPF
100
AcDbLine
 10
0.0
 20
5.0
 30
0.0
 11
-83.0
 21
5.0
 31
0.0
  0
LINE
  5
287
330
233
100
AcDbEntity
  8
KOPF
100
AcDbLine
 10
-83.0
 20
10.0
 30
0.0
 11
0.0
 21
10.0
 31
0.0
  0
LWPOLYLINE
  5
288
330
233
100
AcDbEntity
  8
KOPF
 62
    12
100
AcDbPolyline
 90
        2
 70
     0
 43
0.5
 10
-83.0
 20
10.0
 10
0.0
 20
10.0
  0
LINE
  5
289
330
233
100
AcDbEntity
  8
KOPF
 62
    12
100
AcDbLine
 10
0.0
 20
5.0
 30
0.0
 11
-83.0
 21
5.0
 31
0.0
  0
TEXT
  5
28A
330
233
100
AcDbEntity
  8
KOPF
100
AcDbText
 10
-33.57569784693112
 20
37.97994933403727
 30
0.0
 40
1.54
  1
zum Zweck anderweitiger Benutzung
 41
0.8
  7
TEXT20
100
AcDbText
  0
TEXT
  5
28B
330
233
100
AcDbEntity
  8
KOPF
100
AcDbText
 10
-33.57569784693112
 20
33.37532604459598
 30
0.0
 40
1.54
  1
Eigentum.
 41
0.8
  7
TEXT20
100
AcDbText
  0
TEXT
  5
28C
330
233
100
AcDbEntity
  8
KOPF
100
AcDbText
 10
-33.57569784693112
 20
35.63814072439632
 30
0.0
 40
1.54
  1
mitgeteilt werden und bleibt unser
 41
0.8
  7
TEXT20
100
AcDbText
  0
TEXT
  5
28D
330
233
100
AcDbEntity
  8
KOPF
100
AcDbText
 10
-33.57569784693112
 20
40.26106040199917
 30
0.0
 40
1.54
  1
noch dritten Personen, insbesondere
 41
0.8
  7
TEXT20
100
AcDbText
  0
TEXT
  5
28E
330
233
100
AcDbEntity
  8
KOPF
100
AcDbText
 10
-33.57569784693112
 20
42.62823225872138
 30
0.0
 40
1.54
  1
Diese Zeichnung darf weder kopiert
 41
0.8
  7
TEXT20
100
AcDbText
  0
ATTDEF
  5
28F
330
233
100
AcDbEntity
  8
TEXT25
100
AcDbText
 10
-62.5
 20
1.6
 30
0.0
 40
2.5
  1

 41
0.8
  7
TEXT25
100
AcDbAttributeDefinition
280
     0
  3
Ersetz durch:
  2
F12
 70
     0
280
     0
  0
ATTDEF
  5
290
330
233
100
AcDbEntity
  8
TEXT25
100
AcDbText
 10
-62.35900683211929
 20
5.946350224884298
 30
0.0
 40
2.5
  1

 41
0.8
  7
TEXT25
100
AcDbAttributeDefinition
280
     0
  3
Ersatz für:
  2
F11
 70
     0
280
     0
  0
ATTDEF
  5
291
330
233
100
AcDbEntity
  8
TEXT50
100
AcDbText
 10
-63.83064645486058
 20
14.53725216120369
 30
0.0
 40
5.0
  1

 41
0.8
  7
TEXT50
100
AcDbAttributeDefinition
280
     0
  3
Zeichnungsnummer
  2
F1A
 70
     0
280
     0
  0
LINE
  5
292
330
233
100
AcDbEntity
  8
KOPF
100
AcDbLine
 10
-57.80813400000011
 20
36.213444
 30
0.0
 11
-83.0
 21
36.213444
 31
0.0
  0
LINE
  5
293
330
233
100
AcDbEntity
  8
KOPF
 62
    12
100
AcDbLine
 10
-57.80813400000011
 20
36.213444
 30
0.0
 11
-83.0
 21
36.213444
 31
0.0
  0
LINE
  5
294
330
233
100
AcDbEntity
  8
KOPF
100
AcDbLine
 10
-83.0
 20
46.99999999999997
 30
0.0
 11
-83.0
 21
0.0
 31
0.0
  0
LWPOLYLINE
  5
295
330
233
100
AcDbEntity
  8
KOPF
 62
    12
100
AcDbPolyline
 90
        2
 70
     0
 43
0.5
 10
-83.0
 20
46.99999999999997
 10
-83.0
 20
0.0
  0
TEXT
  5
296
330
233
100
AcDbEntity
  8
KOPF
100
AcDbText
 10
-81.0
 20
1.714285999999985
 30
0.0
 40
2.0
  1
Ersetzt durch:
 41
0.8
  7
TEXT20
100
AcDbText
  0
TEXT
  5
297
330
233
100
AcDbEntity
  8
KOPF
100
AcDbText
 10
-81.0
 20
1.714285999999985
 30
0.0
 40
2.0
  1
Ersetzt durch:
 41
0.8
  7
TEXT20
100
AcDbText
  0
ATTDEF
  5
298
330
233
100
AcDbEntity
  8
TEXT50
100
AcDbText
 10
-78.29193986361122
 20
14.50587824180555
 30
0.0
 40
5.0
  1

 41
0.8
  7
TEXT50
100
AcDbAttributeDefinition
280
     0
  3
Standart:
  2
F1
 70
     0
280
     0
  0
ATTDEF
  5
299
330
233
100
AcDbEntity
  8
TEXT35
100
AcDbText
 10
-79.40896486611496
 20
38.08722024605356
 30
0.0
 40
3.5
  1

 41
0.8
  7
TEXT35
100
AcDbAttributeDefinition
280
     0
  3
Maßeinheit:
  2
F56
 70
     0
280
     0
  0
TEXT
  5
29A
330
233
100
AcDbEntity
  8
KOPF
100
AcDbText
 10
-81.59296000000006
 20
23.69783599999999
 30
0.0
 40
2.0
  1
Zeichnung Nr.:
 41
0.8
  7
TEXT20
100
AcDbText
  0
TEXT
  5
29B
330
233
100
AcDbEntity
  8
KOPF
100
AcDbText
 10
-81.48889200000008
 20
43.86057200000001
 30
0.0
 40
2.0
  1
Masseinheit:
 41
0.8
  7
TEXT20
100
AcDbText
  0
TEXT
  5
29C
330
233
100
AcDbEntity
  8
KOPF
100
AcDbText
 10
-81.00375700000006
 20
5.924711999999997
 30
0.0
 40
2.0
  1
Ersatz für:
 41
0.8
  7
TEXT20
100
AcDbText
  0
TEXT
  5
29D
330
233
100
AcDbEntity
  8
KOPF
100
AcDbText
 10
-81.59296000000006
 20
23.69783599999999
 30
0.0
 40
2.0
  1
Zeichnung Nr.:
 41
0.8
  7
TEXT20
100
AcDbText
  0
LINE
  5
29E
330
233
100
AcDbEntity
  8
KOPF
100
AcDbLine
 10
-68.51451399999996
 20
10.0
 30
0.0
 11
-68.51451399999996
 21
19.56467499999998
 31
0.0
  0
LINE
  5
29F
330
233
100
AcDbEntity
  8
KOPF
100
AcDbLine
 10
-68.51451399999996
 20
10.0
 30
0.0
 11
-68.51451399999996
 21
19.56467499999998
 31
0.0
  0
TEXT
  5
2A0
330
233
100
AcDbEntity
  8
KOPF
100
AcDbText
 10
-57.12244047883302
 20
43.82431699999997
 30
0.0
 40
2.0
  1
Projektion: ISO-E
 41
0.8
  7
TEXT20
100
AcDbText
  0
LINE
  5
2A1
330
233
100
AcDbEntity
  8
MITTE
100
AcDbLine
 10
-56.48631039339966
 20
36.04852954632858
 30
0.0
 11
-46.50279089147699
 21
36.04852954632858
 31
0.0
  0
LINE
  5
2A2
330
233
100
AcDbEntity
  8
KOPF
100
AcDbLine
 10
-57.80813400000011
 20
27.0
 30
0.0
 11
-57.80813400000011
 21
46.99999999999997
 31
0.0
  0
LINE
  5
2A3
330
233
100
AcDbEntity
  8
KOPF
 62
    12
100
AcDbLine
 10
-57.80813400000011
 20
27.0
 30
0.0
 11
-57.80813400000011
 21
46.99999999999997
 31
0.0
  0
CIRCLE
  5
2A4
330
233
100
AcDbEntity
  8
TEXT50
100
AcDbCircle
 10
-51.4945506424383
 20
36.04852954632858
 30
0.0
 40
4.022933351625178
  0
LINE
  5
2A5
330
233
100
AcDbEntity
  8
MITTE
100
AcDbLine
 10
-51.4945506424383
 20
40.07146289795374
 30
0.0
 11
-51.4945506424383
 21
30.76413131482123
 31
0.0
  0
CIRCLE
  5
2A6
330
233
100
AcDbEntity
  8
TEXT50
100
AcDbCircle
 10
-51.4945506424383
 20
36.04852954632858
 30
0.0
 40
1.979948192651899
  0
LINE
  5
2A7
330
233
100
AcDbEntity
  8
KOPF
100
AcDbLine
 10
-34.94281200000012
 20
47.01203199999999
 30
0.0
 11
-34.94281200000012
 21
27.0
 31
0.0
  0
LINE
  5
2A8
330
233
100
AcDbEntity
  8
KOPF
100
AcDbLine
 10
-34.94281200000012
 20
47.01203199999999
 30
0.0
 11
-34.94281200000012
 21
27.0
 31
0.0
  0
LINE
  5
2A9
330
233
100
AcDbEntity
  8
TEXT50
100
AcDbLine
 10
-36.50894043783512
 20
38.02847773898061
 30
0.0
 11
-45.05865660703466
 21
40.07146289795374
 31
0.0
  0
LINE
  5
2AA
330
233
100
AcDbEntity
  8
TEXT50
100
AcDbLine
 10
-45.05865660703466
 20
32.02559619470341
 30
0.0
 11
-36.50894043783512
 21
34.06858135367652
 31
0.0
  0
LINE
  5
2AB
330
233
100
AcDbEntity
  8
MITTE
100
AcDbLine
 10
-45.85521401410289
 20
36.04852954632858
 30
0.0
 11
-35.23444858652556
 21
36.04852954632858
 31
0.0
  0
LINE
  5
2AC
330
233
100
AcDbEntity
  8
TEXT50
100
AcDbLine
 10
-45.05865660703466
 20
40.07146289795374
 30
0.0
 11
-45.05865660703466
 21
32.02559619470346
 31
0.0
  0
LINE
  5
2AD
330
233
100
AcDbEntity
  8
TEXT50
100
AcDbLine
 10
-36.50894043783512
 20
38.02847773898061
 30
0.0
 11
-36.50894043783512
 21
34.06858135367652
 31
0.0
  0
ATTDEF
  5
2AE
330
233
100
AcDbEntity
  8
TEXT50
100
AcDbText
 10
-8.161293408750509
 20
15.05881749525164
 30
0.0
 40
5.0
  1

 41
0.8
  7
TEXT50
100
AcDbAttributeDefinition
280
     0
  3
Index:
  2
F1B
 70
     0
280
     0
  0
TEXT
  5
2AF
330
233
100
AcDbEntity
  8
KOPF
100
AcDbText
 10
-8.353129999999964
 20
23.330072
 30
0.0
 40
2.0
  1
Index
 41
0.8
  7
TEXT20
100
AcDbText
  0
TEXT
  5
2B0
330
233
100
AcDbEntity
  8
KOPF
100
AcDbText
 10
-8.353129999999964
 20
23.330072
 30
0.0
 40
2.0
  1
Index
 41
0.8
  7
TEXT20
100
AcDbText
  0
LINE
  5
2B1
330
233
100
AcDbEntity
  8
KOPF
100
AcDbLine
 10
-12.0
 20
27.0
 30
0.0
 11
-12.0
 21
10.0
 31
0.0
  0
LWPOLYLINE
  5
2B2
330
233
100
AcDbEntity
  8
KOPF
 62
    12
100
AcDbPolyline
 90
        2
 70
     0
 43
0.5
 10
-12.0
 20
27.0
 10
-12.0
 20
10.0
  0
LINE
  5
2B3
330
233
100
AcDbEntity
  8
KOPF
100
AcDbLine
 10
-15.0
 20
88.49999999999996
 30
0.0
 11
-15.0
 21
68.49999999999997
 31
0.0
  0
LINE
  5
2B4
330
233
100
AcDbEntity
  8
KOPF
100
AcDbLine
 10
-15.0
 20
88.49999999999996
 30
0.0
 11
-15.0
 21
68.49999999999997
 31
0.0
  0
TEXT
  5
2B5
330
233
100
AcDbEntity
  8
KOPF
100
AcDbText
 10
-11.65833600000008
 20
69.53813999999997
 30
0.0
 40
2.0
  1
Name
 41
0.8
  7
TEXT20
100
AcDbText
  0
TEXT
  5
2B6
330
233
100
AcDbEntity
  8
KOPF
100
AcDbText
 10
-11.65833600000008
 20
69.53813999999997
 30
0.0
 40
2.0
  1
Name
 41
0.8
  7
TEXT20
100
AcDbText
  0
ATTDEF
  5
2B7
330
233
100
AcDbEntity
  8
TEXT25
100
AcDbText
 10
-13.39999999999998
 20
74.90000000000001
 30
0.0
 40
2.0
  1

 41
0.8
  7
TEXT20
100
AcDbAttributeDefinition
280
     0
  3
Name vv.:
  2
F75
 70
     0
280
     0
  0
ATTDEF
  5
2B8
330
233
100
AcDbEntity
  8
TEXT25
100
AcDbText
 10
-13.39999999999998
 20
79.7
 30
0.0
 40
2.0
  1

 41
0.8
  7
TEXT20
100
AcDbAttributeDefinition
280
     0
  3
Name v.:
  2
F71
 70
     0
280
     0
  0
ATTDEF
  5
2B9
330
233
100
AcDbEntity
  8
TEXT25
100
AcDbText
 10
-13.31006638105163
 20
84.29999999999999
 30
0.0
 40
2.0
  1

 41
0.8
  7
TEXT20
100
AcDbAttributeDefinition
280
     0
  3
Name l.:
  2
F67
 70
     0
280
     0
  0
ATTDEF
  5
2BA
330
233
100
AcDbEntity
  8
TEXT50
100
AcDbText
 10
-176.6
 20
18.56318324460701
 30
0.0
 40
5.0
  1

 41
0.8
  7
TEXT50
100
AcDbAttributeDefinition
280
     0
  3
Z-Titel 1
  2
F2
 70
     0
280
     0
  0
ATTDEF
  5
2BB
330
233
100
AcDbEntity
  8
TEXT50
100
AcDbText
 10
-176.6
 20
10.63250279796295
 30
0.0
 40
5.0
  1

 41
0.8
  7
TEXT50
100
AcDbAttributeDefinition
280
     0
  3
Z-Titel 2
  2
F3
 70
     0
280
     0
  0
ATTDEF
  5
2BC
330
233
100
AcDbEntity
  8
TEXT35
100
AcDbText
 10
-176.6
 20
3.399999999999999
 30
0.0
 40
3.5
  1

 41
0.8
  7
TEXT35
100
AcDbAttributeDefinition
280
     0
  3
Z-Titel 3
  2
F13
 70
     0
280
     0
  0
TEXT
  5
2BD
330
233
100
AcDbEntity
  8
KOPF
100
AcDbText
 10
-81.2168100232509
 20
-4.904930646817639
 30
0.0
 40
2.0
  1
St 1:  
 41
0.8
  7
TEXT20
100
AcDbText
  0
TEXT
  5
2BE
330
233
100
AcDbEntity
  8
KOPF
100
AcDbText
 10
-55.57636971189049
 20
-5.051087285630934
 30
0.0
 40
2.0
  1
St 2:  
 41
0.8
  7
TEXT20
100
AcDbText
  0
LINE
  5
2BF
330
233
100
AcDbEntity
  8
KOPF
 62
    12
100
AcDbLine
 10
-182.0
 20
30.3922591784613
 30
0.0
 11
-113.4
 21
30.3922591784613
 31
0.0
  0
TEXT
  5
2C0
330
233
100
AcDbEntity
  8
KOPF
100
AcDbText
 10
-179.738589
 20
27.91139328475685
 30
0.0
 40
2.0
  1
SF /  FM
 41
0.8
  7
TEXT20
100
AcDbText
  0
ATTDEF
  5
2C1
330
233
100
AcDbEntity
  8
TEXT25
100
AcDbText
 10
-161.5009557098303
 20
27.70835176174194
 30
0.0
 40
2.0
  1

 41
0.8
  7
TEXT20
100
AcDbAttributeDefinition
280
     0
  3
Update am:
  2
F30
 70
     0
280
     0
  0
ATTDEF
  5
2C2
330
233
100
AcDbEntity
  8
TEXT25
100
AcDbText
 10
-136.3996291720711
 20
27.61845808197626
 30
0.0
 40
2.0
  1

 41
0.8
  7
TEXT20
100
AcDbAttributeDefinition
280
     0
  3
Update von:
  2
F23
 70
     0
280
     0
  0
ATTDEF
  5
2C3
330
233
100
AcDbEntity
  8
KOPF
100
AcDbText
 10
-76.14196676074652
 20
-4.909327569934726
 30
0.0
 40
2.0
  1

 41
0.8
  7
TEXT20
100
AcDbAttributeDefinition
280
     0
  3
Ersetz durch:
  2
F19
 70
     0
280
     0
  0
ATTDEF
  5
2C4
330
233
100
AcDbEntity
  8
KOPF
100
AcDbText
 10
-50.33283836985083
 20
-5.032145431237973
 30
0.0
 40
2.0
  1

 41
0.8
  7
TEXT20
100
AcDbAttributeDefinition
280
     0
  3
Ersetz durch:
  2
F20
 70
     0
280
     0
  0
INSERT
  5
2C5
330
233
100
AcDbEntity
  8
KOPF
100
AcDbBlockReference
  2
A$C17D61B2D
 10
-93.62972968665189
 20
51.4441636028745
 30
0.0
  0
ENDBLK
  5
2DB
330
233
100
AcDbEntity
  8
0
100
AcDbBlockEnd
  0
BLOCK
  5
2D8
330
2C6
100
AcDbEntity
  8
0
100
AcDbBlockBegin
  2
A$C17D61B2D
 70
     0
 10
0.0
 20
0.0
 30
0.0
  3
A$C17D61B2D
  1

  0
TEXT
  5
2C7
330
2C6
100
AcDbEntity
  8
TEXT25
100
AcDbText
 10
30.87850901831645
 20
0.9382700750549801
 30
0.0
 40
2.0
  1
582 22 Pribyslav
 41
0.8
  7
TEXT25
100
AcDbText
  0
CIRCLE
  5
2C8
330
2C6
100
AcDbEntity
  8
TEXT35
100
AcDbCircle
 10
15.72339699741562
 20
3.469033628030828
 30
0.0
 40
2.281499999999998
  0
CIRCLE
  5
2C9
330
2C6
100
AcDbEntity
  8
TEXT35
100
AcDbCircle
 10
15.72339699741562
 20
3.469033628030828
 30
0.0
 40
1.579499999999999
  0
LWPOLYLINE
  5
2CA
330
2C6
100
AcDbEntity
  8
TEXT35
100
AcDbPolyline
 90
        4
 70
     1
 43
0.0
 10
10.62677788559575
 20
2.679283628030795
 42
-3.664441495333134
 10
10.61199359762702
 20
4.283854443711881
 10
11.2200148949108
 20
4.634895703371711
 42
3.685001202565794
 10
11.23472771905243
 20
2.328283628030796
  0
LWPOLYLINE
  5
2CB
330
2C6
100
AcDbEntity
  8
TEXT35
100
AcDbPolyline
 90
        4
 70
     1
 43
0.0
 10
6.464506005892886
 20
13.23480232842506
 10
6.464506005892886
 20
0.0000000074210078
 10
12.05327551474352
 20
0.0000000074210078
 10
12.05327551474352
 20
13.23480232842506
  0
LWPOLYLINE
  5
2CC
330
2C6
100
AcDbEntity
  8
TEXT35
100
AcDbPolyline
 90
        4
 70
     1
 43
0.0
 10
18.51778175184091
 20
13.23480232842506
 10
18.51778175184091
 20
0.0000000074210078
 10
12.92901224299031
 20
0.0000000074210078
 10
12.92901224299031
 20
13.23480232842506
  0
TEXT
  5
2CD
330
2C6
100
AcDbEntity
  8
TEXT25
100
AcDbText
 10
56.32815580692983
 20
1.133682847130231
 30
0.0
 40
2.1
  1
Fax: 0451 / 482529
 41
0.7
  7
ROMANS8
100
AcDbText
  0
LWPOLYLINE
  5
2CF
330
2C6
100
AcDbEntity
  8
TEXT35
100
AcDbPolyline
 90
        7
 70
     1
 43
0.0
 10
1.214946902987747
 20
1.156826878358494
 42
-0.0323236910300514
 10
1.259126029445354
 20
1.78997874937292
 10
4.329643016996229
 20
1.78997874937292
 42
-0.0323236910300515
 10
4.373822143453722
 20
1.156826878358494
 10
5.075829941005736
 20
1.156826878358494
 42
0.2369604974400691
 10
2.794384523220728
 20
5.650978749372697
 42
0.2369604974400691
 10
0.5129391054357058
 20
1.156826878358494
  0
LWPOLYLINE
  5
2D0
330
2C6
100
AcDbEntity
  8
TEXT35
100
AcDbPolyline
 90
        4
 70
     1
 43
0.0
 10
-0.0000002312045524
 20
13.23480232842506
 10
-0.0000002312045524
 20
0.0000000074210078
 10
5.588769277646022
 20
0.0000000074210078
 10
5.588769277646022
 20
13.23480232842506
  0
LWPOLYLINE
  5
2D1
330
2C6
100
AcDbEntity
  8
TEXT25
100
AcDbPolyline
 90
        3
 70
     0
 43
0.0
 10
35.97331500896064
 20
6.576413418349517
 10
36.28329402847027
 20
6.233280786482978
 10
36.56006185210757
 20
6.598551176006488
  0
TEXT
  5
2D2
330
2C6
100
AcDbEntity
  8
TEXT25
100
AcDbText
 10
31.16484510745873
 20
4.564567807056448
 30
0.0
 40
2.0
  1
Havlickova 260
 41
0.8
  7
TEXT25
100
AcDbText
  0
TEXT
  5
2D3
330
2C6
100
AcDbEntity
  8
TEXT35
100
AcDbText
 10
30.60986516410871
 20
9.757637146467189
 30
0.0
 40
3.0
  1
ACO Stavebni prvky k.s
 41
0.8
  7
ITALICC8
100
AcDbText
  0
LWPOLYLINE
  5
2D5
330
2C6
100
AcDbEntity
  8
TEXT35
100
AcDbPolyline
 90
        3
 70
     1
 43
0.0
 10
2.794384523220813
 20
4.741568886939916
 42
-0.1369919174131033
 10
4.181964078490665
 20
2.491978749372925
 10
1.406804967950819
 20
2.491978749372925
 42
-0.136991917413112
  0
TEXT
  5
2D6
330
2C6
100
AcDbEntity
  8
TEXT25
100
AcDbText
 10
56.27541966991671
 20
4.462289744237651
 30
0.0
 40
2.1
  1
Tel.: 0451 / 491660
 41
0.7
  7
ROMANS8
100
AcDbText
  0
LWPOLYLINE
  5
2D7
330
2C6
100
AcDbEntity
  8
TEXT25
100
AcDbPolyline
 90
        3
 70
     0
 43
0.0
 10
39.25755894031892
 20
3.085395868142015
 10
39.56753795982848
 20
2.742263236275476
 10
39.84430578346579
 20
3.107533625798993
  0
ENDBLK
  5
2D9
330
2C6
100
AcDbEntity
  8
0
100
AcDbBlockEnd
  0
BLOCK
  5
31
330
12
100
AcDbEntity
  8
0
100
AcDbBlockBegin
  2
*X2
 70
     1
 10
0.0
 20
0.0
 30
0.0
  3
*X2
  1

  0
LINE
  5
13
330
12
100
AcDbEntity
  8
0
 62
     0
100
AcDbLine
 10
-508.9083038598724
 20
180.167254406418
 30
0.0
 11
-506.5320932591134
 21
182.543465007177
 31
0.0
  0
LINE
  5
16
330
12
100
AcDbEntity
  8
0
 62
     0
100
AcDbLine
 10
-508.7788943373211
 20
180.6502173195625
 30
0.0
 11
-506.6068078817941
 21
182.8223037750896
 31
0.0
  0
LINE
  5
17
330
12
100
AcDbEntity
  8
0
 62
     0
100
AcDbLine
 10
-508.6494848147699
 20
181.1331802327071
 30
0.0
 11
-506.6815225044748
 21
183.1011425430022
 31
0.0
  0
LINE
  5
18
330
12
100
AcDbEntity
  8
0
 62
     0
100
AcDbLine
 10
-508.5200752922187
 20
181.6161431458516
 30
0.0
 11
-506.7562371271555
 21
183.3799813109148
 31
0.0
  0
LINE
  5
19
330
12
100
AcDbEntity
  8
0
 62
     0
100
AcDbLine
 10
-508.3906657696673
 20
182.0991060589961
 30
0.0
 11
-506.8309517498361
 21
183.6588200788274
 31
0.0
  0
LINE
  5
1A
330
12
100
AcDbEntity
  8
0
 62
     0
100
AcDbLine
 10
-508.2612562471161
 20
182.5820689721407
 30
0.0
 11
-506.9056663725168
 21
183.93765884674
 31
0.0
  0
LINE
  5
1B
330
12
100
AcDbEntity
  8
0
 62
     0
100
AcDbLine
 10
-508.1318467245648
 20
183.0650318852852
 30
0.0
 11
-506.9803809951975
 21
184.2164976146526
 31
0.0
  0
LINE
  5
1C
330
12
100
AcDbEntity
  8
0
 62
     0
100
AcDbLine
 10
-508.0024372020136
 20
183.5479947984298
 30
0.0
 11
-507.0550956178782
 21
184.4953363825652
 31
0.0
  0
LINE
  5
1D
330
12
100
AcDbEntity
  8
0
 62
     0
100
AcDbLine
 10
-507.8730276794623
 20
184.0309577115743
 30
0.0
 11
-507.1298102405588
 21
184.7741751504778
 31
0.0
  0
LINE
  5
1E
330
12
100
AcDbEntity
  8
0
 62
     0
100
AcDbLine
 10
-507.7436181569111
 20
184.5139206247188
 30
0.0
 11
-507.2045248632395
 21
185.0530139183904
 31
0.0
  0
LINE
  5
1F
330
12
100
AcDbEntity
  8
0
 62
     0
100
AcDbLine
 10
-507.6142086343598
 20
184.9968835378633
 30
0.0
 11
-507.2792394859201
 21
185.331852686303
 31
0.0
  0
LINE
  5
20
330
12
100
AcDbEntity
  8
0
 62
     0
100
AcDbLine
 10
-507.4847991118085
 20
185.4798464510079
 30
0.0
 11
-507.3539541086009
 21
185.6106914542156
 31
0.0
  0
LINE
  5
21
330
12
100
AcDbEntity
  8
0
 62
     0
100
AcDbLine
 10
-509.0377133824237
 20
179.6842914932735
 30
0.0
 11
-506.4573786364328
 21
182.2646262392644
 31
0.0
  0
LINE
  5
22
330
12
100
AcDbEntity
  8
0
 62
     0
100
AcDbLine
 10
-509.1671229049749
 20
179.201328580129
 30
0.0
 11
-506.3826640137521
 21
181.9857874713518
 31
0.0
  0
LINE
  5
23
330
12
100
AcDbEntity
  8
0
 62
     0
100
AcDbLine
 10
-509.2965324275262
 20
178.7183656669844
 30
0.0
 11
-506.3079493910715
 21
181.7069487034391
 31
0.0
  0
LINE
  5
24
330
12
100
AcDbEntity
  8
0
 62
     0
100
AcDbLine
 10
-509.4259419500775
 20
178.2354027538399
 30
0.0
 11
-506.2332347683908
 21
181.4281099355266
 31
0.0
  0
LINE
  5
25
330
12
100
AcDbEntity
  8
0
 62
     0
100
AcDbLine
 10
-509.2457688710811
 20
178.062022442243
 30
0.0
 11
-506.1585201457101
 21
181.1492711676139
 31
0.0
  0
LINE
  5
26
330
12
100
AcDbEntity
  8
0
 62
     0
100
AcDbLine
 10
-508.8922154804878
 20
178.062022442243
 30
0.0
 11
-506.0838055230294
 21
180.8704323997013
 31
0.0
  0
LINE
  5
27
330
12
100
AcDbEntity
  8
0
 62
     0
100
AcDbLine
 10
-508.5386620898945
 20
178.062022442243
 30
0.0
 11
-506.0090909003488
 21
180.5915936317887
 31
0.0
  0
LINE
  5
28
330
12
100
AcDbEntity
  8
0
 62
     0
100
AcDbLine
 10
-508.1851086993013
 20
178.062022442243
 30
0.0
 11
-505.9343762776681
 21
180.3127548638761
 31
0.0
  0
LINE
  5
29
330
12
100
AcDbEntity
  8
0
 62
     0
100
AcDbLine
 10
-507.831555308708
 20
178.062022442243
 30
0.0
 11
-505.8596616549874
 21
180.0339160959635
 31
0.0
  0
LINE
  5
2A
330
12
100
AcDbEntity
  8
0
 62
     0
100
AcDbLine
 10
-507.4780019181146
 20
178.062022442243
 30
0.0
 11
-505.7849470323067
 21
179.7550773280509
 31
0.0
  0
LINE
  5
2B
330
12
100
AcDbEntity
  8
0
 62
     0
100
AcDbLine
 10
-507.1244485275214
 20
178.062022442243
 30
0.0
 11
-505.7102324096261
 21
179.4762385601383
 31
0.0
  0
LINE
  5
2C
330
12
100
AcDbEntity
  8
0
 62
     0
100
AcDbLine
 10
-506.7708951369281
 20
178.062022442243
 30
0.0
 11
-505.6355177869455
 21
179.1973997922257
 31
0.0
  0
LINE
  5
2D
330
12
100
AcDbEntity
  8
0
 62
     0
100
AcDbLine
 10
-506.4173417463349
 20
178.062022442243
 30
0.0
 11
-505.5608031642647
 21
178.9185610243131
 31
0.0
  0
LINE
  5
2E
330
12
100
AcDbEntity
  8
0
 62
     0
100
AcDbLine
 10
-506.0637883557417
 20
178.062022442243
 30
0.0
 11
-505.486088541584
 21
178.6397222564005
 31
0.0
  0
LINE
  5
2F
330
12
100
AcDbEntity
  8
0
 62
     0
100
AcDbLine
 10
-505.7102349651484
 20
178.062022442243
 30
0.0
 11
-505.4113739189034
 21
178.3608834884879
 31
0.0
  0
LINE
  5
30
330
12
100
AcDbEntity
  8
0
 62
     0
100
AcDbLine
 10
-505.3566815745551
 20
178.062022442243
 30
0.0
 11
-505.3366592962227
 21
178.0820447205753
 31
0.0
  0
ENDBLK
  5
32
330
12
100
AcDbEntity
  8
0
100
AcDbBlockEnd
  0
BLOCK
  5
58
330
3B
100
AcDbEntity
  8
0
100
AcDbBlockBegin
  2
*X3
 70
     1
 10
0.0
 20
0.0
 30
0.0
  3
*X3
  1

  0
LINE
  5
3C
330
3B
100
AcDbEntity
  8
0
 62
     0
100
AcDbLine
 10
-333.2405270171299
 20
180.4725495148969
 30
0.0
 11
-330.9933493117873
 21
182.7197272202395
 31
0.0
  0
LINE
  5
3D
330
3B
100
AcDbEntity
  8
0
 62
     0
100
AcDbLine
 10
-333.1111174945786
 20
180.9555124280414
 30
0.0
 11
-331.0680639344679
 21
182.998565988152
 31
0.0
  0
LINE
  5
3E
330
3B
100
AcDbEntity
  8
0
 62
     0
100
AcDbLine
 10
-332.9817079720274
 20
181.4384753411859
 30
0.0
 11
-331.1427785571486
 21
183.2774047560647
 31
0.0
  0
LINE
  5
3F
330
3B
100
AcDbEntity
  8
0
 62
     0
100
AcDbLine
 10
-332.8522984494761
 20
181.9214382543304
 30
0.0
 11
-331.2174931798293
 21
183.5562435239772
 31
0.0
  0
LINE
  5
40
330
3B
100
AcDbEntity
  8
0
 62
     0
100
AcDbLine
 10
-332.7228889269248
 20
182.404401167475
 30
0.0
 11
-331.29220780251
 21
183.8350822918899
 31
0.0
  0
LINE
  5
41
330
3B
100
AcDbEntity
  8
0
 62
     0
100
AcDbLine
 10
-332.5934794043736
 20
182.8873640806195
 30
0.0
 11
-331.3669224251906
 21
184.1139210598025
 31
0.0
  0
LINE
  5
42
330
3B
100
AcDbEntity
  8
0
 62
     0
100
AcDbLine
 10
-332.4640698818224
 20
183.370326993764
 30
0.0
 11
-331.4416370478713
 21
184.3927598277151
 31
0.0
  0
LINE
  5
43
330
3B
100
AcDbEntity
  8
0
 62
     0
100
AcDbLine
 10
-332.3346603592711
 20
183.8532899069086
 30
0.0
 11
-331.516351670552
 21
184.6715985956277
 31
0.0
  0
LINE
  5
44
330
3B
100
AcDbEntity
  8
0
 62
     0
100
AcDbLine
 10
-332.2052508367199
 20
184.3362528200531
 30
0.0
 11
-331.5910662932326
 21
184.9504373635403
 31
0.0
  0
LINE
  5
45
330
3B
100
AcDbEntity
  8
0
 62
     0
100
AcDbLine
 10
-332.0758413141686
 20
184.8192157331976
 30
0.0
 11
-331.6657809159133
 21
185.2292761314529
 31
0.0
  0
LINE
  5
46
330
3B
100
AcDbEntity
  8
0
 62
     0
100
AcDbLine
 10
-331.9464317916173
 20
185.3021786463422
 30
0.0
 11
-331.740495538594
 21
185.5081148993655
 31
0.0
  0
LINE
  5
47
330
3B
100
AcDbEntity
  8
0
 62
     0
100
AcDbLine
 10
-331.8170222690661
 20
185.7851415594867
 30
0.0
 11
-331.8152101612747
 21
185.7869536672781
 31
0.0
  0
LINE
  5
48
330
3B
100
AcDbEntity
  8
0
 62
     0
100
AcDbLine
 10
-333.3699365396811
 20
179.9895866017523
 30
0.0
 11
-330.9186346891066
 21
182.4408884523269
 31
0.0
  0
LINE
  5
49
330
3B
100
AcDbEntity
  8
0
 62
     0
100
AcDbLine
 10
-333.4993460622324
 20
179.5066236886078
 30
0.0
 11
-330.8439200664259
 21
182.1620496844143
 31
0.0
  0
LINE
  5
4A
330
3B
100
AcDbEntity
  8
0
 62
     0
100
AcDbLine
 10
-333.6287555847836
 20
179.0236607754633
 30
0.0
 11
-330.7692054437453
 21
181.8832109165017
 31
0.0
  0
LINE
  5
4B
330
3B
100
AcDbEntity
  8
0
 62
     0
100
AcDbLine
 10
-333.7581651073349
 20
178.5406978623188
 30
0.0
 11
-330.6944908210646
 21
181.6043721485891
 31
0.0
  0
LINE
  5
4C
330
3B
100
AcDbEntity
  8
0
 62
     0
100
AcDbLine
 10
-333.8832871368174
 20
178.062022442243
 30
0.0
 11
-330.6197761983839
 21
181.3255333806765
 31
0.0
  0
LINE
  5
4D
330
3B
100
AcDbEntity
  8
0
 62
     0
100
AcDbLine
 10
-333.5297337462241
 20
178.062022442243
 30
0.0
 11
-330.5450615757032
 21
181.0466946127639
 31
0.0
  0
LINE
  5
4E
330
3B
100
AcDbEntity
  8
0
 62
     0
100
AcDbLine
 10
-333.1761803556308
 20
178.062022442243
 30
0.0
 11
-330.4703469530226
 21
180.7678558448513
 31
0.0
  0
LINE
  5
4F
330
3B
100
AcDbEntity
  8
0
 62
     0
100
AcDbLine
 10
-332.8226269650376
 20
178.062022442243
 30
0.0
 11
-330.3956323303419
 21
180.4890170769387
 31
0.0
  0
LINE
  5
50
330
3B
100
AcDbEntity
  8
0
 62
     0
100
AcDbLine
 10
-332.4690735744443
 20
178.062022442243
 30
0.0
 11
-330.3209177076612
 21
180.2101783090261
 31
0.0
  0
LINE
  5
51
330
3B
100
AcDbEntity
  8
0
 62
     0
100
AcDbLine
 10
-332.115520183851
 20
178.062022442243
 30
0.0
 11
-330.2462030849806
 21
179.9313395411135
 31
0.0
  0
LINE
  5
52
330
3B
100
AcDbEntity
  8
0
 62
     0
100
AcDbLine
 10
-331.7619667932577
 20
178.062022442243
 30
0.0
 11
-330.1714884622999
 21
179.6525007732009
 31
0.0
  0
LINE
  5
53
330
3B
100
AcDbEntity
  8
0
 62
     0
100
AcDbLine
 10
-331.4084134026645
 20
178.062022442243
 30
0.0
 11
-330.0967738396192
 21
179.3736620052882
 31
0.0
  0
LINE
  5
54
330
3B
100
AcDbEntity
  8
0
 62
     0
100
AcDbLine
 10
-331.0548600120712
 20
178.062022442243
 30
0.0
 11
-330.0220592169385
 21
179.0948232373757
 31
0.0
  0
LINE
  5
55
330
3B
100
AcDbEntity
  8
0
 62
     0
100
AcDbLine
 10
-330.7013066214779
 20
178.062022442243
 30
0.0
 11
-329.9473445942579
 21
178.8159844694631
 31
0.0
  0
LINE
  5
56
330
3B
100
AcDbEntity
  8
0
 62
     0
100
AcDbLine
 10
-330.3477532308846
 20
178.062022442243
 30
0.0
 11
-329.8726299715772
 21
178.5371457015505
 31
0.0
  0
LINE
  5
57
330
3B
100
AcDbEntity
  8
0
 62
     0
100
AcDbLine
 10
-329.9941998402914
 20
178.062022442243
 30
0.0
 11
-329.7979153488965
 21
178.2583069336379
 31
0.0
  0
ENDBLK
  5
59
330
3B
100
AcDbEntity
  8
0
100
AcDbBlockEnd
  0
BLOCK
  5
7C
330
71
100
AcDbEntity
  8
0
100
AcDbBlockBegin
  2
*D4
 70
     1
 10
0.0
 20
0.0
 30
0.0
  3
*D4
  1

  0
LINE
  5
72
330
71
100
AcDbEntity
  8
BEMASS
440
 16777216
370
    -2
100
AcDbLine
 10
378.7548443224594
 20
288.1301652289785
 30
0.0
 11
397.1249980296445
 21
288.1301652289785
 31
0.0
  0
LINE
  5
73
330
71
100
AcDbEntity
  8
BEMASS
440
 16777216
370
    -2
100
AcDbLine
 10
383.7548443224593
 20
338.1301652289784
 30
0.0
 11
397.1249980296445
 21
338.1301652289784
 31
0.0
  0
LINE
  5
74
330
71
100
AcDbEntity
  8
BEMASS
440
 16777216
370
    -2
100
AcDbLine
 10
395.3249980296445
 20
291.6301652289785
 30
0.0
 11
395.3249980296445
 21
334.6301652289783
 31
0.0
  0
SOLID
  5
75
330
71
100
AcDbEntity
  8
BEMASS
440
 16777216
100
AcDbTrace
 10
394.7416646963112
 20
291.6301652289785
 30
0.0
 11
395.9083313629778
 21
291.6301652289785
 31
0.0
 12
395.3249980296445
 22
288.1301652289785
 32
0.0
 13
395.3249980296445
 23
288.1301652289785
 33
0.0
  0
SOLID
  5
76
330
71
100
AcDbEntity
  8
BEMASS
440
 16777216
100
AcDbTrace
 10
394.7416646963112
 20
334.6301652289783
 30
0.0
 11
395.9083313629778
 21
334.6301652289783
 31
0.0
 12
395.3249980296445
 22
338.1301652289784
 32
0.0
 13
395.3249980296445
 23
338.1301652289784
 33
0.0
  0
MTEXT
  5
77
330
71
100
AcDbEntity
  8
BEMASS
440
 16777216
100
AcDbMText
 10
391.8249980296444
 20
313.1301652289785
 30
0.0
 40
4.0
 41
0.0
 46
0.0
 71
     5
 72
     1
  1
\A1;50
 11
0.0000000000000001
 21
1.0
 31
0.0
 73
     1
 44
1.0
  0
POINT
  5
78
330
71
100
AcDbEntity
  8
DEFPOINTS
 62
     0
440
 16777216
100
AcDbPoint
 10
378.7548443224594
 20
288.1301652289785
 30
0.0
  0
POINT
  5
7A
330
71
100
AcDbEntity
  8
DEFPOINTS
 62
     0
440
 16777216
100
AcDbPoint
 10
383.7548443224593
 20
338.1301652289784
 30
0.0
  0
POINT
  5
7B
330
71
100
AcDbEntity
  8
DEFPOINTS
 62
     0
440
 16777216
100
AcDbPoint
 10
395.3249980296445
 20
338.1301652289784
 30
0.0
  0
ENDBLK
  5
7D
330
71
100
AcDbEntity
  8
0
100
AcDbBlockEnd
  0
BLOCK
  5
AA
330
A0
100
AcDbEntity
  8
0
100
AcDbBlockBegin
  2
*D5
 70
     1
 10
0.0
 20
0.0
 30
0.0
  3
*D5
  1

  0
LINE
  5
A1
330
A0
100
AcDbEntity
  8
BEMASS
440
 16777216
370
    -2
100
AcDbLine
 10
387.2374088979745
 20
354.1301652289785
 30
0.0
 11
397.1650699649109
 21
354.1301652289785
 31
0.0
  0
LINE
  5
A2
330
A0
100
AcDbEntity
  8
BEMASS
440
 16777216
370
    -2
100
AcDbLine
 10
390.4399211760519
 20
338.1301652289784
 30
0.0
 11
397.1650699649109
 21
338.1301652289784
 31
0.0
  0
LINE
  5
A3
330
A0
100
AcDbEntity
  8
BEMASS
440
 16777216
370
    -2
100
AcDbLine
 10
395.3650699649108
 20
350.6301652289785
 30
0.0
 11
395.3650699649108
 21
341.6301652289784
 31
0.0
  0
SOLID
  5
A4
330
A0
100
AcDbEntity
  8
BEMASS
440
 16777216
100
AcDbTrace
 10
394.7817366315775
 20
350.6301652289785
 30
0.0
 11
395.9484032982442
 21
350.6301652289785
 31
0.0
 12
395.3650699649108
 22
354.1301652289785
 32
0.0
 13
395.3650699649108
 23
354.1301652289785
 33
0.0
  0
SOLID
  5
A5
330
A0
100
AcDbEntity
  8
BEMASS
440
 16777216
100
AcDbTrace
 10
394.7817366315775
 20
341.6301652289784
 30
0.0
 11
395.9484032982442
 21
341.6301652289784
 31
0.0
 12
395.3650699649108
 22
338.1301652289784
 32
0.0
 13
395.3650699649108
 23
338.1301652289784
 33
0.0
  0
MTEXT
  5
A6
330
A0
100
AcDbEntity
  8
BEMASS
440
 16777216
100
AcDbMText
 10
391.8650699649108
 20
346.1301652289786
 30
0.0
 40
4.0
 41
0.0
 46
0.0
 71
     5
 72
     1
  1
\A1;16
 11
0.0000000000000001
 21
1.0
 31
0.0
 73
     1
 44
1.0
  0
POINT
  5
A7
330
A0
100
AcDbEntity
  8
DEFPOINTS
 62
     0
440
 16777216
100
AcDbPoint
 10
387.2374088979745
 20
354.1301652289785
 30
0.0
  0
POINT
  5
A8
330
A0
100
AcDbEntity
  8
DEFPOINTS
 62
     0
440
 16777216
100
AcDbPoint
 10
390.4399211760519
 20
338.1301652289784
 30
0.0
  0
POINT
  5
A9
330
A0
100
AcDbEntity
  8
DEFPOINTS
 62
     0
440
 16777216
100
AcDbPoint
 10
395.3650699649108
 20
338.1301652289784
 30
0.0
  0
ENDBLK
  5
AB
330
A0
100
AcDbEntity
  8
0
100
AcDbBlockEnd
  0
BLOCK
  5
205
330
1BC
100
AcDbEntity
  8
0
100
AcDbBlockBegin
  2
RA_A2_pr
 70
     0
 10
0.0
 20
0.0
 30
0.0
  3
RA_A2_pr
  1

  0
LWPOLYLINE
  5
1BD
330
1BC
100
AcDbEntity
  8
KOPF
 62
    22
100
AcDbPolyline
 90
        4
 70
     1
 43
0.7
 10
588.0
 20
414.0
 10
588.0
 20
6.0
 10
21.0
 20
6.0
 10
21.0
 20
414.0
  0
LINE
  5
1BF
330
1BC
100
AcDbEntity
  8
KOPF
 62
    22
100
AcDbLine
 10
0.0
 20
420.0
 30
0.0
 11
594.0
 21
420.0
 31
0.0
  0
LINE
  5
1C0
330
1BC
100
AcDbEntity
  8
KOPF
 62
    22
100
AcDbLine
 10
594.0
 20
0.0
 30
0.0
 11
0.0
 21
0.0
 31
0.0
  0
LINE
  5
1C1
330
1BC
100
AcDbEntity
  8
KOPF
 62
    22
100
AcDbLine
 10
0.0
 20
0.0
 30
0.0
 11
0.0
 21
420.0
 31
0.0
  0
TEXT
  5
1C2
330
1BC
100
AcDbEntity
  8
KOPF
 62
    22
100
AcDbText
 10
16.12763230177199
 20
41.42224686135696
 30
0.0
 40
2.5
  1
A
 41
0.8
  7
TEXT25
100
AcDbText
  0
LINE
  5
1C4
330
1BC
100
AcDbEntity
  8
KOPF
 62
    22
100
AcDbLine
 10
21.0
 20
79.00000000000002
 30
0.0
 11
18.0
 21
79.00000000000002
 31
0.0
  0
TEXT
  5
1C5
330
1BC
100
AcDbEntity
  8
KOPF
 62
    22
100
AcDbText
 10
16.12763230177199
 20
114.422246861357
 30
0.0
 40
2.5
  1
B
 41
0.8
  7
TEXT25
100
AcDbText
  0
TEXT
  5
1C6
330
1BC
100
AcDbEntity
  8
KOPF
 62
    22
100
AcDbText
 10
56.29677316682592
 20
1.370968748636755
 30
0.0
 40
2.5
  1
1
 41
0.8
  7
TEXT25
100
AcDbText
  0
LINE
  5
1C7
330
1BC
100
AcDbEntity
  8
KOPF
 62
    22
100
AcDbLine
 10
93.0
 20
6.0
 30
0.0
 11
93.0
 21
3.0
 31
0.0
  0
TEXT
  5
1C8
330
1BC
100
AcDbEntity
  8
KOPF
 62
    22
100
AcDbText
 10
128.2967731668259
 20
1.370968748636755
 30
0.0
 40
2.5
  1
2
 41
0.8
  7
TEXT25
100
AcDbText
  0
LINE
  5
1C9
330
1BC
100
AcDbEntity
  8
KOPF
 62
    22
100
AcDbLine
 10
165.0
 20
6.0
 30
0.0
 11
165.0
 21
3.0
 31
0.0
  0
TEXT
  5
1CA
330
1BC
100
AcDbEntity
  8
KOPF
 62
    22
100
AcDbText
 10
200.2967731668259
 20
1.370968748636755
 30
0.0
 40
2.5
  1
3
 41
0.8
  7
TEXT25
100
AcDbText
  0
LINE
  5
1CB
330
1BC
100
AcDbEntity
  8
KOPF
 62
    22
100
AcDbLine
 10
210.0
 20
0.0
 30
0.0
 11
210.0
 21
6.0
 31
0.0
  0
LINE
  5
1CC
330
1BC
100
AcDbEntity
  8
KOPF
 62
    22
100
AcDbLine
 10
0.0
 20
148.5
 30
0.0
 11
10.54770188609711
 21
148.5
 31
0.0
  0
LINE
  5
1CD
330
1BC
100
AcDbEntity
  8
KOPF
 62
    22
100
AcDbLine
 10
21.0
 20
152.0
 30
0.0
 11
18.0
 21
152.0
 31
0.0
  0
TEXT
  5
1CE
330
1BC
100
AcDbEntity
  8
KOPF
 62
    22
100
AcDbText
 10
16.12763230177199
 20
187.4222468613569
 30
0.0
 40
2.5
  1
C
 41
0.8
  7
TEXT25
100
AcDbText
  0
LINE
  5
1CF
330
1BC
100
AcDbEntity
  8
KOPF
 62
    22
100
AcDbLine
 10
21.0
 20
225.0
 30
0.0
 11
18.0
 21
225.0
 31
0.0
  0
TEXT
  5
1D0
330
1BC
100
AcDbEntity
  8
KOPF
 62
    22
100
AcDbText
 10
16.12763230177199
 20
260.422246861357
 30
0.0
 40
2.5
  1
D
 41
0.8
  7
TEXT25
100
AcDbText
  0
LINE
  5
1D1
330
1BC
100
AcDbEntity
  8
KOPF
 62
    22
100
AcDbLine
 10
12.33785021057986
 20
296.9999999999999
 30
0.0
 11
21.0
 21
296.9999999999999
 31
0.0
  0
LINE
  5
1D2
330
1BC
100
AcDbEntity
  8
KOPF
 62
    22
100
AcDbLine
 10
21.0
 20
298.0
 30
0.0
 11
18.0
 21
298.0
 31
0.0
  0
TEXT
  5
1D3
330
1BC
100
AcDbEntity
  8
KOPF
 62
    22
100
AcDbText
 10
16.12763230177199
 20
333.422246861357
 30
0.0
 40
2.5
  1
E
 41
0.8
  7
TEXT25
100
AcDbText
  0
LINE
  5
1D4
330
1BC
100
AcDbEntity
  8
KOPF
 62
    22
100
AcDbLine
 10
21.0
 20
371.0
 30
0.0
 11
18.0
 21
371.0
 31
0.0
  0
TEXT
  5
1D5
330
1BC
100
AcDbEntity
  8
KOPF
 62
    22
100
AcDbText
 10
16.12763230177199
 20
393.4920404627393
 30
0.0
 40
2.5
  1
F
 41
0.8
  7
TEXT25
100
AcDbText
  0
TEXT
  5
1D6
330
1BC
100
AcDbEntity
  8
KOPF
 62
    22
100
AcDbText
 10
56.29677316682592
 20
415.6290312513632
 30
0.0
 40
2.5
  1
1
 41
0.8
  7
TEXT25
100
AcDbText
  0
LINE
  5
1D7
330
1BC
100
AcDbEntity
  8
KOPF
 62
    22
100
AcDbLine
 10
93.0
 20
414.0
 30
0.0
 11
93.0
 21
417.0
 31
0.0
  0
TEXT
  5
1D8
330
1BC
100
AcDbEntity
  8
KOPF
 62
    22
100
AcDbText
 10
128.2967731668259
 20
415.6290312513632
 30
0.0
 40
2.5
  1
2
 41
0.8
  7
TEXT25
100
AcDbText
  0
LINE
  5
1D9
330
1BC
100
AcDbEntity
  8
KOPF
 62
    22
100
AcDbLine
 10
165.0
 20
414.0
 30
0.0
 11
165.0
 21
417.0
 31
0.0
  0
TEXT
  5
1DA
330
1BC
100
AcDbEntity
  8
KOPF
 62
    22
100
AcDbText
 10
200.2967731668259
 20
415.6290312513632
 30
0.0
 40
2.5
  1
3
 41
0.8
  7
TEXT25
100
AcDbText
  0
LINE
  5
1DB
330
1BC
100
AcDbEntity
  8
KOPF
 62
    22
100
AcDbLine
 10
594.0
 20
420.0
 30
0.0
 11
594.0
 21
0.0
 31
0.0
  0
LINE
  5
1DC
330
1BC
100
AcDbEntity
  8
KOPF
 62
    22
100
AcDbLine
 10
237.0
 20
6.0
 30
0.0
 11
237.0
 21
3.0
 31
0.0
  0
TEXT
  5
1DD
330
1BC
100
AcDbEntity
  8
KOPF
 62
    22
100
AcDbText
 10
272.2967731668259
 20
1.370968748636755
 30
0.0
 40
2.5
  1
4
 41
0.8
  7
TEXT25
100
AcDbText
  0
LINE
  5
1DE
330
1BC
100
AcDbEntity
  8
KOPF
 62
    22
100
AcDbLine
 10
309.0
 20
6.0
 30
0.0
 11
309.0
 21
3.0
 31
0.0
  0
TEXT
  5
1DF
330
1BC
100
AcDbEntity
  8
KOPF
 62
    22
100
AcDbText
 10
345.2967731668259
 20
1.370968748636755
 30
0.0
 40
2.5
  1
5
 41
0.8
  7
TEXT25
100
AcDbText
  0
LINE
  5
1E0
330
1BC
100
AcDbEntity
  8
KOPF
 62
    22
100
AcDbLine
 10
381.0
 20
6.0
 30
0.0
 11
381.0
 21
3.0
 31
0.0
  0
LINE
  5
1E1
330
1BC
100
AcDbEntity
  8
KOPF
 62
    22
100
AcDbLine
 10
398.0
 20
6.0
 30
0.0
 11
398.0
 21
0.0
 31
0.0
  0
TEXT
  5
1E2
330
1BC
100
AcDbEntity
  8
KOPF
 62
    22
100
AcDbText
 10
416.2967731668259
 20
1.370968748636755
 30
0.0
 40
2.5
  1
6
 41
0.8
  7
TEXT25
100
AcDbText
  0
LINE
  5
1E3
330
1BC
100
AcDbEntity
  8
KOPF
 62
    22
100
AcDbLine
 10
525.0699601119618
 20
6.0
 30
0.0
 11
525.0699601119618
 21
3.0
 31
0.0
  0
TEXT
  5
1E4
330
1BC
100
AcDbEntity
  8
KOPF
 62
    22
100
AcDbText
 10
580.8263465050426
 20
1.370968748636755
 30
0.0
 40
3.0
  1
A2
 41
0.8
  7
BEMSTIL
100
AcDbText
  0
TEXT
  5
1E6
330
1BC
100
AcDbEntity
  8
KOPF
 62
    22
100
AcDbText
 10
589.5361572162235
 20
41.42224686135693
 30
0.0
 40
2.5
  1
A
 41
0.8
  7
TEXT25
100
AcDbText
  0
LINE
  5
1E7
330
1BC
100
AcDbEntity
  8
KOPF
 62
    22
100
AcDbLine
 10
588.0
 20
79.00000000000002
 30
0.0
 11
591.0
 21
79.00000000000002
 31
0.0
  0
TEXT
  5
1E8
330
1BC
100
AcDbEntity
  8
KOPF
 62
    22
100
AcDbText
 10
589.8161572162234
 20
114.422246861357
 30
0.0
 40
2.5
  1
B
 41
0.8
  7
TEXT25
100
AcDbText
  0
LINE
  5
1E9
330
1BC
100
AcDbEntity
  8
KOPF
 62
    22
100
AcDbLine
 10
237.0
 20
414.0
 30
0.0
 11
237.0
 21
417.0
 31
0.0
  0
TEXT
  5
1EA
330
1BC
100
AcDbEntity
  8
KOPF
 62
    22
100
AcDbText
 10
272.2967731668259
 20
415.6290312513632
 30
0.0
 40
3.0
  1
4
 41
0.8
  7
BEMSTIL
100
AcDbText
  0
LINE
  5
1EB
330
1BC
100
AcDbEntity
  8
KOPF
 62
    22
100
AcDbLine
 10
309.0
 20
414.0
 30
0.0
 11
309.0
 21
417.0
 31
0.0
  0
TEXT
  5
1EC
330
1BC
100
AcDbEntity
  8
KOPF
 62
    22
100
AcDbText
 10
345.2967731668259
 20
415.6290312513632
 30
0.0
 40
2.5
  1
5
 41
0.8
  7
TEXT25
100
AcDbText
  0
LINE
  5
1ED
330
1BC
100
AcDbEntity
  8
KOPF
 62
    22
100
AcDbLine
 10
381.0
 20
414.0
 30
0.0
 11
381.0
 21
417.0
 31
0.0
  0
LINE
  5
1EE
330
1BC
100
AcDbEntity
  8
KOPF
 62
    22
100
AcDbLine
 10
588.0
 20
152.0
 30
0.0
 11
591.0
 21
152.0
 31
0.0
  0
TEXT
  5
1EF
330
1BC
100
AcDbEntity
  8
KOPF
 62
    22
100
AcDbText
 10
589.9421173281852
 20
187.4222468613569
 30
0.0
 40
2.5
  1
C
 41
0.8
  7
TEXT25
100
AcDbText
  0
TEXT
  5
1F0
330
1BC
100
AcDbEntity
  8
KOPF
 62
    22
100
AcDbText
 10
589.9421173281852
 20
187.4222468613569
 30
0.0
 40
2.5
  1
C
 41
0.8
  7
TEXT25
100
AcDbText
  0
TEXT
  5
1F1
330
1BC
100
AcDbEntity
  8
KOPF
 62
    22
100
AcDbText
 10
589.8721572162234
 20
187.4222468613569
 30
0.0
 40
2.5
  1
C
 41
0.8
  7
TEXT25
100
AcDbText
  0
LINE
  5
1F2
330
1BC
100
AcDbEntity
  8
KOPF
 62
    22
100
AcDbLine
 10
588.0699601119617
 20
225.0
 30
0.0
 11
591.0699601119618
 21
225.0
 31
0.0
  0
LINE
  5
1F3
330
1BC
100
AcDbEntity
  8
KOPF
 62
    22
100
AcDbLine
 10
588.0699601119617
 20
225.0
 30
0.0
 11
591.0699601119618
 21
225.0
 31
0.0
  0
LINE
  5
1F4
330
1BC
100
AcDbEntity
  8
KOPF
 62
    22
100
AcDbLine
 10
588.0
 20
225.0
 30
0.0
 11
591.0
 21
225.0
 31
0.0
  0
TEXT
  5
1F5
330
1BC
100
AcDbEntity
  8
KOPF
 62
    22
100
AcDbText
 10
589.8861173281852
 20
260.422246861357
 30
0.0
 40
2.5
  1
D
 41
0.8
  7
TEXT25
100
AcDbText
  0
TEXT
  5
1F6
330
1BC
100
AcDbEntity
  8
KOPF
 62
    22
100
AcDbText
 10
589.8861173281852
 20
260.422246861357
 30
0.0
 40
2.5
  1
D
 41
0.8
  7
TEXT25
100
AcDbText
  0
TEXT
  5
1F7
330
1BC
100
AcDbEntity
  8
KOPF
 62
    22
100
AcDbText
 10
589.8161572162234
 20
260.422246861357
 30
0.0
 40
2.5
  1
D
 41
0.8
  7
TEXT25
100
AcDbText
  0
TEXT
  5
1F8
330
1BC
100
AcDbEntity
  8
KOPF
 62
    22
100
AcDbText
 10
416.2967731668259
 20
415.6290312513632
 30
0.0
 40
2.5
  1
6
 41
0.8
  7
TEXT25
100
AcDbText
  0
LINE
  5
1F9
330
1BC
100
AcDbEntity
  8
KOPF
 62
    22
100
AcDbLine
 10
453.0
 20
414.0
 30
0.0
 11
453.0
 21
417.0
 31
0.0
  0
TEXT
  5
1FA
330
1BC
100
AcDbEntity
  8
KOPF
 62
    22
100
AcDbText
 10
488.2967731668259
 20
415.6290312513632
 30
0.0
 40
2.5
  1
7
 41
0.8
  7
TEXT25
100
AcDbText
  0
LINE
  5
1FB
330
1BC
100
AcDbEntity
  8
KOPF
 62
    22
100
AcDbLine
 10
588.0699601119617
 20
298.0
 30
0.0
 11
591.0699601119618
 21
298.0
 31
0.0
  0
LINE
  5
1FC
330
1BC
100
AcDbEntity
  8
KOPF
 62
    22
100
AcDbLine
 10
588.0699601119617
 20
298.0
 30
0.0
 11
591.0699601119618
 21
298.0
 31
0.0
  0
LINE
  5
1FD
330
1BC
100
AcDbEntity
  8
KOPF
 62
    22
100
AcDbLine
 10
588.0
 20
298.0
 30
0.0
 11
591.0
 21
298.0
 31
0.0
  0
TEXT
  5
1FE
330
1BC
100
AcDbEntity
  8
KOPF
 62
    22
100
AcDbText
 10
589.8861173281852
 20
333.422246861357
 30
0.0
 40
2.5
  1
E
 41
0.8
  7
TEXT25
100
AcDbText
  0
TEXT
  5
1FF
330
1BC
100
AcDbEntity
  8
KOPF
 62
    22
100
AcDbText
 10
589.8861173281852
 20
333.422246861357
 30
0.0
 40
2.5
  1
E
 41
0.8
  7
TEXT25
100
AcDbText
  0
TEXT
  5
200
330
1BC
100
AcDbEntity
  8
KOPF
 62
    22
100
AcDbText
 10
589.8161572162234
 20
333.422246861357
 30
0.0
 40
2.5
  1
E
 41
0.8
  7
TEXT25
100
AcDbText
  0
LINE
  5
201
330
1BC
100
AcDbEntity
  8
KOPF
 62
    22
100
AcDbLine
 10
525.0
 20
414.0
 30
0.0
 11
525.0
 21
417.0
 31
0.0
  0
LINE
  5
202
330
1BC
100
AcDbEntity
  8
KOPF
 62
    22
100
AcDbLine
 10
588.0
 20
371.0
 30
0.0
 11
591.0
 21
371.0
 31
0.0
  0
TEXT
  5
203
330
1BC
100
AcDbEntity
  8
KOPF
 62
    22
100
AcDbText
 10
560.2967731668258
 20
415.6290312513632
 30
0.0
 40
2.5
  1
8
 41
0.8
  7
TEXT25
100
AcDbText
  0
TEXT
  5
204
330
1BC
100
AcDbEntity
  8
KOPF
 62
    22
100
AcDbText
 10
589.8161572162234
 20
393.4920404627393
 30
0.0
 40
2.5
  1
F
 41
0.8
  7
TEXT25
100
AcDbText
  0
ENDBLK
  5
206
330
1BC
100
AcDbEntity
  8
0
100
AcDbBlockEnd
  0
BLOCK
  5
BF
330
B5
100
AcDbEntity
  8
0
100
AcDbBlockBegin
  2
*D7
 70
     1
 10
0.0
 20
0.0
 30
0.0
  3
*D7
  1

  0
LINE
  5
B6
330
B5
100
AcDbEntity
  8
BEMASS
440
 16777216
370
    -2
100
AcDbLine
 10
81.79964233159626
 20
31.06273762480089
 30
0.0
 11
81.79964233159626
 21
14.00677123796545
 31
0.0
  0
LINE
  5
B7
330
B5
100
AcDbEntity
  8
BEMASS
440
 16777216
370
    -2
100
AcDbLine
 10
231.7996423315963
 20
31.06273762480089
 30
0.0
 11
231.7996423315963
 21
14.00677123796545
 31
0.0
  0
LINE
  5
B8
330
B5
100
AcDbEntity
  8
BEMASS
440
 16777216
370
    -2
100
AcDbLine
 10
85.29964233159626
 20
15.80677123796545
 30
0.0
 11
228.2996423315962
 21
15.80677123796545
 31
0.0
  0
SOLID
  5
B9
330
B5
100
AcDbEntity
  8
BEMASS
440
 16777216
100
AcDbTrace
 10
85.29964233159626
 20
16.39010457129878
 30
0.0
 11
85.29964233159626
 21
15.22343790463211
 31
0.0
 12
81.79964233159626
 22
15.80677123796545
 32
0.0
 13
81.79964233159626
 23
15.80677123796545
 33
0.0
  0
SOLID
  5
BA
330
B5
100
AcDbEntity
  8
BEMASS
440
 16777216
100
AcDbTrace
 10
228.2996423315962
 20
16.39010457129878
 30
0.0
 11
228.2996423315962
 21
15.22343790463211
 31
0.0
 12
231.7996423315963
 22
15.80677123796545
 32
0.0
 13
231.7996423315963
 23
15.80677123796545
 33
0.0
  0
MTEXT
  5
BB
330
B5
100
AcDbEntity
  8
BEMASS
440
 16777216
100
AcDbMText
 10
156.7996423315962
 20
19.30677123796545
 30
0.0
 40
4.0
 41
0.0
 46
0.0
 71
     5
 72
     1
  1
\A1;150
 73
     1
 44
1.0
  0
POINT
  5
BC
330
B5
100
AcDbEntity
  8
DEFPOINTS
 62
     0
440
 16777216
100
AcDbPoint
 10
81.79964233159626
 20
31.06273762480089
 30
0.0
  0
POINT
  5
BD
330
B5
100
AcDbEntity
  8
DEFPOINTS
 62
     0
440
 16777216
100
AcDbPoint
 10
231.7996423315963
 20
31.06273762480089
 30
0.0
  0
POINT
  5
BE
330
B5
100
AcDbEntity
  8
DEFPOINTS
 62
     0
440
 16777216
100
AcDbPoint
 10
231.7996423315963
 20
15.80677123796545
 30
0.0
  0
ENDBLK
  5
C0
330
B5
100
AcDbEntity
  8
0
100
AcDbBlockEnd
  0
BLOCK
  5
100
330
F6
100
AcDbEntity
  8
0
100
AcDbBlockBegin
  2
*D8
 70
     1
 10
0.0
 20
0.0
 30
0.0
  3
*D8
  1

  0
LINE
  5
F7
330
F6
100
AcDbEntity
  8
BEMASS
440
 16777216
370
    -2
100
AcDbLine
 10
93.21702831720722
 20
271.1301652289785
 30
0.0
 11
70.53097472591635
 21
271.1301652289785
 31
0.0
  0
LINE
  5
F8
330
F6
100
AcDbEntity
  8
BEMASS
440
 16777216
370
    -2
100
AcDbLine
 10
132.7996423315962
 20
231.1301652289785
 30
0.0
 11
70.53097472591635
 21
231.1301652289785
 31
0.0
  0
LINE
  5
F9
330
F6
100
AcDbEntity
  8
BEMASS
440
 16777216
370
    -2
100
AcDbLine
 10
72.33097472591635
 20
267.6301652289784
 30
0.0
 11
72.33097472591635
 21
234.6301652289785
 31
0.0
  0
SOLID
  5
FA
330
F6
100
AcDbEntity
  8
BEMASS
440
 16777216
100
AcDbTrace
 10
71.74764139258302
 20
267.6301652289784
 30
0.0
 11
72.91430805924967
 21
267.6301652289784
 31
0.0
 12
72.33097472591635
 22
271.1301652289785
 32
0.0
 13
72.33097472591635
 23
271.1301652289785
 33
0.0
  0
SOLID
  5
FB
330
F6
100
AcDbEntity
  8
BEMASS
440
 16777216
100
AcDbTrace
 10
71.74764139258302
 20
234.6301652289785
 30
0.0
 11
72.91430805924967
 21
234.6301652289785
 31
0.0
 12
72.33097472591635
 22
231.1301652289785
 32
0.0
 13
72.33097472591635
 23
231.1301652289785
 33
0.0
  0
MTEXT
  5
FC
330
F6
100
AcDbEntity
  8
BEMASS
440
 16777216
100
AcDbMText
 10
68.8309747259163
 20
251.1301652289785
 30
0.0
 40
4.0
 41
0.0
 46
0.0
 71
     5
 72
     1
  1
\A1;40
 11
0.0000000000000001
 21
1.0
 31
0.0
 73
     1
 44
1.0
  0
POINT
  5
FD
330
F6
100
AcDbEntity
  8
DEFPOINTS
 62
     0
440
 16777216
100
AcDbPoint
 10
93.21702831720722
 20
271.1301652289785
 30
0.0
  0
POINT
  5
FE
330
F6
100
AcDbEntity
  8
DEFPOINTS
 62
     0
440
 16777216
100
AcDbPoint
 10
132.7996423315962
 20
231.1301652289785
 30
0.0
  0
POINT
  5
FF
330
F6
100
AcDbEntity
  8
DEFPOINTS
 62
     0
440
 16777216
100
AcDbPoint
 10
72.33097472591635
 20
231.1301652289785
 30
0.0
  0
ENDBLK
  5
101
330
F6
100
AcDbEntity
  8
0
100
AcDbBlockEnd
  0
BLOCK
  5
EF
330
E5
100
AcDbEntity
  8
0
100
AcDbBlockBegin
  2
*D9
 70
     1
 10
0.0
 20
0.0
 30
0.0
  3
*D9
  1

  0
LINE
  5
E6
330
E5
100
AcDbEntity
  8
BEMASS
440
 16777216
370
    -2
100
AcDbLine
 10
112.7996423315967
 20
271.1301652289785
 30
0.0
 11
70.27871750108708
 21
271.1301652289785
 31
0.0
  0
LINE
  5
E7
330
E5
100
AcDbEntity
  8
BEMASS
440
 16777216
370
    -2
100
AcDbLine
 10
81.79964233159626
 20
354.1301652289785
 30
0.0
 11
70.27871750108712
 21
354.1301652289785
 31
0.0
  0
LINE
  5
E8
330
E5
100
AcDbEntity
  8
BEMASS
440
 16777216
370
    -2
100
AcDbLine
 10
72.07871750108708
 20
274.6301652289785
 30
0.0
 11
72.0787175010871
 21
350.6301652289785
 31
0.0
  0
SOLID
  5
E9
330
E5
100
AcDbEntity
  8
BEMASS
440
 16777216
100
AcDbTrace
 10
71.49538416775375
 20
274.6301652289785
 30
0.0
 11
72.66205083442041
 21
274.6301652289785
 31
0.0
 12
72.07871750108708
 22
271.1301652289785
 32
0.0
 13
72.07871750108708
 23
271.1301652289785
 33
0.0
  0
SOLID
  5
EA
330
E5
100
AcDbEntity
  8
BEMASS
440
 16777216
100
AcDbTrace
 10
71.49538416775377
 20
350.6301652289785
 30
0.0
 11
72.66205083442042
 21
350.6301652289785
 31
0.0
 12
72.07871750108711
 22
354.1301652289785
 32
0.0
 13
72.07871750108711
 23
354.1301652289785
 33
0.0
  0
MTEXT
  5
EB
330
E5
100
AcDbEntity
  8
BEMASS
440
 16777216
100
AcDbMText
 10
68.57871750108704
 20
312.6301652289785
 30
0.0
 40
4.0
 41
0.0
 46
0.0
 71
     5
 72
     1
  1
\A1;83
 11
0.0000000000000001
 21
1.0
 31
0.0
 73
     1
 44
1.0
  0
POINT
  5
EC
330
E5
100
AcDbEntity
  8
DEFPOINTS
 62
     0
440
 16777216
100
AcDbPoint
 10
112.7996423315967
 20
271.1301652289785
 30
0.0
  0
POINT
  5
ED
330
E5
100
AcDbEntity
  8
DEFPOINTS
 62
     0
440
 16777216
100
AcDbPoint
 10
81.79964233159626
 20
354.1301652289785
 30
0.0
  0
POINT
  5
EE
330
E5
100
AcDbEntity
  8
DEFPOINTS
 62
     0
440
 16777216
100
AcDbPoint
 10
72.07871750108711
 20
354.1301652289785
 30
0.0
  0
ENDBLK
  5
F0
330
E5
100
AcDbEntity
  8
0
100
AcDbBlockEnd
  0
BLOCK
  5
13B
330
130
100
AcDbEntity
  8
0
100
AcDbBlockBegin
  2
*D10
 70
     1
 10
0.0
 20
0.0
 30
0.0
  3
*D10
  1

  0
LINE
  5
131
330
130
100
AcDbEntity
  8
BEMASS
440
 16777216
370
    -2
100
AcDbLine
 10
81.79964233159626
 20
359.1301652289784
 30
0.0
 11
70.27871750108712
 21
359.1301652289784
 31
0.0
  0
LINE
  5
132
330
130
100
AcDbEntity
  8
BEMASS
440
 16777216
370
    -2
100
AcDbLine
 10
81.7996423315963
 20
354.1301652289783
 30
0.0
 11
70.27871750108712
 21
354.1301652289783
 31
0.0
  0
LINE
  5
133
330
130
100
AcDbEntity
  8
BEMASS
440
 16777216
370
    -2
100
AcDbLine
 10
72.07871750108711
 20
362.6301652289783
 30
0.0
 11
72.07871750108711
 21
366.1301652289783
 31
0.0
  0
LINE
  5
134
330
130
100
AcDbEntity
  8
BEMASS
440
 16777216
370
    -2
100
AcDbLine
 10
72.0787175010871
 20
350.6301652289784
 30
0.0
 11
72.0787175010871
 21
347.1301652289783
 31
0.0
  0
SOLID
  5
135
330
130
100
AcDbEntity
  8
BEMASS
440
 16777216
100
AcDbTrace
 10
71.49538416775378
 20
362.6301652289783
 30
0.0
 11
72.66205083442044
 21
362.6301652289783
 31
0.0
 12
72.07871750108711
 22
359.1301652289784
 32
0.0
 13
72.07871750108711
 23
359.1301652289784
 33
0.0
  0
SOLID
  5
136
330
130
100
AcDbEntity
  8
BEMASS
440
 16777216
100
AcDbTrace
 10
71.49538416775377
 20
350.6301652289784
 30
0.0
 11
72.66205083442042
 21
350.6301652289784
 31
0.0
 12
72.07871750108711
 22
354.1301652289783
 32
0.0
 13
72.07871750108711
 23
354.1301652289783
 33
0.0
  0
MTEXT
  5
137
330
130
100
AcDbEntity
  8
BEMASS
440
 16777216
100
AcDbMText
 10
68.57871750108706
 20
356.6301652289784
 30
0.0
 40
4.0
 41
0.0
 46
0.0
 71
     5
 72
     1
  1
\A1;5
 11
0.0000000000000001
 21
1.0
 31
0.0
 73
     1
 44
1.0
  0
POINT
  5
138
330
130
100
AcDbEntity
  8
DEFPOINTS
 62
     0
440
 16777216
100
AcDbPoint
 10
81.79964233159626
 20
359.1301652289784
 30
0.0
  0
POINT
  5
139
330
130
100
AcDbEntity
  8
DEFPOINTS
 62
     0
440
 16777216
100
AcDbPoint
 10
81.7996423315963
 20
354.1301652289783
 30
0.0
  0
POINT
  5
13A
330
130
100
AcDbEntity
  8
DEFPOINTS
 62
     0
440
 16777216
100
AcDbPoint
 10
72.07871750108711
 20
354.1301652289783
 30
0.0
  0
ENDBLK
  5
13C
330
130
100
AcDbEntity
  8
0
100
AcDbBlockEnd
  0
BLOCK
  5
148
330
13E
100
AcDbEntity
  8
0
100
AcDbBlockBegin
  2
*D11
 70
     1
 10
0.0
 20
0.0
 30
0.0
  3
*D11
  1

  0
LINE
  5
13F
330
13E
100
AcDbEntity
  8
BEMASS
440
 16777216
370
    -2
100
AcDbLine
 10
378.7548443224594
 20
288.1301652289785
 30
0.0
 11
397.1249980296445
 21
288.1301652289785
 31
0.0
  0
LINE
  5
140
330
13E
100
AcDbEntity
  8
BEMASS
440
 16777216
370
    -2
100
AcDbLine
 10
378.7548443224594
 20
272.1301652289784
 30
0.0
 11
397.1249980296445
 21
272.1301652289783
 31
0.0
  0
LINE
  5
141
330
13E
100
AcDbEntity
  8
BEMASS
440
 16777216
370
    -2
100
AcDbLine
 10
395.3249980296445
 20
284.6301652289785
 30
0.0
 11
395.3249980296445
 21
275.6301652289784
 31
0.0
  0
SOLID
  5
142
330
13E
100
AcDbEntity
  8
BEMASS
440
 16777216
100
AcDbTrace
 10
394.7416646963112
 20
284.6301652289785
 30
0.0
 11
395.9083313629778
 21
284.6301652289785
 31
0.0
 12
395.3249980296445
 22
288.1301652289785
 32
0.0
 13
395.3249980296445
 23
288.1301652289785
 33
0.0
  0
SOLID
  5
143
330
13E
100
AcDbEntity
  8
BEMASS
440
 16777216
100
AcDbTrace
 10
394.7416646963112
 20
275.6301652289784
 30
0.0
 11
395.9083313629778
 21
275.6301652289784
 31
0.0
 12
395.3249980296445
 22
272.1301652289783
 32
0.0
 13
395.3249980296445
 23
272.1301652289783
 33
0.0
  0
MTEXT
  5
144
330
13E
100
AcDbEntity
  8
BEMASS
440
 16777216
100
AcDbMText
 10
391.8249980296444
 20
280.1301652289785
 30
0.0
 40
4.0
 41
0.0
 46
0.0
 71
     5
 72
     1
  1
\A1;16
 11
0.0000000000000001
 21
1.0
 31
0.0
 73
     1
 44
1.0
  0
POINT
  5
145
330
13E
100
AcDbEntity
  8
DEFPOINTS
 62
     0
440
 16777216
100
AcDbPoint
 10
378.7548443224594
 20
288.1301652289785
 30
0.0
  0
POINT
  5
146
330
13E
100
AcDbEntity
  8
DEFPOINTS
 62
     0
440
 16777216
100
AcDbPoint
 10
378.7548443224594
 20
272.1301652289784
 30
0.0
  0
POINT
  5
147
330
13E
100
AcDbEntity
  8
DEFPOINTS
 62
     0
440
 16777216
100
AcDbPoint
 10
395.3249980296445
 20
272.1301652289783
 30
0.0
  0
ENDBLK
  5
149
330
13E
100
AcDbEntity
  8
0
100
AcDbBlockEnd
  0
BLOCK
  5
155
330
14B
100
AcDbEntity
  8
0
100
AcDbBlockBegin
  2
*D12
 70
     1
 10
0.0
 20
0.0
 30
0.0
  3
*D12
  1

  0
LINE
  5
57C
330
14B
100
AcDbEntity
  8
BEMASS
440
 16777216
370
    -2
100
AcDbLine
 10
231.7996423315964
 20
181.0627376248009
 30
0.0
 11
259.2620365201541
 21
181.0627376248009
 31
0.0
  0
LINE
  5
57D
330
14B
100
AcDbEntity
  8
BEMASS
440
 16777216
370
    -2
100
AcDbLine
 10
231.7996423315964
 20
31.0627376248009
 30
0.0
 11
259.2620365201542
 21
31.06273762480091
 31
0.0
  0
LINE
  5
57E
330
14B
100
AcDbEntity
  8
BEMASS
440
 16777216
370
    -2
100
AcDbLine
 10
257.4620365201541
 20
177.5627376248009
 30
0.0
 11
257.4620365201541
 21
34.56273762480091
 31
0.0
  0
MTEXT
  5
57F
330
14B
100
AcDbEntity
  8
BEMASS
440
 16777216
100
AcDbMText
 10
252.4320190370167
 20
106.0627376248009
 30
0.0
 40
4.0
 41
0.0
 46
0.0
 71
     5
 72
     1
  1
\A1;150
 11
0.0000000000000001
 21
1.0
 31
0.0
 73
     1
 44
1.0
  0
SOLID
  5
580
330
14B
100
AcDbEntity
  8
BEMASS
440
 16777216
100
AcDbTrace
 10
256.8787031868208
 20
177.5627376248009
 30
0.0
 11
258.0453698534874
 21
177.5627376248009
 31
0.0
 12
257.4620365201541
 22
181.0627376248009
 32
0.0
 13
257.4620365201541
 23
181.0627376248009
 33
0.0
  0
SOLID
  5
581
330
14B
100
AcDbEntity
  8
BEMASS
440
 16777216
100
AcDbTrace
 10
256.8787031868208
 20
34.56273762480091
 30
0.0
 11
258.0453698534874
 21
34.56273762480091
 31
0.0
 12
257.4620365201541
 22
31.06273762480091
 32
0.0
 13
257.4620365201541
 23
31.06273762480091
 33
0.0
  0
POINT
  5
582
330
14B
100
AcDbEntity
  8
DEFPOINTS
 62
     0
440
 16777216
100
AcDbPoint
 10
231.7996423315964
 20
181.0627376248009
 30
0.0
  0
POINT
  5
583
330
14B
100
AcDbEntity
  8
DEFPOINTS
 62
     0
440
 16777216
100
AcDbPoint
 10
231.7996423315964
 20
31.0627376248009
 30
0.0
  0
POINT
  5
584
330
14B
100
AcDbEntity
  8
DEFPOINTS
 62
     0
440
 16777216
100
AcDbPoint
 10
257.4620365201541
 20
31.06273762480091
 30
0.0
  0
ENDBLK
  5
156
330
14B
100
AcDbEntity
  8
0
100
AcDbBlockEnd
  0
BLOCK
  5
162
330
158
100
AcDbEntity
  8
0
100
AcDbBlockBegin
  2
*D13
 70
     1
 10
0.0
 20
0.0
 30
0.0
  3
*D13
  1

  0
LINE
  5
159
330
158
100
AcDbEntity
  8
BEMASS
440
 16777216
370
    -2
100
AcDbLine
 10
131.7996423315962
 20
234.1301652289785
 30
0.0
 11
131.7996423315962
 21
215.2002272400447
 31
0.0
  0
LINE
  5
15A
330
158
100
AcDbEntity
  8
BEMASS
440
 16777216
370
    -2
100
AcDbLine
 10
181.7996423315963
 20
234.1301652289785
 30
0.0
 11
181.7996423315963
 21
215.2002272400447
 31
0.0
  0
LINE
  5
15B
330
158
100
AcDbEntity
  8
BEMASS
440
 16777216
370
    -2
100
AcDbLine
 10
135.2996423315962
 20
217.0002272400448
 30
0.0
 11
178.2996423315963
 21
217.0002272400448
 31
0.0
  0
SOLID
  5
15C
330
158
100
AcDbEntity
  8
BEMASS
440
 16777216
100
AcDbTrace
 10
135.2996423315962
 20
217.5835605733781
 30
0.0
 11
135.2996423315962
 21
216.4168939067114
 31
0.0
 12
131.7996423315962
 22
217.0002272400448
 32
0.0
 13
131.7996423315962
 23
217.0002272400448
 33
0.0
  0
SOLID
  5
15D
330
158
100
AcDbEntity
  8
BEMASS
440
 16777216
100
AcDbTrace
 10
178.2996423315963
 20
217.5835605733781
 30
0.0
 11
178.2996423315963
 21
216.4168939067114
 31
0.0
 12
181.7996423315963
 22
217.0002272400448
 32
0.0
 13
181.7996423315963
 23
217.0002272400448
 33
0.0
  0
MTEXT
  5
15E
330
158
100
AcDbEntity
  8
BEMASS
440
 16777216
100
AcDbMText
 10
156.7996423315963
 20
220.5002272400447
 30
0.0
 40
4.0
 41
0.0
 46
0.0
 71
     5
 72
     1
  1
\A1;%%c50
 73
     1
 44
1.0
  0
POINT
  5
15F
330
158
100
AcDbEntity
  8
DEFPOINTS
 62
     0
440
 16777216
100
AcDbPoint
 10
131.7996423315962
 20
234.1301652289785
 30
0.0
  0
POINT
  5
160
330
158
100
AcDbEntity
  8
DEFPOINTS
 62
     0
440
 16777216
100
AcDbPoint
 10
181.7996423315963
 20
234.1301652289785
 30
0.0
  0
POINT
  5
161
330
158
100
AcDbEntity
  8
DEFPOINTS
 62
     0
440
 16777216
100
AcDbPoint
 10
181.7996423315963
 20
217.0002272400448
 30
0.0
  0
ENDBLK
  5
163
330
158
100
AcDbEntity
  8
0
100
AcDbBlockEnd
  0
BLOCK
  5
16F
330
165
100
AcDbEntity
  8
0
100
AcDbBlockBegin
  2
*D14
 70
     1
 10
0.0
 20
0.0
 30
0.0
  3
*D14
  1

  0
LINE
  5
166
330
165
100
AcDbEntity
  8
BEMASS
440
 16777216
370
    -2
100
AcDbLine
 10
101.7996423315966
 20
282.1301652289784
 30
0.0
 11
101.7996423315966
 21
204.0640580370238
 31
0.0
  0
LINE
  5
167
330
165
100
AcDbEntity
  8
BEMASS
440
 16777216
370
    -2
100
AcDbLine
 10
211.7996423315958
 20
282.1301652289784
 30
0.0
 11
211.7996423315958
 21
204.0640580370238
 31
0.0
  0
LINE
  5
168
330
165
100
AcDbEntity
  8
BEMASS
440
 16777216
370
    -2
100
AcDbLine
 10
105.2996423315966
 20
205.8640580370238
 30
0.0
 11
208.2996423315959
 21
205.8640580370238
 31
0.0
  0
SOLID
  5
169
330
165
100
AcDbEntity
  8
BEMASS
440
 16777216
100
AcDbTrace
 10
105.2996423315966
 20
206.4473913703572
 30
0.0
 11
105.2996423315966
 21
205.2807247036905
 31
0.0
 12
101.7996423315966
 22
205.8640580370238
 32
0.0
 13
101.7996423315966
 23
205.8640580370238
 33
0.0
  0
SOLID
  5
16A
330
165
100
AcDbEntity
  8
BEMASS
440
 16777216
100
AcDbTrace
 10
208.2996423315959
 20
206.4473913703572
 30
0.0
 11
208.2996423315959
 21
205.2807247036905
 31
0.0
 12
211.7996423315958
 22
205.8640580370238
 32
0.0
 13
211.7996423315958
 23
205.8640580370238
 33
0.0
  0
MTEXT
  5
16B
330
165
100
AcDbEntity
  8
BEMASS
440
 16777216
100
AcDbMText
 10
156.7996423315962
 20
209.3640580370238
 30
0.0
 40
4.0
 41
0.0
 46
0.0
 71
     5
 72
     1
  1
\A1;%%c110
 73
     1
 44
1.0
  0
POINT
  5
16C
330
165
100
AcDbEntity
  8
DEFPOINTS
 62
     0
440
 16777216
100
AcDbPoint
 10
101.7996423315966
 20
282.1301652289784
 30
0.0
  0
POINT
  5
16D
330
165
100
AcDbEntity
  8
DEFPOINTS
 62
     0
440
 16777216
100
AcDbPoint
 10
211.7996423315958
 20
282.1301652289784
 30
0.0
  0
POINT
  5
16E
330
165
100
AcDbEntity
  8
DEFPOINTS
 62
     0
440
 16777216
100
AcDbPoint
 10
211.7996423315958
 20
205.8640580370238
 30
0.0
  0
ENDBLK
  5
170
330
165
100
AcDbEntity
  8
0
100
AcDbBlockEnd
  0
BLOCK
  5
17C
330
172
100
AcDbEntity
  8
0
100
AcDbBlockBegin
  2
*D15
 70
     1
 10
0.0
 20
0.0
 30
0.0
  3
*D15
  1

  0
LINE
  5
173
330
172
100
AcDbEntity
  8
BEMASS
440
 16777216
370
    -2
100
AcDbLine
 10
150.7996423315963
 20
338.1301652289785
 30
0.0
 11
150.7996423315963
 21
372.5829835525881
 31
0.0
  0
LINE
  5
174
330
172
100
AcDbEntity
  8
BEMASS
440
 16777216
370
    -2
100
AcDbLine
 10
162.7996423315963
 20
338.1301652289785
 30
0.0
 11
162.7996423315963
 21
372.5829835525881
 31
0.0
  0
LINE
  5
175
330
172
100
AcDbEntity
  8
BEMASS
440
 16777216
370
    -2
100
AcDbLine
 10
154.2996423315963
 20
370.7829835525881
 30
0.0
 11
159.2996423315963
 21
370.7829835525881
 31
0.0
  0
SOLID
  5
176
330
172
100
AcDbEntity
  8
BEMASS
440
 16777216
100
AcDbTrace
 10
154.2996423315963
 20
371.3663168859214
 30
0.0
 11
154.2996423315963
 21
370.1996502192548
 31
0.0
 12
150.7996423315963
 22
370.7829835525881
 32
0.0
 13
150.7996423315963
 23
370.7829835525881
 33
0.0
  0
SOLID
  5
177
330
172
100
AcDbEntity
  8
BEMASS
440
 16777216
100
AcDbTrace
 10
159.2996423315963
 20
371.3663168859214
 30
0.0
 11
159.2996423315963
 21
370.1996502192548
 31
0.0
 12
162.7996423315963
 22
370.7829835525881
 32
0.0
 13
162.7996423315963
 23
370.7829835525881
 33
0.0
  0
MTEXT
  5
178
330
172
100
AcDbEntity
  8
BEMASS
440
 16777216
100
AcDbMText
 10
156.7996423315963
 20
374.2829835525881
 30
0.0
 40
4.0
 41
0.0
 46
0.0
 71
     5
 72
     1
  1
\A1;9
 73
     1
 44
1.0
  0
POINT
  5
179
330
172
100
AcDbEntity
  8
DEFPOINTS
 62
     0
440
 16777216
100
AcDbPoint
 10
150.7996423315963
 20
338.1301652289785
 30
0.0
  0
POINT
  5
17A
330
172
100
AcDbEntity
  8
DEFPOINTS
 62
     0
440
 16777216
100
AcDbPoint
 10
162.7996423315963
 20
338.1301652289785
 30
0.0
  0
POINT
  5
17B
330
172
100
AcDbEntity
  8
DEFPOINTS
 62
     0
440
 16777216
100
AcDbPoint
 10
162.7996423315963
 20
370.7829835525881
 30
0.0
  0
ENDBLK
  5
17D
330
172
100
AcDbEntity
  8
0
100
AcDbBlockEnd
  0
BLOCK
  5
189
330
17F
100
AcDbEntity
  8
0
100
AcDbBlockBegin
  2
*D16
 70
     1
 10
0.0
 20
0.0
 30
0.0
  3
*D16
  1

  0
LINE
  5
180
330
17F
100
AcDbEntity
  8
BEMASS
440
 16777216
370
    -2
100
AcDbLine
 10
150.7996423315963
 20
338.1301652289785
 30
0.0
 11
138.3480563588382
 21
338.1301652289785
 31
0.0
  0
LINE
  5
181
330
17F
100
AcDbEntity
  8
BEMASS
440
 16777216
370
    -2
100
AcDbLine
 10
150.7996423315963
 20
278.1301652289785
 30
0.0
 11
138.3480563588381
 21
278.1301652289785
 31
0.0
  0
LINE
  5
182
330
17F
100
AcDbEntity
  8
BEMASS
440
 16777216
370
    -2
100
AcDbLine
 10
140.1480563588382
 20
334.6301652289785
 30
0.0
 11
140.1480563588382
 21
281.6301652289785
 31
0.0
  0
SOLID
  5
183
330
17F
100
AcDbEntity
  8
BEMASS
440
 16777216
100
AcDbTrace
 10
139.5647230255048
 20
334.6301652289785
 30
0.0
 11
140.7313896921715
 21
334.6301652289785
 31
0.0
 12
140.1480563588382
 22
338.1301652289785
 32
0.0
 13
140.1480563588382
 23
338.1301652289785
 33
0.0
  0
SOLID
  5
184
330
17F
100
AcDbEntity
  8
BEMASS
440
 16777216
100
AcDbTrace
 10
139.5647230255048
 20
281.6301652289785
 30
0.0
 11
140.7313896921715
 21
281.6301652289785
 31
0.0
 12
140.1480563588382
 22
278.1301652289785
 32
0.0
 13
140.1480563588382
 23
278.1301652289785
 33
0.0
  0
MTEXT
  5
185
330
17F
100
AcDbEntity
  8
BEMASS
440
 16777216
100
AcDbMText
 10
136.6480563588381
 20
308.1301652289786
 30
0.0
 40
4.0
 41
0.0
 46
0.0
 71
     5
 72
     1
  1
\A1;60
 11
0.0000000000000001
 21
1.0
 31
0.0
 73
     1
 44
1.0
  0
POINT
  5
186
330
17F
100
AcDbEntity
  8
DEFPOINTS
 62
     0
440
 16777216
100
AcDbPoint
 10
150.7996423315963
 20
338.1301652289785
 30
0.0
  0
POINT
  5
187
330
17F
100
AcDbEntity
  8
DEFPOINTS
 62
     0
440
 16777216
100
AcDbPoint
 10
150.7996423315963
 20
278.1301652289785
 30
0.0
  0
POINT
  5
188
330
17F
100
AcDbEntity
  8
DEFPOINTS
 62
     0
440
 16777216
100
AcDbPoint
 10
140.1480563588382
 20
278.1301652289785
 30
0.0
  0
ENDBLK
  5
18A
330
17F
100
AcDbEntity
  8
0
100
AcDbBlockEnd
  0
BLOCK
  5
196
330
18C
100
AcDbEntity
  8
0
100
AcDbBlockBegin
  2
*D17
 70
     1
 10
0.0
 20
0.0
 30
0.0
  3
*D17
  1

  0
LINE
  5
18D
330
18C
100
AcDbEntity
  8
BEMASS
440
 16777216
370
    -2
100
AcDbLine
 10
231.7996423315963
 20
359.1301652289784
 30
0.0
 11
256.426204328755
 21
359.1301652289784
 31
0.0
  0
LINE
  5
18E
330
18C
100
AcDbEntity
  8
BEMASS
440
 16777216
370
    -2
100
AcDbLine
 10
181.7996423315963
 20
231.1301652289785
 30
0.0
 11
256.426204328755
 21
231.1301652289785
 31
0.0
  0
LINE
  5
18F
330
18C
100
AcDbEntity
  8
BEMASS
440
 16777216
370
    -2
100
AcDbLine
 10
254.626204328755
 20
355.6301652289783
 30
0.0
 11
254.626204328755
 21
234.6301652289785
 31
0.0
  0
SOLID
  5
190
330
18C
100
AcDbEntity
  8
BEMASS
440
 16777216
100
AcDbTrace
 10
254.0428709954217
 20
355.6301652289783
 30
0.0
 11
255.2095376620883
 21
355.6301652289783
 31
0.0
 12
254.626204328755
 22
359.1301652289784
 32
0.0
 13
254.626204328755
 23
359.1301652289784
 33
0.0
  0
SOLID
  5
191
330
18C
100
AcDbEntity
  8
BEMASS
440
 16777216
100
AcDbTrace
 10
254.0428709954216
 20
234.6301652289785
 30
0.0
 11
255.2095376620883
 21
234.6301652289785
 31
0.0
 12
254.626204328755
 22
231.1301652289785
 32
0.0
 13
254.626204328755
 23
231.1301652289785
 33
0.0
  0
MTEXT
  5
192
330
18C
100
AcDbEntity
  8
BEMASS
440
 16777216
100
AcDbMText
 10
251.1262043287549
 20
295.1301652289785
 30
0.0
 40
4.0
 41
0.0
 46
0.0
 71
     5
 72
     1
  1
\A1;128
 11
0.0000000000000001
 21
1.0
 31
0.0
 73
     1
 44
1.0
  0
POINT
  5
193
330
18C
100
AcDbEntity
  8
DEFPOINTS
 62
     0
440
 16777216
100
AcDbPoint
 10
231.7996423315963
 20
359.1301652289784
 30
0.0
  0
POINT
  5
194
330
18C
100
AcDbEntity
  8
DEFPOINTS
 62
     0
440
 16777216
100
AcDbPoint
 10
181.7996423315963
 20
231.1301652289785
 30
0.0
  0
POINT
  5
195
330
18C
100
AcDbEntity
  8
DEFPOINTS
 62
     0
440
 16777216
100
AcDbPoint
 10
254.626204328755
 20
231.1301652289785
 30
0.0
  0
ENDBLK
  5
197
330
18C
100
AcDbEntity
  8
0
100
AcDbBlockEnd
  0
BLOCK
  5
1A5
330
19B
100
AcDbEntity
  8
0
100
AcDbBlockBegin
  2
*D18
 70
     1
 10
0.0
 20
0.0
 30
0.0
  3
*D18
  1

  0
LINE
  5
19C
330
19B
100
AcDbEntity
  8
BEMASS
440
 16777216
370
    -2
100
AcDbLine
 10
442.2548443224596
 20
358.5435853713054
 30
0.0
 11
442.2548443224596
 21
373.8735726130827
 31
0.0
  0
LINE
  5
19D
330
19B
100
AcDbEntity
  8
BEMASS
440
 16777216
370
    -2
100
AcDbLine
 10
457.2548443224595
 20
357.6857209950365
 30
0.0
 11
457.2548443224595
 21
373.8735726130827
 31
0.0
  0
LINE
  5
19E
330
19B
100
AcDbEntity
  8
BEMASS
440
 16777216
370
    -2
100
AcDbLine
 10
445.7548443224596
 20
372.0735726130826
 30
0.0
 11
453.7548443224595
 21
372.0735726130826
 31
0.0
  0
SOLID
  5
19F
330
19B
100
AcDbEntity
  8
BEMASS
440
 16777216
100
AcDbTrace
 10
445.7548443224596
 20
372.656905946416
 30
0.0
 11
445.7548443224596
 21
371.4902392797494
 31
0.0
 12
442.2548443224596
 22
372.0735726130826
 32
0.0
 13
442.2548443224596
 23
372.0735726130826
 33
0.0
  0
SOLID
  5
1A0
330
19B
100
AcDbEntity
  8
BEMASS
440
 16777216
100
AcDbTrace
 10
453.7548443224595
 20
372.656905946416
 30
0.0
 11
453.7548443224595
 21
371.4902392797494
 31
0.0
 12
457.2548443224595
 22
372.0735726130826
 32
0.0
 13
457.2548443224595
 23
372.0735726130826
 33
0.0
  0
MTEXT
  5
1A1
330
19B
100
AcDbEntity
  8
BEMASS
440
 16777216
100
AcDbMText
 10
449.7548443224595
 20
375.5735726130827
 30
0.0
 40
4.0
 41
0.0
 46
0.0
 71
     5
 72
     1
  1
\A1;%%c15
 73
     1
 44
1.0
  0
POINT
  5
1A2
330
19B
100
AcDbEntity
  8
DEFPOINTS
 62
     0
440
 16777216
100
AcDbPoint
 10
442.2548443224596
 20
358.5435853713054
 30
0.0
  0
POINT
  5
1A3
330
19B
100
AcDbEntity
  8
DEFPOINTS
 62
     0
440
 16777216
100
AcDbPoint
 10
457.2548443224595
 20
357.6857209950365
 30
0.0
  0
POINT
  5
1A4
330
19B
100
AcDbEntity
  8
DEFPOINTS
 62
     0
440
 16777216
100
AcDbPoint
 10
457.2548443224595
 20
372.0735726130826
 30
0.0
  0
ENDBLK
  5
1A6
330
19B
100
AcDbEntity
  8
0
100
AcDbBlockEnd
  0
BLOCK
  5
1B2
330
1A8
100
AcDbEntity
  8
0
100
AcDbBlockBegin
  2
*D19
 70
     1
 10
0.0
 20
0.0
 30
0.0
  3
*D19
  1

  0
LINE
  5
1A9
330
1A8
100
AcDbEntity
  8
BEMASS
440
 16777216
370
    -2
100
AcDbLine
 10
365.7048443224597
 20
288.1301652289785
 30
0.0
 11
365.7048443224597
 21
195.9413710938133
 31
0.0
  0
LINE
  5
1AA
330
1A8
100
AcDbEntity
  8
BEMASS
440
 16777216
370
    -2
100
AcDbLine
 10
441.8048443224595
 20
295.3539750645163
 30
0.0
 11
441.8048443224595
 21
195.9413710938133
 31
0.0
  0
LINE
  5
1AB
330
1A8
100
AcDbEntity
  8
BEMASS
440
 16777216
370
    -2
100
AcDbLine
 10
369.2048443224597
 20
197.7413710938133
 30
0.0
 11
438.3048443224595
 21
197.7413710938133
 31
0.0
  0
SOLID
  5
1AC
330
1A8
100
AcDbEntity
  8
BEMASS
440
 16777216
100
AcDbTrace
 10
369.2048443224597
 20
198.3247044271466
 30
0.0
 11
369.2048443224597
 21
197.15803776048
 31
0.0
 12
365.7048443224597
 22
197.7413710938133
 32
0.0
 13
365.7048443224597
 23
197.7413710938133
 33
0.0
  0
SOLID
  5
1AD
330
1A8
100
AcDbEntity
  8
BEMASS
440
 16777216
100
AcDbTrace
 10
438.3048443224595
 20
198.3247044271466
 30
0.0
 11
438.3048443224595
 21
197.15803776048
 31
0.0
 12
441.8048443224595
 22
197.7413710938133
 32
0.0
 13
441.8048443224595
 23
197.7413710938133
 33
0.0
  0
MTEXT
  5
1AE
330
1A8
100
AcDbEntity
  8
BEMASS
440
 16777216
100
AcDbMText
 10
403.7548443224595
 20
201.2413710938133
 30
0.0
 40
4.0
 41
0.0
 46
0.0
 71
     5
 72
     1
  1
\A1;%%c76.1
 73
     1
 44
1.0
  0
POINT
  5
1AF
330
1A8
100
AcDbEntity
  8
DEFPOINTS
 62
     0
440
 16777216
100
AcDbPoint
 10
365.7048443224597
 20
288.1301652289785
 30
0.0
  0
POINT
  5
1B0
330
1A8
100
AcDbEntity
  8
DEFPOINTS
 62
     0
440
 16777216
100
AcDbPoint
 10
441.8048443224595
 20
295.3539750645163
 30
0.0
  0
POINT
  5
1B1
330
1A8
100
AcDbEntity
  8
DEFPOINTS
 62
     0
440
 16777216
100
AcDbPoint
 10
441.8048443224595
 20
197.7413710938133
 30
0.0
  0
ENDBLK
  5
1B3
330
1A8
100
AcDbEntity
  8
0
100
AcDbBlockEnd
  0
BLOCK
  5
38E
330
312
100
AcDbEntity
  8
0
100
AcDbBlockBegin
  2
ACO-SF
 70
     2
 10
0.0
 20
0.0
 30
0.0
  3
ACO-SF
  1

  0
LINE
  5
313
330
312
100
AcDbEntity
  8
KOPF
 62
    12
100
AcDbLine
 10
0.0
 20
5.0
 30
0.0
 11
-83.0
 21
5.0
 31
0.0
  0
LWPOLYLINE
  5
314
330
312
100
AcDbEntity
  8
KOPF
 62
    12
100
AcDbPolyline
 90
        2
 70
     0
 43
0.5
 10
-83.0
 20
10.0
 10
0.0
 20
10.0
  0
LINE
  5
315
330
312
100
AcDbEntity
  8
KOPF
100
AcDbLine
 10
-83.0
 20
10.0
 30
0.0
 11
0.0
 21
10.0
 31
0.0
  0
LINE
  5
316
330
312
100
AcDbEntity
  8
KOPF
100
AcDbLine
 10
0.0
 20
5.0
 30
0.0
 11
-83.0
 21
5.0
 31
0.0
  0
LWPOLYLINE
  5
317
330
312
100
AcDbEntity
  8
KOPF
 62
    12
100
AcDbPolyline
 90
        2
 70
     0
 43
0.5
 10
0.0
 20
68.49999999999997
 10
-182.0
 20
68.49999999999997
  0
LWPOLYLINE
  5
318
330
312
100
AcDbEntity
  8
KOPF
 62
    12
100
AcDbPolyline
 90
        2
 70
     0
 43
0.5
 10
0.0
 20
46.99999999999997
 10
-182.0
 20
46.99999999999997
  0
LWPOLYLINE
  5
319
330
312
100
AcDbEntity
  8
KOPF
 62
    12
100
AcDbPolyline
 90
        2
 70
     0
 43
0.5
 10
-0.2154115848244373
 20
27.23910754630094
 10
-182.1882840408789
 20
27.23910754630094
  0
LINE
  5
31A
330
312
100
AcDbEntity
  8
KOPF
 62
    12
100
AcDbLine
 10
0.0
 20
88.49999999999996
 30
0.0
 11
-182.0
 21
88.49999999999996
 31
0.0
  0
LINE
  5
31B
330
312
100
AcDbEntity
  8
KOPF
 62
    12
100
AcDbLine
 10
-182.0
 20
83.49999999999997
 30
0.0
 11
0.0
 21
83.49999999999997
 31
0.0
  0
LINE
  5
31C
330
312
100
AcDbEntity
  8
KOPF
 62
    12
100
AcDbLine
 10
0.0
 20
73.49999999999997
 30
0.0
 11
-182.0
 21
73.49999999999997
 31
0.0
  0
LINE
  5
31D
330
312
100
AcDbEntity
  8
KOPF
 62
    12
100
AcDbLine
 10
-162.682677
 20
78.49999999999997
 30
0.0
 11
0.0
 21
78.49999999999997
 31
0.0
  0
LINE
  5
31E
330
312
100
AcDbEntity
  8
KOPF
100
AcDbLine
 10
0.0
 20
68.49999999999997
 30
0.0
 11
-182.0
 21
68.49999999999997
 31
0.0
  0
LINE
  5
31F
330
312
100
AcDbEntity
  8
KOPF
100
AcDbLine
 10
0.0
 20
88.49999999999996
 30
0.0
 11
-182.0
 21
88.49999999999996
 31
0.0
  0
LINE
  5
320
330
312
100
AcDbEntity
  8
KOPF
100
AcDbLine
 10
-182.0
 20
83.49999999999997
 30
0.0
 11
0.0
 21
83.49999999999997
 31
0.0
  0
LINE
  5
321
330
312
100
AcDbEntity
  8
KOPF
100
AcDbLine
 10
0.0
 20
73.49999999999997
 30
0.0
 11
-182.0
 21
73.49999999999997
 31
0.0
  0
LINE
  5
322
330
312
100
AcDbEntity
  8
KOPF
100
AcDbLine
 10
-162.682677
 20
78.49999999999997
 30
0.0
 11
0.0
 21
78.49999999999997
 31
0.0
  0
LINE
  5
323
330
312
100
AcDbEntity
  8
KOPF
 62
    12
100
AcDbLine
 10
-182.0
 20
57.74999999999997
 30
0.0
 11
-100.0
 21
57.74999999999997
 31
0.0
  0
LINE
  5
324
330
312
100
AcDbEntity
  8
KOPF
 62
    12
100
AcDbLine
 10
-182.0
 20
41.99999999999996
 30
0.0
 11
-113.4
 21
41.99999999999996
 31
0.0
  0
LINE
  5
325
330
312
100
AcDbEntity
  8
KOPF
100
AcDbLine
 10
-182.0
 20
57.74999999999997
 30
0.0
 11
-100.0
 21
57.74999999999997
 31
0.0
  0
LINE
  5
326
330
312
100
AcDbEntity
  8
KOPF
100
AcDbLine
 10
-182.0
 20
41.99999999999996
 30
0.0
 11
-113.4
 21
41.99999999999996
 31
0.0
  0
LINE
  5
327
330
312
100
AcDbEntity
  8
KOPF
 62
    12
100
AcDbLine
 10
-142.0
 20
68.49999999999997
 30
0.0
 11
-142.0
 21
46.99999999999997
 31
0.0
  0
LINE
  5
328
330
312
100
AcDbEntity
  8
KOPF
 62
    12
100
AcDbLine
 10
-142.0
 20
68.49999999999997
 30
0.0
 11
-142.0
 21
46.99999999999997
 31
0.0
  0
ATTDEF
  5
329
330
312
100
AcDbEntity
  8
TEXT35
100
AcDbText
 10
-140.2
 20
49.4
 30
0.0
 40
3.5
  1

 41
0.8
  7
TEXT35
100
AcDbAttributeDefinition
280
     0
  3
Oberfläche:
  2
F63
 70
     0
280
     0
  0
LWPOLYLINE
  5
32A
330
312
100
AcDbEntity
  8
KOPF
 62
    12
100
AcDbPolyline
 90
        2
 70
     0
 43
0.7
 10
-182.0
 20
88.49999999999996
 10
-182.0
 20
0.0
  0
LINE
  5
32B
330
312
100
AcDbEntity
  8
KOPF
100
AcDbLine
 10
-182.0
 20
88.49999999999996
 30
0.0
 11
-182.0
 21
0.0
 31
0.0
  0
TEXT
  5
32C
330
312
100
AcDbEntity
  8
KOPF
100
AcDbText
 10
-179.738589
 20
38.32439403633659
 30
0.0
 40
2.0
  1
Gezeichnet:
 41
0.8
  7
TEXT20
100
AcDbText
  0
ATTDEF
  5
32D
330
312
100
AcDbEntity
  8
TEXT35
100
AcDbText
 10
-176.6
 20
3.399999999999999
 30
0.0
 40
3.5
  1

 41
0.8
  7
TEXT35
100
AcDbAttributeDefinition
280
     0
  3
Z-Titel 3
  2
F13
 70
     0
280
     0
  0
ATTDEF
  5
32E
330
312
100
AcDbEntity
  8
TEXT50
100
AcDbText
 10
-176.6
 20
10.63250279796295
 30
0.0
 40
5.0
  1

 41
0.8
  7
TEXT50
100
AcDbAttributeDefinition
280
     0
  3
Z-Titel 2
  2
F3
 70
     0
280
     0
  0
ATTDEF
  5
32F
330
312
100
AcDbEntity
  8
TEXT50
100
AcDbText
 10
-176.6
 20
18.56318324460701
 30
0.0
 40
5.0
  1

 41
0.8
  7
TEXT50
100
AcDbAttributeDefinition
280
     0
  3
Z-Titel 1
  2
F2
 70
     0
280
     0
  0
TEXT
  5
330
330
312
100
AcDbEntity
  8
KOPF
100
AcDbText
 10
-179.738589
 20
28.52395361420514
 30
0.0
 40
2.0
  1
Update:
 41
0.8
  7
TEXT20
100
AcDbText
  0
TEXT
  5
331
330
312
100
AcDbEntity
  8
KOPF
100
AcDbText
 10
-179.738589
 20
33.43577642824449
 30
0.0
 40
2.0
  1
Geprüft
 41
0.8
  7
TEXT20
100
AcDbText
  0
LINE
  5
332
330
312
100
AcDbEntity
  8
KOPF
 62
    12
100
AcDbLine
 10
-163.0
 20
46.99999999999997
 30
0.0
 11
-163.0
 21
27.0
 31
0.0
  0
LINE
  5
333
330
312
100
AcDbEntity
  8
KOPF
100
AcDbLine
 10
-163.0
 20
46.99999999999997
 30
0.0
 11
-163.0
 21
27.0
 31
0.0
  0
ATTDEF
  5
334
330
312
100
AcDbEntity
  8
TEXT25
100
AcDbText
 10
-161.5009557098303
 20
28.32091209119023
 30
0.0
 40
2.0
  1

 41
0.8
  7
TEXT20
100
AcDbAttributeDefinition
280
     0
  3
Update am:
  2
F53
 70
     0
280
     0
  0
ATTDEF
  5
335
330
312
100
AcDbEntity
  8
TEXT25
100
AcDbText
 10
-161.5539333606331
 20
33.12227989587696
 30
0.0
 40
2.0
  1

 41
0.8
  7
TEXT20
100
AcDbAttributeDefinition
280
     0
  3
Geprüft am:
  2
F22
 70
     0
280
     0
  0
ATTDEF
  5
336
330
312
100
AcDbEntity
  8
TEXT25
100
AcDbText
 10
-161.5207141482394
 20
38.33983936444393
 30
0.0
 40
2.0
  1

 41
0.8
  7
TEXT20
100
AcDbAttributeDefinition
280
     0
  3
Gezeichnet am:
  2
F9
 70
     0
280
     0
  0
TEXT
  5
337
330
312
100
AcDbEntity
  8
KOPF
100
AcDbText
 10
-155.964455
 20
43.13467299999999
 30
0.0
 40
2.0
  1
Datum
 41
0.8
  7
TEXT20
100
AcDbText
  0
LINE
  5
338
330
312
100
AcDbEntity
  8
KOPF
 62
    12
100
AcDbLine
 10
-138.4
 20
46.99999999999997
 30
0.0
 11
-138.4
 21
27.0
 31
0.0
  0
LINE
  5
339
330
312
100
AcDbEntity
  8
KOPF
100
AcDbLine
 10
-138.4
 20
46.99999999999997
 30
0.0
 11
-138.4
 21
27.0
 31
0.0
  0
TEXT
  5
33A
330
312
100
AcDbEntity
  8
KOPF
100
AcDbText
 10
-130.065072
 20
43.14125800000002
 30
0.0
 40
2.0
  1
Name
 41
0.8
  7
TEXT20
100
AcDbText
  0
ATTDEF
  5
33B
330
312
100
AcDbEntity
  8
TEXT25
100
AcDbText
 10
-136.2746977811447
 20
33.28471223400234
 30
0.0
 40
2.0
  1

 41
0.8
  7
TEXT20
100
AcDbAttributeDefinition
280
     0
  3
Geprüft von:
  2
F21
 70
     0
280
     0
  0
ATTDEF
  5
33C
330
312
100
AcDbEntity
  8
TEXT25
100
AcDbText
 10
-136.3996291720711
 20
28.23101841142455
 30
0.0
 40
2.0
  1

 41
0.8
  7
TEXT20
100
AcDbAttributeDefinition
280
     0
  3
Update von:
  2
F52
 70
     0
280
     0
  0
ATTDEF
  5
33D
330
312
100
AcDbEntity
  8
TEXT25
100
AcDbText
 10
-136.1922113552417
 20
38.48172579575253
 30
0.0
 40
2.0
  1

 41
0.8
  7
TEXT20
100
AcDbAttributeDefinition
280
     0
  3
Gezeichnet von
  2
F8
 70
     0
280
     0
  0
TEXT
  5
33E
330
312
100
AcDbEntity
  8
KOPF
100
AcDbText
 10
-174.6925639999999
 20
69.53813999999997
 30
0.0
 40
2.0
  1
Index
 41
0.8
  7
TEXT20
100
AcDbText
  0
LINE
  5
33F
330
312
100
AcDbEntity
  8
KOPF
100
AcDbLine
 10
-182.0
 20
78.49999999999997
 30
0.0
 11
-162.682677
 21
78.49999999999997
 31
0.0
  0
LINE
  5
340
330
312
100
AcDbEntity
  8
KOPF
100
AcDbLine
 10
-182.0
 20
78.49999999999997
 30
0.0
 11
-162.682677
 21
78.49999999999997
 31
0.0
  0
TEXT
  5
341
330
312
100
AcDbEntity
  8
KOPF
100
AcDbText
 10
-180.0
 20
65.166273
 30
0.0
 40
2.0
  1
Werkstoff:
 41
0.8
  7
TEXT20
100
AcDbText
  0
TEXT
  5
342
330
312
100
AcDbEntity
  8
KOPF
100
AcDbText
 10
-181.0
 20
54.49999999999997
 30
0.0
 40
2.0
  1
zul. Abweich.:
 41
0.8
  7
TEXT20
100
AcDbText
  0
ATTDEF
  5
343
330
312
100
AcDbEntity
  8
TEXT35
100
AcDbText
 10
-179.7
 20
59.6
 30
0.0
 40
3.5
  1

 41
0.8
  7
TEXT35
100
AcDbAttributeDefinition
280
     0
  3
Werkstoff:
  2
F61
 70
     0
280
     0
  0
ATTDEF
  5
344
330
312
100
AcDbEntity
  8
TEXT35
100
AcDbText
 10
-179.7
 20
49.7
 30
0.0
 40
3.5
  1

 41
0.8
  7
TEXT35
100
AcDbAttributeDefinition
280
     0
  3
zul. Abweichung
  2
F62
 70
     0
280
     0
  0
ATTDEF
  5
345
330
312
100
AcDbEntity
  8
TEXT25
100
AcDbText
 10
-174.360415155955
 20
74.59999999999999
 30
0.0
 40
2.0
  1

 41
0.8
  7
TEXT20
100
AcDbAttributeDefinition
280
     0
  3
Index vv.:
  2
F72
 70
     0
280
     0
  0
ATTDEF
  5
346
330
312
100
AcDbEntity
  8
TEXT25
100
AcDbText
 10
-174.4435409453564
 20
79.47378932523601
 30
0.0
 40
2.0
  1

 41
0.8
  7
TEXT20
100
AcDbAttributeDefinition
280
     0
  3
Index v.:
  2
F68
 70
     0
280
     0
  0
ATTDEF
  5
347
330
312
100
AcDbEntity
  8
TEXT25
100
AcDbText
 10
-174.3700408782365
 20
84.63034186138365
 30
0.0
 40
2.0
  1

 41
0.8
  7
TEXT20
100
AcDbAttributeDefinition
280
     0
  3
Index l.:
  2
F64
 70
     0
280
     0
  0
LINE
  5
348
330
312
100
AcDbEntity
  8
KOPF
100
AcDbLine
 10
-162.682677
 20
88.49999999999996
 30
0.0
 11
-162.682677
 21
68.49999999999997
 31
0.0
  0
LINE
  5
349
330
312
100
AcDbEntity
  8
KOPF
100
AcDbLine
 10
-162.682677
 20
88.49999999999996
 30
0.0
 11
-162.682677
 21
68.49999999999997
 31
0.0
  0
TEXT
  5
34A
330
312
100
AcDbEntity
  8
KOPF
100
AcDbText
 10
-156.706568
 20
69.53813999999997
 30
0.0
 40
2.0
  1
Datum
 41
0.8
  7
TEXT20
100
AcDbText
  0
ATTDEF
  5
34B
330
312
100
AcDbEntity
  8
TEXT25
100
AcDbText
 10
-160.9
 20
75.09999999999999
 30
0.0
 40
2.0
  1

 41
0.8
  7
TEXT20
100
AcDbAttributeDefinition
280
     0
  3
Datum vv.:
  2
F73
 70
     0
280
     0
  0
ATTDEF
  5
34C
330
312
100
AcDbEntity
  8
TEXT25
100
AcDbText
 10
-160.9
 20
79.40000000000001
 30
0.0
 40
2.0
  1

 41
0.8
  7
TEXT20
100
AcDbAttributeDefinition
280
     0
  3
Datum v.:
  2
F69
 70
     0
280
     0
  0
ATTDEF
  5
34D
330
312
100
AcDbEntity
  8
TEXT25
100
AcDbText
 10
-160.6
 20
84.50000000000001
 30
0.0
 40
2.0
  1

 41
0.8
  7
TEXT20
100
AcDbAttributeDefinition
280
     0
  3
Datum l.:
  2
F65
 70
     0
280
     0
  0
LINE
  5
34E
330
312
100
AcDbEntity
  8
KOPF
 62
    12
100
AcDbLine
 10
-142.0
 20
68.49999999999997
 30
0.0
 11
-142.0
 21
88.49999999999996
 31
0.0
  0
LINE
  5
34F
330
312
100
AcDbEntity
  8
KOPF
100
AcDbLine
 10
-142.0
 20
68.49999999999997
 30
0.0
 11
-142.0
 21
88.49999999999996
 31
0.0
  0
ATTDEF
  5
350
330
312
100
AcDbEntity
  8
TEXT35
100
AcDbText
 10
-139.9
 20
59.29999999999999
 30
0.0
 40
3.5
  1

 41
0.8
  7
TEXT35
100
AcDbAttributeDefinition
280
     0
  3
Gewicht:
  2
F60
 70
     0
280
     0
  0
TEXT
  5
351
330
312
100
AcDbEntity
  8
KOPF
100
AcDbText
 10
-140.387393
 20
54.54752599999996
 30
0.0
 40
2.0
  1
Oberfläche
 41
0.8
  7
TEXT20
100
AcDbText
  0
TEXT
  5
352
330
312
100
AcDbEntity
  8
KOPF
100
AcDbText
 10
-140.1020469999999
 20
65.166273
 30
0.0
 40
2.0
  1
Gewicht:
 41
0.8
  7
TEXT20
100
AcDbText
  0
TEXT
  5
353
330
312
100
AcDbEntity
  8
KOPF
100
AcDbText
 10
-140.1020469999999
 20
65.166273
 30
0.0
 40
2.0
  1
Gewicht:
 41
0.8
  7
TEXT20
100
AcDbText
  0
ATTDEF
  5
354
330
312
100
AcDbEntity
  8
TEXT25
100
AcDbText
 10
-140.4
 20
74.59999999999999
 30
0.0
 40
2.0
  1

 41
0.8
  7
TEXT20
100
AcDbAttributeDefinition
280
     0
  3
Bennenung vv.:
  2
F74
 70
     0
280
     0
  0
ATTDEF
  5
355
330
312
100
AcDbEntity
  8
TEXT25
100
AcDbText
 10
-140.5063960262479
 20
79.64480359078786
 30
0.0
 40
2.0
  1

 41
0.8
  7
TEXT20
100
AcDbAttributeDefinition
280
     0
  3
Benennung v.:
  2
F70
 70
     0
280
     0
  0
ATTDEF
  5
356
330
312
100
AcDbEntity
  8
TEXT25
100
AcDbText
 10
-140.390233442385
 20
84.56120109651198
 30
0.0
 40
2.0
  1

 41
0.8
  7
TEXT20
100
AcDbAttributeDefinition
280
     0
  3
Bennenung l.:
  2
F66
 70
     0
280
     0
  0
LINE
  5
357
330
312
100
AcDbEntity
  8
KOPF
 62
    12
100
AcDbLine
 10
-100.0
 20
68.49999999999997
 30
0.0
 11
-100.0
 21
46.99999999999997
 31
0.0
  0
LWPOLYLINE
  5
358
330
312
100
AcDbEntity
  8
KOPF
 62
    12
100
AcDbPolyline
 90
        2
 70
     0
 43
0.5
 10
-83.0
 20
46.99999999999997
 10
-83.0
 20
0.0
  0
LINE
  5
359
330
312
100
AcDbEntity
  8
KOPF
100
AcDbLine
 10
-83.0
 20
46.99999999999997
 30
0.0
 11
-83.0
 21
0.0
 31
0.0
  0
TEXT
  5
35A
330
312
100
AcDbEntity
  8
KOPF
100
AcDbText
 10
-81.0
 20
1.714285999999985
 30
0.0
 40
2.0
  1
Ersetzt durch:
 41
0.8
  7
TEXT20
100
AcDbText
  0
LINE
  5
35B
330
312
100
AcDbEntity
  8
KOPF
 62
    12
100
AcDbLine
 10
-113.4
 20
27.0
 30
0.0
 11
-113.4
 21
46.99999999999997
 31
0.0
  0
LWPOLYLINE
  5
35C
330
312
100
AcDbEntity
  8
KOPF
100
AcDbPolyline
 90
        2
 70
     0
 43
0.5
 10
-113.4
 20
27.0
 10
-113.4
 20
46.99999999999997
  0
LINE
  5
35D
330
312
100
AcDbEntity
  8
KOPF
100
AcDbLine
 10
-113.4
 20
27.0
 30
0.0
 11
-113.4
 21
46.99999999999997
 31
0.0
  0
LINE
  5
35E
330
312
100
AcDbEntity
  8
KOPF
100
AcDbLine
 10
-113.4
 20
27.0
 30
0.0
 11
-113.4
 21
46.99999999999997
 31
0.0
  0
ATTDEF
  5
35F
330
312
100
AcDbEntity
  8
TEXT35
100
AcDbText
 10
-104.4935632823758
 20
33.13408015176805
 30
0.0
 40
3.5
  1

 41
0.8
  7
TEXT35
100
AcDbAttributeDefinition
280
     0
  3
Maßstab 2:
  2
F54
 70
     0
280
     0
  0
ATTDEF
  5
360
330
312
100
AcDbEntity
  8
TEXT35
100
AcDbText
 10
-104.487948258847
 20
28.6
 30
0.0
 40
3.5
  1

 41
0.8
  7
TEXT35
100
AcDbAttributeDefinition
280
     0
  3
Maßstab 3:
  2
F55
 70
     0
280
     0
  0
ATTDEF
  5
361
330
312
100
AcDbEntity
  8
TEXT50
100
AcDbText
 10
-106.6
 20
37.8
 30
0.0
 40
5.0
  1

 41
0.8
  7
TEXT50
100
AcDbAttributeDefinition
280
     0
  3
Maßstab 1:
  2
F25
 70
     0
280
     0
  0
TEXT
  5
362
330
312
100
AcDbEntity
  8
KOPF
100
AcDbText
 10
-112.263457
 20
43.88678899999999
 30
0.0
 40
2.0
  1
Massstab:
 41
0.8
  7
TEXT20
100
AcDbText
  0
LINE
  5
363
330
312
100
AcDbEntity
  8
KOPF
 62
    12
100
AcDbLine
 10
-57.80813400000011
 20
27.0
 30
0.0
 11
-57.80813400000011
 21
46.99999999999997
 31
0.0
  0
LINE
  5
364
330
312
100
AcDbEntity
  8
KOPF
100
AcDbLine
 10
-57.80813400000011
 20
27.0
 30
0.0
 11
-57.80813400000011
 21
46.99999999999997
 31
0.0
  0
TEXT
  5
365
330
312
100
AcDbEntity
  8
KOPF
100
AcDbText
 10
-81.59296000000006
 20
23.69783599999999
 30
0.0
 40
2.0
  1
Zeichnung Nr.:
 41
0.8
  7
TEXT20
100
AcDbText
  0
TEXT
  5
366
330
312
100
AcDbEntity
  8
KOPF
100
AcDbText
 10
-81.00375700000006
 20
5.924711999999997
 30
0.0
 40
2.0
  1
Ersatz für:
 41
0.8
  7
TEXT20
100
AcDbText
  0
TEXT
  5
367
330
312
100
AcDbEntity
  8
KOPF
100
AcDbText
 10
-81.59296000000006
 20
23.69783599999999
 30
0.0
 40
2.0
  1
Zeichnung Nr.:
 41
0.8
  7
TEXT20
100
AcDbText
  0
ATTDEF
  5
368
330
312
100
AcDbEntity
  8
TEXT50
100
AcDbText
 10
-78.29193986361122
 20
14.50587824180555
 30
0.0
 40
5.0
  1

 41
0.8
  7
TEXT50
100
AcDbAttributeDefinition
280
     0
  3
Standart:
  2
F1
 70
     0
280
     0
  0
TEXT
  5
369
330
312
100
AcDbEntity
  8
KOPF
100
AcDbText
 10
-81.48889200000008
 20
43.86057200000001
 30
0.0
 40
2.0
  1
Masseinheit:
 41
0.8
  7
TEXT20
100
AcDbText
  0
LINE
  5
36A
330
312
100
AcDbEntity
  8
KOPF
 62
    12
100
AcDbLine
 10
-57.80813400000011
 20
36.213444
 30
0.0
 11
-83.0
 21
36.213444
 31
0.0
  0
LINE
  5
36B
330
312
100
AcDbEntity
  8
KOPF
100
AcDbLine
 10
-57.80813400000011
 20
36.213444
 30
0.0
 11
-83.0
 21
36.213444
 31
0.0
  0
ATTDEF
  5
36C
330
312
100
AcDbEntity
  8
TEXT35
100
AcDbText
 10
-79.40896486611496
 20
38.08722024605356
 30
0.0
 40
3.5
  1

 41
0.8
  7
TEXT35
100
AcDbAttributeDefinition
280
     0
  3
Maßeinheit:
  2
F56
 70
     0
280
     0
  0
TEXT
  5
36D
330
312
100
AcDbEntity
  8
KOPF
100
AcDbText
 10
-33.57569784693112
 20
42.62823225872138
 30
0.0
 40
1.54
  1
Diese Zeichnung darf weder kopiert
 41
0.8
  7
TEXT20
100
AcDbText
  0
TEXT
  5
36E
330
312
100
AcDbEntity
  8
KOPF
100
AcDbText
 10
-33.57569784693112
 20
40.26106040199917
 30
0.0
 40
1.54
  1
noch dritten Personen, insbesondere
 41
0.8
  7
TEXT20
100
AcDbText
  0
TEXT
  5
36F
330
312
100
AcDbEntity
  8
KOPF
100
AcDbText
 10
-33.57569784693112
 20
35.63814072439632
 30
0.0
 40
1.54
  1
mitgeteilt werden und bleibt unser
 41
0.8
  7
TEXT20
100
AcDbText
  0
TEXT
  5
370
330
312
100
AcDbEntity
  8
KOPF
100
AcDbText
 10
-33.57569784693112
 20
33.37532604459598
 30
0.0
 40
1.54
  1
Eigentum.
 41
0.8
  7
TEXT20
100
AcDbText
  0
TEXT
  5
371
330
312
100
AcDbEntity
  8
KOPF
100
AcDbText
 10
-33.57569784693112
 20
37.97994933403727
 30
0.0
 40
1.54
  1
zum Zweck anderweitiger Benutzung
 41
0.8
  7
TEXT20
100
AcDbText
  0
TEXT
  5
372
330
312
100
AcDbEntity
  8
KOPF
100
AcDbText
 10
-33.7904806989385
 20
30.30982488917614
 30
0.0
 40
1.54
  1
Schutzvermerk nach DIN 34 beachten
 41
0.75
  7
TEXT20
100
AcDbText
  0
LINE
  5
373
330
312
100
AcDbEntity
  8
KOPF
100
AcDbLine
 10
-34.94281200000012
 20
47.01203199999999
 30
0.0
 11
-34.94281200000012
 21
27.0
 31
0.0
  0
LINE
  5
374
330
312
100
AcDbEntity
  8
KOPF
100
AcDbLine
 10
-34.94281200000012
 20
47.01203199999999
 30
0.0
 11
-34.94281200000012
 21
27.0
 31
0.0
  0
LINE
  5
375
330
312
100
AcDbEntity
  8
MITTE
100
AcDbLine
 10
-45.85521401410289
 20
36.04852954632858
 30
0.0
 11
-35.23444858652556
 21
36.04852954632858
 31
0.0
  0
LINE
  5
376
330
312
100
AcDbEntity
  8
TEXT50
100
AcDbLine
 10
-45.05865660703466
 20
32.02559619470341
 30
0.0
 11
-36.50894043783512
 21
34.06858135367652
 31
0.0
  0
LINE
  5
377
330
312
100
AcDbEntity
  8
TEXT50
100
AcDbLine
 10
-36.50894043783512
 20
38.02847773898061
 30
0.0
 11
-45.05865660703466
 21
40.07146289795374
 31
0.0
  0
TEXT
  5
378
330
312
100
AcDbEntity
  8
KOPF
100
AcDbText
 10
-57.12244047883302
 20
43.82431699999997
 30
0.0
 40
2.0
  1
Projektion: ISO-E
 41
0.8
  7
TEXT20
100
AcDbText
  0
LINE
  5
379
330
312
100
AcDbEntity
  8
TEXT50
100
AcDbLine
 10
-45.05865660703466
 20
40.07146289795374
 30
0.0
 11
-45.05865660703466
 21
32.02559619470346
 31
0.0
  0
LINE
  5
37A
330
312
100
AcDbEntity
  8
MITTE
100
AcDbLine
 10
-51.4945506424383
 20
40.07146289795374
 30
0.0
 11
-51.4945506424383
 21
30.76413131482123
 31
0.0
  0
CIRCLE
  5
37B
330
312
100
AcDbEntity
  8
TEXT50
100
AcDbCircle
 10
-51.4945506424383
 20
36.04852954632858
 30
0.0
 40
4.022933351625178
  0
CIRCLE
  5
37C
330
312
100
AcDbEntity
  8
TEXT50
100
AcDbCircle
 10
-51.4945506424383
 20
36.04852954632858
 30
0.0
 40
1.979948192651899
  0
LINE
  5
37D
330
312
100
AcDbEntity
  8
MITTE
100
AcDbLine
 10
-56.48631039339966
 20
36.04852954632858
 30
0.0
 11
-46.50279089147699
 21
36.04852954632858
 31
0.0
  0
LINE
  5
37E
330
312
100
AcDbEntity
  8
TEXT50
100
AcDbLine
 10
-36.50894043783512
 20
38.02847773898061
 30
0.0
 11
-36.50894043783512
 21
34.06858135367652
 31
0.0
  0
LWPOLYLINE
  5
37F
330
312
100
AcDbEntity
  8
KOPF
 62
    12
100
AcDbPolyline
 90
        2
 70
     0
 43
0.5
 10
-12.0
 20
27.0
 10
-12.0
 20
10.0
  0
LINE
  5
380
330
312
100
AcDbEntity
  8
KOPF
100
AcDbLine
 10
-12.0
 20
27.0
 30
0.0
 11
-12.0
 21
10.0
 31
0.0
  0
ATTDEF
  5
381
330
312
100
AcDbEntity
  8
TEXT50
100
AcDbText
 10
-5.58570360403041
 20
17.00587824180555
 30
0.0
 40
5.0
  1

 41
0.8
  7
TEXT50
 72
     4
 11
-5.58570360403041
 21
17.00587824180555
 31
0.0
100
AcDbAttributeDefinition
280
     0
  3
Index:
  2
F1B
 70
     0
280
     0
  0
TEXT
  5
382
330
312
100
AcDbEntity
  8
KOPF
100
AcDbText
 10
-8.353129999999964
 20
23.330072
 30
0.0
 40
2.0
  1
Index
 41
0.8
  7
TEXT20
100
AcDbText
  0
TEXT
  5
383
330
312
100
AcDbEntity
  8
KOPF
100
AcDbText
 10
-94.40535829344497
 20
70.39773773357916
 30
0.0
 40
2.0
  1
Benennung
 41
0.8
  7
TEXT20
100
AcDbText
  0
LINE
  5
384
330
312
100
AcDbEntity
  8
KOPF
100
AcDbLine
 10
-15.0
 20
88.49999999999996
 30
0.0
 11
-15.0
 21
68.49999999999997
 31
0.0
  0
LINE
  5
385
330
312
100
AcDbEntity
  8
KOPF
100
AcDbLine
 10
-15.0
 20
88.49999999999996
 30
0.0
 11
-15.0
 21
68.49999999999997
 31
0.0
  0
TEXT
  5
386
330
312
100
AcDbEntity
  8
KOPF
100
AcDbText
 10
-11.65833600000008
 20
69.53813999999997
 30
0.0
 40
2.0
  1
Name
 41
0.8
  7
TEXT20
100
AcDbText
  0
TEXT
  5
387
330
312
100
AcDbEntity
  8
KOPF
100
AcDbText
 10
-11.65833600000008
 20
69.53813999999997
 30
0.0
 40
2.0
  1
Name
 41
0.8
  7
TEXT20
100
AcDbText
  0
ATTDEF
  5
388
330
312
100
AcDbEntity
  8
TEXT25
100
AcDbText
 10
-13.39999999999998
 20
74.90000000000001
 30
0.0
 40
2.0
  1

 41
0.8
  7
TEXT20
100
AcDbAttributeDefinition
280
     0
  3
Name vv.:
  2
F75
 70
     0
280
     0
  0
ATTDEF
  5
389
330
312
100
AcDbEntity
  8
TEXT25
100
AcDbText
 10
-13.39999999999998
 20
79.7
 30
0.0
 40
2.0
  1

 41
0.8
  7
TEXT20
100
AcDbAttributeDefinition
280
     0
  3
Name v.:
  2
F71
 70
     0
280
     0
  0
ATTDEF
  5
38A
330
312
100
AcDbEntity
  8
TEXT25
100
AcDbText
 10
-13.31006638105163
 20
84.29999999999999
 30
0.0
 40
2.0
  1

 41
0.8
  7
TEXT20
100
AcDbAttributeDefinition
280
     0
  3
Name l.:
  2
F67
 70
     0
280
     0
  0
LINE
  5
38B
330
312
100
AcDbEntity
  8
KOPF
100
AcDbLine
 10
-182.0
 20
36.99999999999997
 30
0.0
 11
-113.4
 21
36.99999999999997
 31
0.0
  0
LINE
  5
38C
330
312
100
AcDbEntity
  8
KOPF
100
AcDbLine
 10
-182.0
 20
31.99999999999997
 30
0.0
 11
-113.4
 21
31.99999999999997
 31
0.0
  0
MTEXT
  5
38D
330
312
100
AcDbEntity
  8
Sperrlayer
 62
     1
100
AcDbMText
 10
-166.0749851709908
 20
9.027899370527848
 30
0.0
 40
10.0
 41
771.0
 46
0.0
 71
     1
 72
     5
  1
VORABZUG - nicht FREIGEGEBEN !
  7
TEXT20
 11
0.8660254037844387
 21
0.5
 31
0.0
 73
     1
 44
1.0
  0
ENDBLK
  5
38F
330
312
100
AcDbEntity
  8
0
100
AcDbBlockEnd
  0
BLOCK
  5
3C2
330
3B2
100
AcDbEntity
  8
0
100
AcDbBlockBegin
  2
logo_1200
 70
     0
 10
0.0
 20
0.0
 30
0.0
  3
logo_1200
  1

  0
TEXT
  5
3B3
330
3B2
100
AcDbEntity
  8
TEXT25
100
AcDbText
 10
-62.75122066833545
 20
52.38243367792947
 30
0.0
 40
2.0
  1
582 22 Pribyslav
 41
0.8
  7
TEXT25
100
AcDbText
  0
CIRCLE
  5
3B4
330
3B2
100
AcDbEntity
  8
TEXT35
100
AcDbCircle
 10
-77.90633268923627
 20
54.91319723090533
 30
0.0
 40
2.281499999999998
  0
CIRCLE
  5
3B5
330
3B2
100
AcDbEntity
  8
TEXT35
100
AcDbCircle
 10
-77.90633268923627
 20
54.91319723090533
 30
0.0
 40
1.579499999999999
  0
LWPOLYLINE
  5
3B6
330
3B2
100
AcDbEntity
  8
TEXT35
100
AcDbPolyline
 90
        4
 70
     1
 43
0.0
 10
-83.00295180105614
 20
54.12344723090529
 42
-3.664441495333134
 10
-83.01773608902488
 20
55.72801804658638
 10
-82.4097147917411
 20
56.07905930624621
 42
3.685001202565794
 10
-82.39500196759946
 20
53.77244723090529
  0
LWPOLYLINE
  5
3B7
330
3B2
100
AcDbEntity
  8
TEXT35
100
AcDbPolyline
 90
        4
 70
     1
 43
0.0
 10
-87.16522368075901
 20
64.67896593129956
 10
-87.16522368075901
 20
51.4441636102955
 10
-81.57645417190838
 20
51.4441636102955
 10
-81.57645417190838
 20
64.67896593129956
  0
LWPOLYLINE
  5
3B8
330
3B2
100
AcDbEntity
  8
TEXT35
100
AcDbPolyline
 90
        4
 70
     1
 43
0.0
 10
-75.11194793481099
 20
64.67896593129956
 10
-75.11194793481099
 20
51.4441636102955
 10
-80.70071744366158
 20
51.4441636102955
 10
-80.70071744366158
 20
64.67896593129956
  0
TEXT
  5
3B9
330
3B2
100
AcDbEntity
  8
TEXT25
100
AcDbText
 10
-42.07144434927065
 20
52.73160429576707
 30
0.0
 40
2.1
  1
Fax: +420 569 484 848
 41
0.7
  7
ROMANS8
100
AcDbText
  0
LWPOLYLINE
  5
3BA
330
3B2
100
AcDbEntity
  8
TEXT35
100
AcDbPolyline
 90
        7
 70
     1
 43
0.0
 10
-92.41478278366415
 20
52.60099048123299
 42
-0.0323236910300514
 10
-92.37060365720655
 20
53.23414235224742
 10
-89.30008666965568
 20
53.23414235224742
 42
-0.0323236910300515
 10
-89.25590754319818
 20
52.60099048123299
 10
-88.55389974564616
 20
52.60099048123299
 42
0.2369604974400691
 10
-90.83534516343117
 20
57.0951423522472
 42
0.2369604974400691
 10
-93.11679058121619
 20
52.60099048123299
  0
LWPOLYLINE
  5
3BB
330
3B2
100
AcDbEntity
  8
TEXT35
100
AcDbPolyline
 90
        4
 70
     1
 43
0.0
 10
-93.62972991785644
 20
64.67896593129956
 10
-93.62972991785644
 20
51.4441636102955
 10
-88.04096040900587
 20
51.4441636102955
 10
-88.04096040900587
 20
64.67896593129956
  0
LWPOLYLINE
  5
3BC
330
3B2
100
AcDbEntity
  8
TEXT25
100
AcDbPolyline
 90
        3
 70
     0
 43
0.0
 10
-57.65641467769126
 20
58.02057702122401
 10
-57.34643565818164
 20
57.67744438935747
 10
-57.06966783454433
 20
58.04271477888098
  0
TEXT
  5
3BD
330
3B2
100
AcDbEntity
  8
TEXT25
100
AcDbText
 10
-62.46488457919316
 20
56.00873140993094
 30
0.0
 40
2.0
  1
Havlickova 260
 41
0.8
  7
TEXT25
100
AcDbText
  0
TEXT
  5
3BE
330
3B2
100
AcDbEntity
  8
TEXT35
100
AcDbText
 10
-63.01986452254318
 20
61.20180074934168
 30
0.0
 40
3.0
  1
ACO Stavebni prvky k.s
 41
0.8
  7
ITALICC8
100
AcDbText
  0
LWPOLYLINE
  5
3BF
330
3B2
100
AcDbEntity
  8
TEXT35
100
AcDbPolyline
 90
        3
 70
     1
 43
0.0
 10
-90.83534516343108
 20
56.18573248981441
 42
-0.1369919174131033
 10
-89.44776560816123
 20
53.93614235224742
 10
-92.22292471870108
 20
53.93614235224742
 42
-0.136991917413112
  0
TEXT
  5
3C0
330
3B2
100
AcDbEntity
  8
TEXT25
100
AcDbText
 10
-42.12418048628376
 20
56.06021119287449
 30
0.0
 40
2.1
  1
Tel.:+420 569 491 111
 41
0.7
  7
ROMANS8
100
AcDbText
  0
LWPOLYLINE
  5
3C1
330
3B2
100
AcDbEntity
  8
TEXT25
100
AcDbPolyline
 90
        3
 70
     0
 43
0.0
 10
-54.37217074633299
 20
54.52955947101651
 10
-54.06219172682341
 20
54.18642683914997
 10
-53.78542390318611
 20
54.55169722867349
  0
ENDBLK
  5
3C3
330
3B2
100
AcDbEntity
  8
0
100
AcDbBlockEnd
  0
BLOCK
  5
4AA
330
4A8
100
AcDbEntity
  8
0
100
AcDbBlockBegin
  2
GENAXEH
 70
     0
 10
0.0
 20
0.0
 30
0.0
  3
GENAXEH
  1

  0
LINE
  5
4A9
330
4A8
100
AcDbEntity
  8
0
100
AcDbLine
 10
-1.0
 20
0.0
 30
0.0
 11
1.0
 21
0.0
 31
0.0
  0
ENDBLK
  5
4AB
330
4A8
100
AcDbEntity
  8
0
100
AcDbBlockEnd
  0
BLOCK
  5
55D
330
55C
100
AcDbEntity
  8
0
100
AcDbBlockBegin
  2
_ACMFILLEDHALF
 70
     0
 10
0.0
 20
0.0
 30
0.0
  3
_ACMFILLEDHALF
  1

  0
TRACE
  5
55F
330
55C
100
AcDbEntity
  8
BEMASS
 62
     0
100
AcDbTrace
 10
-0.8
 20
0.0
 30
0.0
 11
-1.0
 21
0.166666666
 31
0.0
 12
0.0
 22
0.0
 32
0.0
 13
0.0
 23
0.0
 33
0.0
  0
LINE
  5
560
330
55C
100
AcDbEntity
  8
BEMASS
 62
     0
100
AcDbLine
 10
-1.0
 20
0.0
 30
0.0
 11
-0.8
 21
0.0
 31
0.0
  0
ENDBLK
  5
55E
330
55C
100
AcDbEntity
  8
0
100
AcDbBlockEnd
  0
ENDSEC
  0
SECTION
  2
ENTITIES
  0
LINE
  5
3
330
2
100
AcDbEntity
  8
MITTE
100
AcDbLine
 10
81.79964233159626
 20
106.0627376248009
 30
0.0
 11
231.7996423315962
 21
106.0627376248009
 31
0.0
  0
LINE
  5
9
330
2
100
AcDbEntity
  8
MITTE
100
AcDbLine
 10
156.7996423315962
 20
31.06273762480089
 30
0.0
 11
156.7996423315962
 21
181.0627376248009
 31
0.0
  0
LINE
  5
AF
330
2
100
AcDbEntity
  8
SICHTBAR
100
AcDbLine
 10
81.79964233159626
 20
31.06273762480089
 30
0.0
 11
231.7996423315963
 21
31.06273762480089
 31
0.0
  0
LINE
  5
B0
330
2
100
AcDbEntity
  8
SICHTBAR
100
AcDbLine
 10
231.7996423315963
 20
31.06273762480089
 30
0.0
 11
231.7996423315962
 21
181.0627376248008
 31
0.0
  0
LINE
  5
B1
330
2
100
AcDbEntity
  8
SICHTBAR
100
AcDbLine
 10
231.7996423315963
 20
181.0627376248009
 30
0.0
 11
81.79964233159626
 21
181.0627376248009
 31
0.0
  0
LINE
  5
B2
330
2
100
AcDbEntity
  8
SICHTBAR
100
AcDbLine
 10
81.79964233159626
 20
181.0627376248008
 30
0.0
 11
81.79964233159626
 21
31.06273762480089
 31
0.0
  0
DIMENSION
  5
B4
330
2
100
AcDbEntity
  8
BEMASS
100
AcDbDimension
280
     0
  2
*D7
 10
231.7996423315963
 20
15.80677123796545
 30
0.0
 11
156.7996423315962
 21
19.30677123796545
 31
0.0
 70
    32
 71
     5
 42
150.0
 73
     0
 74
     0
 75
     0
  3
STANDARD
100
AcDbAlignedDimension
 13
81.79964233159626
 23
31.06273762480089
 33
0.0
 14
231.7996423315963
 24
31.06273762480089
 34
0.0
100
AcDbRotatedDimension
  0
CIRCLE
  5
C2
330
2
100
AcDbEntity
  8
SICHTBAR
100
AcDbCircle
 10
156.7996423315962
 20
106.0627376248009
 30
0.0
 40
59.5
  0
CIRCLE
  5
C3
330
2
100
AcDbEntity
  8
SICHTBAR
100
AcDbCircle
 10
156.7996423315962
 20
106.0627376248009
 30
0.0
 40
60.0
  0
CIRCLE
  5
CA
330
2
100
AcDbEntity
  8
MITTE
100
AcDbCircle
 10
156.7996423315962
 20
106.0627376248009
 30
0.0
 40
46.0
  0
CIRCLE
  5
CB
330
2
100
AcDbEntity
  8
SICHTBAR
100
AcDbCircle
 10
202.7996423315963
 20
106.0627376248009
 30
0.0
 40
7.5
  0
CIRCLE
  5
CC
330
2
100
AcDbEntity
  8
SICHTBAR
100
AcDbCircle
 10
195.4973048418306
 20
130.9322152277583
 30
0.0
 40
7.5
  0
CIRCLE
  5
CD
330
2
100
AcDbEntity
  8
SICHTBAR
100
AcDbCircle
 10
175.908732929683
 20
147.9058094111087
 30
0.0
 40
7.5
  0
CIRCLE
  5
CE
330
2
100
AcDbEntity
  8
SICHTBAR
100
AcDbCircle
 10
150.2531597710252
 20
151.5945239513238
 30
0.0
 40
7.5
  0
CIRCLE
  5
CF
330
2
100
AcDbEntity
  8
SICHTBAR
100
AcDbCircle
 10
126.6760485701132
 20
140.8272180450968
 30
0.0
 40
7.5
  0
CIRCLE
  5
D0
330
2
100
AcDbEntity
  8
SICHTBAR
100
AcDbCircle
 10
112.6629655453294
 20
119.0224352395067
 30
0.0
 40
7.5
  0
CIRCLE
  5
D1
330
2
100
AcDbEntity
  8
SICHTBAR
100
AcDbCircle
 10
112.6629655453294
 20
93.10304001009512
 30
0.0
 40
7.5
  0
CIRCLE
  5
D2
330
2
100
AcDbEntity
  8
SICHTBAR
100
AcDbCircle
 10
126.6760485701131
 20
71.29825720450501
 30
0.0
 40
7.5
  0
CIRCLE
  5
D3
330
2
100
AcDbEntity
  8
SICHTBAR
100
AcDbCircle
 10
150.2531597710251
 20
60.53095129827795
 30
0.0
 40
7.5
  0
CIRCLE
  5
D4
330
2
100
AcDbEntity
  8
SICHTBAR
100
AcDbCircle
 10
175.908732929683
 20
64.21966583849301
 30
0.0
 40
7.5
  0
CIRCLE
  5
D5
330
2
100
AcDbEntity
  8
SICHTBAR
100
AcDbCircle
 10
195.4973048418306
 20
81.19326002184338
 30
0.0
 40
7.5
  0
LINE
  5
E2
330
2
100
AcDbEntity
  8
MITTE
100
AcDbLine
 10
156.7996423315962
 20
226.5912795661543
 30
0.0
 11
156.7996423315963
 21
359.1301652289784
 31
0.0
  0
LINE
  5
E3
330
2
100
AcDbEntity
  8
SICHTBAR
100
AcDbLine
 10
211.7996423315958
 20
282.1301652289784
 30
0.0
 11
211.7996423315959
 21
350.1301652289786
 31
0.0
  0
DIMENSION
  5
E4
330
2
100
AcDbEntity
  8
BEMASS
100
AcDbDimension
280
     0
  2
*D9
 10
72.07871750108711
 20
354.1301652289785
 30
0.0
 11
68.57871750108704
 21
312.6301652289785
 31
0.0
 70
    32
 71
     5
 42
83.00000000000006
 73
     0
 74
     0
 75
     0
  3
STANDARD
100
AcDbAlignedDimension
 13
112.7996423315967
 23
271.1301652289785
 33
0.0
 14
81.79964233159626
 24
354.1301652289785
 34
0.0
 50
90.0
100
AcDbRotatedDimension
  0
LINE
  5
F1
330
2
100
AcDbEntity
  8
SICHTBAR
100
AcDbLine
 10
101.7996423315966
 20
282.1301652289784
 30
0.0
 11
101.7996423315966
 21
351.1301652289786
 31
0.0
  0
LINE
  5
F2
330
2
100
AcDbEntity
  8
SICHTBAR
100
AcDbLine
 10
131.7996423315962
 20
231.1301652289785
 30
0.0
 11
181.7996423315963
 21
231.1301652289785
 31
0.0
  0
ARC
  5
F3
330
2
100
AcDbEntity
  8
SICHTBAR
100
AcDbCircle
 10
112.7996423315966
 20
282.1301652289784
 30
0.0
 40
11.0
100
AcDbArc
 50
180.0000000000001
 51
270.0000000000002
  0
LINE
  5
F4
330
2
100
AcDbEntity
  8
SICHTBAR
100
AcDbLine
 10
131.7996423315962
 20
231.1301652289785
 30
0.0
 11
131.7996423315962
 21
271.1301652289785
 31
0.0
  0
DIMENSION
  5
F5
330
2
100
AcDbEntity
  8
BEMASS
100
AcDbDimension
280
     0
  2
*D8
 10
72.33097472591635
 20
231.1301652289785
 30
0.0
 11
68.8309747259163
 21
251.1301652289785
 31
0.0
 70
    32
 71
     5
 42
39.99999999999992
 73
     0
 74
     0
 75
     0
  3
STANDARD
100
AcDbAlignedDimension
 13
93.21702831720722
 23
271.1301652289785
 33
0.0
 14
132.7996423315962
 24
231.1301652289785
 34
0.0
 50
90.0
100
AcDbRotatedDimension
  0
LINE
  5
102
330
2
100
AcDbEntity
  8
SICHTBAR
100
AcDbLine
 10
131.7996423315962
 20
271.1301652289785
 30
0.0
 11
112.7996423315967
 21
271.1301652289785
 31
0.0
  0
ARC
  5
103
330
2
100
AcDbEntity
  8
SICHTBAR
100
AcDbCircle
 10
200.7996423315959
 20
282.1301652289784
 30
0.0
 40
11.0
100
AcDbArc
 50
269.9999999999998
 51
360.0
  0
LINE
  5
104
330
2
100
AcDbEntity
  8
SICHTBAR
100
AcDbLine
 10
181.7996423315963
 20
231.1301652289785
 30
0.0
 11
181.7996423315963
 21
271.1301652289785
 31
0.0
  0
LINE
  5
105
330
2
100
AcDbEntity
  8
SICHTBAR
100
AcDbLine
 10
181.7996423315963
 20
271.1301652289785
 30
0.0
 11
200.7996423315958
 21
271.1301652289785
 31
0.0
  0
LINE
  5
106
330
2
100
AcDbEntity
  8
SICHTBAR
100
AcDbLine
 10
81.79964233159626
 20
359.1301652289784
 30
0.0
 11
231.7996423315963
 21
359.1301652289784
 31
0.0
  0
LINE
  5
107
330
2
100
AcDbEntity
  8
SICHTBAR
100
AcDbLine
 10
111.0496423315963
 20
354.1301652289785
 30
0.0
 11
211.7996423315963
 21
354.1301652289785
 31
0.0
  0
LINE
  5
108
330
2
100
AcDbEntity
  8
SICHTBAR
100
AcDbLine
 10
112.0496423315963
 20
359.1301652289785
 30
0.0
 11
201.5496423315963
 21
359.1301652289784
 31
0.0
  0
LINE
  5
109
330
2
100
AcDbEntity
  8
SICHTBAR
100
AcDbLine
 10
99.79964233159655
 20
353.1301652289786
 30
0.0
 11
91.79964233159655
 21
353.1301652289785
 31
0.0
  0
LINE
  5
10A
330
2
100
AcDbEntity
  8
SICHTBAR
100
AcDbLine
 10
111.0496423315963
 20
354.1301652289785
 30
0.0
 11
81.79964233159626
 21
354.1301652289783
 31
0.0
  0
LINE
  5
10B
330
2
100
AcDbEntity
  8
SICHTBAR
100
AcDbLine
 10
81.79964233159626
 20
354.1301652289783
 30
0.0
 11
81.79964233159626
 21
359.1301652289784
 31
0.0
  0
LINE
  5
10C
330
2
100
AcDbEntity
  8
SICHTBAR
100
AcDbLine
 10
91.79964233159655
 20
353.1301652289785
 30
0.0
 11
91.79964233159655
 21
354.1301652289785
 31
0.0
  0
ARC
  5
10D
330
2
100
AcDbEntity
  8
SICHTBAR
100
AcDbCircle
 10
99.79964233159661
 20
351.1301652289786
 30
0.0
 40
2.0
100
AcDbArc
 50
0.0000000000000579
 51
90.00000000000129
  0
ARC
  5
10E
330
2
100
AcDbEntity
  8
SICHTBAR
100
AcDbCircle
 10
214.7996423315959
 20
350.1301652289786
 30
0.0
 40
3.0
100
AcDbArc
 50
89.9999999999987
 51
179.9999999999999
  0
LINE
  5
10F
330
2
100
AcDbEntity
  8
SICHTBAR
100
AcDbLine
 10
211.7996423315963
 20
354.1301652289785
 30
0.0
 11
217.7996423315963
 21
354.1301652289785
 31
0.0
  0
LINE
  5
110
330
2
100
AcDbEntity
  8
SICHTBAR
100
AcDbLine
 10
231.7996423315963
 20
354.1301652289783
 30
0.0
 11
231.7996423315963
 21
359.1301652289784
 31
0.0
  0
LINE
  5
111
330
2
100
AcDbEntity
  8
SICHTBAR
100
AcDbLine
 10
216.5496423315963
 20
354.1301652289783
 30
0.0
 11
231.7996423315963
 21
354.1301652289783
 31
0.0
  0
LINE
  5
112
330
2
100
AcDbEntity
  8
SICHTBAR
100
AcDbLine
 10
214.799642331596
 20
353.1301652289786
 30
0.0
 11
221.799642331596
 21
353.1301652289785
 31
0.0
  0
LINE
  5
113
330
2
100
AcDbEntity
  8
SICHTBAR
100
AcDbLine
 10
221.799642331596
 20
353.1301652289785
 30
0.0
 11
221.799642331596
 21
354.1301652289785
 31
0.0
  0
LINE
  5
114
330
2
100
AcDbEntity
  8
SICHTBAR
100
AcDbLine
 10
131.7996423315962
 20
271.1301652289785
 30
0.0
 11
181.7996423315963
 21
271.1301652289785
 31
0.0
  0
LWPOLYLINE
  5
115
330
2
100
AcDbEntity
  8
SICHTBAR
100
AcDbPolyline
 90
        4
 70
     1
 43
0.0
 10
150.7996423315963
 20
278.1301652289785
 10
162.7996423315963
 20
278.1301652289785
 10
162.7996423315963
 20
338.1301652289785
 10
150.7996423315963
 20
338.1301652289785
  0
CIRCLE
  5
116
330
2
100
AcDbEntity
  8
SICHTBAR
100
AcDbCircle
 10
156.7996423315963
 20
288.1301652289785
 30
0.0
 40
2.5
  0
LINE
  5
117
330
2
100
AcDbEntity
  8
SICHTBAR
100
AcDbLine
 10
211.7996423315963
 20
338.1301652289784
 30
0.0
 11
211.7996423315963
 21
328.1301652289784
 31
0.0
  0
LINE
  5
118
330
2
100
AcDbEntity
  8
SICHTBAR
100
AcDbLine
 10
220.4820512149428
 20
278.8897775783681
 30
0.0
 11
221.4668589679551
 21
279.063425756035
 31
0.0
  0
LINE
  5
119
330
2
100
AcDbEntity
  8
SICHTBAR
100
AcDbLine
 10
221.4668589679551
 20
279.063425756035
 30
0.0
 11
212.7844500846085
 21
328.3038134066454
 31
0.0
  0
LINE
  5
11A
330
2
100
AcDbEntity
  8
SICHTBAR
100
AcDbLine
 10
212.7996423315963
 20
338.1301652289784
 30
0.0
 11
211.7996423315963
 21
338.1301652289784
 31
0.0
  0
LINE
  5
11B
330
2
100
AcDbEntity
  8
SICHTBAR
100
AcDbLine
 10
211.7996423315963
 20
328.1301652289784
 30
0.0
 11
220.4820512149428
 21
278.8897775783681
 31
0.0
  0
LINE
  5
11C
330
2
100
AcDbEntity
  8
SICHTBAR
100
AcDbLine
 10
212.7996423315963
 20
328.1301652289784
 30
0.0
 11
212.7996423315963
 21
338.1301652289784
 31
0.0
  0
LINE
  5
11D
330
2
100
AcDbEntity
  8
SICHTBAR
100
AcDbLine
 10
92.13242569523751
 20
279.0634257560351
 30
0.0
 11
100.8148345785841
 21
328.3038134066455
 31
0.0
  0
LINE
  5
11E
330
2
100
AcDbEntity
  8
SICHTBAR
100
AcDbLine
 10
101.7996423315963
 20
328.1301652289786
 30
0.0
 11
93.11723344824969
 21
278.8897775783682
 31
0.0
  0
LINE
  5
11F
330
2
100
AcDbEntity
  8
SICHTBAR
100
AcDbLine
 10
93.11723344824969
 20
278.8897775783682
 30
0.0
 11
92.13242569523751
 21
279.0634257560351
 31
0.0
  0
LINE
  5
120
330
2
100
AcDbEntity
  8
SICHTBAR
100
AcDbLine
 10
101.7996423315963
 20
338.1301652289786
 30
0.0
 11
101.7996423315963
 21
328.1301652289786
 31
0.0
  0
LINE
  5
121
330
2
100
AcDbEntity
  8
SICHTBAR
100
AcDbLine
 10
100.7996423315963
 20
328.1301652289786
 30
0.0
 11
100.7996423315963
 21
338.1301652289786
 31
0.0
  0
LINE
  5
122
330
2
100
AcDbEntity
  8
SICHTBAR
100
AcDbLine
 10
100.7996423315963
 20
338.1301652289786
 30
0.0
 11
101.7996423315963
 21
338.1301652289786
 31
0.0
  0
DIMENSION
  5
12F
330
2
100
AcDbEntity
  8
BEMASS
100
AcDbDimension
280
     0
  2
*D10
 10
72.07871750108711
 20
354.1301652289783
 30
0.0
 11
68.57871750108706
 21
356.6301652289784
 31
0.0
 70
    32
 71
     5
 42
5.0
 73
     0
 74
     0
 75
     0
  3
STANDARD
100
AcDbAlignedDimension
 13
81.79964233159626
 23
359.1301652289784
 33
0.0
 14
81.7996423315963
 24
354.1301652289783
 34
0.0
 50
90.0
100
AcDbRotatedDimension
  0
DIMENSION
  5
14A
330
2
100
AcDbEntity
  8
BEMASS
100
AcDbDimension
280
     0
  2
*D12
 10
257.4620365201541
 20
31.06273762480091
 30
0.0
 11
252.4320190370167
 21
106.0627376248009
 31
0.0
 70
   160
 71
     5
 42
150.0
 73
     0
 74
     0
 75
     0
  3
STANDARD
100
AcDbAlignedDimension
 13
231.7996423315963
 23
181.0627376248009
 33
0.0
 14
231.7996423315963
 24
31.06273762480089
 34
0.0
 50
90.0
100
AcDbRotatedDimension
  0
DIMENSION
  5
157
330
2
100
AcDbEntity
  8
BEMASS
100
AcDbDimension
280
     0
  2
*D13
 10
181.7996423315963
 20
217.0002272400448
 30
0.0
 11
156.7996423315963
 21
220.5002272400447
 31
0.0
 70
    32
  1
%%c<>
 71
     5
 42
50.00000000000006
 73
     0
 74
     0
 75
     0
  3
STANDARD
100
AcDbAlignedDimension
 13
131.7996423315962
 23
234.1301652289785
 33
0.0
 14
181.7996423315963
 24
234.1301652289785
 34
0.0
100
AcDbRotatedDimension
  0
DIMENSION
  5
164
330
2
100
AcDbEntity
  8
BEMASS
100
AcDbDimension
280
     0
  2
*D14
 10
211.7996423315958
 20
205.8640580370238
 30
0.0
 11
156.7996423315962
 21
209.3640580370238
 31
0.0
 70
    32
  1
%%c<>
 71
     5
 42
109.9999999999992
 73
     0
 74
     0
 75
     0
  3
STANDARD
100
AcDbAlignedDimension
 13
101.7996423315966
 23
282.1301652289784
 33
0.0
 14
211.7996423315958
 24
282.1301652289784
 34
0.0
100
AcDbRotatedDimension
  0
DIMENSION
  5
171
330
2
100
AcDbEntity
  8
BEMASS
100
AcDbDimension
280
     0
  2
*D15
 10
162.7996423315963
 20
370.7829835525881
 30
0.0
 11
156.7996423315963
 21
374.2829835525881
 31
0.0
 70
    32
  1
9
 71
     5
 42
12.0
 73
     0
 74
     0
 75
     0
  3
STANDARD
100
AcDbAlignedDimension
 13
150.7996423315963
 23
338.1301652289785
 33
0.0
 14
162.7996423315963
 24
338.1301652289785
 34
0.0
100
AcDbRotatedDimension
  0
DIMENSION
  5
17E
330
2
100
AcDbEntity
  8
BEMASS
100
AcDbDimension
280
     0
  2
*D16
 10
140.1480563588382
 20
278.1301652289785
 30
0.0
 11
136.6480563588381
 21
308.1301652289786
 31
0.0
 70
    32
 71
     5
 42
60.0
 73
     0
 74
     0
 75
     0
  3
STANDARD
100
AcDbAlignedDimension
 13
150.7996423315963
 23
338.1301652289785
 33
0.0
 14
150.7996423315963
 24
278.1301652289785
 34
0.0
 50
90.0
100
AcDbRotatedDimension
  0
DIMENSION
  5
18B
330
2
100
AcDbEntity
  8
BEMASS
100
AcDbDimension
280
     0
  2
*D17
 10
254.626204328755
 20
231.1301652289785
 30
0.0
 11
251.1262043287549
 21
295.1301652289785
 31
0.0
 70
    32
 71
     5
 42
127.9999999999999
 73
     0
 74
     0
 75
     0
  3
STANDARD
100
AcDbAlignedDimension
 13
231.7996423315963
 23
359.1301652289784
 33
0.0
 14
181.7996423315963
 24
231.1301652289785
 34
0.0
 50
90.0
100
AcDbRotatedDimension
  0
LINE
  5
1B8
330
2
100
AcDbEntity
  8
SICHTBAR
100
AcDbLine
 10
101.7996423315966
 20
342.1301652289786
 30
0.0
 11
211.7996423315963
 21
342.1301652289785
 31
0.0
  0
LINE
  5
1B9
330
2
100
AcDbEntity
  8
SICHTBAR
100
AcDbLine
 10
99.79964233159655
 20
353.1301652289786
 30
0.0
 11
214.799642331596
 21
353.1301652289786
 31
0.0
  0
VIEWPORT
  5
2EF
330
2EE
100
AcDbEntity
 67
     1
  8
0
100
AcDbViewport
 10
125.1232526640179
 20
108.2407298859484
 30
0.0
 40
149.2209516653435
 41
93.81046284153089
 68
     2
 69
     1
 12
125.1232526640179
 22
108.2407298859484
 13
0.0
 23
0.0
 14
1.0
 24
1.0
 15
0.0
 25
0.0
 16
0.0
 26
0.0
 36
1.0
 17
0.0
 27
0.0
 37
0.0
 42
50.0
 43
0.0
 44
0.0
 45
93.81046284153089
 50
0.0
 51
0.0
 72
   100
 90
    32800
  1

281
     0
 71
     1
 74
     0
110
0.0
120
0.0
130
0.0
111
1.0
121
0.0
131
0.0
112
0.0
122
1.0
132
0.0
 79
     0
146
0.0
170
     0
 61
     5
348
3E8
292
     1
282
     1
141
0.0
142
0.0
 63
   250
421
  3355443
1001
GENIUS_GENOBJ-N-SDF_13
1002
{
1000
OWNER
1000
GEN
1002
}
1001
GENIUS_GENODEF_13
1002
{
1000
HIER
1070
     0
1002
}
1002
{
1000
MANEDIT
1070
     0
1002
}
1002
{
1000
NOSEL
1070
     0
1002
}
1002
{
1000
BEHIND
1070
     0
1002
}
1002
{
1000
OTHER
1070
     0
1002
}
1002
{
1000
REACTOR
1002
}
1001
GENIUS_GENSCREG_15
1000
PF
1040
1.0
1000
DF
1040
1.0
1000
MIN
1011
50.51277683134614
1021
61.33549846518301
1031
0.0
1000
MAX
1011
199.7337284966897
1021
155.1459613067139
1031
0.0
1000
FLAGS
1070
     4
  0
VIEWPORT
  5
2F1
330
2EE
100
AcDbEntity
 67
     1
  8
AFEN
100
AcDbViewport
 10
143.143799
 20
101.390615
 30
0.0
 40
285.932402
 41
198.87477
 68
     1
 69
     2
 12
291.5244840565424
 22
236.7777109490447
 13
0.0
 23
0.0
 14
1.0
 24
1.0
 15
20.0
 25
20.0
 16
0.0
 26
0.0
 36
1.0
 17
0.0
 27
0.0
 37
0.0
 42
50.0
 43
0.0
 44
0.0
 45
305.9466135540468
 50
0.0
 51
0.0
 72
   100
 90
    32800
  1

281
     0
 71
     1
 74
     0
110
0.0
120
0.0
130
0.0
111
1.0
121
0.0
131
0.0
112
0.0
122
1.0
132
0.0
 79
     0
146
0.0
170
     0
 61
     5
348
3E8
292
     1
282
     1
141
0.0
142
0.0
 63
   250
421
  3355443
1001
GENIUS_GENOBJ-N-SDF_13
1002
{
1000
OWNER
1000
GEN
1002
}
1001
GENIUS_GENODEF_13
1002
{
1000
HIER
1070
     0
1002
}
1002
{
1000
MANEDIT
1070
     0
1002
}
1002
{
1000
NOSEL
1070
     0
1002
}
1002
{
1000
BEHIND
1070
     0
1002
}
1002
{
1000
OTHER
1070
     0
1002
}
1002
{
1000
REACTOR
1002
}
1001
GENIUS_GENSCREG_15
1000
PF
1040
0.0
1000
DF
1040
0.0
1000
MIN
1011
0.177597999999989
1021
1.95322999999999
1031
0.0
1000
MAX
1011
286.11
1021
200.828
1031
0.0
1000
FLAGS
1070
     4
  0
ENDSEC
  0
SECTION
  2
OBJECTS
  0
DICTIONARY
  5
7
330
0
100
AcDbDictionary
281
     1
  3
ACAD_CIP_PREVIOUS_PRODUCT_INFO
350
517
  3
ACAD_COLOR
350
30B
  3
ACAD_DETAILVIEWSTYLE
350
50A
  3
ACAD_FIELDLIST
350
566
  3
ACAD_GROUP
350
304
  3
ACAD_LAYOUT
350
2ED
  3
ACAD_MATERIAL
350
30A
  3
ACAD_MLEADERSTYLE
350
415
  3
ACAD_MLINESTYLE
350
305
  3
ACAD_PLOTSETTINGS
350
306
  3
ACAD_PLOTSTYLENAME
350
6
  3
ACAD_SCALELIST
350
3F3
  3
ACAD_SECTIONVIEWSTYLE
350
508
  3
ACAD_TABLESTYLE
350
30C
  3
ACAD_VISUALSTYLE
350
3E2
  3
ACDB_RECOMPOSE_DATA
350
58C
  3
AcDbVariableDictionary
350
3C5
  3
AcmDictionary
350
485
  3
AMG
350
420
  3
AMGSNAPSETTINGS
350
4ED
  0
DICTIONARY
  5
4BF
330
14
100
AcDbDictionary
280
     1
281
     1
  3
ADSK_XREC_LAYER_RECONCILED
360
4C0
  0
DICTIONARY
  5
4C1
330
B
100
AcDbDictionary
280
     1
281
     1
  3
ADSK_XREC_LAYER_RECONCILED
360
4C2
  0
DICTIONARY
  5
4C3
330
5E
100
AcDbDictionary
280
     1
281
     1
  3
ADSK_XREC_LAYER_RECONCILED
360
4C4
  0
DICTIONARY
  5
4C5
330
20C
100
AcDbDictionary
280
     1
281
     1
  3
ADSK_XREC_LAYER_RECONCILED
360
4C6
  0
DICTIONARY
  5
4C7
330
8F
100
AcDbDictionary
280
     1
281
     1
  3
ADSK_XREC_LAYER_RECONCILED
360
4C8
  0
DICTIONARY
  5
4C9
330
4
100
AcDbDictionary
280
     1
281
     1
  3
ADSK_XREC_LAYER_RECONCILED
360
4CA
  0
DICTIONARY
  5
4CB
330
C5
100
AcDbDictionary
280
     1
281
     1
  3
ADSK_XREC_LAYER_RECONCILED
360
4CC
  0
DICTIONARY
  5
4CD
330
209
100
AcDbDictionary
280
     1
281
     1
  3
ADSK_XREC_LAYER_RECONCILED
360
4CE
  0
DICTIONARY
  5
4CF
330
E
100
AcDbDictionary
280
     1
281
     1
  3
ADSK_XREC_LAYER_RECONCILED
360
4D0
  0
DICTIONARY
  5
4D1
330
11
100
AcDbDictionary
280
     1
281
     1
  3
ADSK_XREC_LAYER_RECONCILED
360
4D2
  0
DICTIONARY
  5
4D3
330
2F2
100
AcDbDictionary
280
     1
281
     1
  3
ADSK_XREC_LAYER_RECONCILED
360
4D4
  0
DICTIONARY
  5
4D5
330
1BE
100
AcDbDictionary
280
     1
281
     1
  3
ADSK_XREC_LAYER_RECONCILED
360
4D6
  0
DICTIONARY
  5
4D7
330
232
100
AcDbDictionary
280
     1
281
     1
  3
ADSK_XREC_LAYER_RECONCILED
360
4D8
  0
DICTIONARY
  5
4D9
330
1BB
100
AcDbDictionary
280
     1
281
     1
  3
ADSK_XREC_LAYER_RECONCILED
360
4DA
  0
DICTIONARY
  5
4DB
330
311
100
AcDbDictionary
280
     1
281
     1
  3
ADSK_XREC_LAYER_RECONCILED
360
4DC
  0
XRECORD
  5
517
102
{ACAD_REACTORS
330
7
102
}
330
7
100
AcDbXrecord
280
     1
300
AMECH_PP
300
2017
300
AMECH_PP_F_S
  0
DICTIONARY
  5
30B
102
{ACAD_REACTORS
330
7
102
}
330
7
100
AcDbDictionary
281
     1
  0
DICTIONARY
  5
50A
102
{ACAD_REACTORS
330
7
102
}
330
7
100
AcDbDictionary
281
     1
  3
Imperial24
350
50B
  0
FIELDLIST
  5
566
102
{ACAD_REACTORS
330
7
102
}
330
7
100
AcDbIdSet
 90
        4
330
564
330
565
330
567
330
568
100
AcDbFieldList
  0
DICTIONARY
  5
304
102
{ACAD_REACTORS
330
7
102
}
330
7
100
AcDbDictionary
281
     1
  0
DICTIONARY
  5
2ED
102
{ACAD_REACTORS
330
7
102
}
330
7
100
AcDbDictionary
281
     1
  3
Layout1
350
2F6
  3
Model
350
2EC
  0
DICTIONARY
  5
30A
102
{ACAD_REACTORS
330
7
102
}
330
7
100
AcDbDictionary
281
     1
  3
ByBlock
350
3D2
  3
ByLayer
350
3CA
  3
Global
350
3DA
  0
DICTIONARY
  5
415
102
{ACAD_REACTORS
330
7
102
}
330
7
100
AcDbDictionary
281
     1
  3
Standard
350
416
  0
DICTIONARY
  5
305
102
{ACAD_REACTORS
330
7
102
}
330
7
100
AcDbDictionary
281
     1
  3
STANDARD
350
307
  0
DICTIONARY
  5
306
102
{ACAD_REACTORS
330
7
102
}
330
7
100
AcDbDictionary
281
     1
  0
ACDBDICTIONARYWDFLT
  5
6
102
{ACAD_REACTORS
330
7
102
}
330
7
100
AcDbDictionary
281
     1
  3
Normal
350
5
100
AcDbDictionaryWithDefault
340
5
  0
DICTIONARY
  5
3F3
102
{ACAD_REACTORS
330
7
102
}
330
7
100
AcDbDictionary
281
     1
  3
A0
350
3F4
  3
A1
350
3F5
  3
A2
350
3F6
  3
A3
350
3F7
  3
A4
350
3F8
  3
A5
350
3F9
  3
A6
350
3FA
  3
A7
350
3FB
  3
A8
350
3FC
  3
A9
350
3FD
  3
B0
350
3FE
  3
B1
350
3FF
  3
B2
350
400
  3
B3
350
401
  3
B4
350
402
  3
B5
350
403
  3
B6
350
404
  3
B7
350
405
  3
B8
350
406
  3
B9
350
407
  3
C0
350
408
  3
C1
350
409
  3
C2
350
40A
  3
C3
350
40B
  3
C4
350
40C
  3
C5
350
40D
  3
C6
350
40E
  3
C7
350
40F
  3
C8
350
410
  3
C9
350
411
  3
D0
350
412
  3
D1
350
413
  3
D2
350
414
  0
DICTIONARY
  5
508
102
{ACAD_REACTORS
330
7
102
}
330
7
100
AcDbDictionary
281
     1
  3
Imperial24
350
509
  0
DICTIONARY
  5
30C
102
{ACAD_REACTORS
330
7
102
}
330
7
100
AcDbDictionary
281
     1
  3
Standard
350
30D
  0
DICTIONARY
  5
3E2
102
{ACAD_REACTORS
330
7
102
}
330
7
100
AcDbDictionary
281
     1
  3
2dWireframe
350
3E8
  3
3D Hidden
350
3EA
  3
3dWireframe
350
3E9
  3
Basic
350
3E7
  3
Brighten
350
3EE
  3
ColorChange
350
3F2
  3
Conceptual
350
3EB
  3
Dim
350
3ED
  3
EdgeColorOff
350
507
  3
Facepattern
350
3F1
  3
Flat
350
3E3
  3
FlatWithEdges
350
3E4
  3
Gouraud
350
3E5
  3
GouraudWithEdges
350
3E6
  3
Hidden
350
4FF
  3
JitterOff
350
505
  3
Linepattern
350
3F0
  3
OverhangOff
350
506
  3
Realistic
350
3EC
  3
Shaded
350
504
  3
Shaded with edges
350
503
  3
Shades of Gray
350
500
  3
Sketchy
350
501
  3
Thicken
350
3EF
  3
Wireframe
350
4FE
  3
X-Ray
350
502
  0
XRECORD
  5
58C
102
{ACAD_REACTORS
330
7
102
}
330
7
100
AcDbXrecord
280
     1
 90
        1
330
30D
330
509
330
50B
  0
DICTIONARY
  5
3C5
102
{ACAD_REACTORS
330
7
102
}
330
7
100
AcDbDictionary
281
     1
  3
CANNOSCALE
350
4F9
  3
CMLEADERSTYLE
350
4F7
  3
CTABLESTYLE
350
3C6
  3
CVIEWDETAILSTYLE
350
585
  3
CVIEWSECTIONSTYLE
350
586
  3
LAYEREVAL
350
4FB
  3
LAYERNOTIFY
350
4FC
  3
LIGHTINGUNITS
350
4FA
  3
MSLTSCALE
350
4F8
  0
DICTIONARY
  5
485
102
{ACAD_REACTORS
330
7
102
}
330
7
100
AcDbDictionary
281
     1
  3
AcmStdDictionary
350
492
  0
DICTIONARY
  5
420
102
{ACAD_REACTORS
330
7
102
}
330
7
100
AcDbDictionary
281
     1
  0
DICTIONARY
  5
4ED
102
{ACAD_REACTORS
330
7
102
}
330
7
100
AcDbDictionary
281
     1
  0
XRECORD
  5
4C0
102
{ACAD_REACTORS
330
4BF
102
}
330
4BF
100
AcDbXrecord
280
     1
290
     1
  0
XRECORD
  5
4C2
102
{ACAD_REACTORS
330
4C1
102
}
330
4C1
100
AcDbXrecord
280
     1
290
     1
  0
XRECORD
  5
4C4
102
{ACAD_REACTORS
330
4C3
102
}
330
4C3
100
AcDbXrecord
280
     1
290
     1
  0
XRECORD
  5
4C6
102
{ACAD_REACTORS
330
4C5
102
}
330
4C5
100
AcDbXrecord
280
     1
290
     1
  0
XRECORD
  5
4C8
102
{ACAD_REACTORS
330
4C7
102
}
330
4C7
100
AcDbXrecord
280
     1
290
     1
  0
XRECORD
  5
4CA
102
{ACAD_REACTORS
330
4C9
102
}
330
4C9
100
AcDbXrecord
280
     1
290
     1
  0
XRECORD
  5
4CC
102
{ACAD_REACTORS
330
4CB
102
}
330
4CB
100
AcDbXrecord
280
     1
290
     1
  0
XRECORD
  5
4CE
102
{ACAD_REACTORS
330
4CD
102
}
330
4CD
100
AcDbXrecord
280
     1
290
     1
  0
XRECORD
  5
4D0
102
{ACAD_REACTORS
330
4CF
102
}
330
4CF
100
AcDbXrecord
280
     1
290
     1
  0
XRECORD
  5
4D2
102
{ACAD_REACTORS
330
4D1
102
}
330
4D1
100
AcDbXrecord
280
     1
290
     1
  0
XRECORD
  5
4D4
102
{ACAD_REACTORS
330
4D3
102
}
330
4D3
100
AcDbXrecord
280
     1
290
     1
  0
XRECORD
  5
4D6
102
{ACAD_REACTORS
330
4D5
102
}
330
4D5
100
AcDbXrecord
280
     1
290
     1
  0
XRECORD
  5
4D8
102
{ACAD_REACTORS
330
4D7
102
}
330
4D7
100
AcDbXrecord
280
     1
290
     1
  0
XRECORD
  5
4DA
102
{ACAD_REACTORS
330
4D9
102
}
330
4D9
100
AcDbXrecord
280
     1
290
     1
  0
XRECORD
  5
4DC
102
{ACAD_REACTORS
330
4DB
102
}
330
4DB
100
AcDbXrecord
280
     1
290
     1
  0
ACDBDETAILVIEWSTYLE
  5
50B
102
{ACAD_XDICTIONARY
360
58A
102
}
102
{ACAD_REACTORS
330
50A
330
55A
102
}
330
50A
100
AcDbModelDocViewStyle
 70
     0
  3
Imperial24
290
     0
100
AcDbDetailViewStyle
 70
     0
 71
     0
 90
        3
 71
     1
340
5F
 62
   256
 40
0.24
340
0
 62
   256
 40
0.24
300

 40
0.36
280
     3
 71
     2
340
15
 90
       25
 62
   256
 71
     3
340
5F
 62
   256
 40
0.24
 90
        1
 40
0.75
 90
        1
300
%<\AcVar ViewType \f "%tc1">% %<\AcVar ViewDetailId>%\PSCALE %<\AcVar ViewScale \f "%sn">%
 71
     4
340
15
 90
       25
 62
   256
340
15
 90
       25
 62
   256
280
     0
  0
LAYOUT
  5
2F6
102
{ACAD_REACTORS
330
2ED
102
}
330
2ED
100
AcDbPlotSettings
  1

  2
HP LaserJet 5000 N PCL 6
  4

  6

 40
0.0
 41
0.0
 42
0.0
 43
0.0
 44
0.0
 45
0.0
 46
0.0
 47
0.0
 48
0.0
 49
0.0
140
0.0
141
0.0
142
1.0
143
1.0
 70
   688
 72
     0
 73
     0
 74
     5
  7
monochrome.ctb
 75
    16
147
1.0
 76
     0
 77
     2
 78
   300
148
0.0
149
0.0
100
AcDbLayout
  1
Layout1
 70
     0
 71
     1
 10
0.0
 20
0.0
 11
298.0
 21
210.0
 12
0.0
 22
0.0
 32
0.0
 14
0.177597999999989
 24
1.95322999999999
 34
0.0
 15
286.11
 25
200.828
 35
0.0
146
0.0
 13
0.0
 23
0.0
 33
0.0
 16
1.0
 26
0.0
 36
0.0
 17
0.0
 27
1.0
 37
0.0
 76
     0
330
2EE
331
2F1
  0
LAYOUT
  5
2EC
102
{ACAD_REACTORS
330
2ED
102
}
330
2ED
100
AcDbPlotSettings
  1

  2
HP LaserJet 5000 Series PCL 5e
  4
A4
  6

 40
6.889750003814697
 41
6.33941650390625
 42
6.889739990234375
 43
6.33941650390625
 44
209.9733276367187
 45
296.9259948730469
 46
0.0
 47
0.0
 48
0.0
 49
0.0
140
420.0
141
297.0
142
1.0
143
2.140927811175041
 70
 11952
 72
     1
 73
     1
 74
     1
  7
monochrome.ctb
 75
     0
147
0.4670872108719786
 76
     0
 77
     2
 78
   300
148
0.0181260584133285
149
0.0238862993542491
100
AcDbLayout
  1
Model
 70
     1
 71
     0
 10
0.0
 20
0.0
 11
12.0
 21
9.0
 12
0.0
 22
0.0
 32
0.0
 14
0.0
 24
0.0
 34
0.0
 15
0.0
 25
0.0
 35
0.0
146
0.0
 13
0.0
 23
0.0
 33
0.0
 16
1.0
 26
0.0
 36
0.0
 17
0.0
 27
1.0
 37
0.0
 76
     0
330
2
331
3C8
  0
MATERIAL
  5
3D2
102
{ACAD_XDICTIONARY
360
3D3
102
}
102
{ACAD_REACTORS
330
30A
102
}
330
30A
100
AcDbMaterial
  1
ByBlock
 72
     0
 43
0.0208333333333333
 43
0.0
 43
0.0
 43
0.0
 43
0.0
 43
0.0208333333333333
 43
0.0
 43
0.0
 43
0.0
 43
0.0
 43
1.0
 43
0.0
 43
0.0
 43
0.0
 43
0.0
 43
1.0
 77
     0
 47
0.0208333333333333
 47
0.0
 47
0.0
 47
0.0
 47
0.0
 47
0.0208333333333333
 47
0.0
 47
0.0
 47
0.0
 47
0.0
 47
1.0
 47
0.0
 47
0.0
 47
0.0
 47
0.0
 47
1.0
171
     0
 49
0.0208333333333333
 49
0.0
 49
0.0
 49
0.0
 49
0.0
 49
0.0208333333333333
 49
0.0
 49
0.0
 49
0.0
 49
0.0
 49
1.0
 49
0.0
 49
0.0
 49
0.0
 49
0.0
 49
1.0
175
     0
142
0.0208333333333333
142
0.0
142
0.0
142
0.0
142
0.0
142
0.0208333333333333
142
0.0
142
0.0
142
0.0
142
0.0
142
1.0
142
0.0
142
0.0
142
0.0
142
0.0
142
1.0
179
     0
144
0.0208333333333333
144
0.0
144
0.0
144
0.0
144
0.0
144
0.0208333333333333
144
0.0
144
0.0
144
0.0
144
0.0
144
1.0
144
0.0
144
0.0
144
0.0
144
0.0
144
1.0
147
0.0208333333333333
147
0.0
147
0.0
147
0.0
147
0.0
147
0.0208333333333333
147
0.0
147
0.0
147
0.0
147
0.0
147
1.0
147
0.0
147
0.0
147
0.0
147
0.0
147
1.0
  0
MATERIAL
  5
3CA
102
{ACAD_XDICTIONARY
360
3CB
102
}
102
{ACAD_REACTORS
330
30A
102
}
330
30A
100
AcDbMaterial
  1
ByLayer
 72
     0
 43
0.0208333333333333
 43
0.0
 43
0.0
 43
0.0
 43
0.0
 43
0.0208333333333333
 43
0.0
 43
0.0
 43
0.0
 43
0.0
 43
1.0
 43
0.0
 43
0.0
 43
0.0
 43
0.0
 43
1.0
 77
     0
 47
0.0208333333333333
 47
0.0
 47
0.0
 47
0.0
 47
0.0
 47
0.0208333333333333
 47
0.0
 47
0.0
 47
0.0
 47
0.0
 47
1.0
 47
0.0
 47
0.0
 47
0.0
 47
0.0
 47
1.0
171
     0
 49
0.0208333333333333
 49
0.0
 49
0.0
 49
0.0
 49
0.0
 49
0.0208333333333333
 49
0.0
 49
0.0
 49
0.0
 49
0.0
 49
1.0
 49
0.0
 49
0.0
 49
0.0
 49
0.0
 49
1.0
175
     0
142
0.0208333333333333
142
0.0
142
0.0
142
0.0
142
0.0
142
0.0208333333333333
142
0.0
142
0.0
142
0.0
142
0.0
142
1.0
142
0.0
142
0.0
142
0.0
142
0.0
142
1.0
179
     0
144
0.0208333333333333
144
0.0
144
0.0
144
0.0
144
0.0
144
0.0208333333333333
144
0.0
144
0.0
144
0.0
144
0.0
144
1.0
144
0.0
144
0.0
144
0.0
144
0.0
144
1.0
147
0.0208333333333333
147
0.0
147
0.0
147
0.0
147
0.0
147
0.0208333333333333
147
0.0
147
0.0
147
0.0
147
0.0
147
1.0
147
0.0
147
0.0
147
0.0
147
0.0
147
1.0
  0
MATERIAL
  5
3DA
102
{ACAD_XDICTIONARY
360
3DB
102
}
102
{ACAD_REACTORS
330
30A
102
}
330
30A
100
AcDbMaterial
  1
Global
 72
     0
 43
0.0208333333333333
 43
0.0
 43
0.0
 43
0.0
 43
0.0
 43
0.0208333333333333
 43
0.0
 43
0.0
 43
0.0
 43
0.0
 43
1.0
 43
0.0
 43
0.0
 43
0.0
 43
0.0
 43
1.0
 77
     0
 47
0.0208333333333333
 47
0.0
 47
0.0
 47
0.0
 47
0.0
 47
0.0208333333333333
 47
0.0
 47
0.0
 47
0.0
 47
0.0
 47
1.0
 47
0.0
 47
0.0
 47
0.0
 47
0.0
 47
1.0
171
     0
 49
0.0208333333333333
 49
0.0
 49
0.0
 49
0.0
 49
0.0
 49
0.0208333333333333
 49
0.0
 49
0.0
 49
0.0
 49
0.0
 49
1.0
 49
0.0
 49
0.0
 49
0.0
 49
0.0
 49
1.0
175
     0
142
0.0208333333333333
142
0.0
142
0.0
142
0.0
142
0.0
142
0.0208333333333333
142
0.0
142
0.0
142
0.0
142
0.0
142
1.0
142
0.0
142
0.0
142
0.0
142
0.0
142
1.0
179
     0
144
0.0208333333333333
144
0.0
144
0.0
144
0.0
144
0.0
144
0.0208333333333333
144
0.0
144
0.0
144
0.0
144
0.0
144
1.0
144
0.0
144
0.0
144
0.0
144
0.0
144
1.0
147
0.0208333333333333
147
0.0
147
0.0
147
0.0
147
0.0
147
0.0208333333333333
147
0.0
147
0.0
147
0.0
147
0.0
147
1.0
147
0.0
147
0.0
147
0.0
147
0.0
147
1.0
  0
MLEADERSTYLE
  5
416
102
{ACAD_REACTORS
330
415
102
}
330
415
100
AcDbMLeaderStyle
179
     2
170
     2
171
     1
172
     0
 90
        2
 40
0.0
 41
0.0
173
     1
 91
-1056964608
340
2FB
 92
       -2
290
     1
 42
0.09
291
     1
 43
0.36
  3
Standard
 44
0.18
300

342
5F
174
     1
178
     6
175
     1
176
     0
 93
-1056964608
 45
0.18
292
     0
297
     0
 46
0.18
 94
-1056964608
 47
1.0
 49
1.0
140
1.0
293
     1
141
0.0
294
     1
177
     0
142
1.0
295
     0
296
     0
143
0.125
271
     0
272
     9
273
     9
298
     0
  0
MLINESTYLE
  5
307
102
{ACAD_REACTORS
330
305
102
}
330
305
100
AcDbMlineStyle
  2
STANDARD
 70
     0
  3

 62
   256
 51
90.0
 52
90.0
 71
     2
 49
0.5
 62
   256
  6
BYLAYER
 49
-0.5
 62
   256
  6
BYLAYER
  0
ACDBPLACEHOLDER
  5
5
102
{ACAD_REACTORS
330
6
102
}
330
6
  0
SCALE
  5
3F4
102
{ACAD_REACTORS
330
3F3
102
}
330
3F3
100
AcDbScale
 70
     0
300
1:1
140
1.0
141
1.0
290
     1
  0
SCALE
  5
3F5
102
{ACAD_REACTORS
330
3F3
102
}
330
3F3
100
AcDbScale
 70
     0
300
1:2
140
1.0
141
2.0
290
     0
  0
SCALE
  5
3F6
102
{ACAD_REACTORS
330
3F3
102
}
330
3F3
100
AcDbScale
 70
     0
300
1:4
140
1.0
141
4.0
290
     0
  0
SCALE
  5
3F7
102
{ACAD_REACTORS
330
3F3
102
}
330
3F3
100
AcDbScale
 70
     0
300
1:5
140
1.0
141
5.0
290
     0
  0
SCALE
  5
3F8
102
{ACAD_REACTORS
330
3F3
102
}
330
3F3
100
AcDbScale
 70
     0
300
1:8
140
1.0
141
8.0
290
     0
  0
SCALE
  5
3F9
102
{ACAD_REACTORS
330
3F3
102
}
330
3F3
100
AcDbScale
 70
     0
300
1:10
140
1.0
141
10.0
290
     0
  0
SCALE
  5
3FA
102
{ACAD_REACTORS
330
3F3
102
}
330
3F3
100
AcDbScale
 70
     0
300
1:16
140
1.0
141
16.0
290
     0
  0
SCALE
  5
3FB
102
{ACAD_REACTORS
330
3F3
102
}
330
3F3
100
AcDbScale
 70
     0
300
1:20
140
1.0
141
20.0
290
     0
  0
SCALE
  5
3FC
102
{ACAD_REACTORS
330
3F3
102
}
330
3F3
100
AcDbScale
 70
     0
300
1:30
140
1.0
141
30.0
290
     0
  0
SCALE
  5
3FD
102
{ACAD_REACTORS
330
3F3
102
}
330
3F3
100
AcDbScale
 70
     0
300
1:40
140
1.0
141
40.0
290
     0
  0
SCALE
  5
3FE
102
{ACAD_REACTORS
330
3F3
102
}
330
3F3
100
AcDbScale
 70
     0
300
1:50
140
1.0
141
50.0
290
     0
  0
SCALE
  5
3FF
102
{ACAD_REACTORS
330
3F3
102
}
330
3F3
100
AcDbScale
 70
     0
300
1:100
140
1.0
141
100.0
290
     0
  0
SCALE
  5
400
102
{ACAD_REACTORS
330
3F3
102
}
330
3F3
100
AcDbScale
 70
     0
300
2:1
140
2.0
141
1.0
290
     0
  0
SCALE
  5
401
102
{ACAD_REACTORS
330
3F3
102
}
330
3F3
100
AcDbScale
 70
     0
300
4:1
140
4.0
141
1.0
290
     0
  0
SCALE
  5
402
102
{ACAD_REACTORS
330
3F3
102
}
330
3F3
100
AcDbScale
 70
     0
300
8:1
140
8.0
141
1.0
290
     0
  0
SCALE
  5
403
102
{ACAD_REACTORS
330
3F3
102
}
330
3F3
100
AcDbScale
 70
     0
300
10:1
140
10.0
141
1.0
290
     0
  0
SCALE
  5
404
102
{ACAD_REACTORS
330
3F3
102
}
330
3F3
100
AcDbScale
 70
     0
300
100:1
140
100.0
141
1.0
290
     0
  0
SCALE
  5
405
102
{ACAD_REACTORS
330
3F3
102
}
330
3F3
100
AcDbScale
 70
     0
300
1/128" = 1'-0"
140
0.0078125
141
12.0
290
     0
  0
SCALE
  5
406
102
{ACAD_REACTORS
330
3F3
102
}
330
3F3
100
AcDbScale
 70
     0
300
1/64" = 1'-0"
140
0.015625
141
12.0
290
     0
  0
SCALE
  5
407
102
{ACAD_REACTORS
330
3F3
102
}
330
3F3
100
AcDbScale
 70
     0
300
1/32" = 1'-0"
140
0.03125
141
12.0
290
     0
  0
SCALE
  5
408
102
{ACAD_REACTORS
330
3F3
102
}
330
3F3
100
AcDbScale
 70
     0
300
1/16" = 1'-0"
140
0.0625
141
12.0
290
     0
  0
SCALE
  5
409
102
{ACAD_REACTORS
330
3F3
102
}
330
3F3
100
AcDbScale
 70
     0
300
3/32" = 1'-0"
140
0.09375
141
12.0
290
     0
  0
SCALE
  5
40A
102
{ACAD_REACTORS
330
3F3
102
}
330
3F3
100
AcDbScale
 70
     0
300
1/8" = 1'-0"
140
0.125
141
12.0
290
     0
  0
SCALE
  5
40B
102
{ACAD_REACTORS
330
3F3
102
}
330
3F3
100
AcDbScale
 70
     0
300
3/16" = 1'-0"
140
0.1875
141
12.0
290
     0
  0
SCALE
  5
40C
102
{ACAD_REACTORS
330
3F3
102
}
330
3F3
100
AcDbScale
 70
     0
300
1/4" = 1'-0"
140
0.25
141
12.0
290
     0
  0
SCALE
  5
40D
102
{ACAD_REACTORS
330
3F3
102
}
330
3F3
100
AcDbScale
 70
     0
300
3/8" = 1'-0"
140
0.375
141
12.0
290
     0
  0
SCALE
  5
40E
102
{ACAD_REACTORS
330
3F3
102
}
330
3F3
100
AcDbScale
 70
     0
300
1/2" = 1'-0"
140
0.5
141
12.0
290
     0
  0
SCALE
  5
40F
102
{ACAD_REACTORS
330
3F3
102
}
330
3F3
100
AcDbScale
 70
     0
300
3/4" = 1'-0"
140
0.75
141
12.0
290
     0
  0
SCALE
  5
410
102
{ACAD_REACTORS
330
3F3
102
}
330
3F3
100
AcDbScale
 70
     0
300
1" = 1'-0"
140
1.0
141
12.0
290
     0
  0
SCALE
  5
411
102
{ACAD_REACTORS
330
3F3
102
}
330
3F3
100
AcDbScale
 70
     0
300
1-1/2" = 1'-0"
140
1.5
141
12.0
290
     0
  0
SCALE
  5
412
102
{ACAD_REACTORS
330
3F3
102
}
330
3F3
100
AcDbScale
 70
     0
300
3" = 1'-0"
140
3.0
141
12.0
290
     0
  0
SCALE
  5
413
102
{ACAD_REACTORS
330
3F3
102
}
330
3F3
100
AcDbScale
 70
     0
300
6" = 1'-0"
140
6.0
141
12.0
290
     0
  0
SCALE
  5
414
102
{ACAD_REACTORS
330
3F3
102
}
330
3F3
100
AcDbScale
 70
     0
300
1'-0" = 1'-0"
140
12.0
141
12.0
290
     0
  0
ACDBSECTIONVIEWSTYLE
  5
509
102
{ACAD_XDICTIONARY
360
588
102
}
102
{ACAD_REACTORS
330
508
330
559
102
}
330
508
100
AcDbModelDocViewStyle
 70
     0
  3
Imperial24
290
     0
100
AcDbSectionViewStyle
 70
     0
 71
     0
 90
       78
 71
     1
340
5F
 62
   256
 40
0.24
340
0
340
0
 62
   256
 40
0.24
300
I, O, Q, S, X, Z
 40
0.48
 90
        3
 40
0.18
 90
        1
 71
     2
340
15
 90
       25
 62
   256
340
15
 90
       50
 62
   256
 40
0.24
 40
0.0
 40
0.24
 71
     3
340
5F
 62
   256
 40
0.24
 90
        1
 40
0.75
 90
        1
300
%<\AcVar ViewType \f "%tc1">% %<\AcVar ViewSectionStartId>%-%<\AcVar ViewSectionEndId>%\PSCALE %<\AcVar ViewScale \f "%sn">%
 71
     4
 62
   256
 62
   257
300
ANSI31
 40
1.0
 90
        0
290
     0
290
     0
 90
        6
 40
0.0
 40
1.570796326794896
 40
0.2617993877991494
 40
1.308996938995747
 40
-0.2617993877991494
 40
1.832595714594046
  0
TABLESTYLE
  5
30D
102
{ACAD_XDICTIONARY
360
4F4
102
}
102
{ACAD_REACTORS
330
30C
102
}
330
30C
100
AcDbTableStyle
280
     0
  3
Standard
 70
     0
 71
     0
 40
0.06
 41
0.06
280
     0
281
     0
  7
STANDARD
140
0.18
170
     2
 62
     0
 63
     7
283
     0
 90
        4
 91
        0
  1

274
    -2
284
     1
 64
     0
275
    -2
285
     1
 65
     0
276
    -2
286
     1
 66
     0
277
    -2
287
     1
 67
     0
278
    -2
288
     1
 68
     0
279
    -2
289
     1
 69
     0
  7
STANDARD
140
0.25
170
     5
 62
     0
 63
     7
283
     0
 90
        4
 91
        0
  1

274
    -2
284
     1
 64
     0
275
    -2
285
     1
 65
     0
276
    -2
286
     1
 66
     0
277
    -2
287
     1
 67
     0
278
    -2
288
     1
 68
     0
279
    -2
289
     1
 69
     0
  7
STANDARD
140
0.18
170
     5
 62
     0
 63
     7
283
     0
 90
        4
 91
        0
  1

274
    -2
284
     1
 64
     0
275
    -2
285
     1
 65
     0
276
    -2
286
     1
 66
     0
277
    -2
287
     1
 67
     0
278
    -2
288
     1
 68
     0
279
    -2
289
     1
 69
     0
  0
VISUALSTYLE
  5
3E8
102
{ACAD_REACTORS
330
3E2
102
}
330
3E2
100
AcDbVisualStyle
  2
2dWireframe
 70
     4
177
     3
291
     0
 70
    58
 90
        0
176
     1
 90
        2
176
     1
 90
        0
176
     1
 90
        0
176
     1
 40
0.6
176
     1
 40
30.0
176
     1
 62
     7
420
 16777215
176
     1
 90
        1
176
     1
 90
        4
176
     1
 62
     7
176
     1
 62
   257
176
     1
 90
        1
176
     1
 90
        1
176
     1
 40
1.0
176
     1
 90
        0
176
     1
 62
   257
176
     1
 40
1.0
176
     1
 90
        1
176
     1
 90
        6
176
     1
 90
        2
176
     1
 62
     7
176
     1
 90
        5
176
     1
 90
        0
176
     1
 90
        0
176
     1
290
     0
176
     1
 90
        1
176
     1
 40
0.0
176
     1
 90
        0
176
     1
290
     1
176
     1
290
     1
176
     1
290
     0
176
     1
290
     0
176
     1
290
     0
176
     1
290
     0
176
     1
290
     0
176
     1
290
     0
176
     1
290
     0
176
     1
 90
       50
176
     1
 40
0.0
176
     1
 40
1.0
176
     1
 90
        0
176
     1
 62
    18
420
        0
176
     1
 90
       50
176
     1
 90
        3
176
     1
 62
     5
420
      255
176
     1
290
     0
176
     1
 90
       50
176
     1
 90
       50
176
     1
 90
       50
176
     1
290
     0
176
     1
 90
       50
176
     1
 62
   256
176
     0
 40
1.0
176
     0
 90
        2
176
     1
  1
strokes_ogs.tif
176
     1
290
     0
176
     1
 40
1.0
176
     1
 40
1.0
176
     1
  0
VISUALSTYLE
  5
3EA
102
{ACAD_REACTORS
330
3E2
102
}
330
3E2
100
AcDbVisualStyle
  2
3D Hidden
 70
     6
177
     3
291
     0
 70
    58
 90
        1
176
     1
 90
        2
176
     1
 90
        2
176
     1
 90
        0
176
     1
 40
0.6
176
     1
 40
30.0
176
     1
 62
     7
420
 16777215
176
     1
 90
        2
176
     1
 90
        2
176
     1
 62
     7
176
     1
 62
   257
176
     1
 90
        2
176
     1
 90
        1
176
     1
 40
40.0
176
     1
 90
        0
176
     1
 62
   257
176
     1
 40
1.0
176
     1
 90
        1
176
     1
 90
        6
176
     1
 90
        2
176
     1
 62
     7
176
     1
 90
        3
176
     1
 90
        0
176
     1
 90
        0
176
     1
290
     0
176
     1
 90
        1
176
     1
 40
0.0
176
     1
 90
        0
176
     1
290
     0
176
     1
290
     1
176
     1
290
     1
176
     1
290
     0
176
     1
290
     0
176
     1
290
     0
176
     1
290
     0
176
     1
290
     0
176
     1
290
     0
176
     1
 90
       50
176
     1
 40
0.0
176
     1
 40
1.0
176
     1
 90
        0
176
     1
 62
    18
420
        0
176
     1
 90
       50
176
     1
 90
        3
176
     1
 62
     5
420
      255
176
     1
290
     0
176
     1
 90
       50
176
     1
 90
       50
176
     1
 90
       50
176
     1
290
     0
176
     1
 90
       50
176
     1
 62
   256
176
     0
 40
1.0
176
     0
 90
        2
176
     1
  1
strokes_ogs.tif
176
     1
290
     0
176
     1
 40
1.0
176
     1
 40
1.0
176
     1
  0
VISUALSTYLE
  5
3E9
102
{ACAD_REACTORS
330
3E2
102
}
330
3E2
100
AcDbVisualStyle
  2
3dWireframe
 70
     5
177
     3
291
     0
 70
    58
 90
        0
176
     1
 90
        2
176
     1
 90
        0
176
     1
 90
        0
176
     1
 40
0.6
176
     1
 40
30.0
176
     1
 62
     7
420
 16777215
176
     1
 90
        1
176
     1
 90
        4
176
     1
 62
     7
176
     1
 62
   257
176
     1
 90
        1
176
     1
 90
        1
176
     1
 40
1.0
176
     1
 90
        0
176
     1
 62
   257
176
     1
 40
1.0
176
     1
 90
        1
176
     1
 90
        6
176
     1
 90
        2
176
     1
 62
     7
176
     1
 90
        5
176
     1
 90
        0
176
     1
 90
        0
176
     1
290
     0
176
     1
 90
        1
176
     1
 40
0.0
176
     1
 90
        0
176
     1
290
     0
176
     1
290
     1
176
     1
290
     1
176
     1
290
     0
176
     1
290
     0
176
     1
290
     0
176
     1
290
     0
176
     1
290
     0
176
     1
290
     0
176
     1
 90
       50
176
     1
 40
0.0
176
     1
 40
1.0
176
     1
 90
        0
176
     1
 62
    18
420
        0
176
     1
 90
       50
176
     1
 90
        3
176
     1
 62
     5
420
      255
176
     1
290
     0
176
     1
 90
       50
176
     1
 90
       50
176
     1
 90
       50
176
     1
290
     0
176
     1
 90
       50
176
     1
 62
   256
176
     0
 40
1.0
176
     0
 90
        2
176
     1
  1
strokes_ogs.tif
176
     1
290
     0
176
     1
 40
1.0
176
     1
 40
1.0
176
     1
  0
VISUALSTYLE
  5
3E7
102
{ACAD_REACTORS
330
3E2
102
}
330
3E2
100
AcDbVisualStyle
  2
Basic
 70
     7
177
     3
291
     1
 70
    58
 90
        1
176
     1
 90
        0
176
     1
 90
        1
176
     1
 90
        0
176
     1
 40
0.6
176
     1
 40
30.0
176
     1
 62
     7
420
 16777215
176
     1
 90
        0
176
     1
 90
        4
176
     1
 62
     7
176
     1
 62
   257
176
     1
 90
        1
176
     1
 90
        1
176
     1
 40
1.0
176
     1
 90
        8
176
     1
 62
     7
176
     1
 40
1.0
176
     1
 90
        1
176
     1
 90
        6
176
     1
 90
        2
176
     1
 62
     7
176
     1
 90
        5
176
     1
 90
        0
176
     1
 90
        0
176
     1
290
     0
176
     1
 90
        1
176
     1
 40
0.0
176
     1
 90
        0
176
     1
290
     0
176
     1
290
     1
176
     1
290
     1
176
     1
290
     0
176
     1
290
     0
176
     1
290
     0
176
     1
290
     0
176
     1
290
     0
176
     1
290
     0
176
     1
 90
       50
176
     1
 40
0.0
176
     1
 40
1.0
176
     1
 90
        0
176
     1
 62
    18
420
        0
176
     1
 90
       50
176
     1
 90
        3
176
     1
 62
     5
420
      255
176
     1
290
     0
176
     1
 90
       50
176
     1
 90
       50
176
     1
 90
       50
176
     1
290
     0
176
     1
 90
       50
176
     1
 62
   256
176
     0
 40
1.0
176
     0
 90
        2
176
     1
  1
strokes_ogs.tif
176
     1
290
     0
176
     1
 40
1.0
176
     1
 40
1.0
176
     1
  0
VISUALSTYLE
  5
3EE
102
{ACAD_REACTORS
330
3E2
102
}
330
3E2
100
AcDbVisualStyle
  2
Brighten
 70
    12
177
     3
291
     1
 70
    58
 90
        2
176
     1
 90
        2
176
     1
 90
        0
176
     1
 90
        0
176
     1
 40
0.6
176
     1
 40
30.0
176
     1
 62
     7
420
 16777215
176
     1
 90
        1
176
     1
 90
        4
176
     1
 62
     7
176
     1
 62
   257
176
     1
 90
        1
176
     1
 90
        1
176
     1
 40
1.0
176
     1
 90
        8
176
     1
 62
     7
176
     1
 40
1.0
176
     1
 90
        1
176
     1
 90
        6
176
     1
 90
        2
176
     1
 62
     7
176
     1
 90
        5
176
     1
 90
        0
176
     1
 90
        0
176
     1
290
     0
176
     1
 90
        1
176
     1
 40
50.0
176
     1
 90
        0
176
     1
290
     0
176
     1
290
     1
176
     1
290
     1
176
     1
290
     0
176
     1
290
     0
176
     1
290
     0
176
     1
290
     0
176
     1
290
     0
176
     1
290
     0
176
     1
 90
       50
176
     1
 40
0.0
176
     1
 40
1.0
176
     1
 90
        0
176
     1
 62
    18
420
        0
176
     1
 90
       50
176
     1
 90
        3
176
     1
 62
     5
420
      255
176
     1
290
     0
176
     1
 90
       50
176
     1
 90
       50
176
     1
 90
       50
176
     1
290
     0
176
     1
 90
       50
176
     1
 62
   256
176
     0
 40
1.0
176
     0
 90
        2
176
     1
  1
strokes_ogs.tif
176
     1
290
     0
176
     1
 40
1.0
176
     1
 40
1.0
176
     1
  0
VISUALSTYLE
  5
3F2
102
{ACAD_REACTORS
330
3E2
102
}
330
3E2
100
AcDbVisualStyle
  2
ColorChange
 70
    16
177
     3
291
     1
 70
    58
 90
        2
176
     1
 90
        2
176
     1
 90
        3
176
     1
 90
        0
176
     1
 40
0.6
176
     1
 40
30.0
176
     1
 62
     8
420
  8421504
176
     1
 90
        1
176
     1
 90
        4
176
     1
 62
     7
176
     1
 62
   257
176
     1
 90
        1
176
     1
 90
        1
176
     1
 40
1.0
176
     1
 90
        8
176
     1
 62
     8
420
  8421504
176
     1
 40
1.0
176
     1
 90
        1
176
     1
 90
        6
176
     1
 90
        2
176
     1
 62
     7
176
     1
 90
        5
176
     1
 90
        0
176
     1
 90
        0
176
     1
290
     0
176
     1
 90
        1
176
     1
 40
0.0
176
     1
 90
        0
176
     1
290
     0
176
     1
290
     1
176
     1
290
     1
176
     1
290
     0
176
     1
290
     0
176
     1
290
     0
176
     1
290
     0
176
     1
290
     0
176
     1
290
     0
176
     1
 90
       50
176
     1
 40
0.0
176
     1
 40
1.0
176
     1
 90
        0
176
     1
 62
    18
420
        0
176
     1
 90
       50
176
     1
 90
        3
176
     1
 62
     5
420
      255
176
     1
290
     0
176
     1
 90
       50
176
     1
 90
       50
176
     1
 90
       50
176
     1
290
     0
176
     1
 90
       50
176
     1
 62
   256
176
     0
 40
1.0
176
     0
 90
        2
176
     1
  1
strokes_ogs.tif
176
     1
290
     0
176
     1
 40
1.0
176
     1
 40
1.0
176
     1
  0
VISUALSTYLE
  5
3EB
102
{ACAD_REACTORS
330
3E2
102
}
330
3E2
100
AcDbVisualStyle
  2
Conceptual
 70
     9
177
     3
291
     0
 70
    58
 90
        3
176
     1
 90
        2
176
     1
 90
        0
176
     1
 90
        0
176
     1
 40
0.6
176
     1
 40
30.0
176
     1
 62
     7
420
 16777215
176
     1
 90
        2
176
     1
 90
        2
176
     1
 62
     7
176
     1
 62
   257
176
     1
 90
        1
176
     1
 90
        1
176
     1
 40
40.0
176
     1
 90
        8
176
     1
 62
     7
176
     1
 40
1.0
176
     1
 90
        1
176
     1
 90
        6
176
     1
 90
        2
176
     1
 62
     7
176
     1
 90
        3
176
     1
 90
        0
176
     1
 90
        0
176
     1
290
     0
176
     1
 90
        1
176
     1
 40
0.0
176
     1
 90
        0
176
     1
290
     0
176
     1
290
     1
176
     1
290
     1
176
     1
290
     0
176
     1
290
     0
176
     1
290
     0
176
     1
290
     0
176
     1
290
     0
176
     1
290
     0
176
     1
 90
       50
176
     1
 40
0.0
176
     1
 40
1.0
176
     1
 90
        0
176
     1
 62
    18
420
        0
176
     1
 90
       50
176
     1
 90
        3
176
     1
 62
     5
420
      255
176
     1
290
     0
176
     1
 90
       50
176
     1
 90
       50
176
     1
 90
       50
176
     1
290
     0
176
     1
 90
       50
176
     1
 62
   256
176
     0
 40
1.0
176
     0
 90
        2
176
     1
  1
strokes_ogs.tif
176
     1
290
     0
176
     1
 40
1.0
176
     1
 40
1.0
176
     1
  0
VISUALSTYLE
  5
3ED
102
{ACAD_REACTORS
330
3E2
102
}
330
3E2
100
AcDbVisualStyle
  2
Dim
 70
    11
177
     3
291
     1
 70
    58
 90
        2
176
     1
 90
        2
176
     1
 90
        0
176
     1
 90
        0
176
     1
 40
0.6
176
     1
 40
30.0
176
     1
 62
     7
420
 16777215
176
     1
 90
        1
176
     1
 90
        4
176
     1
 62
     7
176
     1
 62
   257
176
     1
 90
        1
176
     1
 90
        1
176
     1
 40
1.0
176
     1
 90
        8
176
     1
 62
     7
176
     1
 40
1.0
176
     1
 90
        1
176
     1
 90
        6
176
     1
 90
        2
176
     1
 62
     7
176
     1
 90
        5
176
     1
 90
        0
176
     1
 90
        0
176
     1
290
     0
176
     1
 90
        1
176
     1
 40
-50.0
176
     1
 90
        0
176
     1
290
     0
176
     1
290
     1
176
     1
290
     1
176
     1
290
     0
176
     1
290
     0
176
     1
290
     0
176
     1
290
     0
176
     1
290
     0
176
     1
290
     0
176
     1
 90
       50
176
     1
 40
0.0
176
     1
 40
1.0
176
     1
 90
        0
176
     1
 62
    18
420
        0
176
     1
 90
       50
176
     1
 90
        3
176
     1
 62
     5
420
      255
176
     1
290
     0
176
     1
 90
       50
176
     1
 90
       50
176
     1
 90
       50
176
     1
290
     0
176
     1
 90
       50
176
     1
 62
   256
176
     0
 40
1.0
176
     0
 90
        2
176
     1
  1
strokes_ogs.tif
176
     1
290
     0
176
     1
 40
1.0
176
     1
 40
1.0
176
     1
  0
VISUALSTYLE
  5
507
102
{ACAD_REACTORS
330
3E2
102
}
330
3E2
100
AcDbVisualStyle
  2
EdgeColorOff
 70
    22
177
     3
291
     1
 70
    58
 90
        2
176
     0
 90
        2
176
     0
 90
        0
176
     0
 90
        0
176
     0
 40
0.6
176
     0
 40
30.0
176
     0
 62
     7
420
 16777215
176
     0
 90
        1
176
     0
 90
        4
176
     0
 62
     7
176
     0
 62
   257
176
     0
 90
        1
176
     0
 90
        1
176
     0
 40
1.0
176
     0
 90
        8
176
     2
 62
     7
176
     0
 40
1.0
176
     0
 90
        1
176
     0
 90
        6
176
     0
 90
        2
176
     0
 62
     7
176
     0
 90
        5
176
     0
 90
        0
176
     0
 90
        0
176
     0
290
     0
176
     0
 90
        1
176
     0
 40
0.0
176
     0
 90
        0
176
     0
290
     0
176
     0
290
     1
176
     0
290
     1
176
     0
290
     0
176
     0
290
     0
176
     0
290
     0
176
     0
290
     0
176
     0
290
     0
176
     0
290
     0
176
     0
 90
       50
176
     0
 40
0.0
176
     0
 40
1.0
176
     0
 90
        0
176
     0
 62
    18
420
        0
176
     0
 90
       50
176
     0
 90
        3
176
     0
 62
     5
420
      255
176
     0
290
     0
176
     0
 90
       50
176
     0
 90
       50
176
     0
 90
       50
176
     0
290
     0
176
     0
 90
       50
176
     0
 62
   256
176
     0
 40
1.0
176
     0
 90
        2
176
     0
  1
strokes_ogs.tif
176
     0
290
     0
176
     0
 40
1.0
176
     0
 40
1.0
176
     0
  0
VISUALSTYLE
  5
3F1
102
{ACAD_REACTORS
330
3E2
102
}
330
3E2
100
AcDbVisualStyle
  2
Facepattern
 70
    15
177
     3
291
     1
 70
    58
 90
        2
176
     1
 90
        2
176
     1
 90
        0
176
     1
 90
        0
176
     1
 40
0.6
176
     1
 40
30.0
176
     1
 62
     7
420
 16777215
176
     1
 90
        1
176
     1
 90
        4
176
     1
 62
     7
176
     1
 62
   257
176
     1
 90
        1
176
     1
 90
        1
176
     1
 40
1.0
176
     1
 90
        8
176
     1
 62
     7
176
     1
 40
1.0
176
     1
 90
        1
176
     1
 90
        6
176
     1
 90
        2
176
     1
 62
     7
176
     1
 90
        5
176
     1
 90
        0
176
     1
 90
        0
176
     1
290
     0
176
     1
 90
        1
176
     1
 40
0.0
176
     1
 90
        0
176
     1
290
     0
176
     1
290
     1
176
     1
290
     1
176
     1
290
     0
176
     1
290
     0
176
     1
290
     0
176
     1
290
     0
176
     1
290
     0
176
     1
290
     0
176
     1
 90
       50
176
     1
 40
0.0
176
     1
 40
1.0
176
     1
 90
        0
176
     1
 62
    18
420
        0
176
     1
 90
       50
176
     1
 90
        3
176
     1
 62
     5
420
      255
176
     1
290
     0
176
     1
 90
       50
176
     1
 90
       50
176
     1
 90
       50
176
     1
290
     0
176
     1
 90
       50
176
     1
 62
   256
176
     0
 40
1.0
176
     0
 90
        2
176
     1
  1
strokes_ogs.tif
176
     1
290
     0
176
     1
 40
1.0
176
     1
 40
1.0
176
     1
  0
VISUALSTYLE
  5
3E3
102
{ACAD_REACTORS
330
3E2
102
}
330
3E2
100
AcDbVisualStyle
  2
Flat
 70
     0
177
     3
291
     1
 70
    58
 90
        2
176
     1
 90
        1
176
     1
 90
        1
176
     1
 90
        2
176
     1
 40
0.6
176
     1
 40
30.0
176
     1
 62
     7
420
 16777215
176
     1
 90
        0
176
     1
 90
        4
176
     1
 62
     7
176
     1
 62
   257
176
     1
 90
        1
176
     1
 90
        1
176
     1
 40
1.0
176
     1
 90
        8
176
     1
 62
     7
176
     1
 40
1.0
176
     1
 90
        1
176
     1
 90
        6
176
     1
 90
        2
176
     1
 62
     7
176
     1
 90
        5
176
     1
 90
        0
176
     1
 90
        0
176
     1
290
     0
176
     1
 90
       13
176
     1
 40
0.0
176
     1
 90
        0
176
     1
290
     0
176
     1
290
     1
176
     1
290
     1
176
     1
290
     0
176
     1
290
     0
176
     1
290
     0
176
     1
290
     0
176
     1
290
     0
176
     1
290
     0
176
     1
 90
       50
176
     1
 40
0.0
176
     1
 40
1.0
176
     1
 90
        0
176
     1
 62
    18
420
        0
176
     1
 90
       50
176
     1
 90
        3
176
     1
 62
     5
420
      255
176
     1
290
     0
176
     1
 90
       50
176
     1
 90
       50
176
     1
 90
       50
176
     1
290
     0
176
     1
 90
       50
176
     1
 62
   256
176
     0
 40
1.0
176
     0
 90
        2
176
     1
  1
strokes_ogs.tif
176
     1
290
     0
176
     1
 40
1.0
176
     1
 40
1.0
176
     1
  0
VISUALSTYLE
  5
3E4
102
{ACAD_REACTORS
330
3E2
102
}
330
3E2
100
AcDbVisualStyle
  2
FlatWithEdges
 70
     1
177
     3
291
     1
 70
    58
 90
        2
176
     1
 90
        1
176
     1
 90
        1
176
     1
 90
        2
176
     1
 40
0.6
176
     1
 40
30.0
176
     1
 62
     7
420
 16777215
176
     1
 90
        1
176
     1
 90
        4
176
     1
 62
     7
176
     1
 62
   257
176
     1
 90
        1
176
     1
 90
        1
176
     1
 40
1.0
176
     1
 90
        0
176
     1
 62
   257
176
     1
 40
1.0
176
     1
 90
        1
176
     1
 90
        6
176
     1
 90
        2
176
     1
 62
     7
176
     1
 90
        5
176
     1
 90
        0
176
     1
 90
        0
176
     1
290
     0
176
     1
 90
       13
176
     1
 40
0.0
176
     1
 90
        0
176
     1
290
     0
176
     1
290
     1
176
     1
290
     1
176
     1
290
     0
176
     1
290
     0
176
     1
290
     0
176
     1
290
     0
176
     1
290
     0
176
     1
290
     0
176
     1
 90
       50
176
     1
 40
0.0
176
     1
 40
1.0
176
     1
 90
        0
176
     1
 62
    18
420
        0
176
     1
 90
       50
176
     1
 90
        3
176
     1
 62
     5
420
      255
176
     1
290
     0
176
     1
 90
       50
176
     1
 90
       50
176
     1
 90
       50
176
     1
290
     0
176
     1
 90
       50
176
     1
 62
   256
176
     0
 40
1.0
176
     0
 90
        2
176
     1
  1
strokes_ogs.tif
176
     1
290
     0
176
     1
 40
1.0
176
     1
 40
1.0
176
     1
  0
VISUALSTYLE
  5
3E5
102
{ACAD_REACTORS
330
3E2
102
}
330
3E2
100
AcDbVisualStyle
  2
Gouraud
 70
     2
177
     3
291
     1
 70
    58
 90
        2
176
     1
 90
        2
176
     1
 90
        1
176
     1
 90
        2
176
     1
 40
0.6
176
     1
 40
30.0
176
     1
 62
     7
420
 16777215
176
     1
 90
        0
176
     1
 90
        4
176
     1
 62
     7
176
     1
 62
   257
176
     1
 90
        1
176
     1
 90
        1
176
     1
 40
1.0
176
     1
 90
        0
176
     1
 62
     7
176
     1
 40
1.0
176
     1
 90
        1
176
     1
 90
        6
176
     1
 90
        2
176
     1
 62
     7
176
     1
 90
        5
176
     1
 90
        0
176
     1
 90
        0
176
     1
290
     0
176
     1
 90
       13
176
     1
 40
0.0
176
     1
 90
        0
176
     1
290
     0
176
     1
290
     1
176
     1
290
     1
176
     1
290
     0
176
     1
290
     0
176
     1
290
     0
176
     1
290
     0
176
     1
290
     0
176
     1
290
     0
176
     1
 90
       50
176
     1
 40
0.0
176
     1
 40
1.0
176
     1
 90
        0
176
     1
 62
    18
420
        0
176
     1
 90
       50
176
     1
 90
        3
176
     1
 62
     5
420
      255
176
     1
290
     0
176
     1
 90
       50
176
     1
 90
       50
176
     1
 90
       50
176
     1
290
     0
176
     1
 90
       50
176
     1
 62
   256
176
     0
 40
1.0
176
     0
 90
        2
176
     1
  1
strokes_ogs.tif
176
     1
290
     0
176
     1
 40
1.0
176
     1
 40
1.0
176
     1
  0
VISUALSTYLE
  5
3E6
102
{ACAD_REACTORS
330
3E2
102
}
330
3E2
100
AcDbVisualStyle
  2
GouraudWithEdges
 70
     3
177
     3
291
     1
 70
    58
 90
        2
176
     1
 90
        2
176
     1
 90
        1
176
     1
 90
        2
176
     1
 40
0.6
176
     1
 40
30.0
176
     1
 62
     7
420
 16777215
176
     1
 90
        1
176
     1
 90
        4
176
     1
 62
     7
176
     1
 62
   257
176
     1
 90
        1
176
     1
 90
        1
176
     1
 40
1.0
176
     1
 90
        0
176
     1
 62
   257
176
     1
 40
1.0
176
     1
 90
        1
176
     1
 90
        6
176
     1
 90
        2
176
     1
 62
     7
176
     1
 90
        5
176
     1
 90
        0
176
     1
 90
        0
176
     1
290
     0
176
     1
 90
       13
176
     1
 40
0.0
176
     1
 90
        0
176
     1
290
     0
176
     1
290
     1
176
     1
290
     1
176
     1
290
     0
176
     1
290
     0
176
     1
290
     0
176
     1
290
     0
176
     1
290
     0
176
     1
290
     0
176
     1
 90
       50
176
     1
 40
0.0
176
     1
 40
1.0
176
     1
 90
        0
176
     1
 62
    18
420
        0
176
     1
 90
       50
176
     1
 90
        3
176
     1
 62
     5
420
      255
176
     1
290
     0
176
     1
 90
       50
176
     1
 90
       50
176
     1
 90
       50
176
     1
290
     0
176
     1
 90
       50
176
     1
 62
   256
176
     0
 40
1.0
176
     0
 90
        2
176
     1
  1
strokes_ogs.tif
176
     1
290
     0
176
     1
 40
1.0
176
     1
 40
1.0
176
     1
  0
VISUALSTYLE
  5
4FF
102
{ACAD_REACTORS
330
3E2
102
}
330
3E2
100
AcDbVisualStyle
  2
Hidden
 70
     6
177
     3
291
     0
 70
    58
 90
        1
176
     1
 90
        2
176
     1
 90
        2
176
     1
 90
        0
176
     1
 40
0.6
176
     1
 40
30.0
176
     1
 62
     7
420
 16777215
176
     1
 90
        2
176
     1
 90
        2
176
     1
 62
     7
176
     1
 62
   257
176
     1
 90
        2
176
     1
 90
        1
176
     1
 40
40.0
176
     1
 90
        0
176
     1
 62
   257
176
     1
 40
1.0
176
     1
 90
        1
176
     1
 90
        6
176
     1
 90
        2
176
     1
 62
     7
176
     1
 90
        3
176
     1
 90
        0
176
     1
 90
        0
176
     1
290
     0
176
     1
 90
        1
176
     1
 40
0.0
176
     1
 90
        0
176
     1
290
     0
176
     1
290
     1
176
     1
290
     1
176
     1
290
     0
176
     1
290
     0
176
     1
290
     0
176
     1
290
     0
176
     1
290
     0
176
     1
290
     0
176
     1
 90
       50
176
     1
 40
0.0
176
     1
 40
1.0
176
     1
 90
        0
176
     1
 62
    18
420
        0
176
     1
 90
       50
176
     1
 90
        3
176
     1
 62
     5
420
      255
176
     1
290
     0
176
     1
 90
       50
176
     1
 90
       50
176
     1
 90
       50
176
     1
290
     0
176
     1
 90
       50
176
     1
 62
   256
176
     0
 40
1.0
176
     0
 90
        2
176
     1
  1
strokes_ogs.tif
176
     1
290
     0
176
     1
 40
1.0
176
     1
 40
1.0
176
     1
  0
VISUALSTYLE
  5
505
102
{ACAD_REACTORS
330
3E2
102
}
330
3E2
100
AcDbVisualStyle
  2
JitterOff
 70
    20
177
     3
291
     1
 70
    58
 90
        2
176
     0
 90
        2
176
     0
 90
        0
176
     0
 90
        0
176
     0
 40
0.6
176
     0
 40
30.0
176
     0
 62
     7
420
 16777215
176
     0
 90
        1
176
     0
 90
        4
176
     0
 62
     7
176
     0
 62
   257
176
     0
 90
        1
176
     0
 90
        1
176
     0
 40
1.0
176
     0
 90
       10
176
     2
 62
     7
176
     0
 40
1.0
176
     0
 90
        1
176
     0
 90
        6
176
     0
 90
        2
176
     0
 62
     7
176
     0
 90
        5
176
     0
 90
        0
176
     0
 90
        0
176
     0
290
     0
176
     0
 90
        1
176
     0
 40
0.0
176
     0
 90
        0
176
     0
290
     0
176
     0
290
     1
176
     0
290
     1
176
     0
290
     0
176
     0
290
     0
176
     0
290
     0
176
     0
290
     0
176
     0
290
     0
176
     0
290
     0
176
     0
 90
       50
176
     0
 40
0.0
176
     0
 40
1.0
176
     0
 90
        0
176
     0
 62
    18
420
        0
176
     0
 90
       50
176
     0
 90
        3
176
     0
 62
     5
420
      255
176
     0
290
     0
176
     0
 90
       50
176
     0
 90
       50
176
     0
 90
       50
176
     0
290
     0
176
     0
 90
       50
176
     0
 62
   256
176
     0
 40
1.0
176
     0
 90
        2
176
     0
  1
strokes_ogs.tif
176
     0
290
     0
176
     0
 40
1.0
176
     0
 40
1.0
176
     0
  0
VISUALSTYLE
  5
3F0
102
{ACAD_REACTORS
330
3E2
102
}
330
3E2
100
AcDbVisualStyle
  2
Linepattern
 70
    14
177
     3
291
     1
 70
    58
 90
        2
176
     1
 90
        2
176
     1
 90
        0
176
     1
 90
        0
176
     1
 40
0.6
176
     1
 40
30.0
176
     1
 62
     7
420
 16777215
176
     1
 90
        1
176
     1
 90
        4
176
     1
 62
     7
176
     1
 62
   257
176
     1
 90
        7
176
     1
 90
        7
176
     1
 40
1.0
176
     1
 90
        8
176
     1
 62
     7
176
     1
 40
1.0
176
     1
 90
        1
176
     1
 90
        6
176
     1
 90
        2
176
     1
 62
     7
176
     1
 90
        5
176
     1
 90
        0
176
     1
 90
        0
176
     1
290
     0
176
     1
 90
        1
176
     1
 40
0.0
176
     1
 90
        0
176
     1
290
     0
176
     1
290
     1
176
     1
290
     1
176
     1
290
     0
176
     1
290
     0
176
     1
290
     0
176
     1
290
     0
176
     1
290
     0
176
     1
290
     0
176
     1
 90
       50
176
     1
 40
0.0
176
     1
 40
1.0
176
     1
 90
        0
176
     1
 62
    18
420
        0
176
     1
 90
       50
176
     1
 90
        3
176
     1
 62
     5
420
      255
176
     1
290
     0
176
     1
 90
       50
176
     1
 90
       50
176
     1
 90
       50
176
     1
290
     0
176
     1
 90
       50
176
     1
 62
   256
176
     0
 40
1.0
176
     0
 90
        2
176
     1
  1
strokes_ogs.tif
176
     1
290
     0
176
     1
 40
1.0
176
     1
 40
1.0
176
     1
  0
VISUALSTYLE
  5
506
102
{ACAD_REACTORS
330
3E2
102
}
330
3E2
100
AcDbVisualStyle
  2
OverhangOff
 70
    21
177
     3
291
     1
 70
    58
 90
        2
176
     0
 90
        2
176
     0
 90
        0
176
     0
 90
        0
176
     0
 40
0.6
176
     0
 40
30.0
176
     0
 62
     7
420
 16777215
176
     0
 90
        1
176
     0
 90
        4
176
     0
 62
     7
176
     0
 62
   257
176
     0
 90
        1
176
     0
 90
        1
176
     0
 40
1.0
176
     0
 90
        9
176
     2
 62
     7
176
     0
 40
1.0
176
     0
 90
        1
176
     0
 90
        6
176
     0
 90
        2
176
     0
 62
     7
176
     0
 90
        5
176
     0
 90
        0
176
     0
 90
        0
176
     0
290
     0
176
     0
 90
        1
176
     0
 40
0.0
176
     0
 90
        0
176
     0
290
     0
176
     0
290
     1
176
     0
290
     1
176
     0
290
     0
176
     0
290
     0
176
     0
290
     0
176
     0
290
     0
176
     0
290
     0
176
     0
290
     0
176
     0
 90
       50
176
     0
 40
0.0
176
     0
 40
1.0
176
     0
 90
        0
176
     0
 62
    18
420
        0
176
     0
 90
       50
176
     0
 90
        3
176
     0
 62
     5
420
      255
176
     0
290
     0
176
     0
 90
       50
176
     0
 90
       50
176
     0
 90
       50
176
     0
290
     0
176
     0
 90
       50
176
     0
 62
   256
176
     0
 40
1.0
176
     0
 90
        2
176
     0
  1
strokes_ogs.tif
176
     0
290
     0
176
     0
 40
1.0
176
     0
 40
1.0
176
     0
  0
VISUALSTYLE
  5
3EC
102
{ACAD_REACTORS
330
3E2
102
}
330
3E2
100
AcDbVisualStyle
  2
Realistic
 70
     8
177
     3
291
     0
 70
    58
 90
        2
176
     1
 90
        2
176
     1
 90
        0
176
     1
 90
        0
176
     1
 40
0.6
176
     1
 40
30.0
176
     1
 62
     7
420
 16777215
176
     1
 90
        1
176
     1
 90
        0
176
     1
 62
     7
176
     1
 62
   257
176
     1
 90
        1
176
     1
 90
        1
176
     1
 40
1.0
176
     1
 90
        8
176
     1
 62
     8
420
  7895160
176
     1
 40
1.0
176
     1
 90
        1
176
     1
 90
        6
176
     1
 90
        2
176
     1
 62
     7
176
     1
 90
        5
176
     1
 90
        0
176
     1
 90
        0
176
     1
290
     0
176
     1
 90
       13
176
     1
 40
0.0
176
     1
 90
        0
176
     1
290
     0
176
     1
290
     1
176
     1
290
     1
176
     1
290
     0
176
     1
290
     0
176
     1
290
     0
176
     1
290
     0
176
     1
290
     0
176
     1
290
     0
176
     1
 90
       50
176
     1
 40
0.0
176
     1
 40
1.0
176
     1
 90
        0
176
     1
 62
    18
420
        0
176
     1
 90
       50
176
     1
 90
        3
176
     1
 62
     5
420
      255
176
     1
290
     0
176
     1
 90
       50
176
     1
 90
       50
176
     1
 90
       50
176
     1
290
     0
176
     1
 90
       50
176
     1
 62
   256
176
     0
 40
1.0
176
     0
 90
        2
176
     1
  1
strokes_ogs.tif
176
     1
290
     0
176
     1
 40
1.0
176
     1
 40
1.0
176
     1
  0
VISUALSTYLE
  5
504
102
{ACAD_REACTORS
330
3E2
102
}
330
3E2
100
AcDbVisualStyle
  2
Shaded
 70
    27
177
     3
291
     0
 70
    58
 90
        2
176
     1
 90
        2
176
     1
 90
        1
176
     1
 90
        2
176
     1
 40
0.6
176
     1
 40
30.0
176
     1
 62
     7
420
 16777215
176
     1
 90
        0
176
     1
 90
        4
176
     1
 62
     7
176
     1
 62
   257
176
     1
 90
        1
176
     1
 90
        1
176
     1
 40
1.0
176
     1
 90
        8
176
     1
 62
   257
176
     1
 40
1.0
176
     1
 90
        1
176
     1
 90
        6
176
     1
 90
        2
176
     1
 62
     8
420
  7895160
176
     1
 90
        3
176
     1
 90
        0
176
     1
 90
        0
176
     1
290
     0
176
     1
 90
        5
176
     1
 40
0.0
176
     1
 90
        0
176
     1
290
     0
176
     1
290
     1
176
     1
290
     1
176
     1
290
     0
176
     1
290
     0
176
     1
290
     0
176
     1
290
     0
176
     1
290
     0
176
     1
290
     0
176
     1
 90
       50
176
     1
 40
0.0
176
     1
 40
1.0
176
     1
 90
        0
176
     1
 62
    18
420
        0
176
     1
 90
       50
176
     1
 90
        3
176
     1
 62
     5
420
      255
176
     1
290
     0
176
     1
 90
       50
176
     1
 90
       50
176
     1
 90
       50
176
     1
290
     0
176
     1
 90
       50
176
     1
 62
   256
176
     0
 40
1.0
176
     0
 90
        2
176
     1
  1
strokes_ogs.tif
176
     1
290
     0
176
     1
 40
1.0
176
     1
 40
1.0
176
     1
  0
VISUALSTYLE
  5
503
102
{ACAD_REACTORS
330
3E2
102
}
330
3E2
100
AcDbVisualStyle
  2
Shaded with edges
 70
    26
177
     3
291
     0
 70
    58
 90
        2
176
     1
 90
        2
176
     1
 90
        1
176
     1
 90
        2
176
     1
 40
0.6
176
     1
 40
30.0
176
     1
 62
     7
420
 16777215
176
     1
 90
        1
176
     1
 90
        2
176
     1
 62
     7
176
     1
 62
   257
176
     1
 90
        2
176
     1
 90
        1
176
     1
 40
1.0
176
     1
 90
        8
176
     1
 62
   257
176
     1
 40
1.0
176
     1
 90
        1
176
     1
 90
        6
176
     1
 90
        2
176
     1
 62
     7
176
     1
 90
        3
176
     1
 90
        0
176
     1
 90
        0
176
     1
290
     0
176
     1
 90
        5
176
     1
 40
0.0
176
     1
 90
        0
176
     1
290
     0
176
     1
290
     1
176
     1
290
     1
176
     1
290
     0
176
     1
290
     0
176
     1
290
     0
176
     1
290
     0
176
     1
290
     0
176
     1
290
     0
176
     1
 90
       50
176
     1
 40
0.0
176
     1
 40
1.0
176
     1
 90
        0
176
     1
 62
    18
420
        0
176
     1
 90
       50
176
     1
 90
        3
176
     1
 62
     5
420
      255
176
     1
290
     0
176
     1
 90
       50
176
     1
 90
       50
176
     1
 90
       50
176
     1
290
     0
176
     1
 90
       50
176
     1
 62
   256
176
     0
 40
1.0
176
     0
 90
        2
176
     1
  1
strokes_ogs.tif
176
     1
290
     0
176
     1
 40
1.0
176
     1
 40
1.0
176
     1
  0
VISUALSTYLE
  5
500
102
{ACAD_REACTORS
330
3E2
102
}
330
3E2
100
AcDbVisualStyle
  2
Shades of Gray
 70
    23
177
     3
291
     0
 70
    58
 90
        2
176
     1
 90
        2
176
     1
 90
        3
176
     1
 90
        0
176
     1
 40
0.6
176
     1
 40
30.0
176
     1
 62
     7
420
 16777215
176
     1
 90
        2
176
     1
 90
        2
176
     1
 62
     7
176
     1
 62
     7
176
     1
 90
        1
176
     1
 90
        1
176
     1
 40
40.0
176
     1
 90
        8
176
     1
 62
     7
176
     1
 40
1.0
176
     1
 90
        1
176
     1
 90
        6
176
     1
 90
        2
176
     1
 62
     7
176
     1
 90
        3
176
     1
 90
        0
176
     1
 90
        0
176
     1
290
     0
176
     1
 90
        1
176
     1
 40
0.0
176
     1
 90
        0
176
     1
290
     0
176
     1
290
     1
176
     1
290
     1
176
     1
290
     0
176
     1
290
     0
176
     1
290
     0
176
     1
290
     0
176
     1
290
     0
176
     1
290
     0
176
     1
 90
       50
176
     1
 40
0.0
176
     1
 40
1.0
176
     1
 90
        0
176
     1
 62
    18
420
        0
176
     1
 90
       50
176
     1
 90
        3
176
     1
 62
     5
420
      255
176
     1
290
     0
176
     1
 90
       50
176
     1
 90
       50
176
     1
 90
       50
176
     1
290
     0
176
     1
 90
       50
176
     1
 62
   256
176
     0
 40
1.0
176
     0
 90
        2
176
     1
  1
strokes_ogs.tif
176
     1
290
     0
176
     1
 40
1.0
176
     1
 40
1.0
176
     1
  0
VISUALSTYLE
  5
501
102
{ACAD_REACTORS
330
3E2
102
}
330
3E2
100
AcDbVisualStyle
  2
Sketchy
 70
    24
177
     3
291
     0
 70
    58
 90
        1
176
     1
 90
        2
176
     1
 90
        2
176
     1
 90
        0
176
     1
 40
0.6
176
     1
 40
30.0
176
     1
 62
     7
420
 16777215
176
     1
 90
        2
176
     1
 90
        2
176
     1
 62
     7
176
     1
 62
     7
176
     1
 90
        1
176
     1
 90
        1
176
     1
 40
40.0
176
     1
 90
       11
176
     1
 62
     7
176
     1
 40
1.0
176
     1
 90
        1
176
     1
 90
        6
176
     1
 90
        2
176
     1
 62
     7
176
     1
 90
        6
176
     1
 90
        0
176
     1
 90
        0
176
     1
290
     0
176
     1
 90
        1
176
     1
 40
0.0
176
     1
 90
        0
176
     1
290
     0
176
     1
290
     1
176
     1
290
     1
176
     1
290
     0
176
     1
290
     0
176
     1
290
     0
176
     1
290
     0
176
     1
290
     0
176
     1
290
     0
176
     1
 90
       50
176
     1
 40
0.0
176
     1
 40
1.0
176
     1
 90
        0
176
     1
 62
    18
420
        0
176
     1
 90
       50
176
     1
 90
        3
176
     1
 62
     5
420
      255
176
     1
290
     0
176
     1
 90
       50
176
     1
 90
       50
176
     1
 90
       50
176
     1
290
     0
176
     1
 90
       50
176
     1
 62
   256
176
     0
 40
1.0
176
     0
 90
        2
176
     1
  1
strokes_ogs.tif
176
     1
290
     0
176
     1
 40
1.0
176
     1
 40
1.0
176
     1
  0
VISUALSTYLE
  5
3EF
102
{ACAD_REACTORS
330
3E2
102
}
330
3E2
100
AcDbVisualStyle
  2
Thicken
 70
    13
177
     3
291
     1
 70
    58
 90
        2
176
     1
 90
        2
176
     1
 90
        0
176
     1
 90
        0
176
     1
 40
0.6
176
     1
 40
30.0
176
     1
 62
     7
420
 16777215
176
     1
 90
        1
176
     1
 90
        4
176
     1
 62
     7
176
     1
 62
   257
176
     1
 90
        1
176
     1
 90
        1
176
     1
 40
1.0
176
     1
 90
       12
176
     1
 62
     7
176
     1
 40
1.0
176
     1
 90
        1
176
     1
 90
        6
176
     1
 90
        2
176
     1
 62
     7
176
     1
 90
        5
176
     1
 90
        0
176
     1
 90
        0
176
     1
290
     0
176
     1
 90
        1
176
     1
 40
0.0
176
     1
 90
        0
176
     1
290
     0
176
     1
290
     1
176
     1
290
     1
176
     1
290
     0
176
     1
290
     0
176
     1
290
     0
176
     1
290
     0
176
     1
290
     0
176
     1
290
     0
176
     1
 90
       50
176
     1
 40
0.0
176
     1
 40
1.0
176
     1
 90
        0
176
     1
 62
    18
420
        0
176
     1
 90
       50
176
     1
 90
        3
176
     1
 62
     5
420
      255
176
     1
290
     0
176
     1
 90
       50
176
     1
 90
       50
176
     1
 90
       50
176
     1
290
     0
176
     1
 90
       50
176
     1
 62
   256
176
     0
 40
1.0
176
     0
 90
        2
176
     1
  1
strokes_ogs.tif
176
     1
290
     0
176
     1
 40
1.0
176
     1
 40
1.0
176
     1
  0
VISUALSTYLE
  5
4FE
102
{ACAD_REACTORS
330
3E2
102
}
330
3E2
100
AcDbVisualStyle
  2
Wireframe
 70
     5
177
     3
291
     0
 70
    58
 90
        0
176
     1
 90
        2
176
     1
 90
        0
176
     1
 90
        0
176
     1
 40
0.6
176
     1
 40
30.0
176
     1
 62
     7
420
 16777215
176
     1
 90
        1
176
     1
 90
        4
176
     1
 62
     7
176
     1
 62
   257
176
     1
 90
        1
176
     1
 90
        1
176
     1
 40
1.0
176
     1
 90
        0
176
     1
 62
   257
176
     1
 40
1.0
176
     1
 90
        1
176
     1
 90
        6
176
     1
 90
        2
176
     1
 62
     7
176
     1
 90
        3
176
     1
 90
        0
176
     1
 90
        0
176
     1
290
     0
176
     1
 90
        1
176
     1
 40
0.0
176
     1
 90
        0
176
     1
290
     0
176
     1
290
     1
176
     1
290
     1
176
     1
290
     0
176
     1
290
     0
176
     1
290
     0
176
     1
290
     0
176
     1
290
     0
176
     1
290
     0
176
     1
 90
       50
176
     1
 40
0.0
176
     1
 40
1.0
176
     1
 90
        0
176
     1
 62
    18
420
        0
176
     1
 90
       50
176
     1
 90
        3
176
     1
 62
     5
420
      255
176
     1
290
     0
176
     1
 90
       50
176
     1
 90
       50
176
     1
 90
       50
176
     1
290
     0
176
     1
 90
       50
176
     1
 62
   256
176
     0
 40
1.0
176
     0
 90
        2
176
     1
  1
strokes_ogs.tif
176
     1
290
     0
176
     1
 40
1.0
176
     1
 40
1.0
176
     1
  0
VISUALSTYLE
  5
502
102
{ACAD_REACTORS
330
3E2
102
}
330
3E2
100
AcDbVisualStyle
  2
X-Ray
 70
    25
177
     3
291
     0
 70
    58
 90
        2
176
     1
 90
        2
176
     1
 90
        1
176
     1
 90
        1
176
     1
 40
0.5
176
     1
 40
30.0
176
     1
 62
     7
420
 16777215
176
     1
 90
        1
176
     1
 90
        0
176
     1
 62
     7
176
     1
 62
   257
176
     1
 90
        1
176
     1
 90
        1
176
     1
 40
1.0
176
     1
 90
        8
176
     1
 62
     7
176
     1
 40
1.0
176
     1
 90
        1
176
     1
 90
        6
176
     1
 90
        2
176
     1
 62
     7
176
     1
 90
        3
176
     1
 90
        0
176
     1
 90
        0
176
     1
290
     0
176
     1
 90
       13
176
     1
 40
0.0
176
     1
 90
        0
176
     1
290
     0
176
     1
290
     1
176
     1
290
     1
176
     1
290
     0
176
     1
290
     0
176
     1
290
     0
176
     1
290
     0
176
     1
290
     0
176
     1
290
     0
176
     1
 90
       50
176
     1
 40
0.0
176
     1
 40
1.0
176
     1
 90
        0
176
     1
 62
    18
420
        0
176
     1
 90
       50
176
     1
 90
        3
176
     1
 62
     5
420
      255
176
     1
290
     0
176
     1
 90
       50
176
     1
 90
       50
176
     1
 90
       50
176
     1
290
     0
176
     1
 90
       50
176
     1
 62
   256
176
     0
 40
1.0
176
     0
 90
        2
176
     1
  1
strokes_ogs.tif
176
     1
290
     0
176
     1
 40
1.0
176
     1
 40
1.0
176
     1
  0
DICTIONARYVAR
  5
4F9
102
{ACAD_REACTORS
330
3C5
102
}
330
3C5
100
DictionaryVariables
280
     0
  1
1:1
  0
DICTIONARYVAR
  5
4F7
102
{ACAD_REACTORS
330
3C5
102
}
330
3C5
100
DictionaryVariables
280
     0
  1
STANDARD
  0
DICTIONARYVAR
  5
3C6
102
{ACAD_REACTORS
330
3C5
102
}
330
3C5
100
DictionaryVariables
280
     0
  1
STANDARD
  0
DICTIONARYVAR
  5
585
102
{ACAD_REACTORS
330
3C5
102
}
330
3C5
100
DictionaryVariables
280
     0
  1
Imperial24
  0
DICTIONARYVAR
  5
586
102
{ACAD_REACTORS
330
3C5
102
}
330
3C5
100
DictionaryVariables
280
     0
  1
Imperial24
  0
DICTIONARYVAR
  5
4FB
102
{ACAD_REACTORS
330
3C5
102
}
330
3C5
100
DictionaryVariables
280
     0
  1
1
  0
DICTIONARYVAR
  5
4FC
102
{ACAD_REACTORS
330
3C5
102
}
330
3C5
100
DictionaryVariables
280
     0
  1
15
  0
DICTIONARYVAR
  5
4FA
102
{ACAD_REACTORS
330
3C5
102
}
330
3C5
100
DictionaryVariables
280
     0
  1
0
  0
DICTIONARYVAR
  5
4F8
102
{ACAD_REACTORS
330
3C5
102
}
330
3C5
100
DictionaryVariables
280
     0
  1
0
  0
DICTIONARY
  5
492
102
{ACAD_REACTORS
330
485
102
}
330
485
100
AcDbDictionary
281
     1
  0
DICTIONARY
  5
58A
330
50B
100
AcDbDictionary
280
     1
281
     1
  3
ACAD_XREC_ROUNDTRIP
360
58B
  0
DICTIONARY
  5
3D3
330
3D2
100
AcDbDictionary
280
     1
281
     1
  3
BUMPTILE
360
3D5
  3
DIFFUSETILE
360
3D4
  3
OPACITYTILE
360
3D8
  3
REFLECTIONTILE
360
3D7
  3
REFRACTIONTILE
360
3D9
  3
SPECULARTILE
360
3D6
  0
DICTIONARY
  5
3CB
330
3CA
100
AcDbDictionary
280
     1
281
     1
  3
BUMPTILE
360
3CD
  3
DIFFUSETILE
360
3CC
  3
OPACITYTILE
360
3D0
  3
REFLECTIONTILE
360
3CF
  3
REFRACTIONTILE
360
3D1
  3
SPECULARTILE
360
3CE
  0
DICTIONARY
  5
3DB
330
3DA
100
AcDbDictionary
280
     1
281
     1
  3
BUMPTILE
360
3DD
  3
DIFFUSETILE
360
3DC
  3
OPACITYTILE
360
3E0
  3
REFLECTIONTILE
360
3DF
  3
REFRACTIONTILE
360
3E1
  3
SPECULARTILE
360
3DE
  0
DICTIONARY
  5
588
330
509
100
AcDbDictionary
280
     1
281
     1
  3
ACAD_XREC_ROUNDTRIP
360
589
  0
DICTIONARY
  5
4F4
330
30D
100
AcDbDictionary
280
     1
281
     1
  3
ACAD_ROUNDTRIP_2008_TABLESTYLE_CELLSTYLEMAP
360
587
  0
XRECORD
  5
58B
102
{ACAD_REACTORS
330
58A
102
}
330
58A
100
AcDbXrecord
280
     1
102
DISPLAYNAME
  1
Imperial24
102
FLAGS
 90
        0
  0
XRECORD
  5
3D5
102
{ACAD_REACTORS
330
3D3
102
}
330
3D3
100
AcDbXrecord
280
     1
270
     1
271
     1
  0
XRECORD
  5
3D4
102
{ACAD_REACTORS
330
3D3
102
}
330
3D3
100
AcDbXrecord
280
     1
270
     1
271
     1
  0
XRECORD
  5
3D8
102
{ACAD_REACTORS
330
3D3
102
}
330
3D3
100
AcDbXrecord
280
     1
270
     1
271
     1
  0
XRECORD
  5
3D7
102
{ACAD_REACTORS
330
3D3
102
}
330
3D3
100
AcDbXrecord
280
     1
270
     1
271
     1
  0
XRECORD
  5
3D9
102
{ACAD_REACTORS
330
3D3
102
}
330
3D3
100
AcDbXrecord
280
     1
270
     1
271
     1
  0
XRECORD
  5
3D6
102
{ACAD_REACTORS
330
3D3
102
}
330
3D3
100
AcDbXrecord
280
     1
270
     1
271
     1
  0
XRECORD
  5
3CD
102
{ACAD_REACTORS
330
3CB
102
}
330
3CB
100
AcDbXrecord
280
     1
270
     1
271
     1
  0
XRECORD
  5
3CC
102
{ACAD_REACTORS
330
3CB
102
}
330
3CB
100
AcDbXrecord
280
     1
270
     1
271
     1
  0
XRECORD
  5
3D0
102
{ACAD_REACTORS
330
3CB
102
}
330
3CB
100
AcDbXrecord
280
     1
270
     1
271
     1
  0
XRECORD
  5
3CF
102
{ACAD_REACTORS
330
3CB
102
}
330
3CB
100
AcDbXrecord
280
     1
270
     1
271
     1
  0
XRECORD
  5
3D1
102
{ACAD_REACTORS
330
3CB
102
}
330
3CB
100
AcDbXrecord
280
     1
270
     1
271
     1
  0
XRECORD
  5
3CE
102
{ACAD_REACTORS
330
3CB
102
}
330
3CB
100
AcDbXrecord
280
     1
270
     1
271
     1
  0
XRECORD
  5
3DD
102
{ACAD_REACTORS
330
3DB
102
}
330
3DB
100
AcDbXrecord
280
     1
270
     1
271
     1
  0
XRECORD
  5
3DC
102
{ACAD_REACTORS
330
3DB
102
}
330
3DB
100
AcDbXrecord
280
     1
270
     1
271
     1
  0
XRECORD
  5
3E0
102
{ACAD_REACTORS
330
3DB
102
}
330
3DB
100
AcDbXrecord
280
     1
270
     1
271
     1
  0
XRECORD
  5
3DF
102
{ACAD_REACTORS
330
3DB
102
}
330
3DB
100
AcDbXrecord
280
     1
270
     1
271
     1
  0
XRECORD
  5
3E1
102
{ACAD_REACTORS
330
3DB
102
}
330
3DB
100
AcDbXrecord
280
     1
270
     1
271
     1
  0
XRECORD
  5
3DE
102
{ACAD_REACTORS
330
3DB
102
}
330
3DB
100
AcDbXrecord
280
     1
270
     1
271
     1
  0
XRECORD
  5
589
102
{ACAD_REACTORS
330
588
102
}
330
588
100
AcDbXrecord
280
     1
102
DISPLAYNAME
  1
Imperial24
102
FLAGS
 90
        0
  0
CELLSTYLEMAP
  5
587
102
{ACAD_REACTORS
330
4F4
102
}
330
4F4
100
AcDbCellStyleMap
 90
        3
300
CELLSTYLE
  1
TABLEFORMAT_BEGIN
 90
        5
170
     1
 91
        0
 92
    32768
 62
   257
 93
        1
300
CONTENTFORMAT
  1
CONTENTFORMAT_BEGIN
 90
        0
 91
        0
 92
        4
 93
        0
300

 40
0.0
140
1.0
 94
        5
 62
     0
340
5F
144
0.25
309
CONTENTFORMAT_END
171
     0
 94
        6
 95
        1
302
GRIDFORMAT
  1
GRIDFORMAT_BEGIN
 90
        0
 91
        1
 62
     0
 92
       -2
340
0
 93
        0
 40
0.045
309
GRIDFORMAT_END
 95
        2
302
GRIDFORMAT
  1
GRIDFORMAT_BEGIN
 90
        0
 91
        1
 62
     0
 92
       -2
340
0
 93
        0
 40
0.045
309
GRIDFORMAT_END
 95
        4
302
GRIDFORMAT
  1
GRIDFORMAT_BEGIN
 90
        0
 91
        1
 62
     0
 92
       -2
340
0
 93
        0
 40
0.045
309
GRIDFORMAT_END
 95
        8
302
GRIDFORMAT
  1
GRIDFORMAT_BEGIN
 90
        0
 91
        1
 62
     0
 92
       -2
340
0
 93
        0
 40
0.045
309
GRIDFORMAT_END
 95
       16
302
GRIDFORMAT
  1
GRIDFORMAT_BEGIN
 90
        0
 91
        1
 62
     0
 92
       -2
340
0
 93
        0
 40
0.045
309
GRIDFORMAT_END
 95
       32
302
GRIDFORMAT
  1
GRIDFORMAT_BEGIN
 90
        0
 91
        1
 62
     0
 92
       -2
340
0
 93
        0
 40
0.045
309
GRIDFORMAT_END
309
TABLEFORMAT_END
  1
CELLSTYLE_BEGIN
 90
        1
 91
        1
300
_TITLE
309
CELLSTYLE_END
300
CELLSTYLE
  1
TABLEFORMAT_BEGIN
 90
        5
170
     1
 91
        0
 92
        0
 62
   257
 93
        1
300
CONTENTFORMAT
  1
CONTENTFORMAT_BEGIN
 90
        0
 91
        0
 92
        4
 93
        0
300

 40
0.0
140
1.0
 94
        5
 62
     0
340
5F
144
0.18
309
CONTENTFORMAT_END
171
     0
 94
        6
 95
        1
302
GRIDFORMAT
  1
GRIDFORMAT_BEGIN
 90
        0
 91
        1
 62
     0
 92
       -2
340
0
 93
        0
 40
0.045
309
GRIDFORMAT_END
 95
        2
302
GRIDFORMAT
  1
GRIDFORMAT_BEGIN
 90
        0
 91
        1
 62
     0
 92
       -2
340
0
 93
        0
 40
0.045
309
GRIDFORMAT_END
 95
        4
302
GRIDFORMAT
  1
GRIDFORMAT_BEGIN
 90
        0
 91
        1
 62
     0
 92
       -2
340
0
 93
        0
 40
0.045
309
GRIDFORMAT_END
 95
        8
302
GRIDFORMAT
  1
GRIDFORMAT_BEGIN
 90
        0
 91
        1
 62
     0
 92
       -2
340
0
 93
        0
 40
0.045
309
GRIDFORMAT_END
 95
       16
302
GRIDFORMAT
  1
GRIDFORMAT_BEGIN
 90
        0
 91
        1
 62
     0
 92
       -2
340
0
 93
        0
 40
0.045
309
GRIDFORMAT_END
 95
       32
302
GRIDFORMAT
  1
GRIDFORMAT_BEGIN
 90
        0
 91
        1
 62
     0
 92
       -2
340
0
 93
        0
 40
0.045
309
GRIDFORMAT_END
309
TABLEFORMAT_END
  1
CELLSTYLE_BEGIN
 90
        2
 91
        1
300
_HEADER
309
CELLSTYLE_END
300
CELLSTYLE
  1
TABLEFORMAT_BEGIN
 90
        5
170
     1
 91
        0
 92
        0
 62
   257
 93
        1
300
CONTENTFORMAT
  1
CONTENTFORMAT_BEGIN
 90
        0
 91
        0
 92
        4
 93
        0
300

 40
0.0
140
1.0
 94
        2
 62
     0
340
5F
144
0.18
309
CONTENTFORMAT_END
171
     0
 94
        6
 95
        1
302
GRIDFORMAT
  1
GRIDFORMAT_BEGIN
 90
        0
 91
        1
 62
     0
 92
       -2
340
0
 93
        0
 40
0.045
309
GRIDFORMAT_END
 95
        2
302
GRIDFORMAT
  1
GRIDFORMAT_BEGIN
 90
        0
 91
        1
 62
     0
 92
       -2
340
0
 93
        0
 40
0.045
309
GRIDFORMAT_END
 95
        4
302
GRIDFORMAT
  1
GRIDFORMAT_BEGIN
 90
        0
 91
        1
 62
     0
 92
       -2
340
0
 93
        0
 40
0.045
309
GRIDFORMAT_END
 95
        8
302
GRIDFORMAT
  1
GRIDFORMAT_BEGIN
 90
        0
 91
        1
 62
     0
 92
       -2
340
0
 93
        0
 40
0.045
309
GRIDFORMAT_END
 95
       16
302
GRIDFORMAT
  1
GRIDFORMAT_BEGIN
 90
        0
 91
        1
 62
     0
 92
       -2
340
0
 93
        0
 40
0.045
309
GRIDFORMAT_END
 95
       32
302
GRIDFORMAT
  1
GRIDFORMAT_BEGIN
 90
        0
 91
        1
 62
     0
 92
       -2
340
0
 93
        0
 40
0.045
309
GRIDFORMAT_END
309
TABLEFORMAT_END
  1
CELLSTYLE_BEGIN
 90
        3
 91
        2
300
_DATA
309
CELLSTYLE_END
  0
ENDSEC
  0
EOF
